osu file format v14

[General]
AudioFilename: yuta.mp3
AudioLeadIn: 0
PreviewTime: 64130
Countdown: 0
SampleSet: None
StackLeniency: 0.7
Mode: 3
LetterboxInBreaks: 0
SpecialStyle: 0
WidescreenStoryboard: 1

[Editor]
DistanceSpacing: 1.4
BeatDivisor: 4
GridSize: 4
TimelineZoom: 1.4

[Metadata]
Title:Fullbracket Pack
TitleUnicode:Fullbracket Pack
Artist:Various Artists
ArtistUnicode:Various Artists
Creator:X_Devil
Version:10K 120 bpm [Yu^ta]
Source:
Tags:Fullbracket bracket 7k 10k
BeatmapID:2080529
BeatmapSetID:994817

[Difficulty]
HPDrainRate:5
CircleSize:10
OverallDifficulty:10
ApproachRate:5
SliderMultiplier:1.4
SliderTickRate:1

[Events]
//Background and Video events
0,0,"yuta.png",0,0
//Break Periods
//Storyboard Layer 0 (Background)
//Storyboard Layer 1 (Fail)
//Storyboard Layer 2 (Pass)
//Storyboard Layer 3 (Foreground)
//Storyboard Sound Samples

[TimingPoints]
130,500,4,1,0,15,1,0

[HitObjects]
36,192,130,5,0,0:0:0:0:
435,192,130,1,0,0:0:0:0:
230,192,130,1,0,0:0:0:0:
332,192,130,1,0,0:0:0:0:
128,192,130,1,0,0:0:0:0:
384,192,380,1,0,0:0:0:0:
486,192,380,1,0,0:0:0:0:
281,192,380,1,0,0:0:0:0:
179,192,380,1,0,0:0:0:0:
76,192,380,1,0,0:0:0:0:
36,192,630,1,0,0:0:0:0:
435,192,630,1,0,0:0:0:0:
230,192,630,1,0,0:0:0:0:
332,192,630,1,0,0:0:0:0:
128,192,630,1,0,0:0:0:0:
384,192,880,1,0,0:0:0:0:
486,192,880,1,0,0:0:0:0:
281,192,880,1,0,0:0:0:0:
179,192,880,1,0,0:0:0:0:
76,192,880,1,0,0:0:0:0:
435,192,1130,1,0,0:0:0:0:
230,192,1130,1,0,0:0:0:0:
36,192,1130,1,0,0:0:0:0:
332,192,1130,1,0,0:0:0:0:
128,192,1130,1,0,0:0:0:0:
384,192,1380,1,0,0:0:0:0:
486,192,1380,1,0,0:0:0:0:
281,192,1380,1,0,0:0:0:0:
179,192,1380,1,0,0:0:0:0:
76,192,1380,1,0,0:0:0:0:
435,192,1630,1,0,0:0:0:0:
332,192,1630,1,0,0:0:0:0:
36,192,1630,1,0,0:0:0:0:
230,192,1630,1,0,0:0:0:0:
128,192,1630,1,0,0:0:0:0:
384,192,1880,1,0,0:0:0:0:
486,192,1880,1,0,0:0:0:0:
281,192,1880,1,0,0:0:0:0:
179,192,1880,1,0,0:0:0:0:
76,192,1880,1,0,0:0:0:0:
36,192,2130,1,0,0:0:0:0:
332,192,2130,1,0,0:0:0:0:
435,192,2130,1,0,0:0:0:0:
230,192,2130,1,0,0:0:0:0:
128,192,2130,1,0,0:0:0:0:
281,192,2380,1,0,0:0:0:0:
486,192,2380,1,0,0:0:0:0:
384,192,2380,1,0,0:0:0:0:
76,192,2380,1,0,0:0:0:0:
179,192,2380,1,0,0:0:0:0:
36,192,2630,1,0,0:0:0:0:
230,192,2630,1,0,0:0:0:0:
435,192,2630,1,0,0:0:0:0:
332,192,2630,1,0,0:0:0:0:
128,192,2630,1,0,0:0:0:0:
281,192,2880,1,0,0:0:0:0:
486,192,2880,1,0,0:0:0:0:
384,192,2880,1,0,0:0:0:0:
76,192,2880,1,0,0:0:0:0:
179,192,2880,1,0,0:0:0:0:
435,192,3130,1,0,0:0:0:0:
230,192,3130,1,0,0:0:0:0:
36,192,3130,1,0,0:0:0:0:
332,192,3130,1,0,0:0:0:0:
128,192,3130,1,0,0:0:0:0:
384,192,3255,1,0,0:0:0:0:
486,192,3255,1,0,0:0:0:0:
281,192,3255,1,0,0:0:0:0:
179,192,3255,1,0,0:0:0:0:
76,192,3255,1,0,0:0:0:0:
384,192,3505,1,0,0:0:0:0:
486,192,3505,1,0,0:0:0:0:
281,192,3505,1,0,0:0:0:0:
179,192,3505,1,0,0:0:0:0:
76,192,3505,1,0,0:0:0:0:
36,192,3755,1,0,0:0:0:0:
435,192,3755,1,0,0:0:0:0:
230,192,3755,1,0,0:0:0:0:
332,192,3755,1,0,0:0:0:0:
128,192,3755,1,0,0:0:0:0:
384,192,4005,1,0,0:0:0:0:
486,192,4005,1,0,0:0:0:0:
281,192,4005,1,0,0:0:0:0:
179,192,4005,1,0,0:0:0:0:
76,192,4005,1,0,0:0:0:0:
36,192,4130,1,0,0:0:0:0:
435,192,4130,1,0,0:0:0:0:
230,192,4130,1,0,0:0:0:0:
332,192,4130,1,0,0:0:0:0:
128,192,4130,1,0,0:0:0:0:
384,192,4380,1,0,0:0:0:0:
486,192,4380,1,0,0:0:0:0:
281,192,4380,1,0,0:0:0:0:
179,192,4380,1,0,0:0:0:0:
76,192,4380,1,0,0:0:0:0:
36,192,4630,1,0,0:0:0:0:
435,192,4630,1,0,0:0:0:0:
230,192,4630,1,0,0:0:0:0:
332,192,4630,1,0,0:0:0:0:
128,192,4630,1,0,0:0:0:0:
384,192,4880,1,0,0:0:0:0:
486,192,4880,1,0,0:0:0:0:
281,192,4880,1,0,0:0:0:0:
179,192,4880,1,0,0:0:0:0:
76,192,4880,1,0,0:0:0:0:
435,192,5130,1,0,0:0:0:0:
230,192,5130,1,0,0:0:0:0:
36,192,5130,1,0,0:0:0:0:
332,192,5130,1,0,0:0:0:0:
128,192,5130,1,0,0:0:0:0:
384,192,5380,1,0,0:0:0:0:
486,192,5380,1,0,0:0:0:0:
281,192,5380,1,0,0:0:0:0:
179,192,5380,1,0,0:0:0:0:
76,192,5380,1,0,0:0:0:0:
435,192,5630,1,0,0:0:0:0:
332,192,5630,1,0,0:0:0:0:
36,192,5630,1,0,0:0:0:0:
230,192,5630,1,0,0:0:0:0:
128,192,5630,1,0,0:0:0:0:
384,192,5880,1,0,0:0:0:0:
486,192,5880,1,0,0:0:0:0:
281,192,5880,1,0,0:0:0:0:
179,192,5880,1,0,0:0:0:0:
76,192,5880,1,0,0:0:0:0:
36,192,6130,1,0,0:0:0:0:
332,192,6130,1,0,0:0:0:0:
435,192,6130,1,0,0:0:0:0:
230,192,6130,1,0,0:0:0:0:
128,192,6130,1,0,0:0:0:0:
281,192,6380,1,0,0:0:0:0:
486,192,6380,1,0,0:0:0:0:
384,192,6380,1,0,0:0:0:0:
76,192,6380,1,0,0:0:0:0:
179,192,6380,1,0,0:0:0:0:
36,192,6630,1,0,0:0:0:0:
230,192,6630,1,0,0:0:0:0:
435,192,6630,1,0,0:0:0:0:
332,192,6630,1,0,0:0:0:0:
128,192,6630,1,0,0:0:0:0:
281,192,6880,1,0,0:0:0:0:
486,192,6880,1,0,0:0:0:0:
384,192,6880,1,0,0:0:0:0:
76,192,6880,1,0,0:0:0:0:
179,192,6880,1,0,0:0:0:0:
435,192,7130,1,0,0:0:0:0:
230,192,7130,1,0,0:0:0:0:
36,192,7130,1,0,0:0:0:0:
332,192,7130,1,0,0:0:0:0:
128,192,7130,1,0,0:0:0:0:
384,192,7255,1,0,0:0:0:0:
486,192,7255,1,0,0:0:0:0:
281,192,7255,1,0,0:0:0:0:
179,192,7255,1,0,0:0:0:0:
76,192,7255,1,0,0:0:0:0:
384,192,7505,1,0,0:0:0:0:
486,192,7505,1,0,0:0:0:0:
281,192,7505,1,0,0:0:0:0:
179,192,7505,1,0,0:0:0:0:
76,192,7505,1,0,0:0:0:0:
36,192,7755,1,0,0:0:0:0:
435,192,7755,1,0,0:0:0:0:
230,192,7755,1,0,0:0:0:0:
332,192,7755,1,0,0:0:0:0:
128,192,7755,1,0,0:0:0:0:
384,192,8005,1,0,0:0:0:0:
486,192,8005,1,0,0:0:0:0:
281,192,8005,1,0,0:0:0:0:
179,192,8005,1,0,0:0:0:0:
76,192,8005,1,0,0:0:0:0:
230,192,8130,1,0,0:0:0:0:
332,192,8130,1,0,0:0:0:0:
36,192,8130,1,0,0:0:0:0:
435,192,8130,1,0,0:0:0:0:
128,192,8130,1,0,0:0:0:0:
281,192,8380,1,0,0:0:0:0:
486,192,8380,1,0,0:0:0:0:
384,192,8380,1,0,0:0:0:0:
76,192,8380,1,0,0:0:0:0:
179,192,8380,1,0,0:0:0:0:
230,192,8630,1,0,0:0:0:0:
332,192,8630,1,0,0:0:0:0:
36,192,8630,1,0,0:0:0:0:
435,192,8630,1,0,0:0:0:0:
128,192,8630,1,0,0:0:0:0:
281,192,8880,1,0,0:0:0:0:
486,192,8880,1,0,0:0:0:0:
384,192,8880,1,0,0:0:0:0:
76,192,8880,1,0,0:0:0:0:
179,192,8880,1,0,0:0:0:0:
36,192,9130,1,0,0:0:0:0:
332,192,9130,1,0,0:0:0:0:
435,192,9130,1,0,0:0:0:0:
230,192,9130,1,0,0:0:0:0:
128,192,9130,1,0,0:0:0:0:
281,192,9380,1,0,0:0:0:0:
486,192,9380,1,0,0:0:0:0:
384,192,9380,1,0,0:0:0:0:
76,192,9380,1,0,0:0:0:0:
179,192,9380,1,0,0:0:0:0:
36,192,9630,1,0,0:0:0:0:
230,192,9630,1,0,0:0:0:0:
435,192,9630,1,0,0:0:0:0:
332,192,9630,1,0,0:0:0:0:
128,192,9630,1,0,0:0:0:0:
281,192,9880,1,0,0:0:0:0:
486,192,9880,1,0,0:0:0:0:
384,192,9880,1,0,0:0:0:0:
76,192,9880,1,0,0:0:0:0:
179,192,9880,1,0,0:0:0:0:
435,192,10130,1,0,0:0:0:0:
230,192,10130,1,0,0:0:0:0:
36,192,10130,1,0,0:0:0:0:
332,192,10130,1,0,0:0:0:0:
128,192,10130,1,0,0:0:0:0:
384,192,10380,1,0,0:0:0:0:
486,192,10380,1,0,0:0:0:0:
281,192,10380,1,0,0:0:0:0:
179,192,10380,1,0,0:0:0:0:
76,192,10380,1,0,0:0:0:0:
435,192,10630,1,0,0:0:0:0:
332,192,10630,1,0,0:0:0:0:
36,192,10630,1,0,0:0:0:0:
230,192,10630,1,0,0:0:0:0:
128,192,10630,1,0,0:0:0:0:
384,192,10880,1,0,0:0:0:0:
486,192,10880,1,0,0:0:0:0:
281,192,10880,1,0,0:0:0:0:
179,192,10880,1,0,0:0:0:0:
76,192,10880,1,0,0:0:0:0:
36,192,11130,1,0,0:0:0:0:
332,192,11130,1,0,0:0:0:0:
435,192,11130,1,0,0:0:0:0:
230,192,11130,1,0,0:0:0:0:
128,192,11130,1,0,0:0:0:0:
281,192,11255,1,0,0:0:0:0:
486,192,11255,1,0,0:0:0:0:
384,192,11255,1,0,0:0:0:0:
76,192,11255,1,0,0:0:0:0:
179,192,11255,1,0,0:0:0:0:
281,192,11505,1,0,0:0:0:0:
486,192,11505,1,0,0:0:0:0:
384,192,11505,1,0,0:0:0:0:
76,192,11505,1,0,0:0:0:0:
179,192,11505,1,0,0:0:0:0:
230,192,11755,1,0,0:0:0:0:
332,192,11755,1,0,0:0:0:0:
36,192,11755,1,0,0:0:0:0:
435,192,11755,1,0,0:0:0:0:
128,192,11755,1,0,0:0:0:0:
281,192,12005,1,0,0:0:0:0:
486,192,12005,1,0,0:0:0:0:
384,192,12005,1,0,0:0:0:0:
76,192,12005,1,0,0:0:0:0:
179,192,12005,1,0,0:0:0:0:
36,192,12130,1,0,0:0:0:0:
435,192,12130,1,0,0:0:0:0:
230,192,12130,1,0,0:0:0:0:
332,192,12130,1,0,0:0:0:0:
128,192,12130,1,0,0:0:0:0:
384,192,12380,1,0,0:0:0:0:
486,192,12380,1,0,0:0:0:0:
281,192,12380,1,0,0:0:0:0:
179,192,12380,1,0,0:0:0:0:
76,192,12380,1,0,0:0:0:0:
36,192,12630,1,0,0:0:0:0:
435,192,12630,1,0,0:0:0:0:
230,192,12630,1,0,0:0:0:0:
332,192,12630,1,0,0:0:0:0:
128,192,12630,1,0,0:0:0:0:
384,192,12880,1,0,0:0:0:0:
486,192,12880,1,0,0:0:0:0:
281,192,12880,1,0,0:0:0:0:
179,192,12880,1,0,0:0:0:0:
76,192,12880,1,0,0:0:0:0:
435,192,13130,1,0,0:0:0:0:
230,192,13130,1,0,0:0:0:0:
36,192,13130,1,0,0:0:0:0:
332,192,13130,1,0,0:0:0:0:
128,192,13130,1,0,0:0:0:0:
384,192,13380,1,0,0:0:0:0:
486,192,13380,1,0,0:0:0:0:
281,192,13380,1,0,0:0:0:0:
179,192,13380,1,0,0:0:0:0:
76,192,13380,1,0,0:0:0:0:
435,192,13630,1,0,0:0:0:0:
332,192,13630,1,0,0:0:0:0:
36,192,13630,1,0,0:0:0:0:
230,192,13630,1,0,0:0:0:0:
128,192,13630,1,0,0:0:0:0:
384,192,13880,1,0,0:0:0:0:
486,192,13880,1,0,0:0:0:0:
281,192,13880,1,0,0:0:0:0:
179,192,13880,1,0,0:0:0:0:
76,192,13880,1,0,0:0:0:0:
36,192,14130,1,0,0:0:0:0:
332,192,14130,1,0,0:0:0:0:
435,192,14130,1,0,0:0:0:0:
230,192,14130,1,0,0:0:0:0:
128,192,14130,1,0,0:0:0:0:
281,192,14380,1,0,0:0:0:0:
486,192,14380,1,0,0:0:0:0:
384,192,14380,1,0,0:0:0:0:
76,192,14380,1,0,0:0:0:0:
179,192,14380,1,0,0:0:0:0:
36,192,14630,1,0,0:0:0:0:
230,192,14630,1,0,0:0:0:0:
435,192,14630,1,0,0:0:0:0:
332,192,14630,1,0,0:0:0:0:
128,192,14630,1,0,0:0:0:0:
281,192,14880,1,0,0:0:0:0:
486,192,14880,1,0,0:0:0:0:
384,192,14880,1,0,0:0:0:0:
76,192,14880,1,0,0:0:0:0:
179,192,14880,1,0,0:0:0:0:
435,192,15130,1,0,0:0:0:0:
230,192,15130,1,0,0:0:0:0:
36,192,15130,1,0,0:0:0:0:
332,192,15130,1,0,0:0:0:0:
128,192,15130,1,0,0:0:0:0:
384,192,15255,1,0,0:0:0:0:
486,192,15255,1,0,0:0:0:0:
281,192,15255,1,0,0:0:0:0:
179,192,15255,1,0,0:0:0:0:
76,192,15255,1,0,0:0:0:0:
384,192,15505,1,0,0:0:0:0:
486,192,15505,1,0,0:0:0:0:
281,192,15505,1,0,0:0:0:0:
179,192,15505,1,0,0:0:0:0:
76,192,15505,1,0,0:0:0:0:
36,192,15755,1,0,0:0:0:0:
435,192,15755,1,0,0:0:0:0:
230,192,15755,1,0,0:0:0:0:
332,192,15755,1,0,0:0:0:0:
128,192,15755,1,0,0:0:0:0:
384,192,16005,1,0,0:0:0:0:
486,192,16005,1,0,0:0:0:0:
281,192,16005,1,0,0:0:0:0:
179,192,16005,1,0,0:0:0:0:
76,192,16005,1,0,0:0:0:0:
36,192,16130,1,0,0:0:0:0:
435,192,16130,1,0,0:0:0:0:
230,192,16130,1,0,0:0:0:0:
332,192,16130,1,0,0:0:0:0:
128,192,16130,1,0,0:0:0:0:
384,192,16255,1,0,0:0:0:0:
486,192,16255,1,0,0:0:0:0:
281,192,16255,1,0,0:0:0:0:
179,192,16255,1,0,0:0:0:0:
76,192,16255,1,0,0:0:0:0:
36,192,16380,1,0,0:0:0:0:
435,192,16380,1,0,0:0:0:0:
230,192,16380,1,0,0:0:0:0:
332,192,16380,1,0,0:0:0:0:
128,192,16380,1,0,0:0:0:0:
384,192,16505,1,0,0:0:0:0:
486,192,16505,1,0,0:0:0:0:
281,192,16505,1,0,0:0:0:0:
179,192,16505,1,0,0:0:0:0:
76,192,16505,1,0,0:0:0:0:
36,192,16630,1,0,0:0:0:0:
230,192,16630,1,0,0:0:0:0:
435,192,16630,1,0,0:0:0:0:
332,192,16630,1,0,0:0:0:0:
128,192,16630,1,0,0:0:0:0:
281,192,16755,1,0,0:0:0:0:
486,192,16755,1,0,0:0:0:0:
384,192,16755,1,0,0:0:0:0:
76,192,16755,1,0,0:0:0:0:
179,192,16755,1,0,0:0:0:0:
230,192,16880,1,0,0:0:0:0:
435,192,16880,1,0,0:0:0:0:
36,192,16880,1,0,0:0:0:0:
332,192,16880,1,0,0:0:0:0:
128,192,16880,1,0,0:0:0:0:
384,192,17005,1,0,0:0:0:0:
281,192,17005,1,0,0:0:0:0:
486,192,17005,1,0,0:0:0:0:
179,192,17005,1,0,0:0:0:0:
76,192,17005,1,0,0:0:0:0:
435,192,17130,1,0,0:0:0:0:
332,192,17130,1,0,0:0:0:0:
36,192,17130,1,0,0:0:0:0:
230,192,17130,1,0,0:0:0:0:
128,192,17130,1,0,0:0:0:0:
384,192,17255,1,0,0:0:0:0:
486,192,17255,1,0,0:0:0:0:
281,192,17255,1,0,0:0:0:0:
179,192,17255,1,0,0:0:0:0:
76,192,17255,1,0,0:0:0:0:
36,192,17380,1,0,0:0:0:0:
332,192,17380,1,0,0:0:0:0:
230,192,17380,1,0,0:0:0:0:
435,192,17380,1,0,0:0:0:0:
128,192,17380,1,0,0:0:0:0:
486,192,17505,1,0,0:0:0:0:
281,192,17505,1,0,0:0:0:0:
384,192,17505,1,0,0:0:0:0:
76,192,17505,1,0,0:0:0:0:
179,192,17505,1,0,0:0:0:0:
36,192,17630,1,0,0:0:0:0:
230,192,17630,1,0,0:0:0:0:
435,192,17630,1,0,0:0:0:0:
332,192,17630,1,0,0:0:0:0:
128,192,17630,1,0,0:0:0:0:
281,192,17755,1,0,0:0:0:0:
486,192,17755,1,0,0:0:0:0:
384,192,17755,1,0,0:0:0:0:
76,192,17755,1,0,0:0:0:0:
179,192,17755,1,0,0:0:0:0:
230,192,17880,1,0,0:0:0:0:
435,192,17880,1,0,0:0:0:0:
36,192,17880,1,0,0:0:0:0:
332,192,17880,1,0,0:0:0:0:
128,192,17880,1,0,0:0:0:0:
384,192,18005,1,0,0:0:0:0:
281,192,18005,1,0,0:0:0:0:
486,192,18005,1,0,0:0:0:0:
179,192,18005,1,0,0:0:0:0:
76,192,18005,1,0,0:0:0:0:
36,192,18130,1,0,0:0:0:0:
435,192,18130,1,0,0:0:0:0:
230,192,18130,1,0,0:0:0:0:
332,192,18130,1,0,0:0:0:0:
128,192,18130,1,0,0:0:0:0:
384,192,18255,1,0,0:0:0:0:
486,192,18255,1,0,0:0:0:0:
281,192,18255,1,0,0:0:0:0:
179,192,18255,1,0,0:0:0:0:
76,192,18255,1,0,0:0:0:0:
36,192,18380,1,0,0:0:0:0:
435,192,18380,1,0,0:0:0:0:
230,192,18380,1,0,0:0:0:0:
332,192,18380,1,0,0:0:0:0:
128,192,18380,1,0,0:0:0:0:
384,192,18505,1,0,0:0:0:0:
486,192,18505,1,0,0:0:0:0:
281,192,18505,1,0,0:0:0:0:
179,192,18505,1,0,0:0:0:0:
76,192,18505,1,0,0:0:0:0:
36,192,18630,1,0,0:0:0:0:
230,192,18630,1,0,0:0:0:0:
435,192,18630,1,0,0:0:0:0:
332,192,18630,1,0,0:0:0:0:
128,192,18630,1,0,0:0:0:0:
281,192,18755,1,0,0:0:0:0:
486,192,18755,1,0,0:0:0:0:
384,192,18755,1,0,0:0:0:0:
76,192,18755,1,0,0:0:0:0:
179,192,18755,1,0,0:0:0:0:
230,192,18880,1,0,0:0:0:0:
435,192,18880,1,0,0:0:0:0:
36,192,18880,1,0,0:0:0:0:
332,192,18880,1,0,0:0:0:0:
128,192,18880,1,0,0:0:0:0:
384,192,19005,1,0,0:0:0:0:
281,192,19005,1,0,0:0:0:0:
486,192,19005,1,0,0:0:0:0:
179,192,19005,1,0,0:0:0:0:
76,192,19005,1,0,0:0:0:0:
435,192,19130,1,0,0:0:0:0:
332,192,19130,1,0,0:0:0:0:
36,192,19130,1,0,0:0:0:0:
230,192,19130,1,0,0:0:0:0:
128,192,19130,1,0,0:0:0:0:
384,192,19255,1,0,0:0:0:0:
486,192,19255,1,0,0:0:0:0:
281,192,19255,1,0,0:0:0:0:
179,192,19255,1,0,0:0:0:0:
76,192,19255,1,0,0:0:0:0:
36,192,19380,1,0,0:0:0:0:
332,192,19380,1,0,0:0:0:0:
230,192,19380,1,0,0:0:0:0:
435,192,19380,1,0,0:0:0:0:
128,192,19380,1,0,0:0:0:0:
486,192,19505,1,0,0:0:0:0:
281,192,19505,1,0,0:0:0:0:
384,192,19505,1,0,0:0:0:0:
76,192,19505,1,0,0:0:0:0:
179,192,19505,1,0,0:0:0:0:
36,192,19630,1,0,0:0:0:0:
230,192,19630,1,0,0:0:0:0:
435,192,19630,1,0,0:0:0:0:
332,192,19630,1,0,0:0:0:0:
128,192,19630,1,0,0:0:0:0:
281,192,19755,1,0,0:0:0:0:
486,192,19755,1,0,0:0:0:0:
384,192,19755,1,0,0:0:0:0:
76,192,19755,1,0,0:0:0:0:
179,192,19755,1,0,0:0:0:0:
230,192,19880,1,0,0:0:0:0:
435,192,19880,1,0,0:0:0:0:
36,192,19880,1,0,0:0:0:0:
332,192,19880,1,0,0:0:0:0:
128,192,19880,1,0,0:0:0:0:
384,192,20005,1,0,0:0:0:0:
281,192,20005,1,0,0:0:0:0:
486,192,20005,1,0,0:0:0:0:
179,192,20005,1,0,0:0:0:0:
76,192,20005,1,0,0:0:0:0:
230,192,20130,1,0,0:0:0:0:
332,192,20130,1,0,0:0:0:0:
36,192,20130,1,0,0:0:0:0:
435,192,20130,1,0,0:0:0:0:
128,192,20130,1,0,0:0:0:0:
281,192,20255,1,0,0:0:0:0:
486,192,20255,1,0,0:0:0:0:
384,192,20255,1,0,0:0:0:0:
76,192,20255,1,0,0:0:0:0:
179,192,20255,1,0,0:0:0:0:
230,192,20380,1,0,0:0:0:0:
332,192,20380,1,0,0:0:0:0:
36,192,20380,1,0,0:0:0:0:
435,192,20380,1,0,0:0:0:0:
128,192,20380,1,0,0:0:0:0:
281,192,20505,1,0,0:0:0:0:
486,192,20505,1,0,0:0:0:0:
384,192,20505,1,0,0:0:0:0:
76,192,20505,1,0,0:0:0:0:
179,192,20505,1,0,0:0:0:0:
435,192,20630,1,0,0:0:0:0:
332,192,20630,1,0,0:0:0:0:
36,192,20630,1,0,0:0:0:0:
230,192,20630,1,0,0:0:0:0:
128,192,20630,1,0,0:0:0:0:
384,192,20755,1,0,0:0:0:0:
486,192,20755,1,0,0:0:0:0:
281,192,20755,1,0,0:0:0:0:
179,192,20755,1,0,0:0:0:0:
76,192,20755,1,0,0:0:0:0:
36,192,20880,1,0,0:0:0:0:
332,192,20880,1,0,0:0:0:0:
230,192,20880,1,0,0:0:0:0:
435,192,20880,1,0,0:0:0:0:
128,192,20880,1,0,0:0:0:0:
486,192,21005,1,0,0:0:0:0:
281,192,21005,1,0,0:0:0:0:
384,192,21005,1,0,0:0:0:0:
76,192,21005,1,0,0:0:0:0:
179,192,21005,1,0,0:0:0:0:
36,192,21130,1,0,0:0:0:0:
230,192,21130,1,0,0:0:0:0:
435,192,21130,1,0,0:0:0:0:
332,192,21130,1,0,0:0:0:0:
128,192,21130,1,0,0:0:0:0:
281,192,21255,1,0,0:0:0:0:
486,192,21255,1,0,0:0:0:0:
384,192,21255,1,0,0:0:0:0:
76,192,21255,1,0,0:0:0:0:
179,192,21255,1,0,0:0:0:0:
230,192,21380,1,0,0:0:0:0:
435,192,21380,1,0,0:0:0:0:
36,192,21380,1,0,0:0:0:0:
332,192,21380,1,0,0:0:0:0:
128,192,21380,1,0,0:0:0:0:
384,192,21505,1,0,0:0:0:0:
281,192,21505,1,0,0:0:0:0:
486,192,21505,1,0,0:0:0:0:
179,192,21505,1,0,0:0:0:0:
76,192,21505,1,0,0:0:0:0:
435,192,21630,1,0,0:0:0:0:
332,192,21630,1,0,0:0:0:0:
36,192,21630,1,0,0:0:0:0:
230,192,21630,1,0,0:0:0:0:
128,192,21630,1,0,0:0:0:0:
384,192,21755,1,0,0:0:0:0:
486,192,21755,1,0,0:0:0:0:
281,192,21755,1,0,0:0:0:0:
179,192,21755,1,0,0:0:0:0:
76,192,21755,1,0,0:0:0:0:
36,192,21880,1,0,0:0:0:0:
332,192,21880,1,0,0:0:0:0:
230,192,21880,1,0,0:0:0:0:
435,192,21880,1,0,0:0:0:0:
128,192,21880,1,0,0:0:0:0:
486,192,22005,1,0,0:0:0:0:
281,192,22005,1,0,0:0:0:0:
384,192,22005,1,0,0:0:0:0:
76,192,22005,1,0,0:0:0:0:
179,192,22005,1,0,0:0:0:0:
36,192,22130,1,0,0:0:0:0:
435,192,22130,1,0,0:0:0:0:
230,192,22130,1,0,0:0:0:0:
332,192,22130,1,0,0:0:0:0:
128,192,22130,1,0,0:0:0:0:
384,192,22255,1,0,0:0:0:0:
486,192,22255,1,0,0:0:0:0:
281,192,22255,1,0,0:0:0:0:
179,192,22255,1,0,0:0:0:0:
76,192,22255,1,0,0:0:0:0:
36,192,22380,1,0,0:0:0:0:
435,192,22380,1,0,0:0:0:0:
230,192,22380,1,0,0:0:0:0:
332,192,22380,1,0,0:0:0:0:
128,192,22380,1,0,0:0:0:0:
384,192,22505,1,0,0:0:0:0:
486,192,22505,1,0,0:0:0:0:
281,192,22505,1,0,0:0:0:0:
179,192,22505,1,0,0:0:0:0:
76,192,22505,1,0,0:0:0:0:
36,192,22630,1,0,0:0:0:0:
230,192,22630,1,0,0:0:0:0:
435,192,22630,1,0,0:0:0:0:
332,192,22630,1,0,0:0:0:0:
128,192,22630,1,0,0:0:0:0:
281,192,22755,1,0,0:0:0:0:
486,192,22755,1,0,0:0:0:0:
384,192,22755,1,0,0:0:0:0:
76,192,22755,1,0,0:0:0:0:
179,192,22755,1,0,0:0:0:0:
230,192,22880,1,0,0:0:0:0:
435,192,22880,1,0,0:0:0:0:
36,192,22880,1,0,0:0:0:0:
332,192,22880,1,0,0:0:0:0:
128,192,22880,1,0,0:0:0:0:
384,192,23005,1,0,0:0:0:0:
281,192,23005,1,0,0:0:0:0:
486,192,23005,1,0,0:0:0:0:
179,192,23005,1,0,0:0:0:0:
76,192,23005,1,0,0:0:0:0:
435,192,23130,1,0,0:0:0:0:
332,192,23130,1,0,0:0:0:0:
36,192,23130,1,0,0:0:0:0:
230,192,23130,1,0,0:0:0:0:
128,192,23130,1,0,0:0:0:0:
384,192,23255,1,0,0:0:0:0:
486,192,23255,1,0,0:0:0:0:
281,192,23255,1,0,0:0:0:0:
179,192,23255,1,0,0:0:0:0:
76,192,23255,1,0,0:0:0:0:
36,192,23380,1,0,0:0:0:0:
332,192,23380,1,0,0:0:0:0:
230,192,23380,1,0,0:0:0:0:
435,192,23380,1,0,0:0:0:0:
128,192,23380,1,0,0:0:0:0:
486,192,23505,1,0,0:0:0:0:
281,192,23505,1,0,0:0:0:0:
384,192,23505,1,0,0:0:0:0:
76,192,23505,1,0,0:0:0:0:
179,192,23505,1,0,0:0:0:0:
36,192,23630,1,0,0:0:0:0:
230,192,23630,1,0,0:0:0:0:
435,192,23630,1,0,0:0:0:0:
332,192,23630,1,0,0:0:0:0:
128,192,23630,1,0,0:0:0:0:
281,192,23755,1,0,0:0:0:0:
486,192,23755,1,0,0:0:0:0:
384,192,23755,1,0,0:0:0:0:
76,192,23755,1,0,0:0:0:0:
179,192,23755,1,0,0:0:0:0:
230,192,23880,1,0,0:0:0:0:
435,192,23880,1,0,0:0:0:0:
36,192,23880,1,0,0:0:0:0:
332,192,23880,1,0,0:0:0:0:
128,192,23880,1,0,0:0:0:0:
384,192,24005,1,0,0:0:0:0:
281,192,24005,1,0,0:0:0:0:
486,192,24005,1,0,0:0:0:0:
179,192,24005,1,0,0:0:0:0:
76,192,24005,1,0,0:0:0:0:
230,192,24130,1,0,0:0:0:0:
332,192,24130,1,0,0:0:0:0:
36,192,24130,1,0,0:0:0:0:
435,192,24130,1,0,0:0:0:0:
128,192,24130,1,0,0:0:0:0:
281,192,24255,1,0,0:0:0:0:
486,192,24255,1,0,0:0:0:0:
384,192,24255,1,0,0:0:0:0:
76,192,24255,1,0,0:0:0:0:
179,192,24255,1,0,0:0:0:0:
230,192,24380,1,0,0:0:0:0:
332,192,24380,1,0,0:0:0:0:
36,192,24380,1,0,0:0:0:0:
435,192,24380,1,0,0:0:0:0:
128,192,24380,1,0,0:0:0:0:
281,192,24505,1,0,0:0:0:0:
486,192,24505,1,0,0:0:0:0:
384,192,24505,1,0,0:0:0:0:
76,192,24505,1,0,0:0:0:0:
179,192,24505,1,0,0:0:0:0:
435,192,24630,1,0,0:0:0:0:
332,192,24630,1,0,0:0:0:0:
36,192,24630,1,0,0:0:0:0:
230,192,24630,1,0,0:0:0:0:
128,192,24630,1,0,0:0:0:0:
384,192,24755,1,0,0:0:0:0:
486,192,24755,1,0,0:0:0:0:
281,192,24755,1,0,0:0:0:0:
179,192,24755,1,0,0:0:0:0:
76,192,24755,1,0,0:0:0:0:
36,192,24880,1,0,0:0:0:0:
332,192,24880,1,0,0:0:0:0:
230,192,24880,1,0,0:0:0:0:
435,192,24880,1,0,0:0:0:0:
128,192,24880,1,0,0:0:0:0:
486,192,25005,1,0,0:0:0:0:
281,192,25005,1,0,0:0:0:0:
384,192,25005,1,0,0:0:0:0:
76,192,25005,1,0,0:0:0:0:
179,192,25005,1,0,0:0:0:0:
36,192,25130,1,0,0:0:0:0:
230,192,25130,1,0,0:0:0:0:
435,192,25130,1,0,0:0:0:0:
332,192,25130,1,0,0:0:0:0:
128,192,25130,1,0,0:0:0:0:
281,192,25255,1,0,0:0:0:0:
486,192,25255,1,0,0:0:0:0:
384,192,25255,1,0,0:0:0:0:
76,192,25255,1,0,0:0:0:0:
179,192,25255,1,0,0:0:0:0:
230,192,25380,1,0,0:0:0:0:
435,192,25380,1,0,0:0:0:0:
36,192,25380,1,0,0:0:0:0:
332,192,25380,1,0,0:0:0:0:
128,192,25380,1,0,0:0:0:0:
384,192,25505,1,0,0:0:0:0:
281,192,25505,1,0,0:0:0:0:
486,192,25505,1,0,0:0:0:0:
179,192,25505,1,0,0:0:0:0:
76,192,25505,1,0,0:0:0:0:
435,192,25630,1,0,0:0:0:0:
332,192,25630,1,0,0:0:0:0:
36,192,25630,1,0,0:0:0:0:
230,192,25630,1,0,0:0:0:0:
128,192,25630,1,0,0:0:0:0:
384,192,25755,1,0,0:0:0:0:
486,192,25755,1,0,0:0:0:0:
281,192,25755,1,0,0:0:0:0:
179,192,25755,1,0,0:0:0:0:
76,192,25755,1,0,0:0:0:0:
36,192,25880,1,0,0:0:0:0:
332,192,25880,1,0,0:0:0:0:
230,192,25880,1,0,0:0:0:0:
435,192,25880,1,0,0:0:0:0:
128,192,25880,1,0,0:0:0:0:
486,192,26005,1,0,0:0:0:0:
281,192,26005,1,0,0:0:0:0:
384,192,26005,1,0,0:0:0:0:
76,192,26005,1,0,0:0:0:0:
179,192,26005,1,0,0:0:0:0:
36,192,26130,1,0,0:0:0:0:
435,192,26130,1,0,0:0:0:0:
230,192,26130,1,0,0:0:0:0:
332,192,26130,1,0,0:0:0:0:
128,192,26130,1,0,0:0:0:0:
384,192,26255,1,0,0:0:0:0:
486,192,26255,1,0,0:0:0:0:
281,192,26255,1,0,0:0:0:0:
179,192,26255,1,0,0:0:0:0:
76,192,26255,1,0,0:0:0:0:
36,192,26380,1,0,0:0:0:0:
435,192,26380,1,0,0:0:0:0:
230,192,26380,1,0,0:0:0:0:
332,192,26380,1,0,0:0:0:0:
128,192,26380,1,0,0:0:0:0:
384,192,26505,1,0,0:0:0:0:
486,192,26505,1,0,0:0:0:0:
281,192,26505,1,0,0:0:0:0:
179,192,26505,1,0,0:0:0:0:
76,192,26505,1,0,0:0:0:0:
36,192,26630,1,0,0:0:0:0:
230,192,26630,1,0,0:0:0:0:
435,192,26630,1,0,0:0:0:0:
332,192,26630,1,0,0:0:0:0:
128,192,26630,1,0,0:0:0:0:
281,192,26755,1,0,0:0:0:0:
486,192,26755,1,0,0:0:0:0:
384,192,26755,1,0,0:0:0:0:
76,192,26755,1,0,0:0:0:0:
179,192,26755,1,0,0:0:0:0:
230,192,26880,1,0,0:0:0:0:
435,192,26880,1,0,0:0:0:0:
36,192,26880,1,0,0:0:0:0:
332,192,26880,1,0,0:0:0:0:
128,192,26880,1,0,0:0:0:0:
384,192,27005,1,0,0:0:0:0:
281,192,27005,1,0,0:0:0:0:
486,192,27005,1,0,0:0:0:0:
179,192,27005,1,0,0:0:0:0:
76,192,27005,1,0,0:0:0:0:
435,192,27130,1,0,0:0:0:0:
332,192,27130,1,0,0:0:0:0:
36,192,27130,1,0,0:0:0:0:
230,192,27130,1,0,0:0:0:0:
128,192,27130,1,0,0:0:0:0:
384,192,27255,1,0,0:0:0:0:
486,192,27255,1,0,0:0:0:0:
281,192,27255,1,0,0:0:0:0:
179,192,27255,1,0,0:0:0:0:
76,192,27255,1,0,0:0:0:0:
36,192,27380,1,0,0:0:0:0:
332,192,27380,1,0,0:0:0:0:
230,192,27380,1,0,0:0:0:0:
435,192,27380,1,0,0:0:0:0:
128,192,27380,1,0,0:0:0:0:
486,192,27505,1,0,0:0:0:0:
281,192,27505,1,0,0:0:0:0:
384,192,27505,1,0,0:0:0:0:
76,192,27505,1,0,0:0:0:0:
179,192,27505,1,0,0:0:0:0:
36,192,27630,1,0,0:0:0:0:
230,192,27630,1,0,0:0:0:0:
435,192,27630,1,0,0:0:0:0:
332,192,27630,1,0,0:0:0:0:
128,192,27630,1,0,0:0:0:0:
281,192,27755,1,0,0:0:0:0:
486,192,27755,1,0,0:0:0:0:
384,192,27755,1,0,0:0:0:0:
76,192,27755,1,0,0:0:0:0:
179,192,27755,1,0,0:0:0:0:
230,192,27880,1,0,0:0:0:0:
435,192,27880,1,0,0:0:0:0:
36,192,27880,1,0,0:0:0:0:
332,192,27880,1,0,0:0:0:0:
128,192,27880,1,0,0:0:0:0:
384,192,28005,1,0,0:0:0:0:
281,192,28005,1,0,0:0:0:0:
486,192,28005,1,0,0:0:0:0:
179,192,28005,1,0,0:0:0:0:
76,192,28005,1,0,0:0:0:0:
230,192,28130,1,0,0:0:0:0:
332,192,28130,1,0,0:0:0:0:
36,192,28130,1,0,0:0:0:0:
435,192,28130,1,0,0:0:0:0:
128,192,28130,1,0,0:0:0:0:
281,192,28255,1,0,0:0:0:0:
486,192,28255,1,0,0:0:0:0:
384,192,28255,1,0,0:0:0:0:
76,192,28255,1,0,0:0:0:0:
179,192,28255,1,0,0:0:0:0:
230,192,28380,1,0,0:0:0:0:
332,192,28380,1,0,0:0:0:0:
36,192,28380,1,0,0:0:0:0:
435,192,28380,1,0,0:0:0:0:
128,192,28380,1,0,0:0:0:0:
281,192,28505,1,0,0:0:0:0:
486,192,28505,1,0,0:0:0:0:
384,192,28505,1,0,0:0:0:0:
76,192,28505,1,0,0:0:0:0:
179,192,28505,1,0,0:0:0:0:
435,192,28630,1,0,0:0:0:0:
332,192,28630,1,0,0:0:0:0:
36,192,28630,1,0,0:0:0:0:
230,192,28630,1,0,0:0:0:0:
128,192,28630,1,0,0:0:0:0:
384,192,28755,1,0,0:0:0:0:
486,192,28755,1,0,0:0:0:0:
281,192,28755,1,0,0:0:0:0:
179,192,28755,1,0,0:0:0:0:
76,192,28755,1,0,0:0:0:0:
36,192,28880,1,0,0:0:0:0:
332,192,28880,1,0,0:0:0:0:
230,192,28880,1,0,0:0:0:0:
435,192,28880,1,0,0:0:0:0:
128,192,28880,1,0,0:0:0:0:
486,192,29005,1,0,0:0:0:0:
281,192,29005,1,0,0:0:0:0:
384,192,29005,1,0,0:0:0:0:
76,192,29005,1,0,0:0:0:0:
179,192,29005,1,0,0:0:0:0:
36,192,29130,1,0,0:0:0:0:
230,192,29130,1,0,0:0:0:0:
435,192,29130,1,0,0:0:0:0:
332,192,29130,1,0,0:0:0:0:
128,192,29130,1,0,0:0:0:0:
281,192,29255,1,0,0:0:0:0:
486,192,29255,1,0,0:0:0:0:
384,192,29255,1,0,0:0:0:0:
76,192,29255,1,0,0:0:0:0:
179,192,29255,1,0,0:0:0:0:
230,192,29380,1,0,0:0:0:0:
435,192,29380,1,0,0:0:0:0:
36,192,29380,1,0,0:0:0:0:
332,192,29380,1,0,0:0:0:0:
128,192,29380,1,0,0:0:0:0:
384,192,29505,1,0,0:0:0:0:
281,192,29505,1,0,0:0:0:0:
486,192,29505,1,0,0:0:0:0:
179,192,29505,1,0,0:0:0:0:
76,192,29505,1,0,0:0:0:0:
435,192,29630,1,0,0:0:0:0:
332,192,29630,1,0,0:0:0:0:
36,192,29630,1,0,0:0:0:0:
230,192,29630,1,0,0:0:0:0:
128,192,29630,1,0,0:0:0:0:
384,192,29755,1,0,0:0:0:0:
486,192,29755,1,0,0:0:0:0:
281,192,29755,1,0,0:0:0:0:
179,192,29755,1,0,0:0:0:0:
76,192,29755,1,0,0:0:0:0:
36,192,29880,1,0,0:0:0:0:
332,192,29880,1,0,0:0:0:0:
230,192,29880,1,0,0:0:0:0:
435,192,29880,1,0,0:0:0:0:
128,192,29880,1,0,0:0:0:0:
486,192,30005,1,0,0:0:0:0:
281,192,30005,1,0,0:0:0:0:
384,192,30005,1,0,0:0:0:0:
76,192,30005,1,0,0:0:0:0:
179,192,30005,1,0,0:0:0:0:
36,192,30130,1,0,0:0:0:0:
435,192,30130,1,0,0:0:0:0:
230,192,30130,1,0,0:0:0:0:
332,192,30130,1,0,0:0:0:0:
128,192,30130,1,0,0:0:0:0:
384,192,30255,1,0,0:0:0:0:
486,192,30255,1,0,0:0:0:0:
281,192,30255,1,0,0:0:0:0:
179,192,30255,1,0,0:0:0:0:
76,192,30255,1,0,0:0:0:0:
36,192,30380,1,0,0:0:0:0:
435,192,30380,1,0,0:0:0:0:
230,192,30380,1,0,0:0:0:0:
332,192,30380,1,0,0:0:0:0:
128,192,30380,1,0,0:0:0:0:
384,192,30505,1,0,0:0:0:0:
486,192,30505,1,0,0:0:0:0:
281,192,30505,1,0,0:0:0:0:
179,192,30505,1,0,0:0:0:0:
76,192,30505,1,0,0:0:0:0:
36,192,30630,1,0,0:0:0:0:
230,192,30630,1,0,0:0:0:0:
435,192,30630,1,0,0:0:0:0:
332,192,30630,1,0,0:0:0:0:
128,192,30630,1,0,0:0:0:0:
281,192,30755,1,0,0:0:0:0:
486,192,30755,1,0,0:0:0:0:
384,192,30755,1,0,0:0:0:0:
76,192,30755,1,0,0:0:0:0:
179,192,30755,1,0,0:0:0:0:
230,192,30880,1,0,0:0:0:0:
435,192,30880,1,0,0:0:0:0:
36,192,30880,1,0,0:0:0:0:
332,192,30880,1,0,0:0:0:0:
128,192,30880,1,0,0:0:0:0:
384,192,31005,1,0,0:0:0:0:
281,192,31005,1,0,0:0:0:0:
486,192,31005,1,0,0:0:0:0:
179,192,31005,1,0,0:0:0:0:
76,192,31005,1,0,0:0:0:0:
435,192,31130,1,0,0:0:0:0:
332,192,31130,1,0,0:0:0:0:
36,192,31130,1,0,0:0:0:0:
230,192,31130,1,0,0:0:0:0:
128,192,31130,1,0,0:0:0:0:
384,192,31255,1,0,0:0:0:0:
486,192,31255,1,0,0:0:0:0:
281,192,31255,1,0,0:0:0:0:
179,192,31255,1,0,0:0:0:0:
76,192,31255,1,0,0:0:0:0:
36,192,31380,1,0,0:0:0:0:
332,192,31380,1,0,0:0:0:0:
230,192,31380,1,0,0:0:0:0:
435,192,31380,1,0,0:0:0:0:
128,192,31380,1,0,0:0:0:0:
486,192,31505,1,0,0:0:0:0:
281,192,31505,1,0,0:0:0:0:
384,192,31505,1,0,0:0:0:0:
76,192,31505,1,0,0:0:0:0:
179,192,31505,1,0,0:0:0:0:
36,192,31630,1,0,0:0:0:0:
230,192,31630,1,0,0:0:0:0:
435,192,31630,1,0,0:0:0:0:
332,192,31630,1,0,0:0:0:0:
128,192,31630,1,0,0:0:0:0:
281,192,31755,1,0,0:0:0:0:
486,192,31755,1,0,0:0:0:0:
384,192,31755,1,0,0:0:0:0:
76,192,31755,1,0,0:0:0:0:
179,192,31755,1,0,0:0:0:0:
230,192,31880,1,0,0:0:0:0:
435,192,31880,1,0,0:0:0:0:
36,192,31880,1,0,0:0:0:0:
332,192,31880,1,0,0:0:0:0:
128,192,31880,1,0,0:0:0:0:
384,192,32005,1,0,0:0:0:0:
281,192,32005,1,0,0:0:0:0:
486,192,32005,1,0,0:0:0:0:
179,192,32005,1,0,0:0:0:0:
76,192,32005,1,0,0:0:0:0:
36,192,32130,1,0,0:0:0:0:
435,192,32130,1,0,0:0:0:0:
230,192,32130,1,0,0:0:0:0:
332,192,32130,1,0,0:0:0:0:
128,192,32130,1,0,0:0:0:0:
384,192,32380,1,0,0:0:0:0:
486,192,32380,1,0,0:0:0:0:
281,192,32380,1,0,0:0:0:0:
179,192,32380,1,0,0:0:0:0:
76,192,32380,1,0,0:0:0:0:
36,192,32630,1,0,0:0:0:0:
435,192,32630,1,0,0:0:0:0:
230,192,32630,1,0,0:0:0:0:
332,192,32630,1,0,0:0:0:0:
128,192,32630,1,0,0:0:0:0:
384,192,32880,1,0,0:0:0:0:
486,192,32880,1,0,0:0:0:0:
281,192,32880,1,0,0:0:0:0:
179,192,32880,1,0,0:0:0:0:
76,192,32880,1,0,0:0:0:0:
435,192,33130,1,0,0:0:0:0:
332,192,33130,1,0,0:0:0:0:
36,192,33130,1,0,0:0:0:0:
230,192,33130,1,0,0:0:0:0:
128,192,33130,1,0,0:0:0:0:
486,192,33380,1,0,0:0:0:0:
281,192,33380,1,0,0:0:0:0:
384,192,33380,1,0,0:0:0:0:
76,192,33380,1,0,0:0:0:0:
179,192,33380,1,0,0:0:0:0:
435,192,33630,1,0,0:0:0:0:
332,192,33630,1,0,0:0:0:0:
36,192,33630,1,0,0:0:0:0:
230,192,33630,1,0,0:0:0:0:
128,192,33630,1,0,0:0:0:0:
486,192,33880,1,0,0:0:0:0:
384,192,33880,1,0,0:0:0:0:
281,192,33880,1,0,0:0:0:0:
76,192,33880,1,0,0:0:0:0:
179,192,33880,1,0,0:0:0:0:
36,192,34130,1,0,0:0:0:0:
230,192,34130,1,0,0:0:0:0:
435,192,34130,1,0,0:0:0:0:
332,192,34130,1,0,0:0:0:0:
128,192,34130,1,0,0:0:0:0:
384,192,34380,1,0,0:0:0:0:
281,192,34380,1,0,0:0:0:0:
486,192,34380,1,0,0:0:0:0:
179,192,34380,1,0,0:0:0:0:
76,192,34380,1,0,0:0:0:0:
36,192,34630,1,0,0:0:0:0:
230,192,34630,1,0,0:0:0:0:
435,192,34630,1,0,0:0:0:0:
332,192,34630,1,0,0:0:0:0:
128,192,34630,1,0,0:0:0:0:
281,192,34880,1,0,0:0:0:0:
384,192,34880,1,0,0:0:0:0:
486,192,34880,1,0,0:0:0:0:
179,192,34880,1,0,0:0:0:0:
76,192,34880,1,0,0:0:0:0:
435,192,35130,1,0,0:0:0:0:
332,192,35130,1,0,0:0:0:0:
36,192,35130,1,0,0:0:0:0:
230,192,35130,1,0,0:0:0:0:
128,192,35130,1,0,0:0:0:0:
486,192,35380,1,0,0:0:0:0:
281,192,35380,1,0,0:0:0:0:
384,192,35380,1,0,0:0:0:0:
76,192,35380,1,0,0:0:0:0:
179,192,35380,1,0,0:0:0:0:
435,192,35630,1,0,0:0:0:0:
332,192,35630,1,0,0:0:0:0:
36,192,35630,1,0,0:0:0:0:
230,192,35630,1,0,0:0:0:0:
128,192,35630,1,0,0:0:0:0:
486,192,35880,1,0,0:0:0:0:
384,192,35880,1,0,0:0:0:0:
281,192,35880,1,0,0:0:0:0:
76,192,35880,1,0,0:0:0:0:
179,192,35880,1,0,0:0:0:0:
36,192,36130,1,0,0:0:0:0:
230,192,36130,1,0,0:0:0:0:
435,192,36130,1,0,0:0:0:0:
332,192,36130,1,0,0:0:0:0:
128,192,36130,1,0,0:0:0:0:
384,192,36380,1,0,0:0:0:0:
281,192,36380,1,0,0:0:0:0:
486,192,36380,1,0,0:0:0:0:
179,192,36380,1,0,0:0:0:0:
76,192,36380,1,0,0:0:0:0:
36,192,36630,1,0,0:0:0:0:
230,192,36630,1,0,0:0:0:0:
435,192,36630,1,0,0:0:0:0:
332,192,36630,1,0,0:0:0:0:
128,192,36630,1,0,0:0:0:0:
281,192,36880,1,0,0:0:0:0:
384,192,36880,1,0,0:0:0:0:
486,192,36880,1,0,0:0:0:0:
179,192,36880,1,0,0:0:0:0:
76,192,36880,1,0,0:0:0:0:
435,192,37130,1,0,0:0:0:0:
332,192,37130,1,0,0:0:0:0:
36,192,37130,1,0,0:0:0:0:
230,192,37130,1,0,0:0:0:0:
128,192,37130,1,0,0:0:0:0:
486,192,37380,1,0,0:0:0:0:
281,192,37380,1,0,0:0:0:0:
384,192,37380,1,0,0:0:0:0:
76,192,37380,1,0,0:0:0:0:
179,192,37380,1,0,0:0:0:0:
435,192,37630,1,0,0:0:0:0:
332,192,37630,1,0,0:0:0:0:
36,192,37630,1,0,0:0:0:0:
230,192,37630,1,0,0:0:0:0:
128,192,37630,1,0,0:0:0:0:
486,192,37880,1,0,0:0:0:0:
384,192,37880,1,0,0:0:0:0:
281,192,37880,1,0,0:0:0:0:
76,192,37880,1,0,0:0:0:0:
179,192,37880,1,0,0:0:0:0:
36,192,38130,1,0,0:0:0:0:
230,192,38130,1,0,0:0:0:0:
435,192,38130,1,0,0:0:0:0:
332,192,38130,1,0,0:0:0:0:
128,192,38130,1,0,0:0:0:0:
384,192,38380,1,0,0:0:0:0:
281,192,38380,1,0,0:0:0:0:
486,192,38380,1,0,0:0:0:0:
179,192,38380,1,0,0:0:0:0:
76,192,38380,1,0,0:0:0:0:
36,192,38630,1,0,0:0:0:0:
230,192,38630,1,0,0:0:0:0:
435,192,38630,1,0,0:0:0:0:
332,192,38630,1,0,0:0:0:0:
128,192,38630,1,0,0:0:0:0:
281,192,38880,1,0,0:0:0:0:
384,192,38880,1,0,0:0:0:0:
486,192,38880,1,0,0:0:0:0:
179,192,38880,1,0,0:0:0:0:
76,192,38880,1,0,0:0:0:0:
435,192,39130,1,0,0:0:0:0:
332,192,39130,1,0,0:0:0:0:
36,192,39130,1,0,0:0:0:0:
230,192,39130,1,0,0:0:0:0:
128,192,39130,1,0,0:0:0:0:
486,192,39380,1,0,0:0:0:0:
281,192,39380,1,0,0:0:0:0:
384,192,39380,1,0,0:0:0:0:
76,192,39380,1,0,0:0:0:0:
179,192,39380,1,0,0:0:0:0:
435,192,39630,1,0,0:0:0:0:
332,192,39630,1,0,0:0:0:0:
36,192,39630,1,0,0:0:0:0:
230,192,39630,1,0,0:0:0:0:
128,192,39630,1,0,0:0:0:0:
486,192,39880,1,0,0:0:0:0:
384,192,39880,1,0,0:0:0:0:
281,192,39880,1,0,0:0:0:0:
76,192,39880,1,0,0:0:0:0:
179,192,39880,1,0,0:0:0:0:
36,192,40130,1,0,0:0:0:0:
435,192,40130,1,0,0:0:0:0:
230,192,40130,1,0,0:0:0:0:
332,192,40130,1,0,0:0:0:0:
128,192,40130,1,0,0:0:0:0:
384,192,40380,1,0,0:0:0:0:
486,192,40380,1,0,0:0:0:0:
281,192,40380,1,0,0:0:0:0:
179,192,40380,1,0,0:0:0:0:
76,192,40380,1,0,0:0:0:0:
36,192,40630,1,0,0:0:0:0:
435,192,40630,1,0,0:0:0:0:
230,192,40630,1,0,0:0:0:0:
332,192,40630,1,0,0:0:0:0:
128,192,40630,1,0,0:0:0:0:
384,192,40880,1,0,0:0:0:0:
486,192,40880,1,0,0:0:0:0:
281,192,40880,1,0,0:0:0:0:
179,192,40880,1,0,0:0:0:0:
76,192,40880,1,0,0:0:0:0:
435,192,41130,1,0,0:0:0:0:
332,192,41130,1,0,0:0:0:0:
36,192,41130,1,0,0:0:0:0:
230,192,41130,1,0,0:0:0:0:
128,192,41130,1,0,0:0:0:0:
486,192,41380,1,0,0:0:0:0:
281,192,41380,1,0,0:0:0:0:
384,192,41380,1,0,0:0:0:0:
76,192,41380,1,0,0:0:0:0:
179,192,41380,1,0,0:0:0:0:
435,192,41630,1,0,0:0:0:0:
332,192,41630,1,0,0:0:0:0:
36,192,41630,1,0,0:0:0:0:
230,192,41630,1,0,0:0:0:0:
128,192,41630,1,0,0:0:0:0:
486,192,41880,1,0,0:0:0:0:
384,192,41880,1,0,0:0:0:0:
281,192,41880,1,0,0:0:0:0:
76,192,41880,1,0,0:0:0:0:
179,192,41880,1,0,0:0:0:0:
36,192,42130,1,0,0:0:0:0:
230,192,42130,1,0,0:0:0:0:
435,192,42130,1,0,0:0:0:0:
332,192,42130,1,0,0:0:0:0:
128,192,42130,1,0,0:0:0:0:
384,192,42380,1,0,0:0:0:0:
281,192,42380,1,0,0:0:0:0:
486,192,42380,1,0,0:0:0:0:
179,192,42380,1,0,0:0:0:0:
76,192,42380,1,0,0:0:0:0:
36,192,42630,1,0,0:0:0:0:
230,192,42630,1,0,0:0:0:0:
435,192,42630,1,0,0:0:0:0:
332,192,42630,1,0,0:0:0:0:
128,192,42630,1,0,0:0:0:0:
281,192,42880,1,0,0:0:0:0:
384,192,42880,1,0,0:0:0:0:
486,192,42880,1,0,0:0:0:0:
179,192,42880,1,0,0:0:0:0:
76,192,42880,1,0,0:0:0:0:
435,192,43130,1,0,0:0:0:0:
332,192,43130,1,0,0:0:0:0:
36,192,43130,1,0,0:0:0:0:
230,192,43130,1,0,0:0:0:0:
128,192,43130,1,0,0:0:0:0:
486,192,43380,1,0,0:0:0:0:
281,192,43380,1,0,0:0:0:0:
384,192,43380,1,0,0:0:0:0:
76,192,43380,1,0,0:0:0:0:
179,192,43380,1,0,0:0:0:0:
435,192,43630,1,0,0:0:0:0:
332,192,43630,1,0,0:0:0:0:
36,192,43630,1,0,0:0:0:0:
230,192,43630,1,0,0:0:0:0:
128,192,43630,1,0,0:0:0:0:
486,192,43880,1,0,0:0:0:0:
384,192,43880,1,0,0:0:0:0:
281,192,43880,1,0,0:0:0:0:
76,192,43880,1,0,0:0:0:0:
179,192,43880,1,0,0:0:0:0:
36,192,44130,1,0,0:0:0:0:
230,192,44130,1,0,0:0:0:0:
435,192,44130,1,0,0:0:0:0:
332,192,44130,1,0,0:0:0:0:
128,192,44130,1,0,0:0:0:0:
384,192,44380,1,0,0:0:0:0:
281,192,44380,1,0,0:0:0:0:
486,192,44380,1,0,0:0:0:0:
179,192,44380,1,0,0:0:0:0:
76,192,44380,1,0,0:0:0:0:
36,192,44630,1,0,0:0:0:0:
230,192,44630,1,0,0:0:0:0:
435,192,44630,1,0,0:0:0:0:
332,192,44630,1,0,0:0:0:0:
128,192,44630,1,0,0:0:0:0:
281,192,44880,1,0,0:0:0:0:
384,192,44880,1,0,0:0:0:0:
486,192,44880,1,0,0:0:0:0:
179,192,44880,1,0,0:0:0:0:
76,192,44880,1,0,0:0:0:0:
435,192,45130,1,0,0:0:0:0:
332,192,45130,1,0,0:0:0:0:
36,192,45130,1,0,0:0:0:0:
230,192,45130,1,0,0:0:0:0:
128,192,45130,1,0,0:0:0:0:
486,192,45380,1,0,0:0:0:0:
281,192,45380,1,0,0:0:0:0:
384,192,45380,1,0,0:0:0:0:
76,192,45380,1,0,0:0:0:0:
179,192,45380,1,0,0:0:0:0:
435,192,45630,1,0,0:0:0:0:
332,192,45630,1,0,0:0:0:0:
36,192,45630,1,0,0:0:0:0:
230,192,45630,1,0,0:0:0:0:
128,192,45630,1,0,0:0:0:0:
486,192,45880,1,0,0:0:0:0:
384,192,45880,1,0,0:0:0:0:
281,192,45880,1,0,0:0:0:0:
76,192,45880,1,0,0:0:0:0:
179,192,45880,1,0,0:0:0:0:
36,192,46130,1,0,0:0:0:0:
230,192,46130,1,0,0:0:0:0:
435,192,46130,1,0,0:0:0:0:
332,192,46130,1,0,0:0:0:0:
128,192,46130,1,0,0:0:0:0:
384,192,46380,1,0,0:0:0:0:
281,192,46380,1,0,0:0:0:0:
486,192,46380,1,0,0:0:0:0:
179,192,46380,1,0,0:0:0:0:
76,192,46380,1,0,0:0:0:0:
36,192,46630,1,0,0:0:0:0:
230,192,46630,1,0,0:0:0:0:
435,192,46630,1,0,0:0:0:0:
332,192,46630,1,0,0:0:0:0:
128,192,46630,1,0,0:0:0:0:
281,192,46880,1,0,0:0:0:0:
384,192,46880,1,0,0:0:0:0:
486,192,46880,1,0,0:0:0:0:
179,192,46880,1,0,0:0:0:0:
76,192,46880,1,0,0:0:0:0:
435,192,47130,1,0,0:0:0:0:
332,192,47130,1,0,0:0:0:0:
36,192,47130,1,0,0:0:0:0:
230,192,47130,1,0,0:0:0:0:
128,192,47130,1,0,0:0:0:0:
486,192,47380,1,0,0:0:0:0:
281,192,47380,1,0,0:0:0:0:
384,192,47380,1,0,0:0:0:0:
76,192,47380,1,0,0:0:0:0:
179,192,47380,1,0,0:0:0:0:
435,192,47630,1,0,0:0:0:0:
332,192,47630,1,0,0:0:0:0:
36,192,47630,1,0,0:0:0:0:
230,192,47630,1,0,0:0:0:0:
128,192,47630,1,0,0:0:0:0:
486,192,47880,1,0,0:0:0:0:
384,192,47880,1,0,0:0:0:0:
281,192,47880,1,0,0:0:0:0:
76,192,47880,1,0,0:0:0:0:
179,192,47880,1,0,0:0:0:0:
230,192,48130,1,0,0:0:0:0:
332,192,48130,1,0,0:0:0:0:
36,192,48130,1,0,0:0:0:0:
435,192,48130,1,0,0:0:0:0:
128,192,48130,1,0,0:0:0:0:
281,192,48380,1,0,0:0:0:0:
486,192,48380,1,0,0:0:0:0:
384,192,48380,1,0,0:0:0:0:
76,192,48380,1,0,0:0:0:0:
179,192,48380,1,0,0:0:0:0:
230,192,48630,1,0,0:0:0:0:
332,192,48630,1,0,0:0:0:0:
36,192,48630,1,0,0:0:0:0:
435,192,48630,1,0,0:0:0:0:
128,192,48630,1,0,0:0:0:0:
281,192,48880,1,0,0:0:0:0:
486,192,48880,1,0,0:0:0:0:
384,192,48880,1,0,0:0:0:0:
76,192,48880,1,0,0:0:0:0:
179,192,48880,1,0,0:0:0:0:
36,192,49130,1,0,0:0:0:0:
230,192,49130,1,0,0:0:0:0:
435,192,49130,1,0,0:0:0:0:
332,192,49130,1,0,0:0:0:0:
128,192,49130,1,0,0:0:0:0:
384,192,49380,1,0,0:0:0:0:
281,192,49380,1,0,0:0:0:0:
486,192,49380,1,0,0:0:0:0:
179,192,49380,1,0,0:0:0:0:
76,192,49380,1,0,0:0:0:0:
36,192,49630,1,0,0:0:0:0:
230,192,49630,1,0,0:0:0:0:
435,192,49630,1,0,0:0:0:0:
332,192,49630,1,0,0:0:0:0:
128,192,49630,1,0,0:0:0:0:
281,192,49880,1,0,0:0:0:0:
384,192,49880,1,0,0:0:0:0:
486,192,49880,1,0,0:0:0:0:
179,192,49880,1,0,0:0:0:0:
76,192,49880,1,0,0:0:0:0:
435,192,50130,1,0,0:0:0:0:
332,192,50130,1,0,0:0:0:0:
36,192,50130,1,0,0:0:0:0:
230,192,50130,1,0,0:0:0:0:
128,192,50130,1,0,0:0:0:0:
486,192,50380,1,0,0:0:0:0:
281,192,50380,1,0,0:0:0:0:
384,192,50380,1,0,0:0:0:0:
76,192,50380,1,0,0:0:0:0:
179,192,50380,1,0,0:0:0:0:
435,192,50630,1,0,0:0:0:0:
332,192,50630,1,0,0:0:0:0:
36,192,50630,1,0,0:0:0:0:
230,192,50630,1,0,0:0:0:0:
128,192,50630,1,0,0:0:0:0:
486,192,50880,1,0,0:0:0:0:
384,192,50880,1,0,0:0:0:0:
281,192,50880,1,0,0:0:0:0:
76,192,50880,1,0,0:0:0:0:
179,192,50880,1,0,0:0:0:0:
36,192,51130,1,0,0:0:0:0:
230,192,51130,1,0,0:0:0:0:
435,192,51130,1,0,0:0:0:0:
332,192,51130,1,0,0:0:0:0:
128,192,51130,1,0,0:0:0:0:
384,192,51380,1,0,0:0:0:0:
281,192,51380,1,0,0:0:0:0:
486,192,51380,1,0,0:0:0:0:
179,192,51380,1,0,0:0:0:0:
76,192,51380,1,0,0:0:0:0:
36,192,51630,1,0,0:0:0:0:
230,192,51630,1,0,0:0:0:0:
435,192,51630,1,0,0:0:0:0:
332,192,51630,1,0,0:0:0:0:
128,192,51630,1,0,0:0:0:0:
281,192,51880,1,0,0:0:0:0:
384,192,51880,1,0,0:0:0:0:
486,192,51880,1,0,0:0:0:0:
179,192,51880,1,0,0:0:0:0:
76,192,51880,1,0,0:0:0:0:
435,192,52130,1,0,0:0:0:0:
332,192,52130,1,0,0:0:0:0:
36,192,52130,1,0,0:0:0:0:
230,192,52130,1,0,0:0:0:0:
128,192,52130,1,0,0:0:0:0:
486,192,52380,1,0,0:0:0:0:
281,192,52380,1,0,0:0:0:0:
384,192,52380,1,0,0:0:0:0:
76,192,52380,1,0,0:0:0:0:
179,192,52380,1,0,0:0:0:0:
435,192,52630,1,0,0:0:0:0:
332,192,52630,1,0,0:0:0:0:
36,192,52630,1,0,0:0:0:0:
230,192,52630,1,0,0:0:0:0:
128,192,52630,1,0,0:0:0:0:
486,192,52880,1,0,0:0:0:0:
384,192,52880,1,0,0:0:0:0:
281,192,52880,1,0,0:0:0:0:
76,192,52880,1,0,0:0:0:0:
179,192,52880,1,0,0:0:0:0:
36,192,53130,1,0,0:0:0:0:
230,192,53130,1,0,0:0:0:0:
435,192,53130,1,0,0:0:0:0:
332,192,53130,1,0,0:0:0:0:
128,192,53130,1,0,0:0:0:0:
384,192,53380,1,0,0:0:0:0:
281,192,53380,1,0,0:0:0:0:
486,192,53380,1,0,0:0:0:0:
179,192,53380,1,0,0:0:0:0:
76,192,53380,1,0,0:0:0:0:
36,192,53630,1,0,0:0:0:0:
230,192,53630,1,0,0:0:0:0:
435,192,53630,1,0,0:0:0:0:
332,192,53630,1,0,0:0:0:0:
128,192,53630,1,0,0:0:0:0:
281,192,53880,1,0,0:0:0:0:
384,192,53880,1,0,0:0:0:0:
486,192,53880,1,0,0:0:0:0:
179,192,53880,1,0,0:0:0:0:
76,192,53880,1,0,0:0:0:0:
