osu file format v14

[General]
AudioFilename: 188 Rengoku Teien.mp3
AudioLeadIn: 0
PreviewTime: 2080
Countdown: 0
SampleSet: None
StackLeniency: 0.7
Mode: 3
LetterboxInBreaks: 0
SpecialStyle: 0
WidescreenStoryboard: 1

[Editor]
DistanceSpacing: 1.4
BeatDivisor: 4
GridSize: 4
TimelineZoom: 1.3

[Metadata]
Title:Fullbracket Pack
TitleUnicode:Fullbracket Pack
Artist:Various Artists
ArtistUnicode:Various Artists
Creator:X_Devil
Version:100 bpm [Saradisk - 188 - Rengoku Teien]
Source:
Tags:Fullbracket bracket 7k 10k
BeatmapID:2080434
BeatmapSetID:994817

[Difficulty]
HPDrainRate:5
CircleSize:7
OverallDifficulty:10
ApproachRate:5
SliderMultiplier:1.4
SliderTickRate:1

[Events]
//Background and Video events
0,0,"OIITEITOKU.jpg",0,0
//Break Periods
2,100680,110230
//Storyboard Layer 0 (Background)
//Storyboard Layer 1 (Fail)
//Storyboard Layer 2 (Pass)
//Storyboard Layer 3 (Foreground)
//Storyboard Sound Samples

[TimingPoints]
-20,600,4,1,0,15,1,0

[HitObjects]
36,192,1180,5,0,0:0:0:0:
182,192,1180,1,0,0:0:0:0:
329,192,1180,1,0,0:0:0:0:
475,192,1180,1,0,0:0:0:0:
109,192,1780,1,0,0:0:0:0:
256,192,1780,1,0,0:0:0:0:
402,192,1780,1,0,0:0:0:0:
36,192,2380,1,0,0:0:0:0:
182,192,2380,1,0,0:0:0:0:
329,192,2380,1,0,0:0:0:0:
475,192,2380,1,0,0:0:0:0:
109,192,2680,1,0,0:0:0:0:
256,192,2680,1,0,0:0:0:0:
402,192,2680,1,0,0:0:0:0:
36,192,2980,1,0,0:0:0:0:
182,192,2980,1,0,0:0:0:0:
329,192,2980,1,0,0:0:0:0:
475,192,2980,1,0,0:0:0:0:
109,192,3280,1,0,0:0:0:0:
256,192,3280,1,0,0:0:0:0:
402,192,3280,1,0,0:0:0:0:
36,192,3580,1,0,0:0:0:0:
182,192,3580,1,0,0:0:0:0:
329,192,3580,1,0,0:0:0:0:
475,192,3580,1,0,0:0:0:0:
109,192,3730,1,0,0:0:0:0:
256,192,3730,1,0,0:0:0:0:
402,192,3730,1,0,0:0:0:0:
36,192,3880,1,0,0:0:0:0:
182,192,3880,1,0,0:0:0:0:
329,192,3880,1,0,0:0:0:0:
475,192,3880,1,0,0:0:0:0:
109,192,4030,1,0,0:0:0:0:
256,192,4030,1,0,0:0:0:0:
402,192,4030,1,0,0:0:0:0:
36,192,4180,1,0,0:0:0:0:
182,192,4180,1,0,0:0:0:0:
329,192,4180,1,0,0:0:0:0:
475,192,4180,1,0,0:0:0:0:
109,192,4330,1,0,0:0:0:0:
256,192,4330,1,0,0:0:0:0:
402,192,4330,1,0,0:0:0:0:
36,192,4480,1,0,0:0:0:0:
182,192,4480,1,0,0:0:0:0:
329,192,4480,1,0,0:0:0:0:
475,192,4480,1,0,0:0:0:0:
109,192,4630,1,0,0:0:0:0:
256,192,4630,1,0,0:0:0:0:
402,192,4630,1,0,0:0:0:0:
36,192,4780,1,0,0:0:0:0:
182,192,4780,1,0,0:0:0:0:
329,192,4780,1,0,0:0:0:0:
475,192,4780,1,0,0:0:0:0:
109,192,4930,1,0,0:0:0:0:
256,192,4930,1,0,0:0:0:0:
402,192,4930,1,0,0:0:0:0:
36,192,5080,1,0,0:0:0:0:
182,192,5080,1,0,0:0:0:0:
329,192,5080,1,0,0:0:0:0:
475,192,5080,1,0,0:0:0:0:
109,192,5230,1,0,0:0:0:0:
256,192,5230,1,0,0:0:0:0:
402,192,5230,1,0,0:0:0:0:
36,192,5380,1,0,0:0:0:0:
182,192,5380,1,0,0:0:0:0:
329,192,5380,1,0,0:0:0:0:
475,192,5380,1,0,0:0:0:0:
109,192,5530,1,0,0:0:0:0:
256,192,5530,1,0,0:0:0:0:
402,192,5530,1,0,0:0:0:0:
36,192,5680,1,0,0:0:0:0:
182,192,5680,1,0,0:0:0:0:
329,192,5680,1,0,0:0:0:0:
475,192,5680,1,0,0:0:0:0:
109,192,5830,1,0,0:0:0:0:
256,192,5830,1,0,0:0:0:0:
402,192,5830,1,0,0:0:0:0:
329,192,5980,1,0,0:0:0:0:
475,192,5980,1,0,0:0:0:0:
36,192,5980,1,0,0:0:0:0:
182,192,5980,1,0,0:0:0:0:
402,192,6130,1,0,0:0:0:0:
256,192,6130,1,0,0:0:0:0:
109,192,6130,1,0,0:0:0:0:
329,192,6280,1,0,0:0:0:0:
475,192,6280,1,0,0:0:0:0:
36,192,6280,1,0,0:0:0:0:
182,192,6280,1,0,0:0:0:0:
402,192,6430,1,0,0:0:0:0:
256,192,6430,1,0,0:0:0:0:
109,192,6430,1,0,0:0:0:0:
329,192,6580,1,0,0:0:0:0:
475,192,6580,1,0,0:0:0:0:
36,192,6580,1,0,0:0:0:0:
182,192,6580,1,0,0:0:0:0:
402,192,6730,1,0,0:0:0:0:
256,192,6730,1,0,0:0:0:0:
109,192,6730,1,0,0:0:0:0:
329,192,6880,1,0,0:0:0:0:
475,192,6880,1,0,0:0:0:0:
36,192,6880,1,0,0:0:0:0:
182,192,6880,1,0,0:0:0:0:
402,192,7030,1,0,0:0:0:0:
256,192,7030,1,0,0:0:0:0:
109,192,7030,1,0,0:0:0:0:
36,192,7180,1,0,0:0:0:0:
182,192,7180,1,0,0:0:0:0:
329,192,7180,1,0,0:0:0:0:
475,192,7180,1,0,0:0:0:0:
109,192,7330,1,0,0:0:0:0:
256,192,7330,1,0,0:0:0:0:
402,192,7330,1,0,0:0:0:0:
36,192,7480,1,0,0:0:0:0:
182,192,7480,1,0,0:0:0:0:
329,192,7480,1,0,0:0:0:0:
475,192,7480,1,0,0:0:0:0:
109,192,7630,1,0,0:0:0:0:
256,192,7630,1,0,0:0:0:0:
402,192,7630,1,0,0:0:0:0:
36,192,7780,1,0,0:0:0:0:
182,192,7780,1,0,0:0:0:0:
329,192,7780,1,0,0:0:0:0:
475,192,7780,1,0,0:0:0:0:
109,192,7930,1,0,0:0:0:0:
256,192,7930,1,0,0:0:0:0:
402,192,7930,1,0,0:0:0:0:
36,192,8080,1,0,0:0:0:0:
182,192,8080,1,0,0:0:0:0:
329,192,8080,1,0,0:0:0:0:
475,192,8080,1,0,0:0:0:0:
109,192,8230,1,0,0:0:0:0:
256,192,8230,1,0,0:0:0:0:
402,192,8230,1,0,0:0:0:0:
36,192,8380,1,0,0:0:0:0:
182,192,8380,1,0,0:0:0:0:
329,192,8380,1,0,0:0:0:0:
475,192,8380,1,0,0:0:0:0:
109,192,8530,1,0,0:0:0:0:
256,192,8530,1,0,0:0:0:0:
402,192,8530,1,0,0:0:0:0:
36,192,8680,1,0,0:0:0:0:
182,192,8680,1,0,0:0:0:0:
329,192,8680,1,0,0:0:0:0:
475,192,8680,1,0,0:0:0:0:
109,192,8830,1,0,0:0:0:0:
256,192,8830,1,0,0:0:0:0:
402,192,8830,1,0,0:0:0:0:
36,192,8980,1,0,0:0:0:0:
182,192,8980,1,0,0:0:0:0:
329,192,8980,1,0,0:0:0:0:
475,192,8980,1,0,0:0:0:0:
109,192,9130,1,0,0:0:0:0:
256,192,9130,1,0,0:0:0:0:
402,192,9130,1,0,0:0:0:0:
36,192,9280,1,0,0:0:0:0:
182,192,9280,1,0,0:0:0:0:
329,192,9280,1,0,0:0:0:0:
475,192,9280,1,0,0:0:0:0:
109,192,9430,1,0,0:0:0:0:
256,192,9430,1,0,0:0:0:0:
402,192,9430,1,0,0:0:0:0:
36,192,9580,1,0,0:0:0:0:
182,192,9580,1,0,0:0:0:0:
329,192,9580,1,0,0:0:0:0:
475,192,9580,1,0,0:0:0:0:
109,192,9730,1,0,0:0:0:0:
256,192,9730,1,0,0:0:0:0:
402,192,9730,1,0,0:0:0:0:
36,192,9880,1,0,0:0:0:0:
182,192,9880,1,0,0:0:0:0:
329,192,9880,1,0,0:0:0:0:
475,192,9880,1,0,0:0:0:0:
109,192,10030,1,0,0:0:0:0:
256,192,10030,1,0,0:0:0:0:
402,192,10030,1,0,0:0:0:0:
36,192,10180,1,0,0:0:0:0:
182,192,10180,1,0,0:0:0:0:
329,192,10180,1,0,0:0:0:0:
475,192,10180,1,0,0:0:0:0:
109,192,10330,1,0,0:0:0:0:
256,192,10330,1,0,0:0:0:0:
402,192,10330,1,0,0:0:0:0:
36,192,10480,1,0,0:0:0:0:
182,192,10480,1,0,0:0:0:0:
329,192,10480,1,0,0:0:0:0:
475,192,10480,1,0,0:0:0:0:
109,192,10630,1,0,0:0:0:0:
256,192,10630,1,0,0:0:0:0:
402,192,10630,1,0,0:0:0:0:
329,192,10780,1,0,0:0:0:0:
475,192,10780,1,0,0:0:0:0:
36,192,10780,1,0,0:0:0:0:
182,192,10780,1,0,0:0:0:0:
402,192,10930,1,0,0:0:0:0:
256,192,10930,1,0,0:0:0:0:
109,192,10930,1,0,0:0:0:0:
329,192,11080,1,0,0:0:0:0:
475,192,11080,1,0,0:0:0:0:
36,192,11080,1,0,0:0:0:0:
182,192,11080,1,0,0:0:0:0:
402,192,11230,1,0,0:0:0:0:
256,192,11230,1,0,0:0:0:0:
109,192,11230,1,0,0:0:0:0:
329,192,11380,1,0,0:0:0:0:
475,192,11380,1,0,0:0:0:0:
36,192,11380,1,0,0:0:0:0:
182,192,11380,1,0,0:0:0:0:
402,192,11530,1,0,0:0:0:0:
256,192,11530,1,0,0:0:0:0:
109,192,11530,1,0,0:0:0:0:
329,192,11680,1,0,0:0:0:0:
475,192,11680,1,0,0:0:0:0:
36,192,11680,1,0,0:0:0:0:
182,192,11680,1,0,0:0:0:0:
402,192,11830,1,0,0:0:0:0:
256,192,11830,1,0,0:0:0:0:
109,192,11830,1,0,0:0:0:0:
36,192,11980,1,0,0:0:0:0:
182,192,11980,1,0,0:0:0:0:
329,192,11980,1,0,0:0:0:0:
475,192,11980,1,0,0:0:0:0:
109,192,12130,1,0,0:0:0:0:
256,192,12130,1,0,0:0:0:0:
402,192,12130,1,0,0:0:0:0:
36,192,12280,1,0,0:0:0:0:
182,192,12280,1,0,0:0:0:0:
329,192,12280,1,0,0:0:0:0:
475,192,12280,1,0,0:0:0:0:
109,192,12430,1,0,0:0:0:0:
256,192,12430,1,0,0:0:0:0:
402,192,12430,1,0,0:0:0:0:
36,192,12580,1,0,0:0:0:0:
182,192,12580,1,0,0:0:0:0:
329,192,12580,1,0,0:0:0:0:
475,192,12580,1,0,0:0:0:0:
109,192,12730,1,0,0:0:0:0:
256,192,12730,1,0,0:0:0:0:
402,192,12730,1,0,0:0:0:0:
36,192,12880,1,0,0:0:0:0:
182,192,12880,1,0,0:0:0:0:
329,192,12880,1,0,0:0:0:0:
475,192,12880,1,0,0:0:0:0:
109,192,13030,1,0,0:0:0:0:
256,192,13030,1,0,0:0:0:0:
402,192,13030,1,0,0:0:0:0:
329,192,13180,1,0,0:0:0:0:
475,192,13180,1,0,0:0:0:0:
36,192,13180,1,0,0:0:0:0:
182,192,13180,1,0,0:0:0:0:
402,192,13330,1,0,0:0:0:0:
256,192,13330,1,0,0:0:0:0:
109,192,13330,1,0,0:0:0:0:
329,192,13480,1,0,0:0:0:0:
475,192,13480,1,0,0:0:0:0:
36,192,13480,1,0,0:0:0:0:
182,192,13480,1,0,0:0:0:0:
402,192,13630,1,0,0:0:0:0:
256,192,13630,1,0,0:0:0:0:
109,192,13630,1,0,0:0:0:0:
329,192,13780,1,0,0:0:0:0:
475,192,13780,1,0,0:0:0:0:
36,192,13780,1,0,0:0:0:0:
182,192,13780,1,0,0:0:0:0:
402,192,13930,1,0,0:0:0:0:
256,192,13930,1,0,0:0:0:0:
109,192,13930,1,0,0:0:0:0:
329,192,14080,1,0,0:0:0:0:
475,192,14080,1,0,0:0:0:0:
36,192,14080,1,0,0:0:0:0:
182,192,14080,1,0,0:0:0:0:
402,192,14230,1,0,0:0:0:0:
256,192,14230,1,0,0:0:0:0:
109,192,14230,1,0,0:0:0:0:
329,192,14380,1,0,0:0:0:0:
475,192,14380,1,0,0:0:0:0:
36,192,14380,1,0,0:0:0:0:
182,192,14380,1,0,0:0:0:0:
402,192,14530,1,0,0:0:0:0:
256,192,14530,1,0,0:0:0:0:
109,192,14530,1,0,0:0:0:0:
329,192,14680,1,0,0:0:0:0:
475,192,14680,1,0,0:0:0:0:
36,192,14680,1,0,0:0:0:0:
182,192,14680,1,0,0:0:0:0:
402,192,14830,1,0,0:0:0:0:
256,192,14830,1,0,0:0:0:0:
109,192,14830,1,0,0:0:0:0:
329,192,14980,1,0,0:0:0:0:
475,192,14980,1,0,0:0:0:0:
36,192,14980,1,0,0:0:0:0:
182,192,14980,1,0,0:0:0:0:
402,192,15130,1,0,0:0:0:0:
256,192,15130,1,0,0:0:0:0:
109,192,15130,1,0,0:0:0:0:
329,192,15280,1,0,0:0:0:0:
475,192,15280,1,0,0:0:0:0:
36,192,15280,1,0,0:0:0:0:
182,192,15280,1,0,0:0:0:0:
402,192,15430,1,0,0:0:0:0:
256,192,15430,1,0,0:0:0:0:
109,192,15430,1,0,0:0:0:0:
36,192,15580,1,0,0:0:0:0:
182,192,15580,1,0,0:0:0:0:
329,192,15580,1,0,0:0:0:0:
475,192,15580,1,0,0:0:0:0:
109,192,15730,1,0,0:0:0:0:
256,192,15730,1,0,0:0:0:0:
402,192,15730,1,0,0:0:0:0:
36,192,15880,1,0,0:0:0:0:
182,192,15880,1,0,0:0:0:0:
329,192,15880,1,0,0:0:0:0:
475,192,15880,1,0,0:0:0:0:
109,192,16030,1,0,0:0:0:0:
256,192,16030,1,0,0:0:0:0:
402,192,16030,1,0,0:0:0:0:
36,192,16180,1,0,0:0:0:0:
182,192,16180,1,0,0:0:0:0:
329,192,16180,1,0,0:0:0:0:
475,192,16180,1,0,0:0:0:0:
109,192,16330,1,0,0:0:0:0:
256,192,16330,1,0,0:0:0:0:
402,192,16330,1,0,0:0:0:0:
36,192,16480,1,0,0:0:0:0:
182,192,16480,1,0,0:0:0:0:
329,192,16480,1,0,0:0:0:0:
475,192,16480,1,0,0:0:0:0:
109,192,16630,1,0,0:0:0:0:
256,192,16630,1,0,0:0:0:0:
402,192,16630,1,0,0:0:0:0:
329,192,16780,1,0,0:0:0:0:
475,192,16780,1,0,0:0:0:0:
36,192,16780,1,0,0:0:0:0:
182,192,16780,1,0,0:0:0:0:
402,192,16930,1,0,0:0:0:0:
256,192,16930,1,0,0:0:0:0:
109,192,16930,1,0,0:0:0:0:
329,192,17080,1,0,0:0:0:0:
475,192,17080,1,0,0:0:0:0:
36,192,17080,1,0,0:0:0:0:
182,192,17080,1,0,0:0:0:0:
402,192,17230,1,0,0:0:0:0:
256,192,17230,1,0,0:0:0:0:
109,192,17230,1,0,0:0:0:0:
329,192,17380,1,0,0:0:0:0:
475,192,17380,1,0,0:0:0:0:
36,192,17380,1,0,0:0:0:0:
182,192,17380,1,0,0:0:0:0:
402,192,17530,1,0,0:0:0:0:
256,192,17530,1,0,0:0:0:0:
109,192,17530,1,0,0:0:0:0:
329,192,17680,1,0,0:0:0:0:
475,192,17680,1,0,0:0:0:0:
36,192,17680,1,0,0:0:0:0:
182,192,17680,1,0,0:0:0:0:
402,192,17830,1,0,0:0:0:0:
256,192,17830,1,0,0:0:0:0:
109,192,17830,1,0,0:0:0:0:
36,192,17980,1,0,0:0:0:0:
182,192,17980,1,0,0:0:0:0:
329,192,17980,1,0,0:0:0:0:
475,192,17980,1,0,0:0:0:0:
109,192,18130,1,0,0:0:0:0:
256,192,18130,1,0,0:0:0:0:
402,192,18130,1,0,0:0:0:0:
36,192,18280,1,0,0:0:0:0:
182,192,18280,1,0,0:0:0:0:
329,192,18280,1,0,0:0:0:0:
475,192,18280,1,0,0:0:0:0:
109,192,18430,1,0,0:0:0:0:
256,192,18430,1,0,0:0:0:0:
402,192,18430,1,0,0:0:0:0:
36,192,18580,1,0,0:0:0:0:
182,192,18580,1,0,0:0:0:0:
329,192,18580,1,0,0:0:0:0:
475,192,18580,1,0,0:0:0:0:
109,192,18730,1,0,0:0:0:0:
256,192,18730,1,0,0:0:0:0:
402,192,18730,1,0,0:0:0:0:
36,192,18880,1,0,0:0:0:0:
182,192,18880,1,0,0:0:0:0:
329,192,18880,1,0,0:0:0:0:
475,192,18880,1,0,0:0:0:0:
109,192,19030,1,0,0:0:0:0:
256,192,19030,1,0,0:0:0:0:
402,192,19030,1,0,0:0:0:0:
36,192,19180,1,0,0:0:0:0:
182,192,19180,1,0,0:0:0:0:
329,192,19180,1,0,0:0:0:0:
475,192,19180,1,0,0:0:0:0:
109,192,19330,1,0,0:0:0:0:
256,192,19330,1,0,0:0:0:0:
402,192,19330,1,0,0:0:0:0:
36,192,19480,1,0,0:0:0:0:
182,192,19480,1,0,0:0:0:0:
329,192,19480,1,0,0:0:0:0:
475,192,19480,1,0,0:0:0:0:
109,192,19630,1,0,0:0:0:0:
256,192,19630,1,0,0:0:0:0:
402,192,19630,1,0,0:0:0:0:
36,192,19780,1,0,0:0:0:0:
182,192,19780,1,0,0:0:0:0:
329,192,19780,1,0,0:0:0:0:
475,192,19780,1,0,0:0:0:0:
109,192,19930,1,0,0:0:0:0:
256,192,19930,1,0,0:0:0:0:
402,192,19930,1,0,0:0:0:0:
36,192,20080,1,0,0:0:0:0:
182,192,20080,1,0,0:0:0:0:
329,192,20080,1,0,0:0:0:0:
475,192,20080,1,0,0:0:0:0:
109,192,20230,1,0,0:0:0:0:
256,192,20230,1,0,0:0:0:0:
402,192,20230,1,0,0:0:0:0:
329,192,20380,1,0,0:0:0:0:
475,192,20380,1,0,0:0:0:0:
36,192,20380,1,0,0:0:0:0:
182,192,20380,1,0,0:0:0:0:
402,192,20530,1,0,0:0:0:0:
256,192,20530,1,0,0:0:0:0:
109,192,20530,1,0,0:0:0:0:
329,192,20680,1,0,0:0:0:0:
475,192,20680,1,0,0:0:0:0:
36,192,20680,1,0,0:0:0:0:
182,192,20680,1,0,0:0:0:0:
402,192,20830,1,0,0:0:0:0:
256,192,20830,1,0,0:0:0:0:
109,192,20830,1,0,0:0:0:0:
329,192,20980,1,0,0:0:0:0:
475,192,20980,1,0,0:0:0:0:
36,192,20980,1,0,0:0:0:0:
182,192,20980,1,0,0:0:0:0:
402,192,21130,1,0,0:0:0:0:
256,192,21130,1,0,0:0:0:0:
109,192,21130,1,0,0:0:0:0:
329,192,21280,1,0,0:0:0:0:
475,192,21280,1,0,0:0:0:0:
36,192,21280,1,0,0:0:0:0:
182,192,21280,1,0,0:0:0:0:
402,192,21430,1,0,0:0:0:0:
256,192,21430,1,0,0:0:0:0:
109,192,21430,1,0,0:0:0:0:
36,192,21580,1,0,0:0:0:0:
182,192,21580,1,0,0:0:0:0:
329,192,21580,1,0,0:0:0:0:
475,192,21580,1,0,0:0:0:0:
109,192,21880,1,0,0:0:0:0:
256,192,21880,1,0,0:0:0:0:
402,192,21880,1,0,0:0:0:0:
36,192,22180,1,0,0:0:0:0:
182,192,22180,1,0,0:0:0:0:
329,192,22180,1,0,0:0:0:0:
475,192,22180,1,0,0:0:0:0:
109,192,22480,1,0,0:0:0:0:
256,192,22480,1,0,0:0:0:0:
402,192,22480,1,0,0:0:0:0:
329,192,22780,1,0,0:0:0:0:
475,192,22780,1,0,0:0:0:0:
36,192,22780,1,0,0:0:0:0:
182,192,22780,1,0,0:0:0:0:
402,192,22930,1,0,0:0:0:0:
256,192,22930,1,0,0:0:0:0:
109,192,22930,1,0,0:0:0:0:
329,192,23080,1,0,0:0:0:0:
475,192,23080,1,0,0:0:0:0:
36,192,23080,1,0,0:0:0:0:
182,192,23080,1,0,0:0:0:0:
402,192,23230,1,0,0:0:0:0:
256,192,23230,1,0,0:0:0:0:
109,192,23230,1,0,0:0:0:0:
329,192,23380,1,0,0:0:0:0:
475,192,23380,1,0,0:0:0:0:
36,192,23380,1,0,0:0:0:0:
182,192,23380,1,0,0:0:0:0:
402,192,23530,1,0,0:0:0:0:
256,192,23530,1,0,0:0:0:0:
109,192,23530,1,0,0:0:0:0:
329,192,23680,1,0,0:0:0:0:
475,192,23680,1,0,0:0:0:0:
36,192,23680,1,0,0:0:0:0:
182,192,23680,1,0,0:0:0:0:
402,192,23830,1,0,0:0:0:0:
256,192,23830,1,0,0:0:0:0:
109,192,23830,1,0,0:0:0:0:
329,192,23980,1,0,0:0:0:0:
475,192,23980,1,0,0:0:0:0:
36,192,23980,1,0,0:0:0:0:
182,192,23980,1,0,0:0:0:0:
402,192,24130,1,0,0:0:0:0:
256,192,24130,1,0,0:0:0:0:
109,192,24130,1,0,0:0:0:0:
329,192,24280,1,0,0:0:0:0:
475,192,24280,1,0,0:0:0:0:
36,192,24280,1,0,0:0:0:0:
182,192,24280,1,0,0:0:0:0:
402,192,24430,1,0,0:0:0:0:
256,192,24430,1,0,0:0:0:0:
109,192,24430,1,0,0:0:0:0:
329,192,24580,1,0,0:0:0:0:
475,192,24580,1,0,0:0:0:0:
36,192,24580,1,0,0:0:0:0:
182,192,24580,1,0,0:0:0:0:
402,192,24730,1,0,0:0:0:0:
256,192,24730,1,0,0:0:0:0:
109,192,24730,1,0,0:0:0:0:
329,192,24880,1,0,0:0:0:0:
475,192,24880,1,0,0:0:0:0:
36,192,24880,1,0,0:0:0:0:
182,192,24880,1,0,0:0:0:0:
402,192,25030,1,0,0:0:0:0:
256,192,25030,1,0,0:0:0:0:
109,192,25030,1,0,0:0:0:0:
36,192,25180,1,0,0:0:0:0:
182,192,25180,1,0,0:0:0:0:
329,192,25180,1,0,0:0:0:0:
475,192,25180,1,0,0:0:0:0:
109,192,25330,1,0,0:0:0:0:
256,192,25330,1,0,0:0:0:0:
402,192,25330,1,0,0:0:0:0:
36,192,25480,1,0,0:0:0:0:
182,192,25480,1,0,0:0:0:0:
329,192,25480,1,0,0:0:0:0:
475,192,25480,1,0,0:0:0:0:
109,192,25630,1,0,0:0:0:0:
256,192,25630,1,0,0:0:0:0:
402,192,25630,1,0,0:0:0:0:
36,192,25780,1,0,0:0:0:0:
182,192,25780,1,0,0:0:0:0:
329,192,25780,1,0,0:0:0:0:
475,192,25780,1,0,0:0:0:0:
109,192,25930,1,0,0:0:0:0:
256,192,25930,1,0,0:0:0:0:
402,192,25930,1,0,0:0:0:0:
36,192,26080,1,0,0:0:0:0:
182,192,26080,1,0,0:0:0:0:
329,192,26080,1,0,0:0:0:0:
475,192,26080,1,0,0:0:0:0:
109,192,26230,1,0,0:0:0:0:
256,192,26230,1,0,0:0:0:0:
402,192,26230,1,0,0:0:0:0:
329,192,26380,1,0,0:0:0:0:
475,192,26380,1,0,0:0:0:0:
36,192,26380,1,0,0:0:0:0:
182,192,26380,1,0,0:0:0:0:
402,192,26530,1,0,0:0:0:0:
256,192,26530,1,0,0:0:0:0:
109,192,26530,1,0,0:0:0:0:
329,192,26680,1,0,0:0:0:0:
475,192,26680,1,0,0:0:0:0:
36,192,26680,1,0,0:0:0:0:
182,192,26680,1,0,0:0:0:0:
402,192,26830,1,0,0:0:0:0:
256,192,26830,1,0,0:0:0:0:
109,192,26830,1,0,0:0:0:0:
329,192,26980,1,0,0:0:0:0:
475,192,26980,1,0,0:0:0:0:
36,192,26980,1,0,0:0:0:0:
182,192,26980,1,0,0:0:0:0:
402,192,27130,1,0,0:0:0:0:
256,192,27130,1,0,0:0:0:0:
109,192,27130,1,0,0:0:0:0:
329,192,27280,1,0,0:0:0:0:
475,192,27280,1,0,0:0:0:0:
36,192,27280,1,0,0:0:0:0:
182,192,27280,1,0,0:0:0:0:
402,192,27430,1,0,0:0:0:0:
256,192,27430,1,0,0:0:0:0:
109,192,27430,1,0,0:0:0:0:
36,192,27580,1,0,0:0:0:0:
182,192,27580,1,0,0:0:0:0:
329,192,27580,1,0,0:0:0:0:
475,192,27580,1,0,0:0:0:0:
109,192,27730,1,0,0:0:0:0:
256,192,27730,1,0,0:0:0:0:
402,192,27730,1,0,0:0:0:0:
36,192,27880,1,0,0:0:0:0:
182,192,27880,1,0,0:0:0:0:
329,192,27880,1,0,0:0:0:0:
475,192,27880,1,0,0:0:0:0:
109,192,28030,1,0,0:0:0:0:
256,192,28030,1,0,0:0:0:0:
402,192,28030,1,0,0:0:0:0:
36,192,28180,1,0,0:0:0:0:
182,192,28180,1,0,0:0:0:0:
329,192,28180,1,0,0:0:0:0:
475,192,28180,1,0,0:0:0:0:
109,192,28330,1,0,0:0:0:0:
256,192,28330,1,0,0:0:0:0:
402,192,28330,1,0,0:0:0:0:
36,192,28480,1,0,0:0:0:0:
182,192,28480,1,0,0:0:0:0:
329,192,28480,1,0,0:0:0:0:
475,192,28480,1,0,0:0:0:0:
109,192,28630,1,0,0:0:0:0:
256,192,28630,1,0,0:0:0:0:
402,192,28630,1,0,0:0:0:0:
36,192,28780,1,0,0:0:0:0:
182,192,28780,1,0,0:0:0:0:
329,192,28780,1,0,0:0:0:0:
475,192,28780,1,0,0:0:0:0:
109,192,28930,1,0,0:0:0:0:
256,192,28930,1,0,0:0:0:0:
402,192,28930,1,0,0:0:0:0:
36,192,29080,1,0,0:0:0:0:
182,192,29080,1,0,0:0:0:0:
329,192,29080,1,0,0:0:0:0:
475,192,29080,1,0,0:0:0:0:
109,192,29230,1,0,0:0:0:0:
256,192,29230,1,0,0:0:0:0:
402,192,29230,1,0,0:0:0:0:
36,192,29380,1,0,0:0:0:0:
182,192,29380,1,0,0:0:0:0:
329,192,29380,1,0,0:0:0:0:
475,192,29380,1,0,0:0:0:0:
109,192,29530,1,0,0:0:0:0:
256,192,29530,1,0,0:0:0:0:
402,192,29530,1,0,0:0:0:0:
36,192,29680,1,0,0:0:0:0:
182,192,29680,1,0,0:0:0:0:
329,192,29680,1,0,0:0:0:0:
475,192,29680,1,0,0:0:0:0:
109,192,29830,1,0,0:0:0:0:
256,192,29830,1,0,0:0:0:0:
402,192,29830,1,0,0:0:0:0:
329,192,29980,1,0,0:0:0:0:
475,192,29980,1,0,0:0:0:0:
36,192,29980,1,0,0:0:0:0:
182,192,29980,1,0,0:0:0:0:
402,192,30130,1,0,0:0:0:0:
256,192,30130,1,0,0:0:0:0:
109,192,30130,1,0,0:0:0:0:
329,192,30280,1,0,0:0:0:0:
475,192,30280,1,0,0:0:0:0:
36,192,30280,1,0,0:0:0:0:
182,192,30280,1,0,0:0:0:0:
402,192,30430,1,0,0:0:0:0:
256,192,30430,1,0,0:0:0:0:
109,192,30430,1,0,0:0:0:0:
329,192,30580,1,0,0:0:0:0:
475,192,30580,1,0,0:0:0:0:
36,192,30580,1,0,0:0:0:0:
182,192,30580,1,0,0:0:0:0:
402,192,30730,1,0,0:0:0:0:
256,192,30730,1,0,0:0:0:0:
109,192,30730,1,0,0:0:0:0:
329,192,30880,1,0,0:0:0:0:
475,192,30880,1,0,0:0:0:0:
36,192,30880,1,0,0:0:0:0:
182,192,30880,1,0,0:0:0:0:
402,192,31030,1,0,0:0:0:0:
256,192,31030,1,0,0:0:0:0:
109,192,31030,1,0,0:0:0:0:
36,192,31180,1,0,0:0:0:0:
182,192,31180,1,0,0:0:0:0:
329,192,31180,1,0,0:0:0:0:
475,192,31180,1,0,0:0:0:0:
109,192,31330,1,0,0:0:0:0:
256,192,31330,1,0,0:0:0:0:
402,192,31330,1,0,0:0:0:0:
36,192,31480,1,0,0:0:0:0:
182,192,31480,1,0,0:0:0:0:
329,192,31480,1,0,0:0:0:0:
475,192,31480,1,0,0:0:0:0:
109,192,31630,1,0,0:0:0:0:
256,192,31630,1,0,0:0:0:0:
402,192,31630,1,0,0:0:0:0:
36,192,31780,1,0,0:0:0:0:
182,192,31780,1,0,0:0:0:0:
329,192,31780,1,0,0:0:0:0:
475,192,31780,1,0,0:0:0:0:
109,192,31930,1,0,0:0:0:0:
256,192,31930,1,0,0:0:0:0:
402,192,31930,1,0,0:0:0:0:
36,192,32080,1,0,0:0:0:0:
182,192,32080,1,0,0:0:0:0:
329,192,32080,1,0,0:0:0:0:
475,192,32080,1,0,0:0:0:0:
109,192,32230,1,0,0:0:0:0:
256,192,32230,1,0,0:0:0:0:
402,192,32230,1,0,0:0:0:0:
329,192,32380,1,0,0:0:0:0:
475,192,32380,1,0,0:0:0:0:
36,192,32380,1,0,0:0:0:0:
182,192,32380,1,0,0:0:0:0:
402,192,32530,1,0,0:0:0:0:
256,192,32530,1,0,0:0:0:0:
109,192,32530,1,0,0:0:0:0:
329,192,32680,1,0,0:0:0:0:
475,192,32680,1,0,0:0:0:0:
36,192,32680,1,0,0:0:0:0:
182,192,32680,1,0,0:0:0:0:
402,192,32830,1,0,0:0:0:0:
256,192,32830,1,0,0:0:0:0:
109,192,32830,1,0,0:0:0:0:
329,192,32980,1,0,0:0:0:0:
475,192,32980,1,0,0:0:0:0:
36,192,32980,1,0,0:0:0:0:
182,192,32980,1,0,0:0:0:0:
402,192,33130,1,0,0:0:0:0:
256,192,33130,1,0,0:0:0:0:
109,192,33130,1,0,0:0:0:0:
329,192,33280,1,0,0:0:0:0:
475,192,33280,1,0,0:0:0:0:
36,192,33280,1,0,0:0:0:0:
182,192,33280,1,0,0:0:0:0:
402,192,33430,1,0,0:0:0:0:
256,192,33430,1,0,0:0:0:0:
109,192,33430,1,0,0:0:0:0:
329,192,33580,1,0,0:0:0:0:
475,192,33580,1,0,0:0:0:0:
36,192,33580,1,0,0:0:0:0:
182,192,33580,1,0,0:0:0:0:
402,192,33730,1,0,0:0:0:0:
256,192,33730,1,0,0:0:0:0:
109,192,33730,1,0,0:0:0:0:
329,192,33880,1,0,0:0:0:0:
475,192,33880,1,0,0:0:0:0:
36,192,33880,1,0,0:0:0:0:
182,192,33880,1,0,0:0:0:0:
402,192,34030,1,0,0:0:0:0:
256,192,34030,1,0,0:0:0:0:
109,192,34030,1,0,0:0:0:0:
329,192,34180,1,0,0:0:0:0:
475,192,34180,1,0,0:0:0:0:
36,192,34180,1,0,0:0:0:0:
182,192,34180,1,0,0:0:0:0:
402,192,34330,1,0,0:0:0:0:
256,192,34330,1,0,0:0:0:0:
109,192,34330,1,0,0:0:0:0:
329,192,34480,1,0,0:0:0:0:
475,192,34480,1,0,0:0:0:0:
36,192,34480,1,0,0:0:0:0:
182,192,34480,1,0,0:0:0:0:
402,192,34630,1,0,0:0:0:0:
256,192,34630,1,0,0:0:0:0:
109,192,34630,1,0,0:0:0:0:
36,192,34780,1,0,0:0:0:0:
182,192,34780,1,0,0:0:0:0:
329,192,34780,1,0,0:0:0:0:
475,192,34780,1,0,0:0:0:0:
109,192,34930,1,0,0:0:0:0:
256,192,34930,1,0,0:0:0:0:
402,192,34930,1,0,0:0:0:0:
36,192,35080,1,0,0:0:0:0:
182,192,35080,1,0,0:0:0:0:
329,192,35080,1,0,0:0:0:0:
475,192,35080,1,0,0:0:0:0:
109,192,35230,1,0,0:0:0:0:
256,192,35230,1,0,0:0:0:0:
402,192,35230,1,0,0:0:0:0:
36,192,35380,1,0,0:0:0:0:
182,192,35380,1,0,0:0:0:0:
329,192,35380,1,0,0:0:0:0:
475,192,35380,1,0,0:0:0:0:
109,192,35530,1,0,0:0:0:0:
256,192,35530,1,0,0:0:0:0:
402,192,35530,1,0,0:0:0:0:
36,192,35680,1,0,0:0:0:0:
182,192,35680,1,0,0:0:0:0:
329,192,35680,1,0,0:0:0:0:
475,192,35680,1,0,0:0:0:0:
109,192,35830,1,0,0:0:0:0:
256,192,35830,1,0,0:0:0:0:
402,192,35830,1,0,0:0:0:0:
329,192,35980,1,0,0:0:0:0:
475,192,35980,1,0,0:0:0:0:
36,192,35980,1,0,0:0:0:0:
182,192,35980,1,0,0:0:0:0:
402,192,36130,1,0,0:0:0:0:
256,192,36130,1,0,0:0:0:0:
109,192,36130,1,0,0:0:0:0:
329,192,36280,1,0,0:0:0:0:
475,192,36280,1,0,0:0:0:0:
36,192,36280,1,0,0:0:0:0:
182,192,36280,1,0,0:0:0:0:
402,192,36430,1,0,0:0:0:0:
256,192,36430,1,0,0:0:0:0:
109,192,36430,1,0,0:0:0:0:
329,192,36580,1,0,0:0:0:0:
475,192,36580,1,0,0:0:0:0:
36,192,36580,1,0,0:0:0:0:
182,192,36580,1,0,0:0:0:0:
402,192,36730,1,0,0:0:0:0:
256,192,36730,1,0,0:0:0:0:
109,192,36730,1,0,0:0:0:0:
329,192,36880,1,0,0:0:0:0:
475,192,36880,1,0,0:0:0:0:
36,192,36880,1,0,0:0:0:0:
182,192,36880,1,0,0:0:0:0:
402,192,37030,1,0,0:0:0:0:
256,192,37030,1,0,0:0:0:0:
109,192,37030,1,0,0:0:0:0:
36,192,37180,1,0,0:0:0:0:
182,192,37180,1,0,0:0:0:0:
329,192,37180,1,0,0:0:0:0:
475,192,37180,1,0,0:0:0:0:
109,192,37330,1,0,0:0:0:0:
256,192,37330,1,0,0:0:0:0:
402,192,37330,1,0,0:0:0:0:
36,192,37480,1,0,0:0:0:0:
182,192,37480,1,0,0:0:0:0:
329,192,37480,1,0,0:0:0:0:
475,192,37480,1,0,0:0:0:0:
109,192,37630,1,0,0:0:0:0:
256,192,37630,1,0,0:0:0:0:
402,192,37630,1,0,0:0:0:0:
36,192,37780,1,0,0:0:0:0:
182,192,37780,1,0,0:0:0:0:
329,192,37780,1,0,0:0:0:0:
475,192,37780,1,0,0:0:0:0:
109,192,37930,1,0,0:0:0:0:
256,192,37930,1,0,0:0:0:0:
402,192,37930,1,0,0:0:0:0:
36,192,38080,1,0,0:0:0:0:
182,192,38080,1,0,0:0:0:0:
329,192,38080,1,0,0:0:0:0:
475,192,38080,1,0,0:0:0:0:
109,192,38230,1,0,0:0:0:0:
256,192,38230,1,0,0:0:0:0:
402,192,38230,1,0,0:0:0:0:
36,192,38380,1,0,0:0:0:0:
182,192,38380,1,0,0:0:0:0:
329,192,38380,1,0,0:0:0:0:
475,192,38380,1,0,0:0:0:0:
109,192,38530,1,0,0:0:0:0:
256,192,38530,1,0,0:0:0:0:
402,192,38530,1,0,0:0:0:0:
36,192,38680,1,0,0:0:0:0:
182,192,38680,1,0,0:0:0:0:
329,192,38680,1,0,0:0:0:0:
475,192,38680,1,0,0:0:0:0:
109,192,38830,1,0,0:0:0:0:
256,192,38830,1,0,0:0:0:0:
402,192,38830,1,0,0:0:0:0:
36,192,38980,1,0,0:0:0:0:
182,192,38980,1,0,0:0:0:0:
329,192,38980,1,0,0:0:0:0:
475,192,38980,1,0,0:0:0:0:
109,192,39130,1,0,0:0:0:0:
256,192,39130,1,0,0:0:0:0:
402,192,39130,1,0,0:0:0:0:
36,192,39280,1,0,0:0:0:0:
182,192,39280,1,0,0:0:0:0:
329,192,39280,1,0,0:0:0:0:
475,192,39280,1,0,0:0:0:0:
109,192,39430,1,0,0:0:0:0:
256,192,39430,1,0,0:0:0:0:
402,192,39430,1,0,0:0:0:0:
329,192,39580,1,0,0:0:0:0:
475,192,39580,1,0,0:0:0:0:
36,192,39580,1,0,0:0:0:0:
182,192,39580,1,0,0:0:0:0:
402,192,39730,1,0,0:0:0:0:
256,192,39730,1,0,0:0:0:0:
109,192,39730,1,0,0:0:0:0:
329,192,39880,1,0,0:0:0:0:
475,192,39880,1,0,0:0:0:0:
36,192,39880,1,0,0:0:0:0:
182,192,39880,1,0,0:0:0:0:
402,192,40030,1,0,0:0:0:0:
256,192,40030,1,0,0:0:0:0:
109,192,40030,1,0,0:0:0:0:
329,192,40180,1,0,0:0:0:0:
475,192,40180,1,0,0:0:0:0:
36,192,40180,1,0,0:0:0:0:
182,192,40180,1,0,0:0:0:0:
402,192,40330,1,0,0:0:0:0:
256,192,40330,1,0,0:0:0:0:
109,192,40330,1,0,0:0:0:0:
329,192,40480,1,0,0:0:0:0:
475,192,40480,1,0,0:0:0:0:
36,192,40480,1,0,0:0:0:0:
182,192,40480,1,0,0:0:0:0:
402,192,40630,1,0,0:0:0:0:
256,192,40630,1,0,0:0:0:0:
109,192,40630,1,0,0:0:0:0:
36,192,40780,1,0,0:0:0:0:
182,192,40780,1,0,0:0:0:0:
329,192,40780,1,0,0:0:0:0:
475,192,40780,1,0,0:0:0:0:
109,192,40930,1,0,0:0:0:0:
256,192,40930,1,0,0:0:0:0:
402,192,40930,1,0,0:0:0:0:
36,192,41080,1,0,0:0:0:0:
182,192,41080,1,0,0:0:0:0:
329,192,41080,1,0,0:0:0:0:
475,192,41080,1,0,0:0:0:0:
109,192,41230,1,0,0:0:0:0:
256,192,41230,1,0,0:0:0:0:
402,192,41230,1,0,0:0:0:0:
36,192,41380,1,0,0:0:0:0:
182,192,41380,1,0,0:0:0:0:
329,192,41380,1,0,0:0:0:0:
475,192,41380,1,0,0:0:0:0:
109,192,41530,1,0,0:0:0:0:
256,192,41530,1,0,0:0:0:0:
402,192,41530,1,0,0:0:0:0:
36,192,41680,1,0,0:0:0:0:
182,192,41680,1,0,0:0:0:0:
329,192,41680,1,0,0:0:0:0:
475,192,41680,1,0,0:0:0:0:
109,192,41830,1,0,0:0:0:0:
256,192,41830,1,0,0:0:0:0:
402,192,41830,1,0,0:0:0:0:
329,192,41980,1,0,0:0:0:0:
475,192,41980,1,0,0:0:0:0:
36,192,41980,1,0,0:0:0:0:
182,192,41980,1,0,0:0:0:0:
402,192,42130,1,0,0:0:0:0:
256,192,42130,1,0,0:0:0:0:
109,192,42130,1,0,0:0:0:0:
329,192,42280,1,0,0:0:0:0:
475,192,42280,1,0,0:0:0:0:
36,192,42280,1,0,0:0:0:0:
182,192,42280,1,0,0:0:0:0:
402,192,42430,1,0,0:0:0:0:
256,192,42430,1,0,0:0:0:0:
109,192,42430,1,0,0:0:0:0:
329,192,42580,1,0,0:0:0:0:
475,192,42580,1,0,0:0:0:0:
36,192,42580,1,0,0:0:0:0:
182,192,42580,1,0,0:0:0:0:
402,192,42730,1,0,0:0:0:0:
256,192,42730,1,0,0:0:0:0:
109,192,42730,1,0,0:0:0:0:
329,192,42880,1,0,0:0:0:0:
475,192,42880,1,0,0:0:0:0:
36,192,42880,1,0,0:0:0:0:
182,192,42880,1,0,0:0:0:0:
402,192,43030,1,0,0:0:0:0:
256,192,43030,1,0,0:0:0:0:
109,192,43030,1,0,0:0:0:0:
329,192,43180,1,0,0:0:0:0:
475,192,43180,1,0,0:0:0:0:
36,192,43180,1,0,0:0:0:0:
182,192,43180,1,0,0:0:0:0:
402,192,43330,1,0,0:0:0:0:
256,192,43330,1,0,0:0:0:0:
109,192,43330,1,0,0:0:0:0:
329,192,43480,1,0,0:0:0:0:
475,192,43480,1,0,0:0:0:0:
36,192,43480,1,0,0:0:0:0:
182,192,43480,1,0,0:0:0:0:
402,192,43630,1,0,0:0:0:0:
256,192,43630,1,0,0:0:0:0:
109,192,43630,1,0,0:0:0:0:
329,192,43780,1,0,0:0:0:0:
475,192,43780,1,0,0:0:0:0:
36,192,43780,1,0,0:0:0:0:
182,192,43780,1,0,0:0:0:0:
402,192,43930,1,0,0:0:0:0:
256,192,43930,1,0,0:0:0:0:
109,192,43930,1,0,0:0:0:0:
329,192,44080,1,0,0:0:0:0:
475,192,44080,1,0,0:0:0:0:
36,192,44080,1,0,0:0:0:0:
182,192,44080,1,0,0:0:0:0:
402,192,44230,1,0,0:0:0:0:
256,192,44230,1,0,0:0:0:0:
109,192,44230,1,0,0:0:0:0:
36,192,44380,1,0,0:0:0:0:
182,192,44380,1,0,0:0:0:0:
329,192,44380,1,0,0:0:0:0:
475,192,44380,1,0,0:0:0:0:
109,192,44530,1,0,0:0:0:0:
256,192,44530,1,0,0:0:0:0:
402,192,44530,1,0,0:0:0:0:
36,192,44680,1,0,0:0:0:0:
182,192,44680,1,0,0:0:0:0:
329,192,44680,1,0,0:0:0:0:
475,192,44680,1,0,0:0:0:0:
109,192,44830,1,0,0:0:0:0:
256,192,44830,1,0,0:0:0:0:
402,192,44830,1,0,0:0:0:0:
36,192,44980,1,0,0:0:0:0:
182,192,44980,1,0,0:0:0:0:
329,192,44980,1,0,0:0:0:0:
475,192,44980,1,0,0:0:0:0:
109,192,45130,1,0,0:0:0:0:
256,192,45130,1,0,0:0:0:0:
402,192,45130,1,0,0:0:0:0:
36,192,45280,1,0,0:0:0:0:
182,192,45280,1,0,0:0:0:0:
329,192,45280,1,0,0:0:0:0:
475,192,45280,1,0,0:0:0:0:
109,192,45430,1,0,0:0:0:0:
256,192,45430,1,0,0:0:0:0:
402,192,45430,1,0,0:0:0:0:
329,192,45580,1,0,0:0:0:0:
475,192,45580,1,0,0:0:0:0:
36,192,45580,1,0,0:0:0:0:
182,192,45580,1,0,0:0:0:0:
402,192,45730,1,0,0:0:0:0:
256,192,45730,1,0,0:0:0:0:
109,192,45730,1,0,0:0:0:0:
329,192,45880,1,0,0:0:0:0:
475,192,45880,1,0,0:0:0:0:
36,192,45880,1,0,0:0:0:0:
182,192,45880,1,0,0:0:0:0:
402,192,46030,1,0,0:0:0:0:
256,192,46030,1,0,0:0:0:0:
109,192,46030,1,0,0:0:0:0:
329,192,46180,1,0,0:0:0:0:
475,192,46180,1,0,0:0:0:0:
36,192,46180,1,0,0:0:0:0:
182,192,46180,1,0,0:0:0:0:
402,192,46330,1,0,0:0:0:0:
256,192,46330,1,0,0:0:0:0:
109,192,46330,1,0,0:0:0:0:
329,192,46480,1,0,0:0:0:0:
475,192,46480,1,0,0:0:0:0:
36,192,46480,1,0,0:0:0:0:
182,192,46480,1,0,0:0:0:0:
402,192,46630,1,0,0:0:0:0:
256,192,46630,1,0,0:0:0:0:
109,192,46630,1,0,0:0:0:0:
36,192,46780,1,0,0:0:0:0:
182,192,46780,1,0,0:0:0:0:
329,192,46780,1,0,0:0:0:0:
475,192,46780,1,0,0:0:0:0:
109,192,46930,1,0,0:0:0:0:
256,192,46930,1,0,0:0:0:0:
402,192,46930,1,0,0:0:0:0:
36,192,47080,1,0,0:0:0:0:
182,192,47080,1,0,0:0:0:0:
329,192,47080,1,0,0:0:0:0:
475,192,47080,1,0,0:0:0:0:
109,192,47230,1,0,0:0:0:0:
256,192,47230,1,0,0:0:0:0:
402,192,47230,1,0,0:0:0:0:
36,192,47380,1,0,0:0:0:0:
182,192,47380,1,0,0:0:0:0:
329,192,47380,1,0,0:0:0:0:
475,192,47380,1,0,0:0:0:0:
109,192,47530,1,0,0:0:0:0:
256,192,47530,1,0,0:0:0:0:
402,192,47530,1,0,0:0:0:0:
36,192,47680,1,0,0:0:0:0:
182,192,47680,1,0,0:0:0:0:
329,192,47680,1,0,0:0:0:0:
475,192,47680,1,0,0:0:0:0:
109,192,47830,1,0,0:0:0:0:
256,192,47830,1,0,0:0:0:0:
402,192,47830,1,0,0:0:0:0:
36,192,47980,1,0,0:0:0:0:
182,192,47980,1,0,0:0:0:0:
329,192,47980,1,0,0:0:0:0:
475,192,47980,1,0,0:0:0:0:
109,192,48130,1,0,0:0:0:0:
256,192,48130,1,0,0:0:0:0:
402,192,48130,1,0,0:0:0:0:
36,192,48280,1,0,0:0:0:0:
182,192,48280,1,0,0:0:0:0:
329,192,48280,1,0,0:0:0:0:
475,192,48280,1,0,0:0:0:0:
109,192,48430,1,0,0:0:0:0:
256,192,48430,1,0,0:0:0:0:
402,192,48430,1,0,0:0:0:0:
36,192,48580,1,0,0:0:0:0:
182,192,48580,1,0,0:0:0:0:
329,192,48580,1,0,0:0:0:0:
475,192,48580,1,0,0:0:0:0:
109,192,48730,1,0,0:0:0:0:
256,192,48730,1,0,0:0:0:0:
402,192,48730,1,0,0:0:0:0:
36,192,48880,1,0,0:0:0:0:
182,192,48880,1,0,0:0:0:0:
329,192,48880,1,0,0:0:0:0:
475,192,48880,1,0,0:0:0:0:
109,192,49030,1,0,0:0:0:0:
256,192,49030,1,0,0:0:0:0:
402,192,49030,1,0,0:0:0:0:
329,192,49180,1,0,0:0:0:0:
475,192,49180,1,0,0:0:0:0:
36,192,49180,1,0,0:0:0:0:
182,192,49180,1,0,0:0:0:0:
402,192,49330,1,0,0:0:0:0:
256,192,49330,1,0,0:0:0:0:
109,192,49330,1,0,0:0:0:0:
329,192,49480,1,0,0:0:0:0:
475,192,49480,1,0,0:0:0:0:
36,192,49480,1,0,0:0:0:0:
182,192,49480,1,0,0:0:0:0:
402,192,49630,1,0,0:0:0:0:
256,192,49630,1,0,0:0:0:0:
109,192,49630,1,0,0:0:0:0:
329,192,49780,1,0,0:0:0:0:
475,192,49780,1,0,0:0:0:0:
36,192,49780,1,0,0:0:0:0:
182,192,49780,1,0,0:0:0:0:
402,192,49930,1,0,0:0:0:0:
256,192,49930,1,0,0:0:0:0:
109,192,49930,1,0,0:0:0:0:
329,192,50080,1,0,0:0:0:0:
475,192,50080,1,0,0:0:0:0:
36,192,50080,1,0,0:0:0:0:
182,192,50080,1,0,0:0:0:0:
402,192,50230,1,0,0:0:0:0:
256,192,50230,1,0,0:0:0:0:
109,192,50230,1,0,0:0:0:0:
36,192,50380,1,0,0:0:0:0:
182,192,50380,1,0,0:0:0:0:
329,192,50380,1,0,0:0:0:0:
475,192,50380,1,0,0:0:0:0:
109,192,50530,1,0,0:0:0:0:
256,192,50530,1,0,0:0:0:0:
402,192,50530,1,0,0:0:0:0:
36,192,50680,1,0,0:0:0:0:
182,192,50680,1,0,0:0:0:0:
329,192,50680,1,0,0:0:0:0:
475,192,50680,1,0,0:0:0:0:
109,192,50830,1,0,0:0:0:0:
256,192,50830,1,0,0:0:0:0:
402,192,50830,1,0,0:0:0:0:
36,192,50980,1,0,0:0:0:0:
182,192,50980,1,0,0:0:0:0:
329,192,50980,1,0,0:0:0:0:
475,192,50980,1,0,0:0:0:0:
109,192,51130,1,0,0:0:0:0:
256,192,51130,1,0,0:0:0:0:
402,192,51130,1,0,0:0:0:0:
36,192,51280,1,0,0:0:0:0:
182,192,51280,1,0,0:0:0:0:
329,192,51280,1,0,0:0:0:0:
475,192,51280,1,0,0:0:0:0:
109,192,51430,1,0,0:0:0:0:
256,192,51430,1,0,0:0:0:0:
402,192,51430,1,0,0:0:0:0:
329,192,51580,1,0,0:0:0:0:
475,192,51580,1,0,0:0:0:0:
36,192,51580,1,0,0:0:0:0:
182,192,51580,1,0,0:0:0:0:
402,192,51730,1,0,0:0:0:0:
256,192,51730,1,0,0:0:0:0:
109,192,51730,1,0,0:0:0:0:
329,192,51880,1,0,0:0:0:0:
475,192,51880,1,0,0:0:0:0:
36,192,51880,1,0,0:0:0:0:
182,192,51880,1,0,0:0:0:0:
402,192,52030,1,0,0:0:0:0:
256,192,52030,1,0,0:0:0:0:
109,192,52030,1,0,0:0:0:0:
329,192,52180,1,0,0:0:0:0:
475,192,52180,1,0,0:0:0:0:
36,192,52180,1,0,0:0:0:0:
182,192,52180,1,0,0:0:0:0:
402,192,52330,1,0,0:0:0:0:
256,192,52330,1,0,0:0:0:0:
109,192,52330,1,0,0:0:0:0:
329,192,52480,1,0,0:0:0:0:
475,192,52480,1,0,0:0:0:0:
36,192,52480,1,0,0:0:0:0:
182,192,52480,1,0,0:0:0:0:
402,192,52630,1,0,0:0:0:0:
256,192,52630,1,0,0:0:0:0:
109,192,52630,1,0,0:0:0:0:
329,192,52780,1,0,0:0:0:0:
475,192,52780,1,0,0:0:0:0:
36,192,52780,1,0,0:0:0:0:
182,192,52780,1,0,0:0:0:0:
402,192,52930,1,0,0:0:0:0:
256,192,52930,1,0,0:0:0:0:
109,192,52930,1,0,0:0:0:0:
329,192,53080,1,0,0:0:0:0:
475,192,53080,1,0,0:0:0:0:
36,192,53080,1,0,0:0:0:0:
182,192,53080,1,0,0:0:0:0:
402,192,53230,1,0,0:0:0:0:
256,192,53230,1,0,0:0:0:0:
109,192,53230,1,0,0:0:0:0:
329,192,53380,1,0,0:0:0:0:
475,192,53380,1,0,0:0:0:0:
36,192,53380,1,0,0:0:0:0:
182,192,53380,1,0,0:0:0:0:
402,192,53530,1,0,0:0:0:0:
256,192,53530,1,0,0:0:0:0:
109,192,53530,1,0,0:0:0:0:
329,192,53680,1,0,0:0:0:0:
475,192,53680,1,0,0:0:0:0:
36,192,53680,1,0,0:0:0:0:
182,192,53680,1,0,0:0:0:0:
402,192,53830,1,0,0:0:0:0:
256,192,53830,1,0,0:0:0:0:
109,192,53830,1,0,0:0:0:0:
36,192,53980,1,0,0:0:0:0:
182,192,53980,1,0,0:0:0:0:
329,192,53980,1,0,0:0:0:0:
475,192,53980,1,0,0:0:0:0:
109,192,54130,1,0,0:0:0:0:
256,192,54130,1,0,0:0:0:0:
402,192,54130,1,0,0:0:0:0:
36,192,54280,1,0,0:0:0:0:
182,192,54280,1,0,0:0:0:0:
329,192,54280,1,0,0:0:0:0:
475,192,54280,1,0,0:0:0:0:
109,192,54430,1,0,0:0:0:0:
256,192,54430,1,0,0:0:0:0:
402,192,54430,1,0,0:0:0:0:
36,192,54580,1,0,0:0:0:0:
182,192,54580,1,0,0:0:0:0:
329,192,54580,1,0,0:0:0:0:
475,192,54580,1,0,0:0:0:0:
109,192,54730,1,0,0:0:0:0:
256,192,54730,1,0,0:0:0:0:
402,192,54730,1,0,0:0:0:0:
36,192,54880,1,0,0:0:0:0:
182,192,54880,1,0,0:0:0:0:
329,192,54880,1,0,0:0:0:0:
475,192,54880,1,0,0:0:0:0:
109,192,55030,1,0,0:0:0:0:
256,192,55030,1,0,0:0:0:0:
402,192,55030,1,0,0:0:0:0:
329,192,55180,1,0,0:0:0:0:
475,192,55180,1,0,0:0:0:0:
36,192,55180,1,0,0:0:0:0:
182,192,55180,1,0,0:0:0:0:
402,192,55330,1,0,0:0:0:0:
256,192,55330,1,0,0:0:0:0:
109,192,55330,1,0,0:0:0:0:
329,192,55480,1,0,0:0:0:0:
475,192,55480,1,0,0:0:0:0:
36,192,55480,1,0,0:0:0:0:
182,192,55480,1,0,0:0:0:0:
402,192,55630,1,0,0:0:0:0:
256,192,55630,1,0,0:0:0:0:
109,192,55630,1,0,0:0:0:0:
329,192,55780,1,0,0:0:0:0:
475,192,55780,1,0,0:0:0:0:
36,192,55780,1,0,0:0:0:0:
182,192,55780,1,0,0:0:0:0:
402,192,55930,1,0,0:0:0:0:
256,192,55930,1,0,0:0:0:0:
109,192,55930,1,0,0:0:0:0:
329,192,56080,1,0,0:0:0:0:
475,192,56080,1,0,0:0:0:0:
36,192,56080,1,0,0:0:0:0:
182,192,56080,1,0,0:0:0:0:
402,192,56230,1,0,0:0:0:0:
256,192,56230,1,0,0:0:0:0:
109,192,56230,1,0,0:0:0:0:
36,192,56380,1,0,0:0:0:0:
182,192,56380,1,0,0:0:0:0:
329,192,56380,1,0,0:0:0:0:
475,192,56380,1,0,0:0:0:0:
109,192,56530,1,0,0:0:0:0:
256,192,56530,1,0,0:0:0:0:
402,192,56530,1,0,0:0:0:0:
36,192,56680,1,0,0:0:0:0:
182,192,56680,1,0,0:0:0:0:
329,192,56680,1,0,0:0:0:0:
475,192,56680,1,0,0:0:0:0:
109,192,56830,1,0,0:0:0:0:
256,192,56830,1,0,0:0:0:0:
402,192,56830,1,0,0:0:0:0:
36,192,56980,1,0,0:0:0:0:
182,192,56980,1,0,0:0:0:0:
329,192,56980,1,0,0:0:0:0:
475,192,56980,1,0,0:0:0:0:
109,192,57130,1,0,0:0:0:0:
256,192,57130,1,0,0:0:0:0:
402,192,57130,1,0,0:0:0:0:
36,192,57280,1,0,0:0:0:0:
182,192,57280,1,0,0:0:0:0:
329,192,57280,1,0,0:0:0:0:
475,192,57280,1,0,0:0:0:0:
109,192,57430,1,0,0:0:0:0:
256,192,57430,1,0,0:0:0:0:
402,192,57430,1,0,0:0:0:0:
36,192,57580,1,0,0:0:0:0:
182,192,57580,1,0,0:0:0:0:
329,192,57580,1,0,0:0:0:0:
475,192,57580,1,0,0:0:0:0:
109,192,57730,1,0,0:0:0:0:
256,192,57730,1,0,0:0:0:0:
402,192,57730,1,0,0:0:0:0:
36,192,57880,1,0,0:0:0:0:
182,192,57880,1,0,0:0:0:0:
329,192,57880,1,0,0:0:0:0:
475,192,57880,1,0,0:0:0:0:
109,192,58030,1,0,0:0:0:0:
256,192,58030,1,0,0:0:0:0:
402,192,58030,1,0,0:0:0:0:
36,192,58180,1,0,0:0:0:0:
182,192,58180,1,0,0:0:0:0:
329,192,58180,1,0,0:0:0:0:
475,192,58180,1,0,0:0:0:0:
109,192,58330,1,0,0:0:0:0:
256,192,58330,1,0,0:0:0:0:
402,192,58330,1,0,0:0:0:0:
36,192,58480,1,0,0:0:0:0:
182,192,58480,1,0,0:0:0:0:
329,192,58480,1,0,0:0:0:0:
475,192,58480,1,0,0:0:0:0:
109,192,58630,1,0,0:0:0:0:
256,192,58630,1,0,0:0:0:0:
402,192,58630,1,0,0:0:0:0:
329,192,58780,1,0,0:0:0:0:
475,192,58780,1,0,0:0:0:0:
36,192,58780,1,0,0:0:0:0:
182,192,58780,1,0,0:0:0:0:
402,192,58930,1,0,0:0:0:0:
256,192,58930,1,0,0:0:0:0:
109,192,58930,1,0,0:0:0:0:
329,192,59080,1,0,0:0:0:0:
475,192,59080,1,0,0:0:0:0:
36,192,59080,1,0,0:0:0:0:
182,192,59080,1,0,0:0:0:0:
402,192,59230,1,0,0:0:0:0:
256,192,59230,1,0,0:0:0:0:
109,192,59230,1,0,0:0:0:0:
329,192,59380,1,0,0:0:0:0:
475,192,59380,1,0,0:0:0:0:
36,192,59380,1,0,0:0:0:0:
182,192,59380,1,0,0:0:0:0:
402,192,59530,1,0,0:0:0:0:
256,192,59530,1,0,0:0:0:0:
109,192,59530,1,0,0:0:0:0:
329,192,59680,1,0,0:0:0:0:
475,192,59680,1,0,0:0:0:0:
36,192,59680,1,0,0:0:0:0:
182,192,59680,1,0,0:0:0:0:
402,192,59830,1,0,0:0:0:0:
256,192,59830,1,0,0:0:0:0:
109,192,59830,1,0,0:0:0:0:
36,192,59980,1,0,0:0:0:0:
182,192,59980,1,0,0:0:0:0:
329,192,59980,1,0,0:0:0:0:
475,192,59980,1,0,0:0:0:0:
109,192,60280,1,0,0:0:0:0:
256,192,60280,1,0,0:0:0:0:
402,192,60280,1,0,0:0:0:0:
36,192,60580,1,0,0:0:0:0:
182,192,60580,1,0,0:0:0:0:
329,192,60580,1,0,0:0:0:0:
475,192,60580,1,0,0:0:0:0:
109,192,60880,1,0,0:0:0:0:
256,192,60880,1,0,0:0:0:0:
402,192,60880,1,0,0:0:0:0:
36,192,61180,1,0,0:0:0:0:
182,192,61180,1,0,0:0:0:0:
329,192,61180,1,0,0:0:0:0:
475,192,61180,1,0,0:0:0:0:
109,192,61330,1,0,0:0:0:0:
256,192,61330,1,0,0:0:0:0:
402,192,61330,1,0,0:0:0:0:
36,192,61480,1,0,0:0:0:0:
182,192,61480,1,0,0:0:0:0:
329,192,61480,1,0,0:0:0:0:
475,192,61480,1,0,0:0:0:0:
109,192,61630,1,0,0:0:0:0:
256,192,61630,1,0,0:0:0:0:
402,192,61630,1,0,0:0:0:0:
36,192,61780,1,0,0:0:0:0:
182,192,61780,1,0,0:0:0:0:
329,192,61780,1,0,0:0:0:0:
475,192,61780,1,0,0:0:0:0:
109,192,61930,1,0,0:0:0:0:
256,192,61930,1,0,0:0:0:0:
402,192,61930,1,0,0:0:0:0:
36,192,62080,1,0,0:0:0:0:
182,192,62080,1,0,0:0:0:0:
329,192,62080,1,0,0:0:0:0:
475,192,62080,1,0,0:0:0:0:
109,192,62230,1,0,0:0:0:0:
256,192,62230,1,0,0:0:0:0:
402,192,62230,1,0,0:0:0:0:
36,192,62380,1,0,0:0:0:0:
182,192,62380,1,0,0:0:0:0:
329,192,62380,1,0,0:0:0:0:
475,192,62380,1,0,0:0:0:0:
109,192,62530,1,0,0:0:0:0:
256,192,62530,1,0,0:0:0:0:
402,192,62530,1,0,0:0:0:0:
36,192,62680,1,0,0:0:0:0:
182,192,62680,1,0,0:0:0:0:
329,192,62680,1,0,0:0:0:0:
475,192,62680,1,0,0:0:0:0:
109,192,62830,1,0,0:0:0:0:
256,192,62830,1,0,0:0:0:0:
402,192,62830,1,0,0:0:0:0:
36,192,62980,1,0,0:0:0:0:
182,192,62980,1,0,0:0:0:0:
329,192,62980,1,0,0:0:0:0:
475,192,62980,1,0,0:0:0:0:
109,192,63130,1,0,0:0:0:0:
256,192,63130,1,0,0:0:0:0:
402,192,63130,1,0,0:0:0:0:
36,192,63280,1,0,0:0:0:0:
182,192,63280,1,0,0:0:0:0:
329,192,63280,1,0,0:0:0:0:
475,192,63280,1,0,0:0:0:0:
109,192,63430,1,0,0:0:0:0:
256,192,63430,1,0,0:0:0:0:
402,192,63430,1,0,0:0:0:0:
329,192,63580,1,0,0:0:0:0:
475,192,63580,1,0,0:0:0:0:
36,192,63580,1,0,0:0:0:0:
182,192,63580,1,0,0:0:0:0:
402,192,63730,1,0,0:0:0:0:
256,192,63730,1,0,0:0:0:0:
109,192,63730,1,0,0:0:0:0:
329,192,63880,1,0,0:0:0:0:
475,192,63880,1,0,0:0:0:0:
36,192,63880,1,0,0:0:0:0:
182,192,63880,1,0,0:0:0:0:
402,192,64030,1,0,0:0:0:0:
256,192,64030,1,0,0:0:0:0:
109,192,64030,1,0,0:0:0:0:
329,192,64180,1,0,0:0:0:0:
475,192,64180,1,0,0:0:0:0:
36,192,64180,1,0,0:0:0:0:
182,192,64180,1,0,0:0:0:0:
402,192,64330,1,0,0:0:0:0:
256,192,64330,1,0,0:0:0:0:
109,192,64330,1,0,0:0:0:0:
329,192,64480,1,0,0:0:0:0:
475,192,64480,1,0,0:0:0:0:
36,192,64480,1,0,0:0:0:0:
182,192,64480,1,0,0:0:0:0:
402,192,64630,1,0,0:0:0:0:
256,192,64630,1,0,0:0:0:0:
109,192,64630,1,0,0:0:0:0:
36,192,64780,1,0,0:0:0:0:
182,192,64780,1,0,0:0:0:0:
329,192,64780,1,0,0:0:0:0:
475,192,64780,1,0,0:0:0:0:
109,192,64930,1,0,0:0:0:0:
256,192,64930,1,0,0:0:0:0:
402,192,64930,1,0,0:0:0:0:
36,192,65080,1,0,0:0:0:0:
182,192,65080,1,0,0:0:0:0:
329,192,65080,1,0,0:0:0:0:
475,192,65080,1,0,0:0:0:0:
109,192,65230,1,0,0:0:0:0:
256,192,65230,1,0,0:0:0:0:
402,192,65230,1,0,0:0:0:0:
36,192,65380,1,0,0:0:0:0:
182,192,65380,1,0,0:0:0:0:
329,192,65380,1,0,0:0:0:0:
475,192,65380,1,0,0:0:0:0:
109,192,65530,1,0,0:0:0:0:
256,192,65530,1,0,0:0:0:0:
402,192,65530,1,0,0:0:0:0:
36,192,65680,1,0,0:0:0:0:
182,192,65680,1,0,0:0:0:0:
329,192,65680,1,0,0:0:0:0:
475,192,65680,1,0,0:0:0:0:
109,192,65830,1,0,0:0:0:0:
256,192,65830,1,0,0:0:0:0:
402,192,65830,1,0,0:0:0:0:
329,192,65980,1,0,0:0:0:0:
475,192,65980,1,0,0:0:0:0:
36,192,65980,1,0,0:0:0:0:
182,192,65980,1,0,0:0:0:0:
402,192,66130,1,0,0:0:0:0:
256,192,66130,1,0,0:0:0:0:
109,192,66130,1,0,0:0:0:0:
329,192,66280,1,0,0:0:0:0:
475,192,66280,1,0,0:0:0:0:
36,192,66280,1,0,0:0:0:0:
182,192,66280,1,0,0:0:0:0:
402,192,66430,1,0,0:0:0:0:
256,192,66430,1,0,0:0:0:0:
109,192,66430,1,0,0:0:0:0:
329,192,66580,1,0,0:0:0:0:
475,192,66580,1,0,0:0:0:0:
36,192,66580,1,0,0:0:0:0:
182,192,66580,1,0,0:0:0:0:
402,192,66730,1,0,0:0:0:0:
256,192,66730,1,0,0:0:0:0:
109,192,66730,1,0,0:0:0:0:
329,192,66880,1,0,0:0:0:0:
475,192,66880,1,0,0:0:0:0:
36,192,66880,1,0,0:0:0:0:
182,192,66880,1,0,0:0:0:0:
402,192,67030,1,0,0:0:0:0:
256,192,67030,1,0,0:0:0:0:
109,192,67030,1,0,0:0:0:0:
329,192,67180,1,0,0:0:0:0:
475,192,67180,1,0,0:0:0:0:
36,192,67180,1,0,0:0:0:0:
182,192,67180,1,0,0:0:0:0:
402,192,67330,1,0,0:0:0:0:
256,192,67330,1,0,0:0:0:0:
109,192,67330,1,0,0:0:0:0:
329,192,67480,1,0,0:0:0:0:
475,192,67480,1,0,0:0:0:0:
36,192,67480,1,0,0:0:0:0:
182,192,67480,1,0,0:0:0:0:
402,192,67630,1,0,0:0:0:0:
256,192,67630,1,0,0:0:0:0:
109,192,67630,1,0,0:0:0:0:
329,192,67780,1,0,0:0:0:0:
475,192,67780,1,0,0:0:0:0:
36,192,67780,1,0,0:0:0:0:
182,192,67780,1,0,0:0:0:0:
402,192,67930,1,0,0:0:0:0:
256,192,67930,1,0,0:0:0:0:
109,192,67930,1,0,0:0:0:0:
329,192,68080,1,0,0:0:0:0:
475,192,68080,1,0,0:0:0:0:
36,192,68080,1,0,0:0:0:0:
182,192,68080,1,0,0:0:0:0:
402,192,68230,1,0,0:0:0:0:
256,192,68230,1,0,0:0:0:0:
109,192,68230,1,0,0:0:0:0:
36,192,68380,1,0,0:0:0:0:
182,192,68380,1,0,0:0:0:0:
329,192,68380,1,0,0:0:0:0:
475,192,68380,1,0,0:0:0:0:
109,192,68530,1,0,0:0:0:0:
256,192,68530,1,0,0:0:0:0:
402,192,68530,1,0,0:0:0:0:
36,192,68680,1,0,0:0:0:0:
182,192,68680,1,0,0:0:0:0:
329,192,68680,1,0,0:0:0:0:
475,192,68680,1,0,0:0:0:0:
109,192,68830,1,0,0:0:0:0:
256,192,68830,1,0,0:0:0:0:
402,192,68830,1,0,0:0:0:0:
36,192,68980,1,0,0:0:0:0:
182,192,68980,1,0,0:0:0:0:
329,192,68980,1,0,0:0:0:0:
475,192,68980,1,0,0:0:0:0:
109,192,69130,1,0,0:0:0:0:
256,192,69130,1,0,0:0:0:0:
402,192,69130,1,0,0:0:0:0:
36,192,69280,1,0,0:0:0:0:
182,192,69280,1,0,0:0:0:0:
329,192,69280,1,0,0:0:0:0:
475,192,69280,1,0,0:0:0:0:
109,192,69430,1,0,0:0:0:0:
256,192,69430,1,0,0:0:0:0:
402,192,69430,1,0,0:0:0:0:
329,192,69580,1,0,0:0:0:0:
475,192,69580,1,0,0:0:0:0:
36,192,69580,1,0,0:0:0:0:
182,192,69580,1,0,0:0:0:0:
402,192,69730,1,0,0:0:0:0:
256,192,69730,1,0,0:0:0:0:
109,192,69730,1,0,0:0:0:0:
329,192,69880,1,0,0:0:0:0:
475,192,69880,1,0,0:0:0:0:
36,192,69880,1,0,0:0:0:0:
182,192,69880,1,0,0:0:0:0:
402,192,70030,1,0,0:0:0:0:
256,192,70030,1,0,0:0:0:0:
109,192,70030,1,0,0:0:0:0:
329,192,70180,1,0,0:0:0:0:
475,192,70180,1,0,0:0:0:0:
36,192,70180,1,0,0:0:0:0:
182,192,70180,1,0,0:0:0:0:
402,192,70330,1,0,0:0:0:0:
256,192,70330,1,0,0:0:0:0:
109,192,70330,1,0,0:0:0:0:
329,192,70480,1,0,0:0:0:0:
475,192,70480,1,0,0:0:0:0:
36,192,70480,1,0,0:0:0:0:
182,192,70480,1,0,0:0:0:0:
402,192,70630,1,0,0:0:0:0:
256,192,70630,1,0,0:0:0:0:
109,192,70630,1,0,0:0:0:0:
36,192,70780,1,0,0:0:0:0:
182,192,70780,1,0,0:0:0:0:
329,192,70780,1,0,0:0:0:0:
475,192,70780,1,0,0:0:0:0:
109,192,70930,1,0,0:0:0:0:
256,192,70930,1,0,0:0:0:0:
402,192,70930,1,0,0:0:0:0:
36,192,71080,1,0,0:0:0:0:
182,192,71080,1,0,0:0:0:0:
329,192,71080,1,0,0:0:0:0:
475,192,71080,1,0,0:0:0:0:
109,192,71230,1,0,0:0:0:0:
256,192,71230,1,0,0:0:0:0:
402,192,71230,1,0,0:0:0:0:
36,192,71380,1,0,0:0:0:0:
182,192,71380,1,0,0:0:0:0:
329,192,71380,1,0,0:0:0:0:
475,192,71380,1,0,0:0:0:0:
109,192,71530,1,0,0:0:0:0:
256,192,71530,1,0,0:0:0:0:
402,192,71530,1,0,0:0:0:0:
36,192,71680,1,0,0:0:0:0:
182,192,71680,1,0,0:0:0:0:
329,192,71680,1,0,0:0:0:0:
475,192,71680,1,0,0:0:0:0:
109,192,71830,1,0,0:0:0:0:
256,192,71830,1,0,0:0:0:0:
402,192,71830,1,0,0:0:0:0:
36,192,71980,1,0,0:0:0:0:
182,192,71980,1,0,0:0:0:0:
329,192,71980,1,0,0:0:0:0:
475,192,71980,1,0,0:0:0:0:
109,192,72130,1,0,0:0:0:0:
256,192,72130,1,0,0:0:0:0:
402,192,72130,1,0,0:0:0:0:
36,192,72280,1,0,0:0:0:0:
182,192,72280,1,0,0:0:0:0:
329,192,72280,1,0,0:0:0:0:
475,192,72280,1,0,0:0:0:0:
109,192,72430,1,0,0:0:0:0:
256,192,72430,1,0,0:0:0:0:
402,192,72430,1,0,0:0:0:0:
36,192,72580,1,0,0:0:0:0:
182,192,72580,1,0,0:0:0:0:
329,192,72580,1,0,0:0:0:0:
475,192,72580,1,0,0:0:0:0:
109,192,72730,1,0,0:0:0:0:
256,192,72730,1,0,0:0:0:0:
402,192,72730,1,0,0:0:0:0:
36,192,72880,1,0,0:0:0:0:
182,192,72880,1,0,0:0:0:0:
329,192,72880,1,0,0:0:0:0:
475,192,72880,1,0,0:0:0:0:
109,192,73030,1,0,0:0:0:0:
256,192,73030,1,0,0:0:0:0:
402,192,73030,1,0,0:0:0:0:
329,192,73180,1,0,0:0:0:0:
475,192,73180,1,0,0:0:0:0:
36,192,73180,1,0,0:0:0:0:
182,192,73180,1,0,0:0:0:0:
402,192,73330,1,0,0:0:0:0:
256,192,73330,1,0,0:0:0:0:
109,192,73330,1,0,0:0:0:0:
329,192,73480,1,0,0:0:0:0:
475,192,73480,1,0,0:0:0:0:
36,192,73480,1,0,0:0:0:0:
182,192,73480,1,0,0:0:0:0:
402,192,73630,1,0,0:0:0:0:
256,192,73630,1,0,0:0:0:0:
109,192,73630,1,0,0:0:0:0:
329,192,73780,1,0,0:0:0:0:
475,192,73780,1,0,0:0:0:0:
36,192,73780,1,0,0:0:0:0:
182,192,73780,1,0,0:0:0:0:
402,192,73930,1,0,0:0:0:0:
256,192,73930,1,0,0:0:0:0:
109,192,73930,1,0,0:0:0:0:
329,192,74080,1,0,0:0:0:0:
475,192,74080,1,0,0:0:0:0:
36,192,74080,1,0,0:0:0:0:
182,192,74080,1,0,0:0:0:0:
402,192,74230,1,0,0:0:0:0:
256,192,74230,1,0,0:0:0:0:
109,192,74230,1,0,0:0:0:0:
36,192,74380,1,0,0:0:0:0:
182,192,74380,1,0,0:0:0:0:
329,192,74380,1,0,0:0:0:0:
475,192,74380,1,0,0:0:0:0:
109,192,74530,1,0,0:0:0:0:
256,192,74530,1,0,0:0:0:0:
402,192,74530,1,0,0:0:0:0:
36,192,74680,1,0,0:0:0:0:
182,192,74680,1,0,0:0:0:0:
329,192,74680,1,0,0:0:0:0:
475,192,74680,1,0,0:0:0:0:
109,192,74830,1,0,0:0:0:0:
256,192,74830,1,0,0:0:0:0:
402,192,74830,1,0,0:0:0:0:
36,192,74980,1,0,0:0:0:0:
182,192,74980,1,0,0:0:0:0:
329,192,74980,1,0,0:0:0:0:
475,192,74980,1,0,0:0:0:0:
109,192,75130,1,0,0:0:0:0:
256,192,75130,1,0,0:0:0:0:
402,192,75130,1,0,0:0:0:0:
36,192,75280,1,0,0:0:0:0:
182,192,75280,1,0,0:0:0:0:
329,192,75280,1,0,0:0:0:0:
475,192,75280,1,0,0:0:0:0:
109,192,75430,1,0,0:0:0:0:
256,192,75430,1,0,0:0:0:0:
402,192,75430,1,0,0:0:0:0:
329,192,75580,1,0,0:0:0:0:
475,192,75580,1,0,0:0:0:0:
36,192,75580,1,0,0:0:0:0:
182,192,75580,1,0,0:0:0:0:
402,192,75730,1,0,0:0:0:0:
256,192,75730,1,0,0:0:0:0:
109,192,75730,1,0,0:0:0:0:
329,192,75880,1,0,0:0:0:0:
475,192,75880,1,0,0:0:0:0:
36,192,75880,1,0,0:0:0:0:
182,192,75880,1,0,0:0:0:0:
402,192,76030,1,0,0:0:0:0:
256,192,76030,1,0,0:0:0:0:
109,192,76030,1,0,0:0:0:0:
329,192,76180,1,0,0:0:0:0:
475,192,76180,1,0,0:0:0:0:
36,192,76180,1,0,0:0:0:0:
182,192,76180,1,0,0:0:0:0:
402,192,76330,1,0,0:0:0:0:
256,192,76330,1,0,0:0:0:0:
109,192,76330,1,0,0:0:0:0:
329,192,76480,1,0,0:0:0:0:
475,192,76480,1,0,0:0:0:0:
36,192,76480,1,0,0:0:0:0:
182,192,76480,1,0,0:0:0:0:
402,192,76630,1,0,0:0:0:0:
256,192,76630,1,0,0:0:0:0:
109,192,76630,1,0,0:0:0:0:
329,192,76780,1,0,0:0:0:0:
475,192,76780,1,0,0:0:0:0:
36,192,76780,1,0,0:0:0:0:
182,192,76780,1,0,0:0:0:0:
402,192,76930,1,0,0:0:0:0:
256,192,76930,1,0,0:0:0:0:
109,192,76930,1,0,0:0:0:0:
329,192,77080,1,0,0:0:0:0:
475,192,77080,1,0,0:0:0:0:
36,192,77080,1,0,0:0:0:0:
182,192,77080,1,0,0:0:0:0:
402,192,77230,1,0,0:0:0:0:
256,192,77230,1,0,0:0:0:0:
109,192,77230,1,0,0:0:0:0:
329,192,77380,1,0,0:0:0:0:
475,192,77380,1,0,0:0:0:0:
36,192,77380,1,0,0:0:0:0:
182,192,77380,1,0,0:0:0:0:
402,192,77530,1,0,0:0:0:0:
256,192,77530,1,0,0:0:0:0:
109,192,77530,1,0,0:0:0:0:
329,192,77680,1,0,0:0:0:0:
475,192,77680,1,0,0:0:0:0:
36,192,77680,1,0,0:0:0:0:
182,192,77680,1,0,0:0:0:0:
402,192,77830,1,0,0:0:0:0:
256,192,77830,1,0,0:0:0:0:
109,192,77830,1,0,0:0:0:0:
36,192,77980,1,0,0:0:0:0:
182,192,77980,1,0,0:0:0:0:
329,192,77980,1,0,0:0:0:0:
475,192,77980,1,0,0:0:0:0:
109,192,78130,1,0,0:0:0:0:
256,192,78130,1,0,0:0:0:0:
402,192,78130,1,0,0:0:0:0:
36,192,78280,1,0,0:0:0:0:
182,192,78280,1,0,0:0:0:0:
329,192,78280,1,0,0:0:0:0:
475,192,78280,1,0,0:0:0:0:
109,192,78430,1,0,0:0:0:0:
256,192,78430,1,0,0:0:0:0:
402,192,78430,1,0,0:0:0:0:
36,192,78580,1,0,0:0:0:0:
182,192,78580,1,0,0:0:0:0:
329,192,78580,1,0,0:0:0:0:
475,192,78580,1,0,0:0:0:0:
109,192,78730,1,0,0:0:0:0:
256,192,78730,1,0,0:0:0:0:
402,192,78730,1,0,0:0:0:0:
36,192,78880,1,0,0:0:0:0:
182,192,78880,1,0,0:0:0:0:
329,192,78880,1,0,0:0:0:0:
475,192,78880,1,0,0:0:0:0:
109,192,79030,1,0,0:0:0:0:
256,192,79030,1,0,0:0:0:0:
402,192,79030,1,0,0:0:0:0:
329,192,79180,1,0,0:0:0:0:
475,192,79180,1,0,0:0:0:0:
36,192,79180,1,0,0:0:0:0:
182,192,79180,1,0,0:0:0:0:
402,192,79330,1,0,0:0:0:0:
256,192,79330,1,0,0:0:0:0:
109,192,79330,1,0,0:0:0:0:
329,192,79480,1,0,0:0:0:0:
475,192,79480,1,0,0:0:0:0:
36,192,79480,1,0,0:0:0:0:
182,192,79480,1,0,0:0:0:0:
402,192,79630,1,0,0:0:0:0:
256,192,79630,1,0,0:0:0:0:
109,192,79630,1,0,0:0:0:0:
329,192,79780,1,0,0:0:0:0:
475,192,79780,1,0,0:0:0:0:
36,192,79780,1,0,0:0:0:0:
182,192,79780,1,0,0:0:0:0:
402,192,79930,1,0,0:0:0:0:
256,192,79930,1,0,0:0:0:0:
109,192,79930,1,0,0:0:0:0:
329,192,80080,1,0,0:0:0:0:
475,192,80080,1,0,0:0:0:0:
36,192,80080,1,0,0:0:0:0:
182,192,80080,1,0,0:0:0:0:
402,192,80230,1,0,0:0:0:0:
256,192,80230,1,0,0:0:0:0:
109,192,80230,1,0,0:0:0:0:
329,192,80380,1,0,0:0:0:0:
475,192,80380,1,0,0:0:0:0:
36,192,80380,1,0,0:0:0:0:
182,192,80380,1,0,0:0:0:0:
402,192,80530,1,0,0:0:0:0:
256,192,80530,1,0,0:0:0:0:
109,192,80530,1,0,0:0:0:0:
329,192,80680,1,0,0:0:0:0:
475,192,80680,1,0,0:0:0:0:
36,192,80680,1,0,0:0:0:0:
182,192,80680,1,0,0:0:0:0:
402,192,80830,1,0,0:0:0:0:
256,192,80830,1,0,0:0:0:0:
109,192,80830,1,0,0:0:0:0:
329,192,80980,1,0,0:0:0:0:
475,192,80980,1,0,0:0:0:0:
36,192,80980,1,0,0:0:0:0:
182,192,80980,1,0,0:0:0:0:
402,192,81130,1,0,0:0:0:0:
256,192,81130,1,0,0:0:0:0:
109,192,81130,1,0,0:0:0:0:
329,192,81280,1,0,0:0:0:0:
475,192,81280,1,0,0:0:0:0:
36,192,81280,1,0,0:0:0:0:
182,192,81280,1,0,0:0:0:0:
402,192,81430,1,0,0:0:0:0:
256,192,81430,1,0,0:0:0:0:
109,192,81430,1,0,0:0:0:0:
329,192,81580,1,0,0:0:0:0:
475,192,81580,1,0,0:0:0:0:
36,192,81580,1,0,0:0:0:0:
182,192,81580,1,0,0:0:0:0:
402,192,81730,1,0,0:0:0:0:
256,192,81730,1,0,0:0:0:0:
109,192,81730,1,0,0:0:0:0:
329,192,81880,1,0,0:0:0:0:
475,192,81880,1,0,0:0:0:0:
36,192,81880,1,0,0:0:0:0:
182,192,81880,1,0,0:0:0:0:
402,192,82030,1,0,0:0:0:0:
256,192,82030,1,0,0:0:0:0:
109,192,82030,1,0,0:0:0:0:
329,192,82180,1,0,0:0:0:0:
475,192,82180,1,0,0:0:0:0:
36,192,82180,1,0,0:0:0:0:
182,192,82180,1,0,0:0:0:0:
402,192,82330,1,0,0:0:0:0:
256,192,82330,1,0,0:0:0:0:
109,192,82330,1,0,0:0:0:0:
329,192,82480,1,0,0:0:0:0:
475,192,82480,1,0,0:0:0:0:
36,192,82480,1,0,0:0:0:0:
182,192,82480,1,0,0:0:0:0:
402,192,82630,1,0,0:0:0:0:
256,192,82630,1,0,0:0:0:0:
109,192,82630,1,0,0:0:0:0:
36,192,82780,1,0,0:0:0:0:
182,192,82780,1,0,0:0:0:0:
329,192,82780,1,0,0:0:0:0:
475,192,82780,1,0,0:0:0:0:
109,192,82930,1,0,0:0:0:0:
256,192,82930,1,0,0:0:0:0:
402,192,82930,1,0,0:0:0:0:
36,192,83080,1,0,0:0:0:0:
182,192,83080,1,0,0:0:0:0:
329,192,83080,1,0,0:0:0:0:
475,192,83080,1,0,0:0:0:0:
109,192,83230,1,0,0:0:0:0:
256,192,83230,1,0,0:0:0:0:
402,192,83230,1,0,0:0:0:0:
36,192,83380,1,0,0:0:0:0:
182,192,83380,1,0,0:0:0:0:
329,192,83380,1,0,0:0:0:0:
475,192,83380,1,0,0:0:0:0:
109,192,83530,1,0,0:0:0:0:
256,192,83530,1,0,0:0:0:0:
402,192,83530,1,0,0:0:0:0:
36,192,83680,1,0,0:0:0:0:
182,192,83680,1,0,0:0:0:0:
329,192,83680,1,0,0:0:0:0:
475,192,83680,1,0,0:0:0:0:
109,192,83830,1,0,0:0:0:0:
256,192,83830,1,0,0:0:0:0:
402,192,83830,1,0,0:0:0:0:
329,192,83980,1,0,0:0:0:0:
475,192,83980,1,0,0:0:0:0:
36,192,83980,1,0,0:0:0:0:
182,192,83980,1,0,0:0:0:0:
402,192,84130,1,0,0:0:0:0:
256,192,84130,1,0,0:0:0:0:
109,192,84130,1,0,0:0:0:0:
329,192,84280,1,0,0:0:0:0:
475,192,84280,1,0,0:0:0:0:
36,192,84280,1,0,0:0:0:0:
182,192,84280,1,0,0:0:0:0:
402,192,84430,1,0,0:0:0:0:
256,192,84430,1,0,0:0:0:0:
109,192,84430,1,0,0:0:0:0:
329,192,84580,1,0,0:0:0:0:
475,192,84580,1,0,0:0:0:0:
36,192,84580,1,0,0:0:0:0:
182,192,84580,1,0,0:0:0:0:
402,192,84730,1,0,0:0:0:0:
256,192,84730,1,0,0:0:0:0:
109,192,84730,1,0,0:0:0:0:
329,192,84880,1,0,0:0:0:0:
475,192,84880,1,0,0:0:0:0:
36,192,84880,1,0,0:0:0:0:
182,192,84880,1,0,0:0:0:0:
402,192,85030,1,0,0:0:0:0:
256,192,85030,1,0,0:0:0:0:
109,192,85030,1,0,0:0:0:0:
36,192,85180,1,0,0:0:0:0:
182,192,85180,1,0,0:0:0:0:
329,192,85180,1,0,0:0:0:0:
475,192,85180,1,0,0:0:0:0:
109,192,85330,1,0,0:0:0:0:
256,192,85330,1,0,0:0:0:0:
402,192,85330,1,0,0:0:0:0:
36,192,85480,1,0,0:0:0:0:
182,192,85480,1,0,0:0:0:0:
329,192,85480,1,0,0:0:0:0:
475,192,85480,1,0,0:0:0:0:
109,192,85630,1,0,0:0:0:0:
256,192,85630,1,0,0:0:0:0:
402,192,85630,1,0,0:0:0:0:
36,192,85780,1,0,0:0:0:0:
182,192,85780,1,0,0:0:0:0:
329,192,85780,1,0,0:0:0:0:
475,192,85780,1,0,0:0:0:0:
109,192,85930,1,0,0:0:0:0:
256,192,85930,1,0,0:0:0:0:
402,192,85930,1,0,0:0:0:0:
36,192,86080,1,0,0:0:0:0:
182,192,86080,1,0,0:0:0:0:
329,192,86080,1,0,0:0:0:0:
475,192,86080,1,0,0:0:0:0:
109,192,86230,1,0,0:0:0:0:
256,192,86230,1,0,0:0:0:0:
402,192,86230,1,0,0:0:0:0:
36,192,86380,1,0,0:0:0:0:
182,192,86380,1,0,0:0:0:0:
329,192,86380,1,0,0:0:0:0:
475,192,86380,1,0,0:0:0:0:
109,192,86530,1,0,0:0:0:0:
256,192,86530,1,0,0:0:0:0:
402,192,86530,1,0,0:0:0:0:
36,192,86680,1,0,0:0:0:0:
182,192,86680,1,0,0:0:0:0:
329,192,86680,1,0,0:0:0:0:
475,192,86680,1,0,0:0:0:0:
109,192,86830,1,0,0:0:0:0:
256,192,86830,1,0,0:0:0:0:
402,192,86830,1,0,0:0:0:0:
36,192,86980,1,0,0:0:0:0:
182,192,86980,1,0,0:0:0:0:
329,192,86980,1,0,0:0:0:0:
475,192,86980,1,0,0:0:0:0:
109,192,87130,1,0,0:0:0:0:
256,192,87130,1,0,0:0:0:0:
402,192,87130,1,0,0:0:0:0:
36,192,87280,1,0,0:0:0:0:
182,192,87280,1,0,0:0:0:0:
329,192,87280,1,0,0:0:0:0:
475,192,87280,1,0,0:0:0:0:
109,192,87430,1,0,0:0:0:0:
256,192,87430,1,0,0:0:0:0:
402,192,87430,1,0,0:0:0:0:
329,192,87580,1,0,0:0:0:0:
475,192,87580,1,0,0:0:0:0:
36,192,87580,1,0,0:0:0:0:
182,192,87580,1,0,0:0:0:0:
402,192,87730,1,0,0:0:0:0:
256,192,87730,1,0,0:0:0:0:
109,192,87730,1,0,0:0:0:0:
329,192,87880,1,0,0:0:0:0:
475,192,87880,1,0,0:0:0:0:
36,192,87880,1,0,0:0:0:0:
182,192,87880,1,0,0:0:0:0:
402,192,88030,1,0,0:0:0:0:
256,192,88030,1,0,0:0:0:0:
109,192,88030,1,0,0:0:0:0:
329,192,88180,1,0,0:0:0:0:
475,192,88180,1,0,0:0:0:0:
36,192,88180,1,0,0:0:0:0:
182,192,88180,1,0,0:0:0:0:
402,192,88330,1,0,0:0:0:0:
256,192,88330,1,0,0:0:0:0:
109,192,88330,1,0,0:0:0:0:
329,192,88480,1,0,0:0:0:0:
475,192,88480,1,0,0:0:0:0:
36,192,88480,1,0,0:0:0:0:
182,192,88480,1,0,0:0:0:0:
402,192,88630,1,0,0:0:0:0:
256,192,88630,1,0,0:0:0:0:
109,192,88630,1,0,0:0:0:0:
36,192,88780,1,0,0:0:0:0:
182,192,88780,1,0,0:0:0:0:
329,192,88780,1,0,0:0:0:0:
475,192,88780,1,0,0:0:0:0:
109,192,88930,1,0,0:0:0:0:
256,192,88930,1,0,0:0:0:0:
402,192,88930,1,0,0:0:0:0:
36,192,89080,1,0,0:0:0:0:
182,192,89080,1,0,0:0:0:0:
329,192,89080,1,0,0:0:0:0:
475,192,89080,1,0,0:0:0:0:
109,192,89230,1,0,0:0:0:0:
256,192,89230,1,0,0:0:0:0:
402,192,89230,1,0,0:0:0:0:
36,192,89380,1,0,0:0:0:0:
182,192,89380,1,0,0:0:0:0:
329,192,89380,1,0,0:0:0:0:
475,192,89380,1,0,0:0:0:0:
109,192,89530,1,0,0:0:0:0:
256,192,89530,1,0,0:0:0:0:
402,192,89530,1,0,0:0:0:0:
36,192,89680,1,0,0:0:0:0:
182,192,89680,1,0,0:0:0:0:
329,192,89680,1,0,0:0:0:0:
475,192,89680,1,0,0:0:0:0:
109,192,89830,1,0,0:0:0:0:
256,192,89830,1,0,0:0:0:0:
402,192,89830,1,0,0:0:0:0:
329,192,89980,1,0,0:0:0:0:
475,192,89980,1,0,0:0:0:0:
36,192,89980,1,0,0:0:0:0:
182,192,89980,1,0,0:0:0:0:
402,192,90130,1,0,0:0:0:0:
256,192,90130,1,0,0:0:0:0:
109,192,90130,1,0,0:0:0:0:
329,192,90280,1,0,0:0:0:0:
475,192,90280,1,0,0:0:0:0:
36,192,90280,1,0,0:0:0:0:
182,192,90280,1,0,0:0:0:0:
402,192,90430,1,0,0:0:0:0:
256,192,90430,1,0,0:0:0:0:
109,192,90430,1,0,0:0:0:0:
329,192,90580,1,0,0:0:0:0:
475,192,90580,1,0,0:0:0:0:
36,192,90580,1,0,0:0:0:0:
182,192,90580,1,0,0:0:0:0:
402,192,90730,1,0,0:0:0:0:
256,192,90730,1,0,0:0:0:0:
109,192,90730,1,0,0:0:0:0:
329,192,90880,1,0,0:0:0:0:
475,192,90880,1,0,0:0:0:0:
36,192,90880,1,0,0:0:0:0:
182,192,90880,1,0,0:0:0:0:
402,192,91030,1,0,0:0:0:0:
256,192,91030,1,0,0:0:0:0:
109,192,91030,1,0,0:0:0:0:
329,192,91180,1,0,0:0:0:0:
475,192,91180,1,0,0:0:0:0:
36,192,91180,1,0,0:0:0:0:
182,192,91180,1,0,0:0:0:0:
402,192,91330,1,0,0:0:0:0:
256,192,91330,1,0,0:0:0:0:
109,192,91330,1,0,0:0:0:0:
329,192,91480,1,0,0:0:0:0:
475,192,91480,1,0,0:0:0:0:
36,192,91480,1,0,0:0:0:0:
182,192,91480,1,0,0:0:0:0:
402,192,91630,1,0,0:0:0:0:
256,192,91630,1,0,0:0:0:0:
109,192,91630,1,0,0:0:0:0:
329,192,91780,1,0,0:0:0:0:
475,192,91780,1,0,0:0:0:0:
36,192,91780,1,0,0:0:0:0:
182,192,91780,1,0,0:0:0:0:
402,192,91930,1,0,0:0:0:0:
256,192,91930,1,0,0:0:0:0:
109,192,91930,1,0,0:0:0:0:
329,192,92080,1,0,0:0:0:0:
475,192,92080,1,0,0:0:0:0:
36,192,92080,1,0,0:0:0:0:
182,192,92080,1,0,0:0:0:0:
402,192,92230,1,0,0:0:0:0:
256,192,92230,1,0,0:0:0:0:
109,192,92230,1,0,0:0:0:0:
36,192,92380,1,0,0:0:0:0:
182,192,92380,1,0,0:0:0:0:
329,192,92380,1,0,0:0:0:0:
475,192,92380,1,0,0:0:0:0:
109,192,92530,1,0,0:0:0:0:
256,192,92530,1,0,0:0:0:0:
402,192,92530,1,0,0:0:0:0:
36,192,92680,1,0,0:0:0:0:
182,192,92680,1,0,0:0:0:0:
329,192,92680,1,0,0:0:0:0:
475,192,92680,1,0,0:0:0:0:
109,192,92830,1,0,0:0:0:0:
256,192,92830,1,0,0:0:0:0:
402,192,92830,1,0,0:0:0:0:
36,192,92980,1,0,0:0:0:0:
182,192,92980,1,0,0:0:0:0:
329,192,92980,1,0,0:0:0:0:
475,192,92980,1,0,0:0:0:0:
109,192,93130,1,0,0:0:0:0:
256,192,93130,1,0,0:0:0:0:
402,192,93130,1,0,0:0:0:0:
36,192,93280,1,0,0:0:0:0:
182,192,93280,1,0,0:0:0:0:
329,192,93280,1,0,0:0:0:0:
475,192,93280,1,0,0:0:0:0:
109,192,93430,1,0,0:0:0:0:
256,192,93430,1,0,0:0:0:0:
402,192,93430,1,0,0:0:0:0:
329,192,93580,1,0,0:0:0:0:
475,192,93580,1,0,0:0:0:0:
36,192,93580,1,0,0:0:0:0:
182,192,93580,1,0,0:0:0:0:
402,192,93730,1,0,0:0:0:0:
256,192,93730,1,0,0:0:0:0:
109,192,93730,1,0,0:0:0:0:
329,192,93880,1,0,0:0:0:0:
475,192,93880,1,0,0:0:0:0:
36,192,93880,1,0,0:0:0:0:
182,192,93880,1,0,0:0:0:0:
402,192,94030,1,0,0:0:0:0:
256,192,94030,1,0,0:0:0:0:
109,192,94030,1,0,0:0:0:0:
329,192,94180,1,0,0:0:0:0:
475,192,94180,1,0,0:0:0:0:
36,192,94180,1,0,0:0:0:0:
182,192,94180,1,0,0:0:0:0:
402,192,94330,1,0,0:0:0:0:
256,192,94330,1,0,0:0:0:0:
109,192,94330,1,0,0:0:0:0:
329,192,94480,1,0,0:0:0:0:
475,192,94480,1,0,0:0:0:0:
36,192,94480,1,0,0:0:0:0:
182,192,94480,1,0,0:0:0:0:
402,192,94630,1,0,0:0:0:0:
256,192,94630,1,0,0:0:0:0:
109,192,94630,1,0,0:0:0:0:
36,192,94780,1,0,0:0:0:0:
182,192,94780,1,0,0:0:0:0:
329,192,94780,1,0,0:0:0:0:
475,192,94780,1,0,0:0:0:0:
109,192,94930,1,0,0:0:0:0:
256,192,94930,1,0,0:0:0:0:
402,192,94930,1,0,0:0:0:0:
36,192,95080,1,0,0:0:0:0:
182,192,95080,1,0,0:0:0:0:
329,192,95080,1,0,0:0:0:0:
475,192,95080,1,0,0:0:0:0:
109,192,95230,1,0,0:0:0:0:
256,192,95230,1,0,0:0:0:0:
402,192,95230,1,0,0:0:0:0:
36,192,95380,1,0,0:0:0:0:
182,192,95380,1,0,0:0:0:0:
329,192,95380,1,0,0:0:0:0:
475,192,95380,1,0,0:0:0:0:
109,192,95530,1,0,0:0:0:0:
256,192,95530,1,0,0:0:0:0:
402,192,95530,1,0,0:0:0:0:
36,192,95680,1,0,0:0:0:0:
182,192,95680,1,0,0:0:0:0:
329,192,95680,1,0,0:0:0:0:
475,192,95680,1,0,0:0:0:0:
109,192,95830,1,0,0:0:0:0:
256,192,95830,1,0,0:0:0:0:
402,192,95830,1,0,0:0:0:0:
36,192,95980,1,0,0:0:0:0:
182,192,95980,1,0,0:0:0:0:
329,192,95980,1,0,0:0:0:0:
475,192,95980,1,0,0:0:0:0:
109,192,96130,1,0,0:0:0:0:
256,192,96130,1,0,0:0:0:0:
402,192,96130,1,0,0:0:0:0:
36,192,96280,1,0,0:0:0:0:
182,192,96280,1,0,0:0:0:0:
329,192,96280,1,0,0:0:0:0:
475,192,96280,1,0,0:0:0:0:
109,192,96430,1,0,0:0:0:0:
256,192,96430,1,0,0:0:0:0:
402,192,96430,1,0,0:0:0:0:
36,192,96580,1,0,0:0:0:0:
182,192,96580,1,0,0:0:0:0:
329,192,96580,1,0,0:0:0:0:
475,192,96580,1,0,0:0:0:0:
109,192,96730,1,0,0:0:0:0:
256,192,96730,1,0,0:0:0:0:
402,192,96730,1,0,0:0:0:0:
36,192,96880,1,0,0:0:0:0:
182,192,96880,1,0,0:0:0:0:
329,192,96880,1,0,0:0:0:0:
475,192,96880,1,0,0:0:0:0:
109,192,97030,1,0,0:0:0:0:
256,192,97030,1,0,0:0:0:0:
402,192,97030,1,0,0:0:0:0:
329,192,97180,1,0,0:0:0:0:
475,192,97180,1,0,0:0:0:0:
36,192,97180,1,0,0:0:0:0:
182,192,97180,1,0,0:0:0:0:
402,192,97330,1,0,0:0:0:0:
256,192,97330,1,0,0:0:0:0:
109,192,97330,1,0,0:0:0:0:
329,192,97480,1,0,0:0:0:0:
475,192,97480,1,0,0:0:0:0:
36,192,97480,1,0,0:0:0:0:
182,192,97480,1,0,0:0:0:0:
402,192,97630,1,0,0:0:0:0:
256,192,97630,1,0,0:0:0:0:
109,192,97630,1,0,0:0:0:0:
329,192,97780,1,0,0:0:0:0:
475,192,97780,1,0,0:0:0:0:
36,192,97780,1,0,0:0:0:0:
182,192,97780,1,0,0:0:0:0:
402,192,97930,1,0,0:0:0:0:
256,192,97930,1,0,0:0:0:0:
109,192,97930,1,0,0:0:0:0:
329,192,98080,1,0,0:0:0:0:
475,192,98080,1,0,0:0:0:0:
36,192,98080,1,0,0:0:0:0:
182,192,98080,1,0,0:0:0:0:
402,192,98230,1,0,0:0:0:0:
256,192,98230,1,0,0:0:0:0:
109,192,98230,1,0,0:0:0:0:
36,192,98380,1,0,0:0:0:0:
182,192,98380,1,0,0:0:0:0:
329,192,98380,1,0,0:0:0:0:
475,192,98380,1,0,0:0:0:0:
109,192,98530,1,0,0:0:0:0:
256,192,98530,1,0,0:0:0:0:
402,192,98530,1,0,0:0:0:0:
36,192,98680,1,0,0:0:0:0:
182,192,98680,1,0,0:0:0:0:
329,192,98680,1,0,0:0:0:0:
475,192,98680,1,0,0:0:0:0:
109,192,98830,1,0,0:0:0:0:
256,192,98830,1,0,0:0:0:0:
402,192,98830,1,0,0:0:0:0:
36,192,98980,1,0,0:0:0:0:
182,192,98980,1,0,0:0:0:0:
329,192,98980,1,0,0:0:0:0:
475,192,98980,1,0,0:0:0:0:
109,192,99130,1,0,0:0:0:0:
256,192,99130,1,0,0:0:0:0:
402,192,99130,1,0,0:0:0:0:
36,192,99280,1,0,0:0:0:0:
182,192,99280,1,0,0:0:0:0:
329,192,99280,1,0,0:0:0:0:
475,192,99280,1,0,0:0:0:0:
109,192,99430,1,0,0:0:0:0:
256,192,99430,1,0,0:0:0:0:
402,192,99430,1,0,0:0:0:0:
36,192,99580,1,0,0:0:0:0:
182,192,99580,1,0,0:0:0:0:
329,192,99580,1,0,0:0:0:0:
475,192,99580,1,0,0:0:0:0:
109,192,99730,1,0,0:0:0:0:
256,192,99730,1,0,0:0:0:0:
402,192,99730,1,0,0:0:0:0:
36,192,99880,1,0,0:0:0:0:
182,192,99880,1,0,0:0:0:0:
329,192,99880,1,0,0:0:0:0:
475,192,99880,1,0,0:0:0:0:
109,192,100030,1,0,0:0:0:0:
256,192,100030,1,0,0:0:0:0:
402,192,100030,1,0,0:0:0:0:
36,192,100180,1,0,0:0:0:0:
182,192,100180,1,0,0:0:0:0:
329,192,100180,1,0,0:0:0:0:
475,192,100180,1,0,0:0:0:0:
109,192,100330,1,0,0:0:0:0:
256,192,100330,1,0,0:0:0:0:
402,192,100330,1,0,0:0:0:0:
36,192,100480,1,0,0:0:0:0:
182,192,100480,1,0,0:0:0:0:
329,192,100480,1,0,0:0:0:0:
475,192,100480,1,0,0:0:0:0:
