osu file format v14

[General]
AudioFilename: audio.mp3
AudioLeadIn: 0
PreviewTime: 135156
Countdown: 1
SampleSet: Soft
StackLeniency: 0.7
Mode: 0
LetterboxInBreaks: 0
WidescreenStoryboard: 0

[Editor]
Bookmarks: 135156,165781,207656
DistanceSpacing: 1.4
BeatDivisor: 4
GridSize: 4
TimelineZoom: 1

[Metadata]
Title:Fukashigi no Karte
TitleUnicode:Fukashigi no Karte
Artist:Various Artists
ArtistUnicode:Various Artists
Creator:anfeargorm
Version:Circus
Source:
Tags:bunny girl senpai, ED, Mai-San is cute but not as cute as Kaede
BeatmapID:1858963
BeatmapSetID:889415

[Difficulty]
HPDrainRate:5
CircleSize:4
OverallDifficulty:6
ApproachRate:8.2
SliderMultiplier:1.5
SliderTickRate:1

[Events]
//Background and Video events
0,0,"bg.jpg",0,0
//Break Periods
//Storyboard Layer 0 (Background)
//Storyboard Layer 1 (Fail)
//Storyboard Layer 2 (Pass)
//Storyboard Layer 3 (Foreground)
//Storyboard Sound Samples

[TimingPoints]
156,625,4,2,0,30,1,0
15156,-90.9090909090909,4,2,0,30,0,0
17031,-95.2380952380952,4,2,0,30,0,0
17656,-100,4,2,0,30,0,0
18281,-111.111111111111,4,2,0,30,0,0
20468,-71.4285714285714,4,2,0,30,0,0
55468,-58.8235294117647,4,2,0,30,0,0
56406,-71.4285714285714,4,2,0,30,0,0
58281,-66.6666666666667,4,2,0,30,0,0
62656,-55.5555555555556,4,2,0,50,0,1
65781,-62.5,4,2,0,50,0,1
67656,-55.5555555555556,4,2,0,50,0,1
68281,-62.5,4,2,0,50,0,1
68906,-55.5555555555556,4,2,0,50,0,1
69531,-62.5,4,2,0,50,0,1
72656,-55.5555555555556,4,2,0,50,0,1
73281,-62.5,4,2,0,50,0,1
77656,-55.5555555555556,4,2,0,50,0,1
79531,-62.5,4,2,0,50,0,1
80156,-83.3333333333333,4,2,0,50,0,1
80781,-125,4,2,0,50,0,1
82031,-62.5,4,2,0,30,0,0
83281,-83.3333333333333,4,2,0,30,0,0
85156,-71.4285714285714,4,2,0,30,0,0
85781,-83.3333333333333,4,2,0,30,0,0
90781,-100,4,2,0,30,0,0
91562,-71.4285714285714,4,2,0,30,0,0
93281,-100,4,2,0,30,0,0
98281,-83.3333333333333,4,2,0,30,0,0
130781,-71.4285714285714,4,2,0,30,0,0
134687,-83.3333333333333,4,2,0,30,0,0
135156,-62.5,4,2,0,30,0,0
135781,-62.5,4,2,0,50,0,1
136406,-55.5555555555556,4,2,0,50,0,1
137031,-62.5,4,2,0,50,0,1
137656,-55.5555555555556,4,2,0,50,0,1
138281,-62.5,4,2,0,50,0,1
140156,-55.5555555555556,4,2,0,50,0,1
142031,-62.5,4,2,0,50,0,1
145156,-55.5555555555556,4,2,0,50,0,1
145781,-62.5,4,2,0,50,0,1
150156,-55.5555555555556,4,2,0,50,0,1
152031,-62.5,4,2,0,50,0,1
152656,-83.3333333333333,4,2,0,50,0,1
153281,-125,4,2,0,50,0,1
154531,-62.5,4,2,0,30,0,0
156406,-83.3333333333333,4,2,0,30,0,0
163906,-76.9230769230769,4,2,0,30,0,0
164531,-71.4285714285714,4,2,0,30,0,0
165156,-66.6666666666667,4,2,0,30,0,0
165781,-83.3333333333333,4,2,0,30,0,0
168281,-125,4,2,0,30,0,0
172031,-83.3333333333333,4,2,0,30,0,0
173281,-125,4,2,0,30,0,0
186614,-50,4,2,0,30,0,0
186926,-125,4,2,0,30,0,0
187656,-55.5555555555556,4,2,0,30,0,0
188281,-62.5,4,2,0,50,0,1
188906,-55.5555555555556,4,2,0,50,0,1
189531,-62.5,4,2,0,50,0,1
190156,-55.5555555555556,4,2,0,50,0,1
190781,-62.5,4,2,0,50,0,1
192656,-55.5555555555556,4,2,0,50,0,1
194531,-62.5,4,2,0,50,0,1
197656,-55.5555555555556,4,2,0,50,0,1
198281,-62.5,4,2,0,50,0,1
202656,-55.5555555555556,4,2,0,50,0,1
204531,-62.5,4,2,0,50,0,1
205156,-55.5555555555556,4,2,0,50,0,1
205781,-71.4285714285714,4,2,0,50,0,1
207656,-45.4545454545455,4,2,0,50,0,1
207656,-50,4,2,0,50,0,1
208906,-45.4545454545455,4,2,0,50,0,1
209531,-50,4,2,0,50,0,1
210156,-45.4545454545455,4,2,0,50,0,1
210698,-62.5,4,2,0,50,0,1
212656,-55.5555555555556,4,2,0,50,0,1
214531,-62.5,4,2,0,50,0,1
217656,-55.5555555555556,4,2,0,50,0,1
218281,-62.5,4,2,0,50,0,1
222656,-55.5555555555556,4,2,0,50,0,1
223281,-62.5,4,2,0,50,0,1
223906,-55.5555555555556,4,2,0,50,0,1
224531,-62.5,4,2,0,50,0,1
229531,-62.5,4,2,0,50,0,1
230156,-83.3333333333333,4,2,0,50,0,1
230781,-125,4,2,0,50,0,1
232031,-62.5,4,2,0,30,0,0

[Colours]
Combo1 : 255,128,192
Combo2 : 255,128,128
Combo3 : 255,255,128
Combo4 : 128,255,128
Combo5 : 128,255,255
Combo6 : 94,174,255

[HitObjects]
166,118,156,6,0,L|211:151,2,50
74,103,781,2,0,P|79:152|115:197,1,75
205,277,1406,6,0,L|251:310,2,50
328,186,2031,2,0,P|278:190|241:216,1,75
436,278,2656,102,0,L|485:313,2,50
355,322,3281,2,0,B|305:281|305:281|279:256|283:225,1,112.5
363,219,3906,2,0,P|392:154|307:33,1,225
140,47,5156,22,0,P|171:46|194:55,2,50
155,142,5781,2,0,P|191:158|230:158,1,75
366,95,6406,6,0,P|352:110|320:127,2,50
422,0,7031,2,0,P|455:27|465:115,1,112.5
397,165,7656,2,0,L|393:301,1,112.5
392,376,8281,2,0,B|335:374|297:319|301:275|301:275|309:99,1,300
77,103,10156,6,0,B|93:122|93:122|100:147,2,50
22,26,10781,2,0,P|64:10|138:34,1,112.5
166,117,11406,2,0,P|221:137|277:121,1,112.5
309,34,12031,2,0,P|351:18|425:42,1,112.5
417,206,12656,6,0,P|375:170|365:116,1,112.5
289,238,13281,2,0,L|387:295,1,112.5
286,351,13906,2,0,L|189:295,1,112.5
191,181,14531,2,0,L|289:238,1,112.5
233,100,15156,6,0,P|250:73|270:56,2,55.0000016784668
373,19,15781,2,0,P|409:13|461:32,1,82.5000025177003
461,208,16406,6,0,L|460:150,2,55.0000016784668
465,312,17031,2,0,P|422:305|368:248,1,118.124996395111
278,253,17656,2,0,P|240:300|181:316,1,112.5
173,217,18281,2,0,P|105:218|86:74,1,236.249992790222
196,34,19531,5,0,0:0:0:0:
394,42,19843,2,0,L|423:43,2,16.8749994850159
307,39,20156,1,0,0:0:0:0:
355,116,20312,1,0,0:0:0:0:
462,133,20468,2,0,L|401:187,1,78.7499975967408
387,202,20780,6,0,P|309:245|237:247,1,157.499995193482
151,207,21406,2,0,L|173:140,1,52.4999983978272
158,46,21718,6,0,L|210:68,1,52.4999983978272
262,82,22031,1,0,0:0:0:0:
318,70,22187,1,0,0:0:0:0:
403,97,22343,2,0,B|393:70|393:70|360:49,1,52.4999983978272
387,202,22656,2,0,P|411:223|489:231,1,104.999996795654
138,254,23281,6,0,P|193:203|271:187,1,157.499995193482
376,287,23906,2,0,L|269:279,1,104.999996795654
226,274,24374,1,0,0:0:0:0:
175,269,24531,2,0,P|133:308|118:362,1,104.999996795654
6,62,25156,6,0,L|164:30,1,157.499995193482
277,16,25781,2,0,P|278:73|242:124,1,104.999996795654
50,217,26406,6,0,B|99:235|99:235|156:212,1,104.999996795654
238,172,26874,2,0,L|290:151,2,52.4999983978272
341,136,27343,1,0,0:0:0:0:
382,96,27499,1,0,0:0:0:0:
419,54,27656,2,0,P|464:76|491:125,1,104.999996795654
254,284,28281,6,0,L|334:206,2,104.999996795654
140,109,29218,2,0,L|190:162,1,52.4999983978272
273,119,29531,2,0,L|236:80,2,52.4999983978272
312,157,30000,1,0,0:0:0:0:
352,189,30156,2,0,P|391:212|453:218,1,104.999996795654
431,90,30781,6,0,B|419:35|375:2|375:2|324:-9|269:17,1,209.999993591309
231,147,31718,1,0,0:0:0:0:
142,55,32031,2,0,P|116:86|111:189,1,104.999996795654
71,338,32656,2,0,P|102:296|111:245,1,104.999996795654
164,384,33281,2,0,P|192:340|366:342,1,209.999993591309
452,359,34218,6,0,L|477:290,1,52.4999983978272
403,262,34531,2,0,L|423:203,2,52.4999983978272
324,70,35156,1,0,0:0:0:0:
419,117,35468,1,0,0:0:0:0:
313,187,35781,6,0,P|242:170|189:172,1,104.999996795654
93,189,36406,6,0,L|58:73,1,104.999996795654
222,0,37031,2,0,L|191:100,1,104.999996795654
149,216,37656,2,0,P|198:232|256:206,1,104.999996795654
343,24,38281,2,0,L|312:124,1,104.999996795654
447,273,38906,6,0,L|384:295,3,52.4999983978272
349,294,39531,2,0,L|282:296,3,52.4999983978272
247,293,40156,1,0,0:0:0:0:
219,286,40312,1,0,0:0:0:0:
191,280,40468,1,0,0:0:0:0:
163,274,40624,1,0,0:0:0:0:
136,266,40781,6,0,P|91:231|85:179,1,104.999996795654
97,55,41406,1,0,0:0:0:0:
208,138,41718,1,0,0:0:0:0:
222,14,42031,6,0,L|273:24,1,52.4999983978272
314,38,42343,2,0,P|341:69|353:148,1,104.999996795654
316,243,42968,1,0,0:0:0:0:
248,132,43281,6,0,P|159:114|37:111,1,209.999993591309
21,234,44218,1,0,0:0:0:0:
130,303,44531,2,0,P|159:250|251:217,1,157.499995193482
251,308,45156,2,0,P|304:298|344:204,1,157.499995193482
295,130,45781,2,0,P|397:132|434:189,1,157.499995193482
483,106,46406,6,0,L|419:18,1,104.999996795654
265,22,47031,2,0,L|326:106,1,104.999996795654
255,238,47656,2,0,L|194:154,1,104.999996795654
488,276,48281,6,0,P|444:317|303:280,1,209.999993591309
426,171,49218,1,0,0:0:0:0:
458,133,49374,2,0,L|499:89,2,52.4999983978272
426,171,49843,1,0,0:0:0:0:
305,83,50156,1,0,0:0:0:0:
374,220,50468,1,0,0:0:0:0:
307,258,50781,6,0,P|264:209|318:77,1,209.999993591309
455,30,51718,1,0,0:0:0:0:
301,7,52031,2,0,P|203:22|176:20,1,104.999996795654
58,36,52656,2,0,P|62:83|99:133,1,104.999996795654
217,124,53281,2,0,P|214:237|134:322,1,209.999993591309
298,354,54218,5,0,0:0:0:0:
366,235,54531,2,0,P|417:260|485:349,1,157.499995193482
490,367,55156,1,0,0:0:0:0:
490,217,55468,6,0,L|485:82,1,127.50000243187
346,41,56093,1,0,0:0:0:0:
323,167,56406,2,0,P|275:152|99:143,2,209.999993591309
237,281,57968,1,0,0:0:0:0:
378,323,58281,6,0,P|428:291|492:283,1,112.500004291535
482,164,58906,2,0,P|471:109|441:62,1,112.500004291535
361,154,59531,2,0,P|306:143|259:113,1,112.500004291535
173,7,60156,1,0,0:0:0:0:
41,225,60781,1,0,0:0:0:0:
314,299,61249,6,0,L|265:289,2,28.1250010728836
461,309,61718,5,0,0:0:0:0:
430,235,61874,1,0,0:0:0:0:
397,153,62031,6,0,B|442:180|477:162|477:162|520:182,1,112.500004291535
447,77,62656,6,0,P|469:39|516:-2,2,89.999997253418,0|0|0,0:0|0:0|0:0,2:0:0:0:
414,157,63281,1,0,0:0:0:0:
260,77,63593,1,0,0:0:0:0:
33,50,63906,6,0,P|64:89|106:116,2,89.999997253418
134,13,64531,1,0,0:0:0:0:
173,250,64843,1,0,0:0:0:0:
383,194,65156,6,0,P|351:164|289:138,2,89.999997253418
229,139,65781,6,0,P|173:159|126:196,1,120
286,222,66406,2,0,P|247:267|225:323,1,120
340,318,67031,1,0,0:0:0:0:
394,327,67187,1,0,0:0:0:0:
442,315,67343,2,0,P|460:270|449:227,1,90
438,212,67656,6,0,P|396:168|354:151,2,89.999997253418
485,123,68281,2,0,P|483:62|508:6,1,120,0|0,0:0|0:0,2:0:0:0:
265,69,68906,6,0,P|300:53|368:45,2,89.999997253418
186,120,69531,2,0,P|151:136|10:136,1,180
140,231,70156,2,0,P|62:274|9:346,1,180
146,354,70781,6,0,L|228:353,2,60
268,262,71406,1,0,0:0:0:0:
343,352,71718,1,0,0:0:0:0:
381,312,71874,2,0,L|424:263,2,60
458,225,72343,1,0,0:0:0:0:
320,158,72656,6,0,P|288:136|246:82,2,89.999997253418
390,33,73281,6,0,L|409:152,1,120
324,242,73906,2,0,L|343:361,1,120
191,272,74531,2,0,L|172:153,1,120
41,69,75156,2,0,L|60:188,1,120
99,326,75781,6,0,P|136:310|184:233,1,120
296,84,76406,2,0,P|259:100|211:177,1,120
248,210,76874,1,0,0:0:0:0:
290,235,77031,2,0,P|327:219|375:142,1,120
205,41,77656,6,0,P|253:55|295:83,2,89.999997253418
97,18,78281,1,0,0:0:0:0:
106,187,78593,1,0,0:0:0:0:
206,339,78906,6,0,P|174:317|132:263,2,89.999997253418
231,247,79531,6,0,P|268:222|349:226,1,120
367,327,80156,6,0,L|471:294,1,89.9999972534181
451,196,80781,6,0,P|444:137|331:48,1,210
285,41,82031,1,0,0:0:0:0:
235,109,82343,1,0,0:0:0:0:
185,38,82656,1,0,0:0:0:0:
135,106,82968,1,0,0:0:0:0:
80,180,83281,6,0,P|114:197|174:185,1,89.9999972534181
248,142,83906,1,0,0:0:0:0:
256,240,84218,1,0,0:0:0:0:
211,253,84374,1,0,0:0:0:0:
174,275,84531,6,0,P|145:300|135:360,1,89.9999972534181
235,348,85156,2,0,L|348:326,1,104.999996795654
382,318,85624,1,0,0:0:0:0:
425,303,85781,6,0,P|406:262|368:239,1,89.9999972534181
272,226,86406,1,0,0:0:0:0:
325,145,86718,2,0,L|357:102,1,44.999998626709
316,81,87031,2,0,L|308:28,2,44.999998626709
219,117,87656,6,0,P|159:122|53:61,1,179.999994506836
24,168,88593,1,0,0:0:0:0:
110,211,88906,1,0,0:0:0:0:
35,265,89218,1,0,0:0:0:0:
121,308,89531,2,0,L|169:333,2,44.999998626709
241,267,90156,5,0,0:0:0:0:
192,177,90468,1,0,0:0:0:0:
296,184,90781,2,0,P|329:217|327:318,1,150
301,339,91562,6,0,L|257:376,2,52.4999983978272
405,357,92031,2,0,L|445:323,3,52.4999983978272
474,297,92656,1,0,0:0:0:0:
473,262,92812,1,0,0:0:0:0:
473,227,92968,1,0,0:0:0:0:
473,192,93124,1,0,0:0:0:0:
473,162,93281,6,0,P|443:132|336:112,1,150
269,183,94218,1,0,0:0:0:0:
194,251,94531,2,0,P|120:245|61:199,1,150
440,323,95781,6,0,P|385:270|290:244,1,150
234,323,96718,1,0,0:0:0:0:
228,272,96874,2,0,L|221:224,2,37.5
215,185,97343,1,0,0:0:0:0:
78,127,97656,2,0,L|83:164,2,37.5
64,12,98281,6,0,P|136:22|190:108,1,179.999994506836
164,205,99218,1,0,0:0:0:0:
207,230,99374,2,0,L|250:209,1,44.999998626709
289,228,99687,2,0,L|329:208,1,44.999998626709
434,202,100156,1,0,0:0:0:0:
369,122,100468,1,0,0:0:0:0:
218,46,100781,6,0,P|273:53|327:89,1,89.9999972534181
281,179,101406,1,0,0:0:0:0:
182,155,101718,1,0,0:0:0:0:
188,193,101874,1,0,0:0:0:0:
204,285,102031,6,0,L|196:237,1,44.999998626709
141,356,102343,2,0,P|127:308|88:279,1,89.9999972534181
0,258,102968,1,0,0:0:0:0:
85,142,103281,6,0,P|30:149|-24:185,1,89.9999972534181
52,48,103906,1,0,0:0:0:0:
155,51,104218,1,0,0:0:0:0:
257,53,104531,6,0,P|318:60|379:101,1,134.999995880127
384,124,105156,6,0,P|376:185|344:234,1,89.9999972534181
251,222,105781,6,0,P|321:315|456:278,1,269.999991760254
468,250,106874,1,0,0:0:0:0:
478,211,107031,2,0,L|484:152,2,44.999998626709
426,79,107656,1,0,0:0:0:0:
351,149,107968,1,0,0:0:0:0:
316,47,108281,6,0,P|264:75|242:151,1,134.999995880127
249,177,108906,2,0,L|278:265,1,89.9999972534181
187,350,109531,2,0,L|158:264,1,89.9999972534181
36,229,110156,2,0,L|64:314,1,89.9999972534181
131,178,110781,2,0,P|105:102|102:39,1,134.999995880127
106,8,111406,6,0,P|161:14|221:38,1,89.9999972534181
231,115,112031,2,0,P|284:101|349:103,1,89.9999972534181
385,172,112656,2,0,P|430:141|492:121,1,89.9999972534181
512,228,113281,6,0,P|475:253|384:288,1,134.999995880127
359,286,113906,1,0,0:0:0:0:
272,211,114218,1,0,0:0:0:0:
251,242,114374,1,0,0:0:0:0:
230,273,114531,2,0,L|198:313,2,44.999998626709
195,122,115156,1,0,0:0:0:0:
131,200,115468,1,0,0:0:0:0:
88,88,115781,6,0,P|125:63|216:28,1,134.999995880127
244,29,116406,1,0,0:0:0:0:
347,52,116718,1,0,0:0:0:0:
271,129,117031,2,0,P|255:186|256:276,1,134.999995880127
243,295,117656,2,0,P|186:311|238:284,1,134.999995880127
229,259,118281,2,0,P|275:242|386:248,1,134.999995880127
397,250,118906,6,0,L|489:274,1,89.9999972534181
454,151,119531,2,0,L|366:128,1,89.9999972534181
344,10,120156,2,0,P|370:15|400:30,2,44.999998626709
227,0,120781,6,0,P|174:6|83:58,1,134.999995880127
81,65,121406,1,0,0:0:0:0:
105,172,121718,1,0,0:0:0:0:
115,209,121874,1,0,0:0:0:0:
125,253,122031,2,0,L|138:301,2,44.999998626709
243,331,122656,1,0,0:0:0:0:
226,224,122968,1,0,0:0:0:0:
212,100,123281,6,0,P|278:109|337:141,1,134.999995880127
362,169,123906,1,0,0:0:0:0:
367,293,124218,2,0,P|435:284|465:243,1,89.9999972534181
329,380,124843,1,0,0:0:0:0:
229,347,125156,2,0,L|142:316,1,89.9999972534181
37,278,125781,6,0,P|76:224|157:212,1,134.999995880127
180,220,126406,1,0,0:0:0:0:
339,368,126718,1,0,0:0:0:0:
309,352,126874,1,0,0:0:0:0:
273,331,127031,2,0,L|226:302,2,44.999998626709
371,290,127656,1,0,0:0:0:0:
287,195,127968,2,0,P|310:219|272:217,1,89.9999972534181
213,110,128593,1,0,0:0:0:0:
338,88,128906,6,0,P|339:29|317:-35,1,89.9999972534181
435,186,129531,2,0,P|434:127|456:63,1,89.9999972534181
346,277,130156,2,0,P|347:218|325:154,1,89.9999972534181
231,115,130781,6,0,L|224:226,1,104.999996795654
131,331,131406,2,0,L|137:226,1,104.999996795654
56,95,132031,6,0,L|50:200,1,104.999996795654
143,118,132656,2,0,L|150:14,1,104.999996795654
236,80,133281,1,0,0:0:0:0:
365,171,133906,5,0,0:0:0:0:
258,297,134218,1,0,0:0:0:0:
360,277,134531,1,0,0:0:0:0:
333,253,134688,2,0,L|249:179,1,89.9999972534181
239,168,135156,1,0,0:0:0:0:
280,71,135312,1,0,0:0:0:0:
183,19,135468,2,0,P|120:49|91:96,1,120
75,220,136093,1,0,0:0:0:0:
153,329,136406,6,0,P|206:370|235:379,2,89.999997253418
145,297,137031,6,0,P|198:256|255:242,1,120
397,258,137656,6,0,P|463:249|490:235,2,89.999997253418
351,248,138281,6,0,P|350:182|282:79,1,180
265,63,138906,6,0,P|232:125|76:111,1,240
68,83,139687,1,0,0:0:0:0:
77,44,139843,1,0,0:0:0:0:
226,18,140156,6,0,P|292:26|319:40,2,89.999997253418
179,40,140781,1,0,0:0:0:0:
283,139,141093,1,0,0:0:0:0:
427,156,141406,6,0,P|471:150|511:131,2,89.999997253418
401,130,142031,6,0,P|386:63|274:35,1,180
250,51,142656,6,0,P|226:126|281:209,1,180
316,222,143281,6,0,P|305:294|190:312,1,180
178,309,143906,1,0,0:0:0:0:
126,198,144218,6,0,L|191:207,1,60
205,167,144531,2,0,L|270:176,1,60
295,147,144843,1,0,0:0:0:0:
130,53,145156,6,0,P|88:38|43:37,2,89.999997253418
75,147,145781,6,0,P|126:194|232:179,1,180
253,156,146406,6,0,P|331:165|287:269,1,180
308,275,147031,6,0,P|247:319|143:330,1,180
117,324,147656,6,0,P|62:280|107:183,1,160
106,181,148281,6,0,L|234:108,1,120
341,171,148906,2,0,L|236:230,1,120
229,294,149374,1,0,0:0:0:0:
231,358,149531,2,0,L|359:285,1,120
425,254,150156,6,0,P|466:239|511:238,2,89.999997253418
445,115,150781,1,0,0:0:0:0:
331,207,151093,1,0,0:0:0:0:
307,63,151406,6,0,P|281:26|246:0,2,89.999997253418
195,107,152031,6,0,P|155:153|174:271,1,180
258,199,152656,2,0,L|421:248,1,134.999995880127
481,151,153281,6,0,P|439:130|280:101,1,210
236,102,154531,2,0,P|171:118|147:143,1,80
155,180,154843,2,0,L|228:223,1,80
215,263,155156,2,0,L|288:306,1,80
315,322,155468,2,0,L|366:351,2,40
387,361,155781,5,0,0:0:0:0:
424,232,156093,1,0,0:0:0:0:
287,187,156406,2,0,L|358:212,1,59.9999981689454
403,149,156718,2,0,L|346:129,1,59.9999981689454
214,160,157031,1,0,0:0:0:0:
277,106,157239,1,0,0:0:0:0:
236,82,157343,2,0,P|188:79|160:97,1,59.9999981689454
138,108,157656,5,0,0:0:0:0:
94,247,157968,1,0,0:0:0:0:
210,253,158176,1,0,0:0:0:0:
240,259,158281,2,0,B|271:268|271:268|289:316,1,59.9999981689454
293,325,158593,5,0,0:0:0:0:
455,205,158906,2,0,L|388:190,1,59.9999981689454
353,104,159218,2,0,L|411:117,1,59.9999981689454
443,124,159531,5,0,0:0:0:0:
355,13,159739,6,0,L|310:5,4,29.9999990844727
187,79,160364,2,0,L|236:93,1,29.9999990844727
225,189,160676,2,0,L|196:180,1,29.9999990844727
127,256,160989,2,0,L|155:264,1,29.9999990844727
298,308,161301,2,0,L|270:300,1,29.9999990844727
411,238,161614,2,0,L|383:230,1,29.9999990844727
510,136,161926,2,0,B|497:124|497:124|476:119,1,29.9999990844727
258,110,162239,5,0,0:0:0:0:
288,111,162343,2,0,L|351:111,1,59.9999981689454
376,110,162656,1,0,0:0:0:0:
128,112,162968,5,0,0:0:0:0:
36,238,163281,1,0,0:0:0:0:
156,319,163593,2,0,L|140:250,1,59.9999981689454
133,223,163906,5,0,0:0:0:0:
246,264,164218,2,0,L|262:195,1,64.9999970245363
270,170,164531,5,0,0:0:0:0:
133,223,164843,2,0,L|117:154,1,69.9999978637696
111,124,165156,5,0,0:0:0:0:
270,170,165468,2,0,L|297:52,1,112.500004291535
453,143,166093,5,0,0:0:0:0:
366,271,166406,1,0,0:0:0:0:
345,157,166718,1,0,0:0:0:0:
256,288,167031,2,0,P|210:243|188:160,1,134.999995880127
191,142,167656,5,0,0:0:0:0:
292,43,167968,1,0,0:0:0:0:
345,157,168281,2,0,P|402:126|430:59,2,120
214,172,169843,1,0,0:0:0:0:
262,77,170156,1,0,0:0:0:0:
153,88,170468,1,0,0:0:0:0:
107,193,170781,5,0,0:0:0:0:
229,287,171094,1,0,0:0:0:0:
214,172,171405,1,0,0:0:0:0:
336,266,171718,1,0,0:0:0:0:
328,147,172031,2,0,P|358:193|333:268,1,134.999995880127
307,283,172656,5,0,0:0:0:0:
196,166,172968,1,0,0:0:0:0:
126,303,173281,2,0,P|96:354|43:381,2,120
21,263,174843,1,0,0:0:0:0:
116,187,175155,1,0,0:0:0:0:
6,140,175468,1,0,0:0:0:0:
114,68,175781,5,0,0:0:0:0:
236,162,176094,1,0,0:0:0:0:
221,47,176405,1,0,0:0:0:0:
343,141,176718,1,0,0:0:0:0:
315,284,177031,2,0,P|278:313|188:308,1,120
130,217,177968,5,0,0:0:0:0:
126,177,178124,1,0,0:0:0:0:
122,140,178281,5,0,0:0:0:0:
243,45,178594,1,0,0:0:0:0:
228,160,178905,1,0,0:0:0:0:
351,66,179218,1,0,0:0:0:0:
338,215,179531,2,0,P|308:257|227:283,1,120
107,233,180468,1,0,0:0:0:0:
236,140,180781,5,0,0:0:0:0:
115,45,181094,1,0,0:0:0:0:
130,160,181405,1,0,0:0:0:0:
7,66,181718,1,0,0:0:0:0:
15,228,182031,2,0,P|40:268|116:295,1,120
235,247,182968,5,0,0:0:0:0:
337,182,183281,2,0,P|381:73|282:3,1,240
262,3,184687,5,0,0:0:0:0:
224,8,184843,1,0,0:0:0:0:
199,125,185156,1,0,0:0:0:0:
96,38,185468,5,0,0:0:0:0:
64,187,185781,1,0,0:0:0:0:
302,312,186301,6,0,L|275:297,1,20
273,214,186614,2,0,P|254:177|303:191,1,100
397,161,186926,2,0,L|370:146,1,20
213,73,187343,1,0,0:0:0:0:
190,246,187656,2,0,P|139:220|117:186,2,89.999997253418
80,74,188281,5,0,0:0:0:0:
212,110,188593,1,0,0:0:0:0:
356,106,188906,2,0,P|415:93|447:71,2,89.999997253418
340,208,189531,1,0,0:0:0:0:
345,236,189687,1,0,0:0:0:0:
351,266,189843,1,0,0:0:0:0:
237,197,190156,6,0,P|178:210|146:232,2,89.999997253418
257,312,190781,6,0,L|377:389,1,120
222,384,191406,2,0,L|121:319,1,120
96,301,191874,1,0,0:0:0:0:
75,288,192031,1,0,0:0:0:0:
73,259,192187,1,0,0:0:0:0:
52,246,192344,1,0,0:0:0:0:
173,152,192656,6,0,P|205:101|212:62,2,89.999997253418
77,195,193281,1,0,0:0:0:0:
64,167,193437,1,0,0:0:0:0:
51,141,193593,1,0,0:0:0:0:
134,288,193906,6,0,P|160:324|197:349,2,89.999997253418
167,198,194531,6,0,P|241:208|297:208,1,120
399,113,195156,2,0,P|325:103|269:103,1,120
171,70,195781,2,0,B|189:13|232:-21|317:-8|383:7,1,240
399,113,196718,5,0,0:0:0:0:
391,164,196874,2,0,L|382:234,1,67.4999979400635
386,321,197187,2,0,L|393:261,1,60
254,333,197656,6,0,P|209:330|167:313,2,89.999997253418
218,228,198281,6,0,L|94:176,1,120
51,68,198906,2,0,L|161:114,1,120
304,90,199531,2,0,L|193:43,1,120
327,9,200156,2,0,P|372:34|390:104,1,120
438,295,200781,6,0,P|400:245|389:188,1,120
315,287,201406,2,0,P|256:299|209:336,1,120
190,226,202031,2,0,P|130:218|81:186,1,120
100,68,202656,6,0,P|133:38|175:20,2,89.999997253418
209,136,203281,1,0,0:0:0:0:
320,80,203593,1,0,0:0:0:0:
308,202,203906,6,0,P|352:200|394:184,2,89.999997253418
181,206,204531,6,0,P|203:280|256:310,1,120
151,362,205156,2,0,L|12:360,1,134.999995880127
20,237,205781,2,0,B|29:103|132:78|132:78|164:127|201:132|230:145|230:145|275:142|275:142|321:125,1,419.999987182618
349,123,207187,1,0,0:0:0:0:
383,144,207343,1,0,0:0:0:0:
304,360,207656,6,0,P|358:353|404:324,2,110.000003356934
281,241,208281,1,0,0:0:0:0:
137,226,208593,1,0,0:0:0:0:
241,109,208906,2,0,P|324:73|383:85,2,110.000003356934
343,206,209531,2,0,P|397:199|471:138,1,150
454,281,210156,6,0,P|475:368|520:408,2,110.000003356934
340,332,210781,2,0,P|272:358|194:364,1,120
72,323,211406,2,0,P|118:285|248:251,1,180
266,250,212031,1,0,0:0:0:0:
334,168,212187,2,0,L|255:166,1,60
180,163,212656,6,0,P|135:160|93:143,2,89.999997253418
273,73,213281,1,0,0:0:0:0:
334,191,213593,1,0,0:0:0:0:
380,312,213906,6,0,P|424:309|466:292,2,89.999997253418
258,293,214531,2,0,P|181:275|71:271,1,180
78,193,215156,2,0,P|167:189|255:170,1,180
258,93,215781,2,0,P|170:73|80:70,1,180
39,71,216406,1,0,0:0:0:0:
139,192,216718,1,0,0:0:0:0:
258,93,217031,2,0,P|324:40|422:63,1,180
434,81,217656,6,0,P|455:120|464:164,2,89.999997253418
343,167,218281,6,0,L|383:294,1,120
170,201,218906,2,0,L|206:315,1,120
297,323,219531,2,0,L|260:208,1,120
99,256,220156,2,0,L|136:371,1,120
90,230,220624,1,0,0:0:0:0:
74,195,220781,2,0,P|78:123|113:93,1,120
274,128,221406,2,0,L|149:173,1,120
203,41,222031,2,0,L|315:0,1,120
434,81,222656,6,0,P|455:120|464:164,2,89.999997253418
341,162,223281,2,0,L|348:299,1,120
263,381,223906,2,0,P|242:342|233:298,2,89.999997253418
278,218,224531,6,0,L|235:89,1,120
128,65,225156,2,0,L|165:178,1,120
200,268,225781,2,0,P|251:318|313:310,1,120
395,255,226406,1,0,0:0:0:0:
335,149,226614,2,0,P|383:130|418:137,2,80
298,168,227187,1,0,0:0:0:0:
249,165,227343,1,0,0:0:0:0:
125,119,227656,2,0,P|88:81|82:46,2,80
282,61,228281,1,0,0:0:0:0:
200,234,228593,1,0,0:0:0:0:
364,186,228906,2,0,P|400:148|406:113,2,80
377,280,229531,6,0,L|319:297,1,60
291,331,229843,2,0,L|233:348,1,60
196,331,230156,2,0,P|178:270|242:193,1,134.999995880127
241,187,230781,2,0,P|249:137|90:87,1,240
