osu file format v14

[General]
AudioFilename: audio.mp3
AudioLeadIn: 0
PreviewTime: 0
Countdown: 0
SampleSet: Normal
StackLeniency: 0.7
Mode: 3
LetterboxInBreaks: 0
SpecialStyle: 0
WidescreenStoryboard: 1

[Editor]
DistanceSpacing: 1.5
BeatDivisor: 16
GridSize: 4
TimelineZoom: 2.7

[Metadata]
Title:Fucking Noot Noot
TitleUnicode:Fucking Noot Noot
Artist:Various Artists
ArtistUnicode:Various Artists
Creator:PremiumShiny
Version:Fuckin RSI
Source:Pingu
Tags:Jup Pingu Remix Hardcore Collab Vibro RSI
BeatmapID:1263584
BeatmapSetID:596664

[Difficulty]
HPDrainRate:0
CircleSize:4
OverallDifficulty:8
ApproachRate:5
SliderMultiplier:3.59999990463257
SliderTickRate:4

[Events]
//Background and Video events
0,0,"nooters.jpg",0,0
//Break Periods
//Storyboard Layer 0 (Background)
//Storyboard Layer 1 (Fail)
//Storyboard Layer 2 (Pass)
//Storyboard Layer 3 (Foreground)
//Storyboard Sound Samples

[TimingPoints]
11731.2455151127,324.319729583559,4,1,0,30,1,0

[HitObjects]
64,192,298,5,0,0:0:0:0:
320,192,298,1,0,0:0:0:0:
192,192,298,1,0,0:0:0:0:
448,192,298,1,0,0:0:0:0:
64,192,704,128,0,765:0:0:0:0:
192,192,704,128,0,765:0:0:0:0:
320,192,704,128,0,765:0:0:0:0:
448,192,704,128,0,765:0:0:0:0:
448,192,785,128,0,846:0:0:0:0:
320,192,785,128,0,846:0:0:0:0:
192,192,785,128,0,846:0:0:0:0:
64,192,785,128,0,846:0:0:0:0:
448,192,866,128,0,927:0:0:0:0:
320,192,866,128,0,927:0:0:0:0:
192,192,866,128,0,927:0:0:0:0:
64,192,866,128,0,927:0:0:0:0:
64,192,947,128,0,1008:0:0:0:0:
192,192,947,128,0,1008:0:0:0:0:
320,192,947,128,0,1008:0:0:0:0:
448,192,947,128,0,1008:0:0:0:0:
448,192,1028,128,0,1089:0:0:0:0:
320,192,1028,128,0,1089:0:0:0:0:
192,192,1028,128,0,1089:0:0:0:0:
64,192,1028,128,0,1089:0:0:0:0:
448,192,1109,128,0,1170:0:0:0:0:
320,192,1109,128,0,1170:0:0:0:0:
192,192,1109,128,0,1170:0:0:0:0:
64,192,1109,128,0,1170:0:0:0:0:
64,192,1190,128,0,1251:0:0:0:0:
192,192,1190,128,0,1251:0:0:0:0:
320,192,1190,128,0,1251:0:0:0:0:
448,192,1190,128,0,1251:0:0:0:0:
448,192,1271,128,0,1332:0:0:0:0:
320,192,1271,128,0,1332:0:0:0:0:
192,192,1271,128,0,1332:0:0:0:0:
64,192,1271,128,0,1332:0:0:0:0:
448,192,1353,128,0,1413:0:0:0:0:
320,192,1353,128,0,1413:0:0:0:0:
192,192,1353,128,0,1413:0:0:0:0:
64,192,1353,128,0,1413:0:0:0:0:
64,192,1434,128,0,1494:0:0:0:0:
192,192,1434,128,0,1494:0:0:0:0:
320,192,1434,128,0,1494:0:0:0:0:
448,192,1434,128,0,1494:0:0:0:0:
448,192,1515,128,0,1575:0:0:0:0:
320,192,1515,128,0,1575:0:0:0:0:
192,192,1515,128,0,1575:0:0:0:0:
64,192,1515,128,0,1575:0:0:0:0:
64,192,1596,128,0,1657:0:0:0:0:
192,192,1596,128,0,1657:0:0:0:0:
320,192,1596,128,0,1657:0:0:0:0:
448,192,1596,128,0,1657:0:0:0:0:
320,192,1677,128,0,1738:0:0:0:0:
448,192,1677,128,0,1738:0:0:0:0:
192,192,1677,128,0,1738:0:0:0:0:
64,192,1677,128,0,1738:0:0:0:0:
64,192,1758,128,0,1819:0:0:0:0:
192,192,1758,128,0,1819:0:0:0:0:
320,192,1758,128,0,1819:0:0:0:0:
448,192,1758,128,0,1819:0:0:0:0:
448,192,1839,128,0,1900:0:0:0:0:
320,192,1839,128,0,1900:0:0:0:0:
192,192,1839,128,0,1900:0:0:0:0:
64,192,1839,128,0,1900:0:0:0:0:
64,192,1920,128,0,1981:0:0:0:0:
192,192,1920,128,0,1981:0:0:0:0:
320,192,1920,128,0,1981:0:0:0:0:
448,192,1920,128,0,1981:0:0:0:0:
192,192,2001,128,0,2062:0:0:0:0:
320,192,2001,128,0,2062:0:0:0:0:
448,192,2001,128,0,2062:0:0:0:0:
64,192,2001,128,0,2062:0:0:0:0:
448,192,2082,128,0,2143:0:0:0:0:
320,192,2082,128,0,2143:0:0:0:0:
192,192,2082,128,0,2143:0:0:0:0:
64,192,2082,128,0,2143:0:0:0:0:
64,192,2163,128,0,2224:0:0:0:0:
192,192,2163,128,0,2224:0:0:0:0:
320,192,2163,128,0,2224:0:0:0:0:
448,192,2163,128,0,2224:0:0:0:0:
448,192,2244,128,0,2305:0:0:0:0:
320,192,2244,128,0,2305:0:0:0:0:
192,192,2244,128,0,2305:0:0:0:0:
64,192,2244,128,0,2305:0:0:0:0:
192,192,2325,1,0,0:0:0:0:
448,192,2325,1,0,0:0:0:0:
64,192,2325,1,0,0:0:0:0:
320,192,2325,1,0,0:0:0:0:
192,192,2407,1,0,0:0:0:0:
448,192,2407,1,0,0:0:0:0:
64,192,2407,1,0,0:0:0:0:
320,192,2407,1,0,0:0:0:0:
192,192,2488,1,0,0:0:0:0:
448,192,2488,1,0,0:0:0:0:
64,192,2488,1,0,0:0:0:0:
320,192,2488,1,0,0:0:0:0:
192,192,2569,1,0,0:0:0:0:
64,192,2569,1,0,0:0:0:0:
448,192,2569,1,0,0:0:0:0:
320,192,2569,1,0,0:0:0:0:
192,192,2650,1,0,0:0:0:0:
448,192,2650,1,0,0:0:0:0:
64,192,2650,1,0,0:0:0:0:
320,192,2650,1,0,0:0:0:0:
192,192,2731,1,0,0:0:0:0:
448,192,2731,1,0,0:0:0:0:
64,192,2731,1,0,0:0:0:0:
320,192,2731,1,0,0:0:0:0:
192,192,2812,1,0,0:0:0:0:
448,192,2812,1,0,0:0:0:0:
64,192,2812,1,0,0:0:0:0:
320,192,2812,1,0,0:0:0:0:
192,192,2893,1,0,0:0:0:0:
448,192,2893,1,0,0:0:0:0:
64,192,2893,1,0,0:0:0:0:
320,192,2893,1,0,0:0:0:0:
192,192,2974,1,0,0:0:0:0:
448,192,2974,1,0,0:0:0:0:
64,192,2974,1,0,0:0:0:0:
320,192,2974,1,0,0:0:0:0:
192,192,3623,128,0,3704:0:0:0:0:
64,192,3623,128,0,3704:0:0:0:0:
320,192,3623,128,0,3704:0:0:0:0:
448,192,3623,128,0,3704:0:0:0:0:
448,192,3744,128,0,3825:0:0:0:0:
320,192,3744,128,0,3825:0:0:0:0:
192,192,3744,128,0,3825:0:0:0:0:
64,192,3744,128,0,3825:0:0:0:0:
64,192,3866,128,0,3947:0:0:0:0:
192,192,3866,128,0,3947:0:0:0:0:
320,192,3866,128,0,3947:0:0:0:0:
448,192,3866,128,0,3947:0:0:0:0:
448,192,3988,128,0,4069:0:0:0:0:
320,192,3988,128,0,4069:0:0:0:0:
192,192,3988,128,0,4069:0:0:0:0:
64,192,3988,128,0,4069:0:0:0:0:
320,192,4109,128,0,4170:0:0:0:0:
192,192,4109,128,0,4170:0:0:0:0:
64,192,4109,128,0,4170:0:0:0:0:
448,192,4109,128,0,4170:0:0:0:0:
448,192,4190,128,0,4271:0:0:0:0:
320,192,4190,128,0,4271:0:0:0:0:
192,192,4190,128,0,4271:0:0:0:0:
64,192,4190,128,0,4271:0:0:0:0:
64,192,4292,128,0,4352:0:0:0:0:
448,192,4292,128,0,4352:0:0:0:0:
192,192,4292,128,0,4352:0:0:0:0:
320,192,4292,128,0,4352:0:0:0:0:
448,192,4373,128,0,4434:0:0:0:0:
64,192,4373,128,0,4434:0:0:0:0:
192,192,4373,128,0,4434:0:0:0:0:
320,192,4373,128,0,4434:0:0:0:0:
64,192,4454,128,0,4515:0:0:0:0:
448,192,4454,128,0,4515:0:0:0:0:
192,192,4454,128,0,4515:0:0:0:0:
320,192,4454,128,0,4515:0:0:0:0:
448,192,4535,128,0,4596:0:0:0:0:
64,192,4535,128,0,4596:0:0:0:0:
192,192,4535,128,0,4596:0:0:0:0:
320,192,4535,128,0,4596:0:0:0:0:
64,192,4616,128,0,4677:0:0:0:0:
448,192,4616,128,0,4677:0:0:0:0:
192,192,4616,128,0,4677:0:0:0:0:
320,192,4616,128,0,4677:0:0:0:0:
64,192,5974,128,0,6035:0:0:0:0:
320,192,5974,128,0,6035:0:0:0:0:
448,192,5974,128,0,6035:0:0:0:0:
64,192,6055,1,0,0:0:0:0:
448,192,6055,1,0,0:0:0:0:
192,192,6055,1,0,0:0:0:0:
320,192,6055,128,0,6116:0:0:0:0:
64,192,6136,128,0,6197:0:0:0:0:
320,192,6136,128,0,6197:0:0:0:0:
448,192,6136,128,0,6197:0:0:0:0:
192,192,6136,128,0,6197:0:0:0:0:
448,192,6217,1,0,0:0:0:0:
320,192,6217,1,0,0:0:0:0:
192,192,6217,128,0,6278:0:0:0:0:
64,192,6217,128,0,6278:0:0:0:0:
448,192,6298,128,0,6359:0:0:0:0:
320,192,6298,128,0,6359:0:0:0:0:
64,192,6298,128,0,6359:0:0:0:0:
192,192,6298,128,0,6359:0:0:0:0:
320,192,6379,1,0,0:0:0:0:
64,192,6379,1,0,0:0:0:0:
448,192,6379,1,0,0:0:0:0:
192,192,6379,128,0,6440:0:0:0:0:
64,192,6461,128,0,6521:0:0:0:0:
192,192,6461,128,0,6521:0:0:0:0:
320,192,6461,128,0,6521:0:0:0:0:
448,192,6461,128,0,6521:0:0:0:0:
320,192,6542,128,0,6602:0:0:0:0:
64,192,6542,128,0,6602:0:0:0:0:
192,192,6542,128,0,6602:0:0:0:0:
320,192,6623,1,0,0:0:0:0:
64,192,6623,1,0,0:0:0:0:
192,192,6623,128,0,6684:0:0:0:0:
448,192,6623,128,0,6684:0:0:0:0:
320,192,6704,1,0,0:0:0:0:
448,192,6704,1,0,0:0:0:0:
192,192,6704,128,0,6765:0:0:0:0:
64,192,6704,128,0,6765:0:0:0:0:
448,192,6785,1,0,0:0:0:0:
192,192,6785,1,0,0:0:0:0:
320,192,6785,128,0,6846:0:0:0:0:
64,192,6785,128,0,6846:0:0:0:0:
320,192,6866,1,0,0:0:0:0:
64,192,6866,1,0,0:0:0:0:
448,192,6866,128,0,6927:0:0:0:0:
192,192,6866,128,0,6927:0:0:0:0:
448,192,6947,1,0,0:0:0:0:
192,192,6947,1,0,0:0:0:0:
320,192,6947,128,0,7008:0:0:0:0:
64,192,6947,128,0,7008:0:0:0:0:
320,192,7028,1,0,0:0:0:0:
64,192,7028,1,0,0:0:0:0:
192,192,7028,128,0,7089:0:0:0:0:
448,192,7028,128,0,7089:0:0:0:0:
320,192,7109,1,0,0:0:0:0:
64,192,7109,1,0,0:0:0:0:
192,192,7109,128,0,7170:0:0:0:0:
448,192,7109,128,0,7170:0:0:0:0:
192,192,7190,1,0,0:0:0:0:
448,192,7190,1,0,0:0:0:0:
320,192,7190,128,0,7251:0:0:0:0:
64,192,7190,128,0,7251:0:0:0:0:
192,192,7271,1,0,0:0:0:0:
64,192,7271,128,0,7332:0:0:0:0:
320,192,7271,128,0,7332:0:0:0:0:
448,192,7271,128,0,7332:0:0:0:0:
448,192,7352,1,0,0:0:0:0:
64,192,7352,128,0,7413:0:0:0:0:
320,192,7352,128,0,7413:0:0:0:0:
192,192,7352,128,0,7413:0:0:0:0:
192,192,7434,1,0,0:0:0:0:
320,192,7434,128,0,7494:0:0:0:0:
64,192,7434,128,0,7494:0:0:0:0:
448,192,7434,128,0,7494:0:0:0:0:
448,192,7515,1,0,0:0:0:0:
64,192,7515,128,0,7575:0:0:0:0:
320,192,7515,128,0,7575:0:0:0:0:
192,192,7515,128,0,7575:0:0:0:0:
192,192,7596,1,0,0:0:0:0:
320,192,7596,128,0,7656:0:0:0:0:
64,192,7596,128,0,7656:0:0:0:0:
448,192,7596,128,0,7656:0:0:0:0:
192,192,7677,1,0,0:0:0:0:
64,192,7677,128,0,7738:0:0:0:0:
320,192,7677,128,0,7738:0:0:0:0:
448,192,7677,128,0,7738:0:0:0:0:
192,192,7758,1,0,0:0:0:0:
448,192,7758,1,0,0:0:0:0:
64,192,7758,128,0,7819:0:0:0:0:
320,192,7758,128,0,7819:0:0:0:0:
192,192,7839,1,0,0:0:0:0:
448,192,7839,1,0,0:0:0:0:
64,192,7839,128,0,7879:0:0:0:0:
320,192,7839,128,0,7920:0:0:0:0:
448,192,7920,1,0,0:0:0:0:
64,192,7920,128,0,7961:0:0:0:0:
192,192,7920,128,0,8001:0:0:0:0:
448,192,8001,1,0,0:0:0:0:
64,192,8001,128,0,8042:0:0:0:0:
320,192,8001,128,0,8082:0:0:0:0:
448,192,8082,1,0,0:0:0:0:
64,192,8082,128,0,8123:0:0:0:0:
192,192,8082,128,0,8163:0:0:0:0:
448,192,8163,1,0,0:0:0:0:
64,192,8163,128,0,8204:0:0:0:0:
320,192,8163,128,0,8244:0:0:0:0:
448,192,8244,1,0,0:0:0:0:
64,192,8244,128,0,8285:0:0:0:0:
192,192,8244,128,0,8325:0:0:0:0:
448,192,8325,1,0,0:0:0:0:
64,192,8325,128,0,8366:0:0:0:0:
320,192,8325,128,0,8406:0:0:0:0:
448,192,8406,1,0,0:0:0:0:
64,192,8406,128,0,8447:0:0:0:0:
192,192,8406,128,0,8467:0:0:0:0:
64,192,8488,128,0,8731:0:0:0:0:
192,192,8488,128,0,8731:0:0:0:0:
320,192,8488,128,0,8731:0:0:0:0:
448,192,8488,128,0,8731:0:0:0:0:
448,192,8812,128,0,10109:0:0:0:0:
192,192,9136,128,0,10109:0:0:0:0:
320,192,9461,1,0,0:0:0:0:
64,192,9481,1,0,0:0:0:0:
320,192,9501,1,0,0:0:0:0:
64,192,9521,1,0,0:0:0:0:
320,192,9542,1,0,0:0:0:0:
64,192,9562,1,0,0:0:0:0:
320,192,9582,1,0,0:0:0:0:
64,192,9602,1,0,0:0:0:0:
320,192,9623,1,0,0:0:0:0:
64,192,9643,1,0,0:0:0:0:
320,192,9663,1,0,0:0:0:0:
64,192,9683,1,0,0:0:0:0:
320,192,9704,1,0,0:0:0:0:
64,192,9724,1,0,0:0:0:0:
320,192,9744,1,0,0:0:0:0:
64,192,9765,1,0,0:0:0:0:
320,192,9785,1,0,0:0:0:0:
64,192,9805,1,0,0:0:0:0:
320,192,9825,1,0,0:0:0:0:
64,192,9846,1,0,0:0:0:0:
320,192,9866,1,0,0:0:0:0:
64,192,9886,1,0,0:0:0:0:
320,192,9906,1,0,0:0:0:0:
64,192,9927,1,0,0:0:0:0:
320,192,9947,1,0,0:0:0:0:
64,192,9967,1,0,0:0:0:0:
320,192,9988,1,0,0:0:0:0:
64,192,10008,1,0,0:0:0:0:
320,192,10028,1,0,0:0:0:0:
64,192,10048,1,0,0:0:0:0:
320,192,10069,1,0,0:0:0:0:
64,192,10089,1,0,0:0:0:0:
320,192,10109,1,0,0:0:0:0:
64,192,10433,1,0,0:0:0:0:
192,192,10433,1,0,0:0:0:0:
320,192,10433,128,0,10494:0:0:0:0:
448,192,10433,128,0,10494:0:0:0:0:
448,192,10515,1,0,0:0:0:0:
320,192,10515,1,0,0:0:0:0:
64,192,10515,128,0,10575:0:0:0:0:
192,192,10515,128,0,10575:0:0:0:0:
64,192,10596,1,0,0:0:0:0:
448,192,10596,1,0,0:0:0:0:
320,192,10596,128,0,10656:0:0:0:0:
192,192,10596,128,0,10656:0:0:0:0:
64,192,10677,1,0,0:0:0:0:
192,192,10677,1,0,0:0:0:0:
320,192,10677,128,0,10738:0:0:0:0:
448,192,10677,128,0,10738:0:0:0:0:
448,192,10758,1,0,0:0:0:0:
320,192,10758,1,0,0:0:0:0:
64,192,10758,128,0,10819:0:0:0:0:
192,192,10758,128,0,10819:0:0:0:0:
64,192,10839,1,0,0:0:0:0:
192,192,10839,1,0,0:0:0:0:
320,192,10839,128,0,10900:0:0:0:0:
448,192,10839,128,0,10900:0:0:0:0:
448,192,10920,1,0,0:0:0:0:
320,192,10920,1,0,0:0:0:0:
192,192,10920,1,0,0:0:0:0:
64,192,10920,1,0,0:0:0:0:
64,192,11001,1,0,0:0:0:0:
448,192,11001,1,0,0:0:0:0:
320,192,11001,1,0,0:0:0:0:
192,192,11001,1,0,0:0:0:0:
448,192,11082,1,0,0:0:0:0:
192,192,11082,1,0,0:0:0:0:
320,192,11082,1,0,0:0:0:0:
64,192,11082,1,0,0:0:0:0:
64,192,11731,1,0,0:0:0:0:
192,192,11731,1,0,0:0:0:0:
320,192,11731,128,0,11792:0:0:0:0:
448,192,11731,128,0,11792:0:0:0:0:
448,192,11812,1,0,0:0:0:0:
320,192,11812,1,0,0:0:0:0:
64,192,11812,128,0,11852:0:0:0:0:
192,192,11812,128,0,11852:0:0:0:0:
192,192,11893,1,0,0:0:0:0:
64,192,11893,1,0,0:0:0:0:
320,192,11893,128,0,11933:0:0:0:0:
448,192,11893,128,0,11933:0:0:0:0:
448,192,11974,1,0,0:0:0:0:
320,192,11974,1,0,0:0:0:0:
64,192,11974,128,0,12015:0:0:0:0:
192,192,11974,128,0,12035:0:0:0:0:
64,192,12055,1,0,0:0:0:0:
192,192,12055,1,0,0:0:0:0:
320,192,12055,1,0,0:0:0:0:
448,192,12055,1,0,0:0:0:0:
64,192,12136,1,0,0:0:0:0:
192,192,12136,128,0,12197:0:0:0:0:
320,192,12136,128,0,12177:0:0:0:0:
448,192,12136,128,0,12156:0:0:0:0:
448,192,12217,1,0,0:0:0:0:
64,192,12217,128,0,12237:0:0:0:0:
192,192,12217,128,0,12278:0:0:0:0:
320,192,12217,128,0,12258:0:0:0:0:
320,192,12298,1,0,0:0:0:0:
192,192,12298,1,0,0:0:0:0:
64,192,12298,1,0,0:0:0:0:
448,192,12298,1,0,0:0:0:0:
64,192,12379,1,0,0:0:0:0:
192,192,12379,1,0,0:0:0:0:
320,192,12379,1,0,0:0:0:0:
448,192,12379,1,0,0:0:0:0:
448,192,12460,1,0,0:0:0:0:
320,192,12460,1,0,0:0:0:0:
64,192,12460,128,0,12521:0:0:0:0:
192,192,12460,128,0,12521:0:0:0:0:
448,192,12542,1,0,0:0:0:0:
320,192,12542,1,0,0:0:0:0:
64,192,12542,128,0,12602:0:0:0:0:
192,192,12542,128,0,12602:0:0:0:0:
448,192,12623,1,0,0:0:0:0:
320,192,12623,1,0,0:0:0:0:
192,192,12623,128,0,12683:0:0:0:0:
64,192,12623,128,0,12683:0:0:0:0:
64,192,12704,1,0,0:0:0:0:
448,192,12704,1,0,0:0:0:0:
320,192,12704,1,0,0:0:0:0:
192,192,12704,128,0,12765:0:0:0:0:
64,192,12785,1,0,0:0:0:0:
320,192,12785,1,0,0:0:0:0:
448,192,12785,128,0,12846:0:0:0:0:
192,192,12785,128,0,12846:0:0:0:0:
192,192,12866,1,0,0:0:0:0:
320,192,12866,1,0,0:0:0:0:
64,192,12866,1,0,0:0:0:0:
448,192,12866,1,0,0:0:0:0:
64,192,12947,1,0,0:0:0:0:
320,192,12947,1,0,0:0:0:0:
192,192,12947,1,0,0:0:0:0:
448,192,12947,1,0,0:0:0:0:
64,192,13028,1,0,0:0:0:0:
192,192,13028,1,0,0:0:0:0:
320,192,13028,1,0,0:0:0:0:
448,192,13028,1,0,0:0:0:0:
448,192,13352,1,0,0:0:0:0:
192,192,13352,1,0,0:0:0:0:
320,192,13352,1,0,0:0:0:0:
64,192,13352,128,0,13413:0:0:0:0:
320,192,13433,1,0,0:0:0:0:
64,192,13433,1,0,0:0:0:0:
192,192,13433,128,0,13494:0:0:0:0:
448,192,13433,128,0,13474:0:0:0:0:
192,192,13515,1,0,0:0:0:0:
320,192,13515,1,0,0:0:0:0:
448,192,13515,128,0,13575:0:0:0:0:
64,192,13515,128,0,13555:0:0:0:0:
320,192,13596,1,0,0:0:0:0:
448,192,13596,1,0,0:0:0:0:
64,192,13596,128,0,13636:0:0:0:0:
192,192,13596,128,0,13656:0:0:0:0:
64,192,13677,1,0,0:0:0:0:
448,192,13677,1,0,0:0:0:0:
320,192,13677,128,0,13717:0:0:0:0:
192,192,13677,128,0,13737:0:0:0:0:
192,192,13758,128,0,13819:0:0:0:0:
320,192,13758,128,0,13819:0:0:0:0:
448,192,13758,128,0,13798:0:0:0:0:
64,192,13758,128,0,13798:0:0:0:0:
64,192,13839,1,0,0:0:0:0:
448,192,13839,1,0,0:0:0:0:
192,192,13839,128,0,13920:0:0:0:0:
320,192,13839,128,0,13920:0:0:0:0:
64,192,13920,1,0,0:0:0:0:
448,192,13920,1,0,0:0:0:0:
192,192,14001,1,0,0:0:0:0:
320,192,14001,1,0,0:0:0:0:
448,192,14001,1,0,0:0:0:0:
64,192,14001,128,0,14062:0:0:0:0:
320,192,14163,128,0,14204:0:0:0:0:
448,192,14163,128,0,14204:0:0:0:0:
64,192,14163,128,0,14204:0:0:0:0:
192,192,14163,128,0,14224:0:0:0:0:
320,192,14224,128,0,14264:0:0:0:0:
448,192,14224,128,0,14264:0:0:0:0:
64,192,14224,128,0,14264:0:0:0:0:
192,192,14244,128,0,14264:0:0:0:0:
64,192,14285,128,0,14305:0:0:0:0:
192,192,14285,128,0,14325:0:0:0:0:
448,192,14285,128,0,14325:0:0:0:0:
320,192,14285,128,0,14325:0:0:0:0:
64,192,14325,1,0,0:0:0:0:
64,192,14650,1,0,0:0:0:0:
192,192,14650,1,0,0:0:0:0:
448,192,14650,1,0,0:0:0:0:
320,192,14650,1,0,0:0:0:0:
64,192,14690,128,0,14710:0:0:0:0:
448,192,14690,128,0,14710:0:0:0:0:
320,192,14812,128,0,14873:0:0:0:0:
192,192,14812,128,0,14873:0:0:0:0:
64,192,14812,128,0,14873:0:0:0:0:
448,192,14812,128,0,14873:0:0:0:0:
64,192,14974,128,0,15035:0:0:0:0:
448,192,14974,128,0,15035:0:0:0:0:
192,192,14974,128,0,14994:0:0:0:0:
320,192,14974,128,0,15055:0:0:0:0:
64,192,15136,128,0,15197:0:0:0:0:
192,192,15136,128,0,15197:0:0:0:0:
320,192,15136,128,0,15217:0:0:0:0:
448,192,15136,128,0,15177:0:0:0:0:
64,192,15298,128,0,15359:0:0:0:0:
192,192,15298,128,0,15400:0:0:0:0:
320,192,15298,128,0,15339:0:0:0:0:
448,192,15298,128,0,15319:0:0:0:0:
192,192,15460,1,0,0:0:0:0:
320,192,15460,1,0,0:0:0:0:
448,192,15460,128,0,15521:0:0:0:0:
64,192,15460,128,0,15521:0:0:0:0:
64,192,15542,1,0,0:0:0:0:
192,192,15542,1,0,0:0:0:0:
448,192,15542,1,0,0:0:0:0:
320,192,15542,1,0,0:0:0:0:
64,192,15623,1,0,0:0:0:0:
192,192,15623,1,0,0:0:0:0:
320,192,15623,1,0,0:0:0:0:
448,192,15623,1,0,0:0:0:0:
192,192,15704,1,0,0:0:0:0:
320,192,15704,1,0,0:0:0:0:
448,192,15704,128,0,15764:0:0:0:0:
64,192,15704,128,0,15764:0:0:0:0:
192,192,15785,1,0,0:0:0:0:
320,192,15785,1,0,0:0:0:0:
448,192,15785,128,0,15846:0:0:0:0:
64,192,15785,128,0,15846:0:0:0:0:
320,192,15866,128,0,15927:0:0:0:0:
448,192,15866,128,0,15927:0:0:0:0:
192,192,15866,128,0,15927:0:0:0:0:
64,192,15866,128,0,15927:0:0:0:0:
320,192,15947,128,0,16008:0:0:0:0:
448,192,15947,128,0,16008:0:0:0:0:
64,192,15947,128,0,16008:0:0:0:0:
192,192,15947,128,0,16008:0:0:0:0:
320,192,16109,128,0,16170:0:0:0:0:
192,192,16109,128,0,16190:0:0:0:0:
448,192,16109,128,0,16129:0:0:0:0:
64,192,16109,128,0,16150:0:0:0:0:
448,192,16170,1,0,0:0:0:0:
64,192,16190,1,0,0:0:0:0:
320,192,16271,1,0,0:0:0:0:
448,192,16271,128,0,16332:0:0:0:0:
64,192,16271,128,0,16332:0:0:0:0:
192,192,16271,128,0,16312:0:0:0:0:
320,192,16312,128,0,16352:0:0:0:0:
64,192,16352,128,0,16413:0:0:0:0:
448,192,16352,128,0,16413:0:0:0:0:
192,192,16352,128,0,16393:0:0:0:0:
320,192,16393,128,0,16433:0:0:0:0:
64,192,16433,128,0,16494:0:0:0:0:
448,192,16433,128,0,16494:0:0:0:0:
192,192,16433,128,0,16474:0:0:0:0:
320,192,16474,128,0,16514:0:0:0:0:
64,192,16514,128,0,16575:0:0:0:0:
448,192,16514,128,0,16575:0:0:0:0:
192,192,16514,128,0,16555:0:0:0:0:
448,192,16596,1,0,0:0:0:0:
64,192,16596,1,0,0:0:0:0:
192,192,16596,128,0,16656:0:0:0:0:
320,192,16596,128,0,16656:0:0:0:0:
192,192,16677,128,0,16737:0:0:0:0:
320,192,16677,128,0,16737:0:0:0:0:
64,192,16677,128,0,16737:0:0:0:0:
448,192,16677,128,0,16737:0:0:0:0:
192,192,16758,128,0,16819:0:0:0:0:
320,192,16758,128,0,16819:0:0:0:0:
448,192,16758,128,0,16819:0:0:0:0:
64,192,16758,128,0,16819:0:0:0:0:
192,192,16839,128,0,16900:0:0:0:0:
320,192,16839,128,0,16900:0:0:0:0:
448,192,16839,128,0,16900:0:0:0:0:
64,192,16839,128,0,16900:0:0:0:0:
192,192,16920,128,0,16981:0:0:0:0:
320,192,16920,128,0,16981:0:0:0:0:
448,192,16920,128,0,16981:0:0:0:0:
64,192,16920,128,0,16981:0:0:0:0:
192,192,17082,128,0,17143:0:0:0:0:
320,192,17082,128,0,17143:0:0:0:0:
448,192,17082,128,0,17143:0:0:0:0:
64,192,17082,128,0,17143:0:0:0:0:
64,192,17244,128,0,17305:0:0:0:0:
192,192,17244,128,0,17305:0:0:0:0:
320,192,17244,128,0,17305:0:0:0:0:
448,192,17244,128,0,17305:0:0:0:0:
448,192,17406,128,0,17467:0:0:0:0:
64,192,17406,128,0,17467:0:0:0:0:
192,192,17406,128,0,17487:0:0:0:0:
320,192,17406,128,0,17447:0:0:0:0:
320,192,17569,128,0,17629:0:0:0:0:
192,192,17569,128,0,17629:0:0:0:0:
448,192,17569,128,0,17650:0:0:0:0:
64,192,17569,128,0,17609:0:0:0:0:
192,192,17731,128,0,17791:0:0:0:0:
448,192,17731,128,0,17791:0:0:0:0:
64,192,17731,128,0,17812:0:0:0:0:
320,192,17731,128,0,17751:0:0:0:0:
64,192,17893,128,0,17954:0:0:0:0:
192,192,17893,128,0,17974:0:0:0:0:
320,192,17893,128,0,17933:0:0:0:0:
448,192,17893,128,0,17954:0:0:0:0:
320,192,18055,1,0,0:0:0:0:
192,192,18055,128,0,18116:0:0:0:0:
448,192,18055,128,0,18116:0:0:0:0:
64,192,18055,128,0,18136:0:0:0:0:
64,192,18217,128,0,18278:0:0:0:0:
192,192,18217,128,0,18258:0:0:0:0:
320,192,18217,128,0,18278:0:0:0:0:
448,192,18217,128,0,18298:0:0:0:0:
64,192,18379,1,0,0:0:0:0:
320,192,18379,1,0,0:0:0:0:
192,192,18379,128,0,18440:0:0:0:0:
448,192,18379,128,0,18440:0:0:0:0:
448,192,18541,1,0,0:0:0:0:
320,192,18541,1,0,0:0:0:0:
192,192,18541,128,0,18602:0:0:0:0:
64,192,18541,128,0,18602:0:0:0:0:
192,192,18704,1,0,0:0:0:0:
64,192,18704,1,0,0:0:0:0:
320,192,18704,128,0,18764:0:0:0:0:
448,192,18704,128,0,18764:0:0:0:0:
448,192,18866,1,0,0:0:0:0:
64,192,18866,1,0,0:0:0:0:
192,192,18866,128,0,18927:0:0:0:0:
320,192,18866,128,0,18927:0:0:0:0:
64,192,19028,1,0,0:0:0:0:
320,192,19028,1,0,0:0:0:0:
192,192,19028,128,0,19089:0:0:0:0:
448,192,19028,128,0,19089:0:0:0:0:
64,192,19190,1,0,0:0:0:0:
320,192,19190,1,0,0:0:0:0:
192,192,19190,128,0,19251:0:0:0:0:
448,192,19190,128,0,19251:0:0:0:0:
192,192,19352,128,0,19413:0:0:0:0:
448,192,19352,128,0,19413:0:0:0:0:
64,192,19352,128,0,19393:0:0:0:0:
320,192,19352,128,0,19393:0:0:0:0:
192,192,19433,128,0,19494:0:0:0:0:
448,192,19433,128,0,19494:0:0:0:0:
64,192,19433,128,0,19474:0:0:0:0:
320,192,19433,128,0,19474:0:0:0:0:
192,192,19514,128,0,19575:0:0:0:0:
448,192,19514,128,0,19575:0:0:0:0:
320,192,19514,128,0,19595:0:0:0:0:
64,192,19514,128,0,19595:0:0:0:0:
64,192,19677,1,0,0:0:0:0:
320,192,19677,1,0,0:0:0:0:
192,192,19677,128,0,19737:0:0:0:0:
448,192,19677,128,0,19737:0:0:0:0:
192,192,19839,1,0,0:0:0:0:
320,192,19839,1,0,0:0:0:0:
64,192,19839,1,0,0:0:0:0:
448,192,19839,1,0,0:0:0:0:
192,192,19859,128,0,19900:0:0:0:0:
320,192,19859,128,0,19900:0:0:0:0:
448,192,19859,128,0,19900:0:0:0:0:
64,192,19859,128,0,19900:0:0:0:0:
192,192,20001,1,0,0:0:0:0:
320,192,20001,1,0,0:0:0:0:
448,192,20001,128,0,20062:0:0:0:0:
64,192,20001,128,0,20062:0:0:0:0:
320,192,20163,1,0,0:0:0:0:
192,192,20163,1,0,0:0:0:0:
448,192,20163,128,0,20224:0:0:0:0:
64,192,20163,128,0,20224:0:0:0:0:
192,192,20224,1,0,0:0:0:0:
320,192,20224,1,0,0:0:0:0:
192,192,20325,1,0,0:0:0:0:
448,192,20325,1,0,0:0:0:0:
64,192,20325,1,0,0:0:0:0:
320,192,20325,1,0,0:0:0:0:
64,192,20487,1,0,0:0:0:0:
192,192,20487,1,0,0:0:0:0:
448,192,20487,1,0,0:0:0:0:
320,192,20487,1,0,0:0:0:0:
320,192,20650,1,0,0:0:0:0:
192,192,20650,1,0,0:0:0:0:
64,192,20650,128,0,20710:0:0:0:0:
448,192,20650,128,0,20710:0:0:0:0:
64,192,20731,1,0,0:0:0:0:
448,192,20731,1,0,0:0:0:0:
192,192,20731,128,0,20791:0:0:0:0:
320,192,20731,128,0,20791:0:0:0:0:
320,192,20812,1,0,0:0:0:0:
192,192,20812,1,0,0:0:0:0:
448,192,20812,128,0,20873:0:0:0:0:
64,192,20812,128,0,20873:0:0:0:0:
448,192,20974,128,0,21075:0:0:0:0:
320,192,20974,128,0,21075:0:0:0:0:
192,192,20974,128,0,21075:0:0:0:0:
64,192,20974,128,0,21075:0:0:0:0:
320,192,21136,1,0,0:0:0:0:
192,192,21136,1,0,0:0:0:0:
448,192,21136,1,0,0:0:0:0:
64,192,21136,1,0,0:0:0:0:
64,192,21177,128,0,21258:0:0:0:0:
192,192,21177,128,0,21258:0:0:0:0:
320,192,21177,128,0,21258:0:0:0:0:
448,192,21177,128,0,21258:0:0:0:0:
192,192,21298,1,0,0:0:0:0:
320,192,21298,1,0,0:0:0:0:
64,192,21298,1,0,0:0:0:0:
448,192,21298,1,0,0:0:0:0:
64,192,21339,128,0,21420:0:0:0:0:
192,192,21339,128,0,21420:0:0:0:0:
320,192,21339,128,0,21420:0:0:0:0:
448,192,21339,128,0,21420:0:0:0:0:
192,192,21460,1,0,0:0:0:0:
448,192,21460,1,0,0:0:0:0:
64,192,21460,1,0,0:0:0:0:
320,192,21460,1,0,0:0:0:0:
448,192,21501,128,0,21582:0:0:0:0:
320,192,21501,128,0,21582:0:0:0:0:
192,192,21501,128,0,21582:0:0:0:0:
64,192,21501,128,0,21582:0:0:0:0:
192,192,21622,1,0,0:0:0:0:
64,192,21622,1,0,0:0:0:0:
320,192,21622,1,0,0:0:0:0:
448,192,21622,1,0,0:0:0:0:
64,192,21663,128,0,21704:0:0:0:0:
192,192,21663,128,0,21704:0:0:0:0:
320,192,21663,128,0,21704:0:0:0:0:
448,192,21663,128,0,21704:0:0:0:0:
64,192,21744,1,0,0:0:0:0:
192,192,21744,1,0,0:0:0:0:
320,192,21744,1,0,0:0:0:0:
448,192,21744,1,0,0:0:0:0:
64,192,21785,1,0,0:0:0:0:
448,192,21785,1,0,0:0:0:0:
320,192,21785,1,0,0:0:0:0:
192,192,21785,1,0,0:0:0:0:
448,192,22109,1,0,0:0:0:0:
192,192,22109,1,0,0:0:0:0:
320,192,22109,1,0,0:0:0:0:
64,192,22109,128,0,22170:0:0:0:0:
64,192,22190,1,0,0:0:0:0:
448,192,22190,1,0,0:0:0:0:
320,192,22190,1,0,0:0:0:0:
192,192,22190,128,0,22251:0:0:0:0:
64,192,22271,1,0,0:0:0:0:
448,192,22271,1,0,0:0:0:0:
192,192,22271,1,0,0:0:0:0:
320,192,22271,128,0,22332:0:0:0:0:
64,192,22352,1,0,0:0:0:0:
192,192,22352,1,0,0:0:0:0:
320,192,22352,1,0,0:0:0:0:
448,192,22352,128,0,22413:0:0:0:0:
448,192,22433,1,0,0:0:0:0:
192,192,22433,1,0,0:0:0:0:
320,192,22433,1,0,0:0:0:0:
64,192,22433,128,0,22494:0:0:0:0:
448,192,22514,1,0,0:0:0:0:
64,192,22514,1,0,0:0:0:0:
320,192,22514,1,0,0:0:0:0:
192,192,22514,128,0,22575:0:0:0:0:
448,192,22595,1,0,0:0:0:0:
192,192,22595,1,0,0:0:0:0:
64,192,22595,1,0,0:0:0:0:
320,192,22595,128,0,22656:0:0:0:0:
192,192,22677,1,0,0:0:0:0:
64,192,22677,1,0,0:0:0:0:
320,192,22677,1,0,0:0:0:0:
448,192,22677,128,0,22737:0:0:0:0:
64,192,22758,1,0,0:0:0:0:
192,192,22758,1,0,0:0:0:0:
320,192,22758,1,0,0:0:0:0:
448,192,22758,128,0,22818:0:0:0:0:
64,192,22839,1,0,0:0:0:0:
448,192,22839,1,0,0:0:0:0:
192,192,22839,1,0,0:0:0:0:
320,192,22839,128,0,22900:0:0:0:0:
320,192,22920,1,0,0:0:0:0:
64,192,22920,1,0,0:0:0:0:
448,192,22920,1,0,0:0:0:0:
192,192,22920,128,0,22981:0:0:0:0:
320,192,23001,1,0,0:0:0:0:
192,192,23001,1,0,0:0:0:0:
448,192,23001,1,0,0:0:0:0:
64,192,23001,128,0,23062:0:0:0:0:
448,192,23082,1,0,0:0:0:0:
320,192,23082,1,0,0:0:0:0:
64,192,23082,1,0,0:0:0:0:
192,192,23082,128,0,23143:0:0:0:0:
192,192,23163,1,0,0:0:0:0:
448,192,23163,1,0,0:0:0:0:
64,192,23163,1,0,0:0:0:0:
320,192,23163,128,0,23224:0:0:0:0:
192,192,23244,1,0,0:0:0:0:
320,192,23244,1,0,0:0:0:0:
64,192,23244,1,0,0:0:0:0:
448,192,23244,128,0,23305:0:0:0:0:
192,192,23325,1,0,0:0:0:0:
64,192,23325,1,0,0:0:0:0:
320,192,23325,1,0,0:0:0:0:
448,192,23325,128,0,23386:0:0:0:0:
64,192,23406,1,0,0:0:0:0:
448,192,23406,1,0,0:0:0:0:
192,192,23406,1,0,0:0:0:0:
320,192,23406,128,0,23467:0:0:0:0:
64,192,23487,1,0,0:0:0:0:
448,192,23487,1,0,0:0:0:0:
320,192,23487,1,0,0:0:0:0:
192,192,23487,128,0,23548:0:0:0:0:
448,192,23568,1,0,0:0:0:0:
320,192,23568,1,0,0:0:0:0:
192,192,23568,1,0,0:0:0:0:
64,192,23568,128,0,23629:0:0:0:0:
64,192,23649,1,0,0:0:0:0:
192,192,23649,1,0,0:0:0:0:
320,192,23649,1,0,0:0:0:0:
448,192,23649,1,0,0:0:0:0:
448,192,23812,128,0,23893:0:0:0:0:
320,192,23812,1,0,0:0:0:0:
192,192,23812,1,0,0:0:0:0:
64,192,23812,1,0,0:0:0:0:
192,192,23893,1,0,0:0:0:0:
64,192,23893,1,0,0:0:0:0:
320,192,23893,1,0,0:0:0:0:
192,192,24055,1,0,0:0:0:0:
320,192,24055,1,0,0:0:0:0:
448,192,24055,1,0,0:0:0:0:
64,192,24055,128,0,24177:0:0:0:0:
64,192,24217,1,0,0:0:0:0:
320,192,24217,1,0,0:0:0:0:
448,192,24217,1,0,0:0:0:0:
192,192,24217,128,0,24339:0:0:0:0:
192,192,24379,1,0,0:0:0:0:
448,192,24379,1,0,0:0:0:0:
64,192,24379,1,0,0:0:0:0:
320,192,24379,128,0,24501:0:0:0:0:
320,192,24541,1,0,0:0:0:0:
192,192,24541,1,0,0:0:0:0:
64,192,24541,1,0,0:0:0:0:
448,192,24541,128,0,24663:0:0:0:0:
64,192,24704,1,0,0:0:0:0:
320,192,24704,1,0,0:0:0:0:
448,192,24704,1,0,0:0:0:0:
192,192,24704,128,0,24825:0:0:0:0:
192,192,24866,1,0,0:0:0:0:
448,192,24866,1,0,0:0:0:0:
64,192,24866,1,0,0:0:0:0:
320,192,24866,128,0,24987:0:0:0:0:
192,192,25028,1,0,0:0:0:0:
448,192,25028,1,0,0:0:0:0:
320,192,25028,1,0,0:0:0:0:
64,192,25028,128,0,25149:0:0:0:0:
64,192,25190,1,0,0:0:0:0:
192,192,25190,1,0,0:0:0:0:
320,192,25190,1,0,0:0:0:0:
448,192,25190,128,0,25312:0:0:0:0:
448,192,25352,1,0,0:0:0:0:
192,192,25352,128,0,25474:0:0:0:0:
64,192,25352,128,0,25474:0:0:0:0:
320,192,25352,1,0,0:0:0:0:
192,192,25514,1,0,0:0:0:0:
64,192,25514,1,0,0:0:0:0:
320,192,25514,128,0,25636:0:0:0:0:
448,192,25514,128,0,25636:0:0:0:0:
64,192,25676,1,0,0:0:0:0:
448,192,25676,1,0,0:0:0:0:
320,192,25676,128,0,25798:0:0:0:0:
192,192,25676,128,0,25798:0:0:0:0:
320,192,25839,1,0,0:0:0:0:
448,192,25839,1,0,0:0:0:0:
64,192,25839,128,0,25960:0:0:0:0:
192,192,25839,128,0,25960:0:0:0:0:
64,192,26001,1,0,0:0:0:0:
320,192,26001,128,0,26122:0:0:0:0:
448,192,26001,128,0,26122:0:0:0:0:
192,192,26001,128,0,26122:0:0:0:0:
448,192,26163,1,0,0:0:0:0:
64,192,26163,128,0,26285:0:0:0:0:
192,192,26163,128,0,26285:0:0:0:0:
320,192,26163,128,0,26285:0:0:0:0:
192,192,26325,1,0,0:0:0:0:
64,192,26325,1,0,0:0:0:0:
320,192,26325,128,0,26447:0:0:0:0:
448,192,26325,128,0,26447:0:0:0:0:
192,192,26487,1,0,0:0:0:0:
448,192,26487,1,0,0:0:0:0:
64,192,26487,128,0,26548:0:0:0:0:
320,192,26487,128,0,26548:0:0:0:0:
64,192,26568,1,0,0:0:0:0:
320,192,26568,1,0,0:0:0:0:
192,192,26568,128,0,26629:0:0:0:0:
448,192,26568,128,0,26629:0:0:0:0:
192,192,26649,1,0,0:0:0:0:
448,192,26649,1,0,0:0:0:0:
320,192,26649,128,0,26710:0:0:0:0:
64,192,26649,128,0,26710:0:0:0:0:
64,192,26812,128,0,26933:0:0:0:0:
448,192,26812,128,0,26933:0:0:0:0:
192,192,26812,128,0,26893:0:0:0:0:
320,192,26812,128,0,26872:0:0:0:0:
448,192,26974,128,0,27095:0:0:0:0:
192,192,26974,128,0,27095:0:0:0:0:
64,192,26974,128,0,27095:0:0:0:0:
448,192,27136,128,0,27258:0:0:0:0:
320,192,27136,128,0,27237:0:0:0:0:
192,192,27136,128,0,27217:0:0:0:0:
64,192,27136,128,0,27258:0:0:0:0:
64,192,27298,128,0,27420:0:0:0:0:
320,192,27298,128,0,27420:0:0:0:0:
448,192,27298,128,0,27420:0:0:0:0:
64,192,27460,1,0,0:0:0:0:
192,192,27460,1,0,0:0:0:0:
320,192,27460,1,0,0:0:0:0:
448,192,27460,128,0,27582:0:0:0:0:
64,192,27622,1,0,0:0:0:0:
448,192,27622,1,0,0:0:0:0:
192,192,27622,128,0,27744:0:0:0:0:
320,192,27622,128,0,27744:0:0:0:0:
320,192,27785,1,0,0:0:0:0:
192,192,27785,1,0,0:0:0:0:
64,192,27785,128,0,27845:0:0:0:0:
448,192,27785,128,0,27845:0:0:0:0:
320,192,27866,1,0,0:0:0:0:
64,192,27866,1,0,0:0:0:0:
192,192,27866,128,0,27926:0:0:0:0:
448,192,27866,128,0,27926:0:0:0:0:
192,192,27947,1,0,0:0:0:0:
448,192,27947,1,0,0:0:0:0:
320,192,27947,128,0,28068:0:0:0:0:
64,192,27947,128,0,28068:0:0:0:0:
192,192,28109,1,0,0:0:0:0:
448,192,28109,1,0,0:0:0:0:
64,192,28109,128,0,28231:0:0:0:0:
320,192,28109,128,0,28231:0:0:0:0:
64,192,28271,1,0,0:0:0:0:
320,192,28271,1,0,0:0:0:0:
192,192,28271,128,0,28393:0:0:0:0:
448,192,28271,128,0,28393:0:0:0:0:
320,192,28433,128,0,28555:0:0:0:0:
64,192,28433,128,0,28555:0:0:0:0:
192,192,28433,128,0,28494:0:0:0:0:
448,192,28433,128,0,28494:0:0:0:0:
320,192,28595,128,0,28656:0:0:0:0:
192,192,28595,128,0,28636:0:0:0:0:
64,192,28595,128,0,28616:0:0:0:0:
448,192,28595,128,0,28656:0:0:0:0:
64,192,28676,128,0,28737:0:0:0:0:
192,192,28676,128,0,28737:0:0:0:0:
320,192,28676,128,0,28737:0:0:0:0:
448,192,28676,128,0,28737:0:0:0:0:
192,192,28758,1,0,0:0:0:0:
64,192,28758,1,0,0:0:0:0:
448,192,28758,1,0,0:0:0:0:
320,192,28758,128,0,28818:0:0:0:0:
192,192,28839,1,0,0:0:0:0:
448,192,28839,1,0,0:0:0:0:
320,192,28839,128,0,28899:0:0:0:0:
64,192,28839,128,0,28899:0:0:0:0:
320,192,28920,1,0,0:0:0:0:
192,192,28920,1,0,0:0:0:0:
64,192,28920,128,0,28981:0:0:0:0:
448,192,28920,128,0,28981:0:0:0:0:
320,192,29001,1,0,0:0:0:0:
192,192,29001,1,0,0:0:0:0:
64,192,29001,128,0,29062:0:0:0:0:
448,192,29001,128,0,29062:0:0:0:0:
448,192,29082,1,0,0:0:0:0:
192,192,29082,1,0,0:0:0:0:
64,192,29082,128,0,29143:0:0:0:0:
320,192,29082,128,0,29143:0:0:0:0:
320,192,29163,1,0,0:0:0:0:
448,192,29163,1,0,0:0:0:0:
64,192,29163,128,0,29224:0:0:0:0:
192,192,29163,128,0,29224:0:0:0:0:
448,192,29244,128,0,29528:0:0:0:0:
320,192,29244,128,0,29528:0:0:0:0:
192,192,29244,128,0,29528:0:0:0:0:
64,192,29244,128,0,29528:0:0:0:0:
64,192,29568,128,0,29629:0:0:0:0:
192,192,29568,128,0,29629:0:0:0:0:
320,192,29568,128,0,29629:0:0:0:0:
448,192,29568,128,0,29629:0:0:0:0:
448,192,29649,128,0,29710:0:0:0:0:
320,192,29649,128,0,29710:0:0:0:0:
192,192,29649,128,0,29710:0:0:0:0:
64,192,29649,128,0,29710:0:0:0:0:
64,192,29730,128,0,29791:0:0:0:0:
192,192,29730,128,0,29791:0:0:0:0:
320,192,29730,128,0,29791:0:0:0:0:
448,192,29730,128,0,29791:0:0:0:0:
448,192,29812,128,0,29872:0:0:0:0:
320,192,29812,128,0,29872:0:0:0:0:
192,192,29812,128,0,29872:0:0:0:0:
64,192,29812,128,0,29872:0:0:0:0:
64,192,29893,128,0,29953:0:0:0:0:
192,192,29893,128,0,29953:0:0:0:0:
320,192,29893,128,0,29953:0:0:0:0:
448,192,29893,128,0,29953:0:0:0:0:
448,192,29974,128,0,30035:0:0:0:0:
320,192,29974,128,0,29994:0:0:0:0:
192,192,29974,128,0,30014:0:0:0:0:
64,192,29974,128,0,30035:0:0:0:0:
192,192,30055,128,0,30116:0:0:0:0:
320,192,30055,128,0,30116:0:0:0:0:
448,192,30055,128,0,30116:0:0:0:0:
64,192,30055,128,0,30116:0:0:0:0:
64,192,30136,128,0,30197:0:0:0:0:
192,192,30136,128,0,30197:0:0:0:0:
320,192,30136,128,0,30197:0:0:0:0:
448,192,30136,128,0,30197:0:0:0:0:
448,192,30217,128,0,30278:0:0:0:0:
320,192,30217,128,0,30278:0:0:0:0:
192,192,30217,128,0,30278:0:0:0:0:
64,192,30217,128,0,30278:0:0:0:0:
64,192,30298,128,0,30359:0:0:0:0:
192,192,30298,128,0,30359:0:0:0:0:
320,192,30298,128,0,30359:0:0:0:0:
448,192,30298,128,0,30359:0:0:0:0:
192,192,30379,128,0,30440:0:0:0:0:
320,192,30379,128,0,30440:0:0:0:0:
448,192,30379,128,0,30440:0:0:0:0:
64,192,30379,128,0,30440:0:0:0:0:
64,192,30460,128,0,30521:0:0:0:0:
192,192,30460,128,0,30501:0:0:0:0:
320,192,30460,128,0,30501:0:0:0:0:
448,192,30460,128,0,30521:0:0:0:0:
448,192,30541,128,0,30602:0:0:0:0:
320,192,30541,128,0,30602:0:0:0:0:
192,192,30541,128,0,30602:0:0:0:0:
64,192,30541,128,0,30602:0:0:0:0:
64,192,30622,128,0,30683:0:0:0:0:
192,192,30622,128,0,30683:0:0:0:0:
320,192,30622,128,0,30683:0:0:0:0:
448,192,30622,128,0,30683:0:0:0:0:
64,192,30703,1,0,0:0:0:0:
320,192,30703,1,0,0:0:0:0:
448,192,30703,1,0,0:0:0:0:
192,192,30703,128,0,30764:0:0:0:0:
64,192,30785,1,0,0:0:0:0:
192,192,30785,1,0,0:0:0:0:
448,192,30785,1,0,0:0:0:0:
320,192,30785,128,0,30845:0:0:0:0:
64,192,30866,1,0,0:0:0:0:
320,192,30866,1,0,0:0:0:0:
192,192,30866,1,0,0:0:0:0:
448,192,30866,128,0,30926:0:0:0:0:
192,192,30947,1,0,0:0:0:0:
448,192,30947,1,0,0:0:0:0:
64,192,30947,1,0,0:0:0:0:
320,192,30947,128,0,31007:0:0:0:0:
448,192,31028,1,0,0:0:0:0:
320,192,31028,1,0,0:0:0:0:
64,192,31028,1,0,0:0:0:0:
192,192,31028,128,0,31089:0:0:0:0:
448,192,31109,1,0,0:0:0:0:
320,192,31109,1,0,0:0:0:0:
64,192,31109,1,0,0:0:0:0:
192,192,31109,128,0,31170:0:0:0:0:
448,192,31190,1,0,0:0:0:0:
320,192,31190,1,0,0:0:0:0:
192,192,31190,1,0,0:0:0:0:
64,192,31190,1,0,0:0:0:0:
448,192,31271,1,0,0:0:0:0:
320,192,31271,1,0,0:0:0:0:
192,192,31271,1,0,0:0:0:0:
64,192,31271,1,0,0:0:0:0:
448,192,31352,1,0,0:0:0:0:
192,192,31352,1,0,0:0:0:0:
320,192,31352,1,0,0:0:0:0:
64,192,31352,1,0,0:0:0:0:
448,192,31433,1,0,0:0:0:0:
320,192,31433,1,0,0:0:0:0:
192,192,31433,1,0,0:0:0:0:
64,192,31433,1,0,0:0:0:0:
64,192,31514,128,0,31636:0:0:0:0:
192,192,31514,128,0,31636:0:0:0:0:
320,192,31514,128,0,31636:0:0:0:0:
448,192,31514,128,0,31636:0:0:0:0:
64,192,31676,128,0,31737:0:0:0:0:
192,192,31676,128,0,31737:0:0:0:0:
320,192,31676,128,0,31737:0:0:0:0:
448,192,31676,128,0,31737:0:0:0:0:
448,192,31757,128,0,31818:0:0:0:0:
320,192,31757,128,0,31818:0:0:0:0:
192,192,31757,128,0,31818:0:0:0:0:
64,192,31757,128,0,31818:0:0:0:0:
320,192,31839,1,0,0:0:0:0:
448,192,31839,1,0,0:0:0:0:
192,192,31839,1,0,0:0:0:0:
64,192,31839,1,0,0:0:0:0:
64,192,31920,1,0,0:0:0:0:
192,192,31920,1,0,0:0:0:0:
320,192,31920,1,0,0:0:0:0:
448,192,31920,1,0,0:0:0:0:
64,192,32001,1,0,0:0:0:0:
192,192,32001,1,0,0:0:0:0:
320,192,32001,1,0,0:0:0:0:
448,192,32001,1,0,0:0:0:0:
64,192,32082,1,0,0:0:0:0:
192,192,32082,1,0,0:0:0:0:
320,192,32082,1,0,0:0:0:0:
448,192,32082,1,0,0:0:0:0:
64,192,32163,1,0,0:0:0:0:
448,192,32163,1,0,0:0:0:0:
192,192,32163,1,0,0:0:0:0:
320,192,32163,1,0,0:0:0:0:
64,192,32244,1,0,0:0:0:0:
448,192,32244,1,0,0:0:0:0:
192,192,32244,1,0,0:0:0:0:
320,192,32244,1,0,0:0:0:0:
64,192,32325,1,0,0:0:0:0:
448,192,32325,1,0,0:0:0:0:
320,192,32325,1,0,0:0:0:0:
192,192,32325,1,0,0:0:0:0:
448,192,32406,1,0,0:0:0:0:
320,192,32406,1,0,0:0:0:0:
64,192,32406,128,0,32467:0:0:0:0:
192,192,32406,128,0,32467:0:0:0:0:
64,192,32487,1,0,0:0:0:0:
192,192,32487,1,0,0:0:0:0:
320,192,32487,128,0,32548:0:0:0:0:
448,192,32487,128,0,32548:0:0:0:0:
448,192,32568,1,0,0:0:0:0:
320,192,32568,1,0,0:0:0:0:
192,192,32568,128,0,32629:0:0:0:0:
64,192,32568,128,0,32629:0:0:0:0:
192,192,32649,1,0,0:0:0:0:
64,192,32649,1,0,0:0:0:0:
320,192,32649,128,0,32710:0:0:0:0:
448,192,32649,128,0,32710:0:0:0:0:
448,192,32730,1,0,0:0:0:0:
320,192,32730,1,0,0:0:0:0:
64,192,32730,128,0,32791:0:0:0:0:
192,192,32730,128,0,32791:0:0:0:0:
192,192,32812,1,0,0:0:0:0:
64,192,32812,1,0,0:0:0:0:
320,192,32812,128,0,32872:0:0:0:0:
448,192,32812,128,0,32872:0:0:0:0:
320,192,32974,1,0,0:0:0:0:
192,192,32974,1,0,0:0:0:0:
64,192,32974,128,0,33034:0:0:0:0:
448,192,32974,128,0,33034:0:0:0:0:
64,192,33055,1,0,0:0:0:0:
448,192,33055,1,0,0:0:0:0:
192,192,33055,128,0,33116:0:0:0:0:
320,192,33055,128,0,33116:0:0:0:0:
192,192,33136,1,0,0:0:0:0:
320,192,33136,1,0,0:0:0:0:
64,192,33136,128,0,33257:0:0:0:0:
448,192,33136,128,0,33257:0:0:0:0:
192,192,33298,1,0,0:0:0:0:
320,192,33298,1,0,0:0:0:0:
64,192,33298,128,0,33420:0:0:0:0:
448,192,33298,128,0,33420:0:0:0:0:
448,192,33460,1,0,0:0:0:0:
64,192,33460,1,0,0:0:0:0:
192,192,33460,128,0,33582:0:0:0:0:
320,192,33460,128,0,33582:0:0:0:0:
192,192,33622,1,0,0:0:0:0:
320,192,33622,1,0,0:0:0:0:
64,192,33622,128,0,33744:0:0:0:0:
448,192,33622,128,0,33744:0:0:0:0:
448,192,33784,128,0,33845:0:0:0:0:
320,192,33784,128,0,33845:0:0:0:0:
192,192,33784,128,0,33845:0:0:0:0:
64,192,33784,128,0,33845:0:0:0:0:
192,192,33866,128,0,33926:0:0:0:0:
64,192,33866,128,0,33926:0:0:0:0:
320,192,33866,128,0,33926:0:0:0:0:
448,192,33866,128,0,33926:0:0:0:0:
320,192,33947,128,0,34007:0:0:0:0:
448,192,33947,128,0,34007:0:0:0:0:
192,192,33947,128,0,34007:0:0:0:0:
64,192,33947,128,0,34007:0:0:0:0:
448,192,34028,128,0,34089:0:0:0:0:
320,192,34028,128,0,34089:0:0:0:0:
192,192,34028,128,0,34089:0:0:0:0:
64,192,34028,128,0,34089:0:0:0:0:
192,192,34109,128,0,34170:0:0:0:0:
64,192,34109,128,0,34170:0:0:0:0:
320,192,34109,128,0,34170:0:0:0:0:
448,192,34109,128,0,34170:0:0:0:0:
448,192,34190,128,0,34251:0:0:0:0:
320,192,34190,128,0,34251:0:0:0:0:
192,192,34190,128,0,34251:0:0:0:0:
64,192,34190,128,0,34251:0:0:0:0:
192,192,34271,128,0,34332:0:0:0:0:
64,192,34271,128,0,34332:0:0:0:0:
448,192,34271,128,0,34332:0:0:0:0:
320,192,34271,128,0,34332:0:0:0:0:
64,192,34352,128,0,34413:0:0:0:0:
320,192,34352,128,0,34413:0:0:0:0:
448,192,34352,128,0,34413:0:0:0:0:
192,192,34352,128,0,34413:0:0:0:0:
448,192,34433,128,0,34494:0:0:0:0:
320,192,34433,128,0,34494:0:0:0:0:
64,192,34433,128,0,34494:0:0:0:0:
192,192,34433,128,0,34494:0:0:0:0:
64,192,34514,128,0,34575:0:0:0:0:
192,192,34514,128,0,34575:0:0:0:0:
320,192,34514,128,0,34575:0:0:0:0:
448,192,34514,128,0,34575:0:0:0:0:
64,192,34595,128,0,34656:0:0:0:0:
192,192,34595,128,0,34656:0:0:0:0:
320,192,34595,128,0,34656:0:0:0:0:
448,192,34595,128,0,34656:0:0:0:0:
448,192,34676,128,0,34737:0:0:0:0:
320,192,34676,128,0,34737:0:0:0:0:
192,192,34676,128,0,34737:0:0:0:0:
64,192,34676,128,0,34737:0:0:0:0:
448,192,34757,128,0,34818:0:0:0:0:
192,192,34757,128,0,34818:0:0:0:0:
64,192,34757,128,0,34818:0:0:0:0:
320,192,34757,128,0,34818:0:0:0:0:
320,192,34839,128,0,34899:0:0:0:0:
448,192,34839,128,0,34899:0:0:0:0:
64,192,34839,128,0,34899:0:0:0:0:
192,192,34839,128,0,34899:0:0:0:0:
64,192,34920,128,0,34980:0:0:0:0:
192,192,34920,128,0,34980:0:0:0:0:
320,192,34920,128,0,34980:0:0:0:0:
448,192,34920,128,0,34980:0:0:0:0:
64,192,35001,128,0,35061:0:0:0:0:
192,192,35001,128,0,35061:0:0:0:0:
320,192,35001,128,0,35061:0:0:0:0:
448,192,35001,128,0,35061:0:0:0:0:
448,192,35082,128,0,35143:0:0:0:0:
320,192,35082,128,0,35143:0:0:0:0:
192,192,35082,128,0,35143:0:0:0:0:
64,192,35082,128,0,35143:0:0:0:0:
64,192,35163,128,0,35224:0:0:0:0:
192,192,35163,128,0,35224:0:0:0:0:
320,192,35163,128,0,35224:0:0:0:0:
448,192,35163,128,0,35224:0:0:0:0:
448,192,35244,128,0,35305:0:0:0:0:
320,192,35244,128,0,35305:0:0:0:0:
192,192,35244,128,0,35305:0:0:0:0:
64,192,35244,128,0,35305:0:0:0:0:
64,192,35325,128,0,35386:0:0:0:0:
192,192,35325,128,0,35386:0:0:0:0:
320,192,35325,128,0,35386:0:0:0:0:
448,192,35325,128,0,35386:0:0:0:0:
448,192,35406,128,0,35467:0:0:0:0:
320,192,35406,128,0,35467:0:0:0:0:
192,192,35406,128,0,35467:0:0:0:0:
64,192,35406,128,0,35467:0:0:0:0:
64,192,35487,128,0,35548:0:0:0:0:
192,192,35487,128,0,35548:0:0:0:0:
320,192,35487,128,0,35548:0:0:0:0:
448,192,35487,128,0,35548:0:0:0:0:
448,192,35568,128,0,35629:0:0:0:0:
320,192,35568,128,0,35629:0:0:0:0:
192,192,35568,128,0,35629:0:0:0:0:
64,192,35568,128,0,35629:0:0:0:0:
64,192,35649,1,0,0:0:0:0:
192,192,35649,1,0,0:0:0:0:
320,192,35649,1,0,0:0:0:0:
448,192,35649,1,0,0:0:0:0:
