osu file format v14

[General]
AudioFilename: PatouZ.mp3
AudioLeadIn: 0
PreviewTime: -1
Countdown: 1
SampleSet: None
StackLeniency: 0.7
Mode: 3
LetterboxInBreaks: 0
SpecialStyle: 0
WidescreenStoryboard: 0

[Editor]
DistanceSpacing: 0.8
BeatDivisor: 16
GridSize: 16
TimelineZoom: 1

[Metadata]
Title:FrenchShitFest Paquetage 7 (Livemapping Edition)
TitleUnicode:FrenchShitFest Paquetage 7 (Livemapping Edition)
Artist:Various Artists
ArtistUnicode:Various Artists
Creator:Adri
Version:PatouZ - Unusual meme compilation v31 - Spider N**
Source:
Tags:
BeatmapID:2123228
BeatmapSetID:1014492

[Difficulty]
HPDrainRate:6
CircleSize:4
OverallDifficulty:9
ApproachRate:5
SliderMultiplier:0.400000005960464
SliderTickRate:1

[Events]
//Background and Video events
0,0,"PatouZ.png",0,0
//Break Periods
//Storyboard Layer 0 (Background)
//Storyboard Layer 1 (Fail)
//Storyboard Layer 2 (Pass)
//Storyboard Layer 3 (Foreground)
//Storyboard Sound Samples

[TimingPoints]
0,90.0900900900901,4,3,0,0,1,0

[HitObjects]
320,192,73,5,0,0:0:0:0:
64,192,304,128,0,923:0:0:0:0:
192,192,315,1,0,0:0:0:0:
448,192,450,128,0,1672:0:0:0:0:
320,192,619,1,0,0:0:0:0:
192,192,641,128,0,1661:0:0:0:0:
320,192,850,128,0,1666:0:0:0:0:
64,192,1002,128,0,1644:0:0:0:0:
320,192,2134,5,0,0:0:0:0:
64,192,2139,1,0,0:0:0:0:
192,192,2139,1,0,0:0:0:0:
448,192,2139,1,0,0:0:0:0:
64,192,2471,1,0,0:0:0:0:
192,192,2471,1,0,0:0:0:0:
320,192,2471,1,0,0:0:0:0:
448,192,2471,1,0,0:0:0:0:
64,192,2865,128,0,3248:0:0:0:0:
448,192,2877,1,0,0:0:0:0:
320,192,2905,1,0,0:0:0:0:
192,192,3063,1,0,0:0:0:0:
320,192,3096,1,0,0:0:0:0:
448,192,3102,1,0,0:0:0:0:
192,192,3293,1,0,0:0:0:0:
448,192,3305,1,0,0:0:0:0:
320,192,3310,1,0,0:0:0:0:
192,192,3350,1,0,0:0:0:0:
320,192,3384,1,0,0:0:0:0:
448,192,3384,1,0,0:0:0:0:
320,192,3474,1,0,0:0:0:0:
448,192,3479,1,0,0:0:0:0:
192,192,3513,1,0,0:0:0:0:
64,192,3519,1,0,0:0:0:0:
320,192,3552,1,0,0:0:0:0:
448,192,3552,1,0,0:0:0:0:
64,192,3581,1,0,0:0:0:0:
192,192,3592,1,0,0:0:0:0:
320,192,3631,1,0,0:0:0:0:
448,192,3631,1,0,0:0:0:0:
64,192,3659,1,0,0:0:0:0:
192,192,3665,1,0,0:0:0:0:
448,192,3704,1,0,0:0:0:0:
320,192,3710,1,0,0:0:0:0:
64,192,3738,1,0,0:0:0:0:
192,192,3744,1,0,0:0:0:0:
64,192,4938,1,0,0:0:0:0:
448,192,5191,1,0,0:0:0:0:
192,192,5298,1,0,0:0:0:0:
320,192,5411,1,0,0:0:0:0:
64,192,5478,1,0,0:0:0:0:
448,192,5557,1,0,0:0:0:0:
192,192,5602,1,0,0:0:0:0:
320,192,5670,1,0,0:0:0:0:
448,192,5765,1,0,0:0:0:0:
64,192,5788,1,0,0:0:0:0:
448,192,5945,1,0,0:0:0:0:
64,192,5968,1,0,0:0:0:0:
192,192,5985,1,0,0:0:0:0:
448,192,6126,1,0,0:0:0:0:
64,192,6143,1,0,0:0:0:0:
320,192,6148,1,0,0:0:0:0:
64,192,6300,1,0,0:0:0:0:
64,192,6430,1,0,0:0:0:0:
192,192,6441,1,0,0:0:0:0:
192,192,6554,1,0,0:0:0:0:
64,192,6559,1,0,0:0:0:0:
320,192,6593,1,0,0:0:0:0:
448,192,6599,1,0,0:0:0:0:
192,192,6694,1,0,0:0:0:0:
64,192,6700,1,0,0:0:0:0:
320,192,6739,1,0,0:0:0:0:
448,192,6745,1,0,0:0:0:0:
320,192,6903,1,0,0:0:0:0:
448,192,6903,1,0,0:0:0:0:
64,192,6925,1,0,0:0:0:0:
192,192,6925,1,0,0:0:0:0:
320,192,7083,1,0,0:0:0:0:
448,192,7088,1,0,0:0:0:0:
64,192,7111,1,0,0:0:0:0:
192,192,7325,1,0,0:0:0:0:
320,192,7325,1,0,0:0:0:0:
448,192,7325,1,0,0:0:0:0:
64,192,7477,1,0,0:0:0:0:
320,192,7483,1,0,0:0:0:0:
448,192,7483,1,0,0:0:0:0:
448,192,7606,1,0,0:0:0:0:
192,192,7612,1,0,0:0:0:0:
320,192,7612,1,0,0:0:0:0:
448,192,7725,1,0,0:0:0:0:
320,192,7730,1,0,0:0:0:0:
64,192,7736,1,0,0:0:0:0:
448,192,7837,1,0,0:0:0:0:
320,192,7843,1,0,0:0:0:0:
192,192,7860,1,0,0:0:0:0:
448,192,7944,1,0,0:0:0:0:
64,192,7961,1,0,0:0:0:0:
320,192,7995,1,0,0:0:0:0:
192,192,8057,1,0,0:0:0:0:
320,192,8079,1,0,0:0:0:0:
448,192,8085,1,0,0:0:0:0:
64,192,8125,1,0,0:0:0:0:
192,192,8215,1,0,0:0:0:0:
448,192,8215,1,0,0:0:0:0:
320,192,8226,1,0,0:0:0:0:
448,192,8361,1,0,0:0:0:0:
192,192,8361,1,0,0:0:0:0:
64,192,8367,1,0,0:0:0:0:
320,192,8367,1,0,0:0:0:0:
192,192,9070,1,0,0:0:0:0:
320,192,9104,1,0,0:0:0:0:
448,192,9121,1,0,0:0:0:0:
448,192,9256,1,0,0:0:0:0:
320,192,9262,1,0,0:0:0:0:
64,192,9279,1,0,0:0:0:0:
448,192,9459,1,0,0:0:0:0:
320,192,9465,1,0,0:0:0:0:
192,192,9476,1,0,0:0:0:0:
64,192,9504,1,0,0:0:0:0:
192,192,10439,1,0,0:0:0:0:
64,192,10506,1,0,0:0:0:0:
320,192,10585,1,0,0:0:0:0:
448,192,10619,1,0,0:0:0:0:
64,192,10715,1,0,0:0:0:0:
192,192,10788,1,0,0:0:0:0:
320,192,10838,1,0,0:0:0:0:
448,192,10900,1,0,0:0:0:0:
64,192,10974,1,0,0:0:0:0:
192,192,11030,1,0,0:0:0:0:
320,192,11103,1,0,0:0:0:0:
448,192,11171,1,0,0:0:0:0:
192,192,11261,1,0,0:0:0:0:
320,192,11289,1,0,0:0:0:0:
64,192,11334,1,0,0:0:0:0:
448,192,11368,1,0,0:0:0:0:
320,192,11452,1,0,0:0:0:0:
192,192,11458,1,0,0:0:0:0:
64,192,11525,1,0,0:0:0:0:
192,192,11615,1,0,0:0:0:0:
320,192,11615,1,0,0:0:0:0:
448,192,11683,1,0,0:0:0:0:
64,192,11728,1,0,0:0:0:0:
320,192,11779,1,0,0:0:0:0:
192,192,11818,1,0,0:0:0:0:
448,192,11852,1,0,0:0:0:0:
64,192,11903,1,0,0:0:0:0:
64,192,12584,1,0,0:0:0:0:
320,192,12753,1,0,0:0:0:0:
192,192,12843,1,0,0:0:0:0:
448,192,12984,1,0,0:0:0:0:
64,192,13079,1,0,0:0:0:0:
320,192,13175,1,0,0:0:0:0:
192,192,13282,1,0,0:0:0:0:
448,192,13333,1,0,0:0:0:0:
64,192,13440,1,0,0:0:0:0:
448,192,13502,1,0,0:0:0:0:
320,192,13513,1,0,0:0:0:0:
64,192,13620,1,0,0:0:0:0:
448,192,13643,1,0,0:0:0:0:
192,192,13772,1,0,0:0:0:0:
320,192,13772,1,0,0:0:0:0:
448,192,13845,1,0,0:0:0:0:
64,192,13856,1,0,0:0:0:0:
320,192,13952,1,0,0:0:0:0:
192,192,13975,1,0,0:0:0:0:
448,192,14031,1,0,0:0:0:0:
64,192,14059,1,0,0:0:0:0:
320,192,14206,1,0,0:0:0:0:
192,192,14217,1,0,0:0:0:0:
448,192,14245,1,0,0:0:0:0:
64,192,14375,1,0,0:0:0:0:
192,192,15191,1,0,0:0:0:0:
64,192,15247,1,0,0:0:0:0:
320,192,15309,1,0,0:0:0:0:
448,192,15332,1,0,0:0:0:0:
192,192,15388,1,0,0:0:0:0:
64,192,15450,1,0,0:0:0:0:
320,192,15495,1,0,0:0:0:0:
448,192,15540,1,0,0:0:0:0:
192,192,15653,1,0,0:0:0:0:
320,192,15743,1,0,0:0:0:0:
448,192,15822,1,0,0:0:0:0:
64,192,15867,1,0,0:0:0:0:
320,192,15940,1,0,0:0:0:0:
448,192,16002,1,0,0:0:0:0:
192,192,16036,1,0,0:0:0:0:
64,192,16109,1,0,0:0:0:0:
64,192,17021,1,0,0:0:0:0:
192,192,17105,1,0,0:0:0:0:
320,192,17134,1,0,0:0:0:0:
448,192,17190,1,0,0:0:0:0:
64,192,17218,1,0,0:0:0:0:
192,192,17302,1,0,0:0:0:0:
320,192,17364,1,0,0:0:0:0:
448,192,17421,1,0,0:0:0:0:
64,192,17516,1,0,0:0:0:0:
320,192,17618,1,0,0:0:0:0:
192,192,17719,1,0,0:0:0:0:
448,192,17781,1,0,0:0:0:0:
320,192,17837,1,0,0:0:0:0:
64,192,18220,1,0,0:0:0:0:
448,192,18265,1,0,0:0:0:0:
320,192,18299,1,0,0:0:0:0:
192,192,18333,1,0,0:0:0:0:
448,192,18423,1,0,0:0:0:0:
64,192,18429,1,0,0:0:0:0:
320,192,18513,1,0,0:0:0:0:
192,192,18519,1,0,0:0:0:0:
448,192,18609,1,0,0:0:0:0:
320,192,18733,1,0,0:0:0:0:
192,192,18766,1,0,0:0:0:0:
320,192,18890,1,0,0:0:0:0:
192,192,18986,1,0,0:0:0:0:
64,192,19138,1,0,0:0:0:0:
192,192,19138,1,0,0:0:0:0:
320,192,19273,1,0,0:0:0:0:
192,192,19707,1,0,0:0:0:0:
64,192,19735,1,0,0:0:0:0:
192,192,19859,1,0,0:0:0:0:
64,192,19876,1,0,0:0:0:0:
192,192,20000,1,0,0:0:0:0:
64,192,20005,1,0,0:0:0:0:
192,192,20106,1,0,0:0:0:0:
64,192,20112,1,0,0:0:0:0:
192,192,20191,1,0,0:0:0:0:
64,192,20208,1,0,0:0:0:0:
64,192,20315,1,0,0:0:0:0:
448,192,20444,1,0,0:0:0:0:
320,192,20456,1,0,0:0:0:0:
192,192,20630,1,0,0:0:0:0:
320,192,20799,1,0,0:0:0:0:
448,192,20805,1,0,0:0:0:0:
192,192,21272,1,0,0:0:0:0:
320,192,21418,1,0,0:0:0:0:
448,192,21424,1,0,0:0:0:0:
64,192,21520,1,0,0:0:0:0:
192,192,21525,1,0,0:0:0:0:
448,192,21649,1,0,0:0:0:0:
320,192,21655,1,0,0:0:0:0:
192,192,21683,1,0,0:0:0:0:
64,192,21689,1,0,0:0:0:0:
64,192,21745,1,0,0:0:0:0:
192,192,21745,1,0,0:0:0:0:
320,192,21751,1,0,0:0:0:0:
448,192,21751,1,0,0:0:0:0:
320,192,21841,1,0,0:0:0:0:
448,192,21841,1,0,0:0:0:0:
192,192,21846,1,0,0:0:0:0:
64,192,21846,1,0,0:0:0:0:
64,192,21925,1,0,0:0:0:0:
192,192,21925,1,0,0:0:0:0:
320,192,21925,1,0,0:0:0:0:
448,192,21925,1,0,0:0:0:0:
64,192,21987,1,0,0:0:0:0:
192,192,21993,1,0,0:0:0:0:
320,192,21998,1,0,0:0:0:0:
448,192,21998,1,0,0:0:0:0:
64,192,22066,1,0,0:0:0:0:
192,192,22072,1,0,0:0:0:0:
320,192,22072,1,0,0:0:0:0:
448,192,22072,1,0,0:0:0:0:
64,192,22145,1,0,0:0:0:0:
192,192,22145,1,0,0:0:0:0:
448,192,22167,1,0,0:0:0:0:
320,192,22173,1,0,0:0:0:0:
64,192,23057,1,0,0:0:0:0:
320,192,23254,1,0,0:0:0:0:
192,192,23316,1,0,0:0:0:0:
448,192,23322,1,0,0:0:0:0:
64,192,23333,1,0,0:0:0:0:
320,192,23457,1,0,0:0:0:0:
448,192,23541,1,0,0:0:0:0:
192,192,23637,1,0,0:0:0:0:
320,192,23744,1,0,0:0:0:0:
448,192,23879,1,0,0:0:0:0:
64,192,23913,1,0,0:0:0:0:
320,192,24031,1,0,0:0:0:0:
192,192,24138,1,0,0:0:0:0:
448,192,24144,1,0,0:0:0:0:
64,192,24149,1,0,0:0:0:0:
320,192,24183,1,0,0:0:0:0:
448,192,24296,1,0,0:0:0:0:
192,192,24301,1,0,0:0:0:0:
64,192,24313,1,0,0:0:0:0:
320,192,24329,1,0,0:0:0:0:
192,192,24453,1,0,0:0:0:0:
320,192,24453,1,0,0:0:0:0:
448,192,24453,1,0,0:0:0:0:
64,192,24459,1,0,0:0:0:0:
448,192,24577,1,0,0:0:0:0:
320,192,24583,1,0,0:0:0:0:
192,192,24729,1,0,0:0:0:0:
64,192,24729,1,0,0:0:0:0:
320,192,24791,1,0,0:0:0:0:
448,192,24797,1,0,0:0:0:0:
448,192,24932,1,0,0:0:0:0:
320,192,24949,1,0,0:0:0:0:
192,192,25123,1,0,0:0:0:0:
64,192,25129,1,0,0:0:0:0:
320,192,25563,1,0,0:0:0:0:
448,192,25574,1,0,0:0:0:0:
64,192,25681,1,0,0:0:0:0:
192,192,25681,1,0,0:0:0:0:
448,192,25793,1,0,0:0:0:0:
64,192,25884,1,0,0:0:0:0:
192,192,25979,1,0,0:0:0:0:
320,192,26007,1,0,0:0:0:0:
192,192,26075,1,0,0:0:0:0:
64,192,26109,1,0,0:0:0:0:
320,192,26204,1,0,0:0:0:0:
448,192,26266,1,0,0:0:0:0:
192,192,26295,1,0,0:0:0:0:
64,192,26306,1,0,0:0:0:0:
320,192,26796,1,0,0:0:0:0:
448,192,26863,1,0,0:0:0:0:
192,192,26987,1,0,0:0:0:0:
320,192,27111,1,0,0:0:0:0:
448,192,27156,1,0,0:0:0:0:
192,192,27545,1,0,0:0:0:0:
320,192,27652,1,0,0:0:0:0:
448,192,27668,1,0,0:0:0:0:
64,192,27764,1,0,0:0:0:0:
320,192,27905,1,0,0:0:0:0:
448,192,27911,1,0,0:0:0:0:
192,192,28429,1,0,0:0:0:0:
320,192,28648,1,0,0:0:0:0:
448,192,28654,1,0,0:0:0:0:
64,192,29009,128,0,29352:0:0:0:0:
192,192,29555,1,0,0:0:0:0:
320,192,29791,1,0,0:0:0:0:
192,192,30011,1,0,0:0:0:0:
