osu file format v14

[General]
AudioFilename: Elementaires.mp3
AudioLeadIn: 0
PreviewTime: 0
Countdown: 0
SampleSet: None
StackLeniency: 0.7
Mode: 3
LetterboxInBreaks: 0
SpecialStyle: 0
WidescreenStoryboard: 0

[Editor]
DistanceSpacing: 1.6
BeatDivisor: 16
GridSize: 8
TimelineZoom: 3.199999

[Metadata]
Title:FrenchShitFest Paquetage 7 (Livemapping Edition)
TitleUnicode:FrenchShitFest Paquetage 7 (Livemapping Edition)
Artist:Various Artists
ArtistUnicode:Various Artists
Creator:Adri
Version:Elementaires - Shuffle or Boogie [sauceur or]
Source:
Tags:
BeatmapID:2123223
BeatmapSetID:1014492

[Difficulty]
HPDrainRate:7.5
CircleSize:4
OverallDifficulty:8
ApproachRate:5
SliderMultiplier:1.4
SliderTickRate:1

[Events]
//Background and Video events
0,0,"Elementaires.png",0,0
//Break Periods
//Storyboard Layer 0 (Background)
//Storyboard Layer 1 (Fail)
//Storyboard Layer 2 (Pass)
//Storyboard Layer 3 (Foreground)
//Storyboard Sound Samples

[TimingPoints]
23,500.001680672268,4,1,0,0,1,0

[HitObjects]
320,192,366,5,0,0:0:0:0:
320,192,554,1,0,0:0:0:0:
320,192,866,1,0,0:0:0:0:
320,192,1023,1,0,0:0:0:0:
320,192,1366,1,0,0:0:0:0:
320,192,1523,1,0,0:0:0:0:
320,192,1835,1,0,0:0:0:0:
320,192,2023,1,0,0:0:0:0:
320,192,2335,1,0,0:0:0:0:
320,192,2491,1,0,0:0:0:0:
320,192,2866,1,0,0:0:0:0:
320,192,3023,1,0,0:0:0:0:
320,192,3335,1,0,0:0:0:0:
320,192,3523,1,0,0:0:0:0:
320,192,3835,1,0,0:0:0:0:
320,192,4023,1,0,0:0:0:0:
320,192,4335,1,0,0:0:0:0:
64,192,4523,1,0,0:0:0:0:
192,192,4523,1,0,0:0:0:0:
320,192,4523,1,0,0:0:0:0:
448,192,4523,1,0,0:0:0:0:
320,192,4866,1,0,0:0:0:0:
448,192,4866,1,0,0:0:0:0:
64,192,4898,1,0,0:0:0:0:
192,192,4898,1,0,0:0:0:0:
64,192,5023,1,0,0:0:0:0:
192,192,5023,1,0,0:0:0:0:
320,192,5054,1,0,0:0:0:0:
448,192,5054,1,0,0:0:0:0:
320,192,5335,1,0,0:0:0:0:
64,192,5523,1,0,0:0:0:0:
192,192,5523,1,0,0:0:0:0:
320,192,5523,1,0,0:0:0:0:
448,192,5523,1,0,0:0:0:0:
320,192,5835,1,0,0:0:0:0:
320,192,5991,1,0,0:0:0:0:
320,192,6335,1,0,0:0:0:0:
64,192,6523,1,0,0:0:0:0:
192,192,6523,1,0,0:0:0:0:
320,192,6523,1,0,0:0:0:0:
448,192,6523,1,0,0:0:0:0:
64,192,6866,1,0,0:0:0:0:
192,192,6866,1,0,0:0:0:0:
320,192,6866,1,0,0:0:0:0:
448,192,6866,1,0,0:0:0:0:
320,192,7023,1,0,0:0:0:0:
320,192,7335,1,0,0:0:0:0:
64,192,7523,1,0,0:0:0:0:
192,192,7523,1,0,0:0:0:0:
320,192,7523,1,0,0:0:0:0:
448,192,7523,1,0,0:0:0:0:
320,192,7835,1,0,0:0:0:0:
320,192,7991,1,0,0:0:0:0:
320,192,8304,1,0,0:0:0:0:
320,192,8491,1,0,0:0:0:0:
192,192,8866,1,0,0:0:0:0:
192,192,9023,1,0,0:0:0:0:
448,192,9366,1,0,0:0:0:0:
448,192,9523,1,0,0:0:0:0:
192,192,9866,1,0,0:0:0:0:
192,192,10023,1,0,0:0:0:0:
448,192,10335,1,0,0:0:0:0:
448,192,10491,1,0,0:0:0:0:
64,192,10835,1,0,0:0:0:0:
64,192,10991,1,0,0:0:0:0:
320,192,11335,1,0,0:0:0:0:
448,192,11335,1,0,0:0:0:0:
320,192,11491,1,0,0:0:0:0:
448,192,11491,1,0,0:0:0:0:
64,192,11835,1,0,0:0:0:0:
192,192,11835,1,0,0:0:0:0:
64,192,11991,1,0,0:0:0:0:
192,192,11991,1,0,0:0:0:0:
192,192,12335,1,0,0:0:0:0:
320,192,12335,1,0,0:0:0:0:
448,192,12335,1,0,0:0:0:0:
64,192,12366,1,0,0:0:0:0:
192,192,12491,1,0,0:0:0:0:
320,192,12491,1,0,0:0:0:0:
448,192,12491,1,0,0:0:0:0:
64,192,12491,1,0,0:0:0:0:
64,192,12866,1,0,0:0:0:0:
192,192,12866,1,0,0:0:0:0:
320,192,12866,1,0,0:0:0:0:
448,192,12866,1,0,0:0:0:0:
64,192,13023,1,0,0:0:0:0:
192,192,13023,1,0,0:0:0:0:
320,192,13054,1,0,0:0:0:0:
448,192,13054,1,0,0:0:0:0:
320,192,13335,1,0,0:0:0:0:
448,192,13335,1,0,0:0:0:0:
320,192,13523,1,0,0:0:0:0:
448,192,13523,1,0,0:0:0:0:
64,192,13523,1,0,0:0:0:0:
192,192,13523,1,0,0:0:0:0:
320,192,13866,1,0,0:0:0:0:
448,192,13866,1,0,0:0:0:0:
320,192,14023,1,0,0:0:0:0:
448,192,14023,1,0,0:0:0:0:
320,192,14335,1,0,0:0:0:0:
448,192,14335,1,0,0:0:0:0:
64,192,14491,1,0,0:0:0:0:
192,192,14491,1,0,0:0:0:0:
320,192,14523,1,0,0:0:0:0:
448,192,14523,1,0,0:0:0:0:
64,192,14835,1,0,0:0:0:0:
192,192,14835,1,0,0:0:0:0:
64,192,14991,1,0,0:0:0:0:
192,192,14991,1,0,0:0:0:0:
320,192,15023,1,0,0:0:0:0:
448,192,15023,1,0,0:0:0:0:
320,192,15366,1,0,0:0:0:0:
448,192,15366,1,0,0:0:0:0:
320,192,15523,1,0,0:0:0:0:
448,192,15523,1,0,0:0:0:0:
64,192,15523,1,0,0:0:0:0:
192,192,15523,1,0,0:0:0:0:
64,192,15991,1,0,0:0:0:0:
192,192,15991,1,0,0:0:0:0:
320,192,16023,1,0,0:0:0:0:
320,192,16335,1,0,0:0:0:0:
192,192,16491,1,0,0:0:0:0:
320,192,16491,1,0,0:0:0:0:
64,192,16523,1,0,0:0:0:0:
448,192,16523,1,0,0:0:0:0:
320,192,16866,1,0,0:0:0:0:
192,192,17023,1,0,0:0:0:0:
320,192,17023,1,0,0:0:0:0:
448,192,17023,1,0,0:0:0:0:
64,192,17054,1,0,0:0:0:0:
320,192,17366,1,0,0:0:0:0:
448,192,17366,1,0,0:0:0:0:
64,192,17398,1,0,0:0:0:0:
192,192,17429,1,0,0:0:0:0:
320,192,17554,1,0,0:0:0:0:
448,192,17554,1,0,0:0:0:0:
64,192,17554,1,0,0:0:0:0:
192,192,17554,1,0,0:0:0:0:
320,192,17866,1,0,0:0:0:0:
448,192,17866,1,0,0:0:0:0:
64,192,17866,1,0,0:0:0:0:
192,192,17866,1,0,0:0:0:0:
64,192,18023,1,0,0:0:0:0:
192,192,18023,1,0,0:0:0:0:
448,192,18023,1,0,0:0:0:0:
320,192,18023,1,0,0:0:0:0:
320,192,18335,1,0,0:0:0:0:
448,192,18366,1,0,0:0:0:0:
64,192,18366,1,0,0:0:0:0:
192,192,18366,1,0,0:0:0:0:
448,192,18523,1,0,0:0:0:0:
64,192,18523,1,0,0:0:0:0:
192,192,18523,1,0,0:0:0:0:
320,192,18523,1,0,0:0:0:0:
448,192,18804,1,0,0:0:0:0:
192,192,18835,1,0,0:0:0:0:
320,192,18866,1,0,0:0:0:0:
64,192,18866,1,0,0:0:0:0:
64,192,19023,1,0,0:0:0:0:
320,192,19023,1,0,0:0:0:0:
192,192,19023,1,0,0:0:0:0:
448,192,19054,1,0,0:0:0:0:
192,192,19116,1,0,0:0:0:0:
64,192,19179,1,0,0:0:0:0:
448,192,19335,1,0,0:0:0:0:
192,192,19366,1,0,0:0:0:0:
64,192,19366,1,0,0:0:0:0:
320,192,19366,1,0,0:0:0:0:
64,192,19523,1,0,0:0:0:0:
192,192,19523,1,0,0:0:0:0:
320,192,19523,1,0,0:0:0:0:
448,192,19523,1,0,0:0:0:0:
448,192,19804,1,0,0:0:0:0:
192,192,19835,1,0,0:0:0:0:
64,192,19835,1,0,0:0:0:0:
320,192,19866,1,0,0:0:0:0:
64,192,19991,1,0,0:0:0:0:
192,192,19991,1,0,0:0:0:0:
320,192,20023,1,0,0:0:0:0:
448,192,20023,1,0,0:0:0:0:
64,192,20335,1,0,0:0:0:0:
192,192,20335,1,0,0:0:0:0:
320,192,20335,1,0,0:0:0:0:
448,192,20335,1,0,0:0:0:0:
64,192,20491,1,0,0:0:0:0:
192,192,20491,1,0,0:0:0:0:
320,192,20491,1,0,0:0:0:0:
448,192,20491,1,0,0:0:0:0:
64,192,20835,1,0,0:0:0:0:
192,192,20835,1,0,0:0:0:0:
320,192,20835,1,0,0:0:0:0:
448,192,20835,1,0,0:0:0:0:
64,192,20991,1,0,0:0:0:0:
192,192,20991,1,0,0:0:0:0:
320,192,20991,1,0,0:0:0:0:
448,192,20991,1,0,0:0:0:0:
320,192,21366,1,0,0:0:0:0:
448,192,21366,1,0,0:0:0:0:
64,192,21366,1,0,0:0:0:0:
192,192,21366,1,0,0:0:0:0:
64,192,21523,1,0,0:0:0:0:
192,192,21523,1,0,0:0:0:0:
320,192,21523,1,0,0:0:0:0:
448,192,21523,1,0,0:0:0:0:
192,192,22023,1,0,0:0:0:0:
320,192,22023,1,0,0:0:0:0:
64,192,22023,1,0,0:0:0:0:
448,192,22054,1,0,0:0:0:0:
320,192,22335,1,0,0:0:0:0:
448,192,22335,1,0,0:0:0:0:
64,192,22366,1,0,0:0:0:0:
192,192,22366,1,0,0:0:0:0:
64,192,22523,1,0,0:0:0:0:
192,192,22523,1,0,0:0:0:0:
320,192,22523,1,0,0:0:0:0:
448,192,22523,1,0,0:0:0:0:
64,192,22835,1,0,0:0:0:0:
192,192,22835,1,0,0:0:0:0:
320,192,22835,1,0,0:0:0:0:
448,192,22835,1,0,0:0:0:0:
64,192,22960,1,0,0:0:0:0:
192,192,22960,1,0,0:0:0:0:
320,192,22991,1,0,0:0:0:0:
448,192,22991,1,0,0:0:0:0:
64,192,23366,1,0,0:0:0:0:
192,192,23366,1,0,0:0:0:0:
320,192,23366,1,0,0:0:0:0:
448,192,23366,1,0,0:0:0:0:
320,192,23523,1,0,0:0:0:0:
448,192,23523,1,0,0:0:0:0:
64,192,23523,1,0,0:0:0:0:
192,192,23523,1,0,0:0:0:0:
448,192,24023,1,0,0:0:0:0:
320,192,24023,1,0,0:0:0:0:
64,192,24054,1,0,0:0:0:0:
192,192,24054,1,0,0:0:0:0:
64,192,24366,1,0,0:0:0:0:
192,192,24366,1,0,0:0:0:0:
320,192,24398,1,0,0:0:0:0:
448,192,24398,1,0,0:0:0:0:
64,192,24523,1,0,0:0:0:0:
192,192,24523,1,0,0:0:0:0:
448,192,24523,1,0,0:0:0:0:
320,192,24554,1,0,0:0:0:0:
64,192,24866,1,0,0:0:0:0:
448,192,24866,1,0,0:0:0:0:
320,192,24866,1,0,0:0:0:0:
192,192,24866,1,0,0:0:0:0:
64,192,25023,1,0,0:0:0:0:
448,192,25023,1,0,0:0:0:0:
192,192,25054,1,0,0:0:0:0:
320,192,25054,1,0,0:0:0:0:
448,192,25366,1,0,0:0:0:0:
64,192,25366,1,0,0:0:0:0:
192,192,25398,1,0,0:0:0:0:
320,192,25398,1,0,0:0:0:0:
64,192,25554,1,0,0:0:0:0:
192,192,25554,1,0,0:0:0:0:
320,192,25554,1,0,0:0:0:0:
448,192,25554,1,0,0:0:0:0:
448,192,25835,1,0,0:0:0:0:
192,192,25835,1,0,0:0:0:0:
64,192,25898,1,0,0:0:0:0:
320,192,25898,1,0,0:0:0:0:
320,192,26023,1,0,0:0:0:0:
192,192,26023,1,0,0:0:0:0:
64,192,26054,1,0,0:0:0:0:
448,192,26054,1,0,0:0:0:0:
448,192,26335,1,0,0:0:0:0:
192,192,26335,1,0,0:0:0:0:
64,192,26366,1,0,0:0:0:0:
320,192,26366,1,0,0:0:0:0:
192,192,26491,1,0,0:0:0:0:
64,192,26523,1,0,0:0:0:0:
320,192,26523,1,0,0:0:0:0:
448,192,26554,1,0,0:0:0:0:
448,192,26835,1,0,0:0:0:0:
64,192,26835,1,0,0:0:0:0:
192,192,26866,1,0,0:0:0:0:
320,192,26866,1,0,0:0:0:0:
192,192,26991,1,0,0:0:0:0:
64,192,27023,1,0,0:0:0:0:
320,192,27023,1,0,0:0:0:0:
448,192,27054,1,0,0:0:0:0:
64,192,27335,1,0,0:0:0:0:
448,192,27335,1,0,0:0:0:0:
192,192,27366,1,0,0:0:0:0:
320,192,27398,1,0,0:0:0:0:
192,192,27523,1,0,0:0:0:0:
320,192,27523,1,0,0:0:0:0:
64,192,27554,1,0,0:0:0:0:
448,192,27554,1,0,0:0:0:0:
448,192,27835,1,0,0:0:0:0:
64,192,27835,1,0,0:0:0:0:
192,192,27866,1,0,0:0:0:0:
320,192,27898,1,0,0:0:0:0:
192,192,28023,1,0,0:0:0:0:
320,192,28023,1,0,0:0:0:0:
64,192,28023,1,0,0:0:0:0:
448,192,28054,1,0,0:0:0:0:
64,192,28398,1,0,0:0:0:0:
192,192,28398,1,0,0:0:0:0:
320,192,28398,1,0,0:0:0:0:
448,192,28398,1,0,0:0:0:0:
64,192,28523,1,0,0:0:0:0:
192,192,28523,1,0,0:0:0:0:
320,192,28523,1,0,0:0:0:0:
448,192,28523,1,0,0:0:0:0:
64,192,28866,1,0,0:0:0:0:
192,192,28866,1,0,0:0:0:0:
320,192,28866,1,0,0:0:0:0:
448,192,28866,1,0,0:0:0:0:
64,192,28991,1,0,0:0:0:0:
192,192,28991,1,0,0:0:0:0:
320,192,29023,1,0,0:0:0:0:
448,192,29023,1,0,0:0:0:0:
64,192,29366,1,0,0:0:0:0:
192,192,29366,1,0,0:0:0:0:
320,192,29366,1,0,0:0:0:0:
448,192,29366,1,0,0:0:0:0:
64,192,29523,1,0,0:0:0:0:
192,192,29523,1,0,0:0:0:0:
320,192,29523,1,0,0:0:0:0:
448,192,29523,1,0,0:0:0:0:
64,192,30023,1,0,0:0:0:0:
192,192,30023,1,0,0:0:0:0:
320,192,30023,1,0,0:0:0:0:
448,192,30023,1,0,0:0:0:0:
64,192,30366,1,0,0:0:0:0:
192,192,30366,1,0,0:0:0:0:
320,192,30366,1,0,0:0:0:0:
448,192,30366,1,0,0:0:0:0:
64,192,30523,1,0,0:0:0:0:
192,192,30523,1,0,0:0:0:0:
320,192,30523,1,0,0:0:0:0:
448,192,30523,1,0,0:0:0:0:
64,192,30835,1,0,0:0:0:0:
192,192,30835,1,0,0:0:0:0:
320,192,30866,1,0,0:0:0:0:
448,192,30866,1,0,0:0:0:0:
64,192,30991,1,0,0:0:0:0:
192,192,30991,1,0,0:0:0:0:
320,192,31023,1,0,0:0:0:0:
448,192,31023,1,0,0:0:0:0:
64,192,31335,1,0,0:0:0:0:
192,192,31335,1,0,0:0:0:0:
320,192,31335,1,0,0:0:0:0:
448,192,31335,1,0,0:0:0:0:
64,192,31523,1,0,0:0:0:0:
192,192,31523,1,0,0:0:0:0:
320,192,31523,1,0,0:0:0:0:
448,192,31523,1,0,0:0:0:0:
448,192,31991,1,0,0:0:0:0:
320,192,31991,128,0,34241:0:0:0:0:
192,192,32335,128,0,33273:0:0:0:0:
448,192,32491,128,0,32898:0:0:0:0:
64,192,32866,128,0,33741:0:0:0:0:
448,192,32991,128,0,33429:0:0:0:0:
192,192,33398,128,0,34460:0:0:0:0:
448,192,33523,128,0,34773:0:0:0:0:
64,192,33866,128,0,35304:0:0:0:0:
320,192,34366,128,0,35429:0:0:0:0:
192,192,34554,128,0,35710:0:0:0:0:
448,192,34866,128,0,35866:0:0:0:0:
64,192,35398,128,0,36460:0:0:0:0:
320,192,35523,128,0,36460:0:0:0:0:
192,192,35835,128,0,36460:0:0:0:0:
448,192,35960,128,0,36460:0:0:0:0:
192,192,36523,1,0,0:0:0:0:
320,192,36523,1,0,0:0:0:0:
448,192,36523,1,0,0:0:0:0:
64,192,36554,1,0,0:0:0:0:
64,192,36835,128,0,37429:0:0:0:0:
192,192,36835,128,0,37429:0:0:0:0:
320,192,36866,128,0,37429:0:0:0:0:
448,192,36866,128,0,37429:0:0:0:0:
320,192,37491,128,0,38460:0:0:0:0:
448,192,37491,128,0,38460:0:0:0:0:
64,192,37491,128,0,38460:0:0:0:0:
192,192,37491,128,0,38460:0:0:0:0:
320,192,38523,1,0,0:0:0:0:
448,192,38523,1,0,0:0:0:0:
64,192,38554,1,0,0:0:0:0:
192,192,38554,1,0,0:0:0:0:
320,192,38866,128,0,39491:0:0:0:0:
448,192,38866,128,0,39491:0:0:0:0:
64,192,38866,128,0,39491:0:0:0:0:
192,192,38866,128,0,39491:0:0:0:0:
320,192,39554,128,0,39991:0:0:0:0:
192,192,39554,128,0,40304:0:0:0:0:
448,192,39554,128,0,43304:0:0:0:0:
64,192,39554,128,0,43429:0:0:0:0:
320,192,40054,128,0,40898:0:0:0:0:
192,192,40366,128,0,40804:0:0:0:0:
192,192,40898,128,0,41273:0:0:0:0:
320,192,40991,128,0,41398:0:0:0:0:
192,192,41335,128,0,43398:0:0:0:0:
320,192,41491,1,0,0:0:0:0:
320,192,41804,128,0,42273:0:0:0:0:
320,192,42335,1,0,0:0:0:0:
320,192,42491,1,0,0:0:0:0:
320,192,42804,128,0,43398:0:0:0:0:
448,192,43398,1,0,0:0:0:0:
320,192,43523,1,0,0:0:0:0:
448,192,43523,1,0,0:0:0:0:
192,192,43523,1,0,0:0:0:0:
64,192,43554,1,0,0:0:0:0:
64,192,43835,1,0,0:0:0:0:
192,192,43835,1,0,0:0:0:0:
320,192,43991,1,0,0:0:0:0:
448,192,43991,1,0,0:0:0:0:
320,192,44335,1,0,0:0:0:0:
448,192,44335,1,0,0:0:0:0:
64,192,44523,1,0,0:0:0:0:
192,192,44523,1,0,0:0:0:0:
320,192,44523,1,0,0:0:0:0:
448,192,44523,1,0,0:0:0:0:
320,192,44773,1,0,0:0:0:0:
448,192,44773,1,0,0:0:0:0:
64,192,44773,1,0,0:0:0:0:
192,192,44773,1,0,0:0:0:0:
320,192,44898,1,0,0:0:0:0:
448,192,44898,1,0,0:0:0:0:
64,192,44929,1,0,0:0:0:0:
192,192,44929,1,0,0:0:0:0:
320,192,45023,1,0,0:0:0:0:
192,192,45054,1,0,0:0:0:0:
320,192,45179,1,0,0:0:0:0:
192,192,45210,1,0,0:0:0:0:
320,192,45304,1,0,0:0:0:0:
192,192,45335,1,0,0:0:0:0:
448,192,45429,1,0,0:0:0:0:
192,192,45460,1,0,0:0:0:0:
448,192,45554,1,0,0:0:0:0:
64,192,45616,1,0,0:0:0:0:
448,192,45679,1,0,0:0:0:0:
64,192,45741,1,0,0:0:0:0:
448,192,45804,1,0,0:0:0:0:
64,192,45866,1,0,0:0:0:0:
448,192,45929,1,0,0:0:0:0:
64,192,46023,1,0,0:0:0:0:
448,192,46054,1,0,0:0:0:0:
64,192,46148,1,0,0:0:0:0:
448,192,46179,1,0,0:0:0:0:
64,192,46273,1,0,0:0:0:0:
448,192,46304,1,0,0:0:0:0:
64,192,46398,1,0,0:0:0:0:
448,192,46460,1,0,0:0:0:0:
320,192,46523,1,0,0:0:0:0:
192,192,46585,1,0,0:0:0:0:
320,192,46648,1,0,0:0:0:0:
192,192,46741,1,0,0:0:0:0:
320,192,46773,1,0,0:0:0:0:
192,192,46866,1,0,0:0:0:0:
320,192,46929,1,0,0:0:0:0:
448,192,46960,1,0,0:0:0:0:
192,192,47023,1,0,0:0:0:0:
320,192,47054,1,0,0:0:0:0:
448,192,47054,1,0,0:0:0:0:
192,192,47148,1,0,0:0:0:0:
64,192,47179,1,0,0:0:0:0:
320,192,47210,1,0,0:0:0:0:
448,192,47210,1,0,0:0:0:0:
64,192,47273,1,0,0:0:0:0:
192,192,47273,1,0,0:0:0:0:
320,192,47335,1,0,0:0:0:0:
448,192,47335,1,0,0:0:0:0:
64,192,47398,1,0,0:0:0:0:
192,192,47398,1,0,0:0:0:0:
320,192,47460,1,0,0:0:0:0:
448,192,47460,1,0,0:0:0:0:
64,192,47554,1,0,0:0:0:0:
192,192,47554,1,0,0:0:0:0:
320,192,47585,1,0,0:0:0:0:
448,192,47585,1,0,0:0:0:0:
64,192,47679,1,0,0:0:0:0:
192,192,47679,1,0,0:0:0:0:
320,192,47741,1,0,0:0:0:0:
448,192,47741,1,0,0:0:0:0:
192,192,47773,1,0,0:0:0:0:
64,192,47804,1,0,0:0:0:0:
320,192,47866,1,0,0:0:0:0:
448,192,47866,1,0,0:0:0:0:
64,192,47929,1,0,0:0:0:0:
192,192,47929,1,0,0:0:0:0:
320,192,47960,1,0,0:0:0:0:
448,192,47960,1,0,0:0:0:0:
64,192,48023,1,0,0:0:0:0:
192,192,48023,1,0,0:0:0:0:
320,192,48116,1,0,0:0:0:0:
448,192,48116,1,0,0:0:0:0:
64,192,48116,1,0,0:0:0:0:
192,192,48116,1,0,0:0:0:0:
320,192,48210,1,0,0:0:0:0:
448,192,48210,1,0,0:0:0:0:
64,192,48304,1,0,0:0:0:0:
192,192,48304,1,0,0:0:0:0:
320,192,48366,1,0,0:0:0:0:
448,192,48366,1,0,0:0:0:0:
64,192,48398,1,0,0:0:0:0:
192,192,48398,1,0,0:0:0:0:
320,192,48460,1,0,0:0:0:0:
64,192,48491,1,0,0:0:0:0:
192,192,48491,1,0,0:0:0:0:
448,192,48523,1,0,0:0:0:0:
320,192,48648,1,0,0:0:0:0:
192,192,48679,1,0,0:0:0:0:
320,192,48741,1,0,0:0:0:0:
448,192,48741,1,0,0:0:0:0:
64,192,48741,1,0,0:0:0:0:
192,192,48741,1,0,0:0:0:0:
64,192,48835,1,0,0:0:0:0:
192,192,48835,1,0,0:0:0:0:
320,192,48835,1,0,0:0:0:0:
448,192,48835,1,0,0:0:0:0:
64,192,48929,1,0,0:0:0:0:
192,192,48929,1,0,0:0:0:0:
320,192,48929,1,0,0:0:0:0:
448,192,48929,1,0,0:0:0:0:
320,192,49023,1,0,0:0:0:0:
448,192,49023,1,0,0:0:0:0:
64,192,49054,1,0,0:0:0:0:
192,192,49054,1,0,0:0:0:0:
320,192,49116,1,0,0:0:0:0:
448,192,49116,1,0,0:0:0:0:
64,192,49148,1,0,0:0:0:0:
192,192,49148,1,0,0:0:0:0:
320,192,49210,1,0,0:0:0:0:
448,192,49210,1,0,0:0:0:0:
192,192,49241,1,0,0:0:0:0:
320,192,49304,1,0,0:0:0:0:
448,192,49304,1,0,0:0:0:0:
64,192,49335,1,0,0:0:0:0:
192,192,49335,1,0,0:0:0:0:
320,192,49366,1,0,0:0:0:0:
448,192,49398,1,0,0:0:0:0:
448,192,49460,1,0,0:0:0:0:
192,192,49460,1,0,0:0:0:0:
320,192,49554,1,0,0:0:0:0:
448,192,49554,1,0,0:0:0:0:
192,192,49554,1,0,0:0:0:0:
64,192,49585,1,0,0:0:0:0:
320,192,49648,1,0,0:0:0:0:
448,192,49648,1,0,0:0:0:0:
64,192,49679,1,0,0:0:0:0:
320,192,49741,1,0,0:0:0:0:
448,192,49741,1,0,0:0:0:0:
64,192,49773,1,0,0:0:0:0:
192,192,49773,1,0,0:0:0:0:
320,192,49835,1,0,0:0:0:0:
448,192,49835,1,0,0:0:0:0:
64,192,49866,1,0,0:0:0:0:
192,192,49866,1,0,0:0:0:0:
320,192,49898,1,0,0:0:0:0:
448,192,49929,1,0,0:0:0:0:
192,192,49929,1,0,0:0:0:0:
64,192,49991,1,0,0:0:0:0:
192,192,49991,1,0,0:0:0:0:
320,192,50023,1,0,0:0:0:0:
448,192,50023,1,0,0:0:0:0:
320,192,50116,1,0,0:0:0:0:
448,192,50116,1,0,0:0:0:0:
64,192,50116,1,0,0:0:0:0:
192,192,50116,1,0,0:0:0:0:
320,192,50210,1,0,0:0:0:0:
448,192,50210,1,0,0:0:0:0:
192,192,50210,1,0,0:0:0:0:
64,192,50210,1,0,0:0:0:0:
64,192,50273,1,0,0:0:0:0:
320,192,50273,1,0,0:0:0:0:
448,192,50273,1,0,0:0:0:0:
192,192,50304,1,0,0:0:0:0:
192,192,50366,1,0,0:0:0:0:
320,192,50366,1,0,0:0:0:0:
448,192,50366,1,0,0:0:0:0:
64,192,50398,1,0,0:0:0:0:
320,192,50460,1,0,0:0:0:0:
448,192,50460,1,0,0:0:0:0:
192,192,50491,1,0,0:0:0:0:
64,192,50491,1,0,0:0:0:0:
320,192,50554,1,0,0:0:0:0:
448,192,50554,1,0,0:0:0:0:
64,192,50554,1,0,0:0:0:0:
192,192,50554,1,0,0:0:0:0:
448,192,50616,1,0,0:0:0:0:
64,192,50648,1,0,0:0:0:0:
192,192,50648,1,0,0:0:0:0:
448,192,50710,1,0,0:0:0:0:
64,192,50773,1,0,0:0:0:0:
192,192,50773,1,0,0:0:0:0:
320,192,50804,1,0,0:0:0:0:
448,192,50804,1,0,0:0:0:0:
64,192,50898,1,0,0:0:0:0:
320,192,50991,1,0,0:0:0:0:
448,192,50991,1,0,0:0:0:0:
64,192,51023,1,0,0:0:0:0:
192,192,51023,1,0,0:0:0:0:
320,192,51085,1,0,0:0:0:0:
448,192,51085,1,0,0:0:0:0:
192,192,51085,1,0,0:0:0:0:
64,192,51116,1,0,0:0:0:0:
192,192,51210,1,0,0:0:0:0:
320,192,51210,1,0,0:0:0:0:
64,192,51210,1,0,0:0:0:0:
320,192,51304,1,0,0:0:0:0:
448,192,51304,1,0,0:0:0:0:
64,192,51366,1,0,0:0:0:0:
320,192,51398,1,0,0:0:0:0:
448,192,51398,1,0,0:0:0:0:
192,192,51460,1,0,0:0:0:0:
64,192,51460,1,0,0:0:0:0:
448,192,51491,1,0,0:0:0:0:
448,192,51554,1,0,0:0:0:0:
320,192,51648,1,0,0:0:0:0:
448,192,51679,1,0,0:0:0:0:
192,192,51710,1,0,0:0:0:0:
64,192,51710,1,0,0:0:0:0:
320,192,51835,1,0,0:0:0:0:
448,192,51835,1,0,0:0:0:0:
64,192,51835,1,0,0:0:0:0:
192,192,51835,1,0,0:0:0:0:
320,192,51929,1,0,0:0:0:0:
448,192,51929,1,0,0:0:0:0:
64,192,52054,1,0,0:0:0:0:
192,192,52054,1,0,0:0:0:0:
320,192,52054,1,0,0:0:0:0:
448,192,52054,1,0,0:0:0:0:
320,192,52585,128,0,53523:0:0:0:0:
448,192,52585,128,0,53523:0:0:0:0:
64,192,53023,128,0,54023:0:0:0:0:
192,192,53023,128,0,54023:0:0:0:0:
320,192,53585,128,0,54523:0:0:0:0:
448,192,53585,128,0,54523:0:0:0:0:
64,192,54085,128,0,54991:0:0:0:0:
192,192,54085,128,0,54991:0:0:0:0:
320,192,54585,128,0,55523:0:0:0:0:
448,192,54585,128,0,55523:0:0:0:0:
64,192,55054,128,0,55991:0:0:0:0:
192,192,55085,128,0,55991:0:0:0:0:
320,192,55585,128,0,55991:0:0:0:0:
448,192,55585,128,0,55991:0:0:0:0:
64,192,56054,1,0,0:0:0:0:
192,192,56054,1,0,0:0:0:0:
320,192,56054,1,0,0:0:0:0:
448,192,56054,1,0,0:0:0:0:
64,192,56366,1,0,0:0:0:0:
192,192,56366,1,0,0:0:0:0:
320,192,56366,1,0,0:0:0:0:
448,192,56366,1,0,0:0:0:0:
320,192,56523,1,0,0:0:0:0:
448,192,56523,1,0,0:0:0:0:
64,192,56523,1,0,0:0:0:0:
192,192,56523,1,0,0:0:0:0:
320,192,56835,1,0,0:0:0:0:
448,192,56835,1,0,0:0:0:0:
64,192,56866,1,0,0:0:0:0:
192,192,56866,1,0,0:0:0:0:
64,192,57023,1,0,0:0:0:0:
192,192,57023,1,0,0:0:0:0:
320,192,57023,1,0,0:0:0:0:
448,192,57023,1,0,0:0:0:0:
320,192,57366,1,0,0:0:0:0:
448,192,57366,1,0,0:0:0:0:
64,192,57366,1,0,0:0:0:0:
192,192,57366,1,0,0:0:0:0:
64,192,57523,1,0,0:0:0:0:
192,192,57523,1,0,0:0:0:0:
320,192,57523,1,0,0:0:0:0:
448,192,57523,1,0,0:0:0:0:
64,192,57866,1,0,0:0:0:0:
192,192,57866,1,0,0:0:0:0:
320,192,57866,1,0,0:0:0:0:
448,192,57866,1,0,0:0:0:0:
64,192,58023,1,0,0:0:0:0:
192,192,58023,1,0,0:0:0:0:
320,192,58054,1,0,0:0:0:0:
448,192,58054,1,0,0:0:0:0:
448,192,58366,1,0,0:0:0:0:
320,192,58366,1,0,0:0:0:0:
64,192,58398,1,0,0:0:0:0:
192,192,58398,1,0,0:0:0:0:
320,192,58554,1,0,0:0:0:0:
448,192,58554,1,0,0:0:0:0:
64,192,58554,1,0,0:0:0:0:
192,192,58554,1,0,0:0:0:0:
448,192,58835,1,0,0:0:0:0:
64,192,58866,1,0,0:0:0:0:
320,192,58866,1,0,0:0:0:0:
192,192,58898,1,0,0:0:0:0:
64,192,59023,1,0,0:0:0:0:
448,192,59023,1,0,0:0:0:0:
320,192,59054,1,0,0:0:0:0:
192,192,59054,1,0,0:0:0:0:
64,192,59335,1,0,0:0:0:0:
448,192,59335,1,0,0:0:0:0:
192,192,59366,1,0,0:0:0:0:
320,192,59366,1,0,0:0:0:0:
64,192,59491,1,0,0:0:0:0:
448,192,59523,1,0,0:0:0:0:
192,192,59523,1,0,0:0:0:0:
320,192,59523,1,0,0:0:0:0:
64,192,59804,1,0,0:0:0:0:
448,192,59804,1,0,0:0:0:0:
192,192,59835,1,0,0:0:0:0:
320,192,59866,1,0,0:0:0:0:
64,192,59991,1,0,0:0:0:0:
192,192,59991,1,0,0:0:0:0:
448,192,59991,1,0,0:0:0:0:
320,192,60023,1,0,0:0:0:0:
320,192,60304,1,0,0:0:0:0:
64,192,60335,1,0,0:0:0:0:
192,192,60335,1,0,0:0:0:0:
448,192,60366,1,0,0:0:0:0:
64,192,60491,1,0,0:0:0:0:
320,192,60523,1,0,0:0:0:0:
448,192,60523,1,0,0:0:0:0:
192,192,60523,1,0,0:0:0:0:
192,192,60835,1,0,0:0:0:0:
448,192,60835,1,0,0:0:0:0:
64,192,60866,1,0,0:0:0:0:
320,192,60866,1,0,0:0:0:0:
64,192,61054,1,0,0:0:0:0:
192,192,61054,1,0,0:0:0:0:
320,192,61054,1,0,0:0:0:0:
448,192,61116,1,0,0:0:0:0:
192,192,61335,1,0,0:0:0:0:
448,192,61335,1,0,0:0:0:0:
64,192,61335,1,0,0:0:0:0:
64,192,61491,1,0,0:0:0:0:
192,192,61491,1,0,0:0:0:0:
448,192,61491,1,0,0:0:0:0:
320,192,61523,1,0,0:0:0:0:
320,192,61991,1,0,0:0:0:0:
64,192,62023,1,0,0:0:0:0:
192,192,62023,1,0,0:0:0:0:
448,192,62085,1,0,0:0:0:0:
448,192,62335,1,0,0:0:0:0:
448,192,62491,1,0,0:0:0:0:
320,192,62523,1,0,0:0:0:0:
64,192,62554,1,0,0:0:0:0:
192,192,62554,1,0,0:0:0:0:
448,192,62835,1,0,0:0:0:0:
64,192,62835,1,0,0:0:0:0:
192,192,62898,1,0,0:0:0:0:
320,192,62898,1,0,0:0:0:0:
64,192,63023,1,0,0:0:0:0:
192,192,63023,1,0,0:0:0:0:
320,192,63054,1,0,0:0:0:0:
320,192,63335,1,0,0:0:0:0:
320,192,63491,1,0,0:0:0:0:
192,192,63523,1,0,0:0:0:0:
64,192,63523,1,0,0:0:0:0:
448,192,63554,1,0,0:0:0:0:
64,192,64023,1,0,0:0:0:0:
192,192,64023,1,0,0:0:0:0:
320,192,64023,1,0,0:0:0:0:
448,192,64023,1,0,0:0:0:0:
64,192,64366,1,0,0:0:0:0:
192,192,64366,1,0,0:0:0:0:
192,192,64523,1,0,0:0:0:0:
64,192,64523,1,0,0:0:0:0:
320,192,64554,1,0,0:0:0:0:
320,192,64866,1,0,0:0:0:0:
64,192,65023,1,0,0:0:0:0:
192,192,65023,1,0,0:0:0:0:
320,192,65366,1,0,0:0:0:0:
192,192,65523,1,0,0:0:0:0:
320,192,65523,1,0,0:0:0:0:
64,192,65554,1,0,0:0:0:0:
320,192,65866,1,0,0:0:0:0:
320,192,66023,1,0,0:0:0:0:
64,192,66023,1,0,0:0:0:0:
192,192,66023,1,0,0:0:0:0:
320,192,66366,1,0,0:0:0:0:
64,192,66523,1,0,0:0:0:0:
192,192,66523,1,0,0:0:0:0:
320,192,66523,1,0,0:0:0:0:
320,192,66866,1,0,0:0:0:0:
320,192,67023,1,0,0:0:0:0:
64,192,67023,1,0,0:0:0:0:
192,192,67023,1,0,0:0:0:0:
320,192,67366,1,0,0:0:0:0:
320,192,67523,1,0,0:0:0:0:
64,192,67523,1,0,0:0:0:0:
192,192,67523,1,0,0:0:0:0:
320,192,67866,1,0,0:0:0:0:
64,192,68023,1,0,0:0:0:0:
192,192,68023,1,0,0:0:0:0:
320,192,68054,1,0,0:0:0:0:
448,192,68054,1,0,0:0:0:0:
448,192,68335,1,0,0:0:0:0:
64,192,68491,1,0,0:0:0:0:
192,192,68491,1,0,0:0:0:0:
320,192,68523,1,0,0:0:0:0:
448,192,68523,1,0,0:0:0:0:
320,192,68866,1,0,0:0:0:0:
448,192,68866,1,0,0:0:0:0:
192,192,68898,1,0,0:0:0:0:
64,192,68929,1,0,0:0:0:0:
320,192,69054,1,0,0:0:0:0:
448,192,69054,1,0,0:0:0:0:
320,192,69366,1,0,0:0:0:0:
448,192,69366,1,0,0:0:0:0:
64,192,69523,1,0,0:0:0:0:
192,192,69523,1,0,0:0:0:0:
320,192,69523,1,0,0:0:0:0:
448,192,69523,1,0,0:0:0:0:
320,192,69866,1,0,0:0:0:0:
448,192,69898,1,0,0:0:0:0:
320,192,70023,1,0,0:0:0:0:
448,192,70023,1,0,0:0:0:0:
320,192,70366,1,0,0:0:0:0:
448,192,70398,1,0,0:0:0:0:
64,192,70523,1,0,0:0:0:0:
192,192,70523,1,0,0:0:0:0:
320,192,70523,1,0,0:0:0:0:
448,192,70523,1,0,0:0:0:0:
320,192,70866,1,0,0:0:0:0:
448,192,70866,1,0,0:0:0:0:
64,192,70898,1,0,0:0:0:0:
192,192,70898,1,0,0:0:0:0:
320,192,71054,1,0,0:0:0:0:
448,192,71054,1,0,0:0:0:0:
320,192,71335,1,0,0:0:0:0:
448,192,71335,1,0,0:0:0:0:
320,192,71523,1,0,0:0:0:0:
64,192,71523,1,0,0:0:0:0:
192,192,71523,1,0,0:0:0:0:
448,192,71523,1,0,0:0:0:0:
448,192,72023,1,0,0:0:0:0:
320,192,72023,1,0,0:0:0:0:
64,192,72054,1,0,0:0:0:0:
192,192,72054,1,0,0:0:0:0:
64,192,72366,1,0,0:0:0:0:
192,192,72366,1,0,0:0:0:0:
64,192,72523,1,0,0:0:0:0:
192,192,72523,1,0,0:0:0:0:
320,192,72523,1,0,0:0:0:0:
448,192,72523,1,0,0:0:0:0:
64,192,72866,1,0,0:0:0:0:
192,192,72866,1,0,0:0:0:0:
64,192,73023,1,0,0:0:0:0:
192,192,73023,1,0,0:0:0:0:
320,192,73023,1,0,0:0:0:0:
448,192,73023,1,0,0:0:0:0:
64,192,73366,1,0,0:0:0:0:
192,192,73366,1,0,0:0:0:0:
64,192,73523,1,0,0:0:0:0:
192,192,73523,1,0,0:0:0:0:
320,192,73523,1,0,0:0:0:0:
448,192,73523,1,0,0:0:0:0:
64,192,73835,1,0,0:0:0:0:
192,192,73835,1,0,0:0:0:0:
320,192,74023,1,0,0:0:0:0:
448,192,74023,1,0,0:0:0:0:
64,192,74023,1,0,0:0:0:0:
192,192,74023,1,0,0:0:0:0:
64,192,74366,1,0,0:0:0:0:
192,192,74366,1,0,0:0:0:0:
192,192,74492,1,0,0:0:0:0:
64,192,74492,1,0,0:0:0:0:
320,192,74523,1,0,0:0:0:0:
448,192,74523,1,0,0:0:0:0:
64,192,74835,1,0,0:0:0:0:
192,192,74835,1,0,0:0:0:0:
64,192,74992,1,0,0:0:0:0:
192,192,74992,1,0,0:0:0:0:
320,192,75023,1,0,0:0:0:0:
448,192,75023,1,0,0:0:0:0:
64,192,75335,1,0,0:0:0:0:
192,192,75335,1,0,0:0:0:0:
64,192,75492,1,0,0:0:0:0:
192,192,75492,1,0,0:0:0:0:
320,192,75492,1,0,0:0:0:0:
448,192,75492,1,0,0:0:0:0:
64,192,75804,1,0,0:0:0:0:
192,192,75804,1,0,0:0:0:0:
64,192,76023,1,0,0:0:0:0:
192,192,76023,1,0,0:0:0:0:
320,192,76023,1,0,0:0:0:0:
448,192,76023,1,0,0:0:0:0:
320,192,76335,1,0,0:0:0:0:
448,192,76335,1,0,0:0:0:0:
320,192,76492,1,0,0:0:0:0:
448,192,76492,1,0,0:0:0:0:
64,192,76523,1,0,0:0:0:0:
192,192,76523,1,0,0:0:0:0:
320,192,76867,1,0,0:0:0:0:
448,192,76867,1,0,0:0:0:0:
64,192,76867,1,0,0:0:0:0:
192,192,76867,1,0,0:0:0:0:
64,192,77023,1,0,0:0:0:0:
192,192,77023,1,0,0:0:0:0:
320,192,77023,1,0,0:0:0:0:
448,192,77023,1,0,0:0:0:0:
320,192,77335,1,0,0:0:0:0:
448,192,77335,1,0,0:0:0:0:
64,192,77523,1,0,0:0:0:0:
192,192,77523,1,0,0:0:0:0:
320,192,77523,1,0,0:0:0:0:
448,192,77523,1,0,0:0:0:0:
64,192,77960,1,0,0:0:0:0:
192,192,77960,1,0,0:0:0:0:
320,192,78023,1,0,0:0:0:0:
448,192,78023,1,0,0:0:0:0:
64,192,78523,1,0,0:0:0:0:
192,192,78523,1,0,0:0:0:0:
320,192,78523,1,0,0:0:0:0:
448,192,78523,1,0,0:0:0:0:
64,192,78867,1,0,0:0:0:0:
192,192,78867,1,0,0:0:0:0:
320,192,78867,1,0,0:0:0:0:
448,192,78867,1,0,0:0:0:0:
64,192,79085,1,0,0:0:0:0:
192,192,79085,1,0,0:0:0:0:
64,192,79398,1,0,0:0:0:0:
192,192,79398,1,0,0:0:0:0:
320,192,79523,1,0,0:0:0:0:
448,192,79523,1,0,0:0:0:0:
64,192,79554,1,0,0:0:0:0:
192,192,79554,1,0,0:0:0:0:
448,192,80023,1,0,0:0:0:0:
64,192,80023,1,0,0:0:0:0:
320,192,80023,1,0,0:0:0:0:
192,192,80023,1,0,0:0:0:0:
64,192,80335,1,0,0:0:0:0:
192,192,80335,1,0,0:0:0:0:
64,192,80492,1,0,0:0:0:0:
192,192,80492,1,0,0:0:0:0:
448,192,80492,1,0,0:0:0:0:
320,192,80523,1,0,0:0:0:0:
64,192,80867,1,0,0:0:0:0:
192,192,80867,1,0,0:0:0:0:
64,192,81023,1,0,0:0:0:0:
448,192,81023,1,0,0:0:0:0:
192,192,81023,1,0,0:0:0:0:
320,192,81023,1,0,0:0:0:0:
64,192,81335,1,0,0:0:0:0:
192,192,81335,1,0,0:0:0:0:
64,192,81492,1,0,0:0:0:0:
192,192,81492,1,0,0:0:0:0:
320,192,81492,1,0,0:0:0:0:
448,192,81554,1,0,0:0:0:0:
64,192,81804,1,0,0:0:0:0:
192,192,81804,1,0,0:0:0:0:
320,192,81804,1,0,0:0:0:0:
448,192,81867,1,0,0:0:0:0:
64,192,82335,1,0,0:0:0:0:
192,192,82335,1,0,0:0:0:0:
64,192,82492,1,0,0:0:0:0:
192,192,82492,1,0,0:0:0:0:
320,192,82492,1,0,0:0:0:0:
448,192,82554,1,0,0:0:0:0:
320,192,82804,1,0,0:0:0:0:
64,192,82835,1,0,0:0:0:0:
192,192,82835,1,0,0:0:0:0:
448,192,82867,1,0,0:0:0:0:
64,192,83335,1,0,0:0:0:0:
192,192,83335,1,0,0:0:0:0:
64,192,83492,1,0,0:0:0:0:
192,192,83492,1,0,0:0:0:0:
320,192,83492,1,0,0:0:0:0:
448,192,83523,1,0,0:0:0:0:
64,192,83835,1,0,0:0:0:0:
192,192,83835,1,0,0:0:0:0:
320,192,83835,1,0,0:0:0:0:
448,192,83867,1,0,0:0:0:0:
64,192,84023,1,0,0:0:0:0:
192,192,84023,1,0,0:0:0:0:
320,192,84023,1,0,0:0:0:0:
320,192,84210,1,0,0:0:0:0:
192,192,84210,1,0,0:0:0:0:
192,192,84367,1,0,0:0:0:0:
320,192,84367,1,0,0:0:0:0:
192,192,84523,1,0,0:0:0:0:
320,192,84554,1,0,0:0:0:0:
192,192,84835,1,0,0:0:0:0:
320,192,84835,1,0,0:0:0:0:
192,192,84992,1,0,0:0:0:0:
320,192,84992,1,0,0:0:0:0:
192,192,85335,1,0,0:0:0:0:
320,192,85335,1,0,0:0:0:0:
320,192,85523,1,0,0:0:0:0:
64,192,85523,1,0,0:0:0:0:
192,192,85523,1,0,0:0:0:0:
448,192,85523,1,0,0:0:0:0:
192,192,86023,1,0,0:0:0:0:
320,192,86023,1,0,0:0:0:0:
192,192,86335,1,0,0:0:0:0:
320,192,86367,1,0,0:0:0:0:
64,192,86523,1,0,0:0:0:0:
192,192,86523,1,0,0:0:0:0:
320,192,86523,1,0,0:0:0:0:
448,192,86523,1,0,0:0:0:0:
64,192,86867,1,0,0:0:0:0:
192,192,86867,1,0,0:0:0:0:
320,192,86867,1,0,0:0:0:0:
448,192,86867,1,0,0:0:0:0:
192,192,87023,1,0,0:0:0:0:
320,192,87023,1,0,0:0:0:0:
192,192,87335,1,0,0:0:0:0:
320,192,87367,1,0,0:0:0:0:
64,192,87523,1,0,0:0:0:0:
192,192,87523,1,0,0:0:0:0:
320,192,87523,1,0,0:0:0:0:
448,192,87523,1,0,0:0:0:0:
64,192,87992,1,0,0:0:0:0:
448,192,88023,1,0,0:0:0:0:
320,192,88023,1,0,0:0:0:0:
192,192,88023,1,0,0:0:0:0:
64,192,88335,1,0,0:0:0:0:
448,192,88367,1,0,0:0:0:0:
192,192,88367,1,0,0:0:0:0:
320,192,88367,1,0,0:0:0:0:
448,192,88523,1,0,0:0:0:0:
64,192,88523,1,0,0:0:0:0:
192,192,88523,1,0,0:0:0:0:
320,192,88523,1,0,0:0:0:0:
64,192,88867,1,0,0:0:0:0:
192,192,88867,1,0,0:0:0:0:
320,192,88867,1,0,0:0:0:0:
448,192,88867,1,0,0:0:0:0:
64,192,89023,1,0,0:0:0:0:
192,192,89023,1,0,0:0:0:0:
320,192,89023,1,0,0:0:0:0:
448,192,89023,1,0,0:0:0:0:
64,192,89367,1,0,0:0:0:0:
192,192,89367,1,0,0:0:0:0:
320,192,89367,1,0,0:0:0:0:
448,192,89367,1,0,0:0:0:0:
64,192,89523,1,0,0:0:0:0:
192,192,89523,1,0,0:0:0:0:
320,192,89523,1,0,0:0:0:0:
448,192,89523,1,0,0:0:0:0:
64,192,89804,128,0,90242:0:0:0:0:
192,192,89804,128,0,90242:0:0:0:0:
320,192,89804,128,0,90242:0:0:0:0:
448,192,89804,128,0,90242:0:0:0:0:
320,192,90335,1,0,0:0:0:0:
64,192,90335,1,0,0:0:0:0:
192,192,90335,1,0,0:0:0:0:
448,192,90335,1,0,0:0:0:0:
64,192,90523,1,0,0:0:0:0:
192,192,90523,1,0,0:0:0:0:
320,192,90523,1,0,0:0:0:0:
448,192,90523,1,0,0:0:0:0:
192,192,90804,128,0,91242:0:0:0:0:
64,192,90804,128,0,91273:0:0:0:0:
320,192,90835,128,0,91273:0:0:0:0:
448,192,90835,128,0,91273:0:0:0:0:
320,192,91335,1,0,0:0:0:0:
448,192,91335,1,0,0:0:0:0:
64,192,91335,1,0,0:0:0:0:
192,192,91335,1,0,0:0:0:0:
320,192,91492,1,0,0:0:0:0:
64,192,91523,1,0,0:0:0:0:
192,192,91523,1,0,0:0:0:0:
448,192,91523,1,0,0:0:0:0:
64,192,91804,1,0,0:0:0:0:
192,192,91804,1,0,0:0:0:0:
320,192,91804,1,0,0:0:0:0:
448,192,91804,1,0,0:0:0:0:
320,192,92023,1,0,0:0:0:0:
192,192,92085,1,0,0:0:0:0:
320,192,92179,1,0,0:0:0:0:
192,192,92242,1,0,0:0:0:0:
320,192,92335,1,0,0:0:0:0:
192,192,92398,1,0,0:0:0:0:
320,192,92460,1,0,0:0:0:0:
192,192,92523,1,0,0:0:0:0:
320,192,92617,1,0,0:0:0:0:
192,192,92648,1,0,0:0:0:0:
320,192,92742,1,0,0:0:0:0:
192,192,92804,1,0,0:0:0:0:
320,192,92867,1,0,0:0:0:0:
192,192,92929,1,0,0:0:0:0:
448,192,93023,1,0,0:0:0:0:
64,192,93085,1,0,0:0:0:0:
448,192,93148,1,0,0:0:0:0:
64,192,93210,1,0,0:0:0:0:
448,192,93304,1,0,0:0:0:0:
64,192,93367,1,0,0:0:0:0:
448,192,93429,1,0,0:0:0:0:
192,192,93554,1,0,0:0:0:0:
448,192,93554,1,0,0:0:0:0:
320,192,93554,1,0,0:0:0:0:
192,192,93679,1,0,0:0:0:0:
320,192,93679,1,0,0:0:0:0:
320,192,93835,1,0,0:0:0:0:
192,192,93835,1,0,0:0:0:0:
320,192,93960,1,0,0:0:0:0:
192,192,93992,1,0,0:0:0:0:
320,192,94085,1,0,0:0:0:0:
192,192,94117,1,0,0:0:0:0:
320,192,94210,1,0,0:0:0:0:
192,192,94242,1,0,0:0:0:0:
320,192,94335,1,0,0:0:0:0:
192,192,94398,1,0,0:0:0:0:
320,192,94492,1,0,0:0:0:0:
192,192,94523,1,0,0:0:0:0:
320,192,94585,1,0,0:0:0:0:
448,192,94617,1,0,0:0:0:0:
64,192,94679,1,0,0:0:0:0:
448,192,94710,1,0,0:0:0:0:
64,192,94804,1,0,0:0:0:0:
448,192,94835,1,0,0:0:0:0:
64,192,94929,1,0,0:0:0:0:
448,192,94992,1,0,0:0:0:0:
320,192,94992,1,0,0:0:0:0:
192,192,95054,1,0,0:0:0:0:
320,192,95117,1,0,0:0:0:0:
192,192,95210,1,0,0:0:0:0:
320,192,95242,1,0,0:0:0:0:
192,192,95335,1,0,0:0:0:0:
320,192,95367,1,0,0:0:0:0:
192,192,95460,1,0,0:0:0:0:
320,192,95492,1,0,0:0:0:0:
192,192,95585,1,0,0:0:0:0:
320,192,95617,1,0,0:0:0:0:
192,192,95710,1,0,0:0:0:0:
320,192,95773,1,0,0:0:0:0:
192,192,95867,1,0,0:0:0:0:
320,192,95867,1,0,0:0:0:0:
192,192,95992,1,0,0:0:0:0:
320,192,96023,1,0,0:0:0:0:
448,192,96023,1,0,0:0:0:0:
192,192,96148,1,0,0:0:0:0:
64,192,96179,1,0,0:0:0:0:
320,192,96179,1,0,0:0:0:0:
448,192,96179,1,0,0:0:0:0:
64,192,96335,1,0,0:0:0:0:
192,192,96335,1,0,0:0:0:0:
320,192,96335,1,0,0:0:0:0:
448,192,96335,1,0,0:0:0:0:
64,192,96460,1,0,0:0:0:0:
192,192,96460,1,0,0:0:0:0:
320,192,96492,1,0,0:0:0:0:
448,192,96492,1,0,0:0:0:0:
64,192,96617,1,0,0:0:0:0:
192,192,96617,1,0,0:0:0:0:
320,192,96617,1,0,0:0:0:0:
448,192,96617,1,0,0:0:0:0:
64,192,96742,1,0,0:0:0:0:
192,192,96742,1,0,0:0:0:0:
320,192,96742,1,0,0:0:0:0:
448,192,96742,1,0,0:0:0:0:
64,192,96867,1,0,0:0:0:0:
192,192,96867,1,0,0:0:0:0:
320,192,96898,1,0,0:0:0:0:
448,192,96898,1,0,0:0:0:0:
64,192,96992,1,0,0:0:0:0:
192,192,96992,1,0,0:0:0:0:
320,192,97023,1,0,0:0:0:0:
448,192,97023,1,0,0:0:0:0:
320,192,97117,1,0,0:0:0:0:
448,192,97117,1,0,0:0:0:0:
64,192,97148,1,0,0:0:0:0:
192,192,97148,1,0,0:0:0:0:
64,192,97210,1,0,0:0:0:0:
192,192,97210,1,0,0:0:0:0:
320,192,97242,1,0,0:0:0:0:
448,192,97242,1,0,0:0:0:0:
64,192,97304,1,0,0:0:0:0:
192,192,97304,1,0,0:0:0:0:
448,192,97335,1,0,0:0:0:0:
64,192,97398,1,0,0:0:0:0:
64,192,97492,1,0,0:0:0:0:
320,192,97492,1,0,0:0:0:0:
448,192,97492,1,0,0:0:0:0:
192,192,97492,1,0,0:0:0:0:
64,192,97554,1,0,0:0:0:0:
192,192,97585,1,0,0:0:0:0:
320,192,97585,1,0,0:0:0:0:
448,192,97585,1,0,0:0:0:0:
64,192,97679,1,0,0:0:0:0:
192,192,97679,1,0,0:0:0:0:
320,192,97679,1,0,0:0:0:0:
320,192,97742,1,0,0:0:0:0:
64,192,97742,1,0,0:0:0:0:
192,192,97742,1,0,0:0:0:0:
64,192,97835,1,0,0:0:0:0:
192,192,97835,1,0,0:0:0:0:
320,192,97898,1,0,0:0:0:0:
448,192,97898,1,0,0:0:0:0:
64,192,97929,1,0,0:0:0:0:
192,192,97929,1,0,0:0:0:0:
320,192,97992,1,0,0:0:0:0:
448,192,97992,1,0,0:0:0:0:
64,192,98023,1,0,0:0:0:0:
192,192,98054,1,0,0:0:0:0:
320,192,98054,1,0,0:0:0:0:
448,192,98148,1,0,0:0:0:0:
64,192,98210,1,0,0:0:0:0:
320,192,98242,1,0,0:0:0:0:
448,192,98242,1,0,0:0:0:0:
192,192,98242,1,0,0:0:0:0:
320,192,98335,1,0,0:0:0:0:
448,192,98335,1,0,0:0:0:0:
64,192,98335,1,0,0:0:0:0:
192,192,98335,1,0,0:0:0:0:
320,192,98398,1,0,0:0:0:0:
448,192,98398,1,0,0:0:0:0:
64,192,98429,1,0,0:0:0:0:
192,192,98429,1,0,0:0:0:0:
448,192,98492,1,0,0:0:0:0:
64,192,98523,1,0,0:0:0:0:
192,192,98523,1,0,0:0:0:0:
320,192,98585,1,0,0:0:0:0:
64,192,98617,1,0,0:0:0:0:
192,192,98617,1,0,0:0:0:0:
448,192,98617,1,0,0:0:0:0:
64,192,98710,1,0,0:0:0:0:
192,192,98710,1,0,0:0:0:0:
320,192,98710,1,0,0:0:0:0:
448,192,98710,1,0,0:0:0:0:
192,192,98773,1,0,0:0:0:0:
320,192,98804,1,0,0:0:0:0:
64,192,98804,1,0,0:0:0:0:
448,192,98804,1,0,0:0:0:0:
320,192,98867,1,0,0:0:0:0:
448,192,98867,1,0,0:0:0:0:
64,192,98898,1,0,0:0:0:0:
192,192,98898,1,0,0:0:0:0:
320,192,98960,1,0,0:0:0:0:
448,192,98960,1,0,0:0:0:0:
64,192,98960,1,0,0:0:0:0:
192,192,98960,1,0,0:0:0:0:
320,192,99054,1,0,0:0:0:0:
448,192,99054,1,0,0:0:0:0:
64,192,99054,1,0,0:0:0:0:
192,192,99054,1,0,0:0:0:0:
320,192,99148,1,0,0:0:0:0:
448,192,99148,1,0,0:0:0:0:
64,192,99148,1,0,0:0:0:0:
192,192,99148,1,0,0:0:0:0:
64,192,99242,1,0,0:0:0:0:
192,192,99242,1,0,0:0:0:0:
320,192,99242,1,0,0:0:0:0:
448,192,99242,1,0,0:0:0:0:
64,192,99335,1,0,0:0:0:0:
192,192,99335,1,0,0:0:0:0:
320,192,99335,1,0,0:0:0:0:
448,192,99335,1,0,0:0:0:0:
64,192,99429,1,0,0:0:0:0:
192,192,99429,1,0,0:0:0:0:
320,192,99429,1,0,0:0:0:0:
448,192,99429,1,0,0:0:0:0:
320,192,99492,1,0,0:0:0:0:
448,192,99492,1,0,0:0:0:0:
64,192,99523,1,0,0:0:0:0:
192,192,99523,1,0,0:0:0:0:
320,192,99585,1,0,0:0:0:0:
448,192,99585,1,0,0:0:0:0:
64,192,99617,1,0,0:0:0:0:
192,192,99617,1,0,0:0:0:0:
64,192,99710,1,0,0:0:0:0:
192,192,99710,1,0,0:0:0:0:
320,192,99742,1,0,0:0:0:0:
448,192,99742,1,0,0:0:0:0:
64,192,99804,1,0,0:0:0:0:
192,192,99804,1,0,0:0:0:0:
320,192,99898,1,0,0:0:0:0:
448,192,99898,1,0,0:0:0:0:
64,192,99898,1,0,0:0:0:0:
192,192,99898,1,0,0:0:0:0:
320,192,100023,1,0,0:0:0:0:
448,192,100023,1,0,0:0:0:0:
64,192,100054,128,0,100960:0:0:0:0:
192,192,100054,128,0,101960:0:0:0:0:
448,192,100117,128,0,100554:0:0:0:0:
320,192,100117,128,0,101460:0:0:0:0:
448,192,100648,128,0,102460:0:0:0:0:
64,192,101054,128,0,102960:0:0:0:0:
320,192,101523,128,0,103460:0:0:0:0:
192,192,102054,128,0,103460:0:0:0:0:
448,192,102523,128,0,103960:0:0:0:0:
64,192,103054,128,0,103960:0:0:0:0:
320,192,103554,128,0,108460:0:0:0:0:
192,192,103554,128,0,108460:0:0:0:0:
448,192,104054,128,0,104460:0:0:0:0:
64,192,104054,128,0,104492:0:0:0:0:
448,192,104585,1,0,0:0:0:0:
64,192,104585,1,0,0:0:0:0:
448,192,104898,1,0,0:0:0:0:
64,192,104898,1,0,0:0:0:0:
448,192,105054,1,0,0:0:0:0:
64,192,105054,1,0,0:0:0:0:
64,192,105367,1,0,0:0:0:0:
448,192,105367,1,0,0:0:0:0:
64,192,105523,1,0,0:0:0:0:
448,192,105523,1,0,0:0:0:0:
64,192,105867,1,0,0:0:0:0:
448,192,105867,1,0,0:0:0:0:
64,192,106023,1,0,0:0:0:0:
448,192,106054,1,0,0:0:0:0:
64,192,106335,1,0,0:0:0:0:
448,192,106335,1,0,0:0:0:0:
64,192,106523,1,0,0:0:0:0:
448,192,106523,1,0,0:0:0:0:
64,192,106867,1,0,0:0:0:0:
448,192,106867,1,0,0:0:0:0:
64,192,107023,1,0,0:0:0:0:
448,192,107054,1,0,0:0:0:0:
64,192,107367,1,0,0:0:0:0:
448,192,107367,1,0,0:0:0:0:
64,192,107523,1,0,0:0:0:0:
448,192,107523,1,0,0:0:0:0:
64,192,107835,1,0,0:0:0:0:
448,192,107835,1,0,0:0:0:0:
64,192,108023,1,0,0:0:0:0:
448,192,108023,1,0,0:0:0:0:
448,192,108304,128,0,108929:0:0:0:0:
64,192,108335,128,0,108929:0:0:0:0:
192,192,108523,1,0,0:0:0:0:
320,192,108554,1,0,0:0:0:0:
192,192,108835,128,0,109429:0:0:0:0:
320,192,108867,128,0,109429:0:0:0:0:
64,192,109023,1,0,0:0:0:0:
448,192,109023,1,0,0:0:0:0:
64,192,109335,128,0,109710:0:0:0:0:
448,192,109335,128,0,109710:0:0:0:0:
192,192,109523,128,0,110429:0:0:0:0:
320,192,109523,128,0,110460:0:0:0:0:
64,192,109804,1,0,0:0:0:0:
448,192,109835,1,0,0:0:0:0:
64,192,109992,1,0,0:0:0:0:
448,192,109992,1,0,0:0:0:0:
64,192,110304,128,0,110960:0:0:0:0:
448,192,110335,128,0,110929:0:0:0:0:
192,192,110554,1,0,0:0:0:0:
320,192,110554,1,0,0:0:0:0:
192,192,110867,128,0,111460:0:0:0:0:
320,192,110867,128,0,111460:0:0:0:0:
64,192,111023,1,0,0:0:0:0:
448,192,111023,1,0,0:0:0:0:
64,192,111335,128,0,111773:0:0:0:0:
448,192,111367,128,0,111804:0:0:0:0:
192,192,111554,128,0,114304:0:0:0:0:
320,192,111554,128,0,114460:0:0:0:0:
64,192,111867,1,0,0:0:0:0:
448,192,111867,1,0,0:0:0:0:
64,192,112023,1,0,0:0:0:0:
448,192,112023,1,0,0:0:0:0:
448,192,112335,1,0,0:0:0:0:
64,192,112523,1,0,0:0:0:0:
64,192,112835,1,0,0:0:0:0:
448,192,113023,1,0,0:0:0:0:
64,192,113335,1,0,0:0:0:0:
448,192,113492,1,0,0:0:0:0:
64,192,113804,1,0,0:0:0:0:
448,192,113992,1,0,0:0:0:0:
192,192,114367,1,0,0:0:0:0:
320,192,114523,128,0,114835:0:0:0:0:
192,192,114835,1,0,0:0:0:0:
320,192,114992,1,0,0:0:0:0:
192,192,115335,1,0,0:0:0:0:
320,192,115492,1,0,0:0:0:0:
192,192,115835,1,0,0:0:0:0:
320,192,115992,1,0,0:0:0:0:
320,192,116335,1,0,0:0:0:0:
192,192,116492,1,0,0:0:0:0:
64,192,116867,1,0,0:0:0:0:
192,192,116867,1,0,0:0:0:0:
320,192,116992,1,0,0:0:0:0:
448,192,116992,1,0,0:0:0:0:
320,192,117335,1,0,0:0:0:0:
448,192,117335,1,0,0:0:0:0:
64,192,117523,1,0,0:0:0:0:
192,192,117523,1,0,0:0:0:0:
64,192,118023,1,0,0:0:0:0:
192,192,118023,1,0,0:0:0:0:
320,192,118023,1,0,0:0:0:0:
448,192,118023,1,0,0:0:0:0:
64,192,118554,1,0,0:0:0:0:
192,192,118554,1,0,0:0:0:0:
320,192,118554,1,0,0:0:0:0:
448,192,118554,1,0,0:0:0:0:
320,192,118867,1,0,0:0:0:0:
448,192,118867,1,0,0:0:0:0:
64,192,118867,1,0,0:0:0:0:
192,192,118867,1,0,0:0:0:0:
