osu file format v14

[General]
AudioFilename: elem.mp3
AudioLeadIn: 0
PreviewTime: 54076
Countdown: 0
SampleSet: None
StackLeniency: 0.7
Mode: 3
LetterboxInBreaks: 0
SpecialStyle: 0
WidescreenStoryboard: 0

[Editor]
DistanceSpacing: 0.8
BeatDivisor: 4
GridSize: 8
TimelineZoom: 3.099998

[Metadata]
Title:FrenchShitFest Paquetage 2 (Rap Edition)
TitleUnicode:FrenchShitFest Paquetage 2 (Rap Edition)
Artist:Various Artists
ArtistUnicode:Various Artists
Creator:Adri
Version:Elementaires - shitmaniafest
Source:
Tags:
BeatmapID:2186339
BeatmapSetID:1045839

[Difficulty]
HPDrainRate:8
CircleSize:4
OverallDifficulty:8
ApproachRate:5
SliderMultiplier:1.4
SliderTickRate:1

[Events]
//Background and Video events
0,0,"ilesttemps.png",0,0
//Break Periods
//Storyboard Layer 0 (Background)
//Storyboard Layer 1 (Fail)
//Storyboard Layer 2 (Pass)
//Storyboard Layer 3 (Foreground)
//Storyboard Layer 4 (Overlay)
//Storyboard Sound Samples

[TimingPoints]
76,428.571428571429,4,1,0,5,1,42076
13790,-80,4,1,0,5,0,42076
14004,-1000,4,1,0,5,0,42076
14218,-80,4,1,0,5,0,42076
14326,-1000,4,1,0,5,0,42076
14433,-100,4,1,0,5,0,42076
14968,-1000,4,1,0,5,0,42076
15290,-80,4,1,0,5,0,42076
15390,-1000,4,1,0,5,0,42076
15718,-100,4,1,0,5,0,42076
15933,-100,4,1,0,5,0,0
15943.7,-100,4,1,0,5,0,0
15954.4,-101.010101010101,4,1,0,5,0,0
15965.1,-102.040816326531,4,1,0,5,0,0
15975.8,-104.166666666667,4,1,0,5,0,0
15986.5,-106.382978723404,4,1,0,5,0,0
15997.2,-109.89010989011,4,1,0,5,0,0
16007.9,-113.636363636364,4,1,0,5,0,0
16018.6,-119.047619047619,4,1,0,5,0,0
16029.3,-125,4,1,0,5,0,0
16040,-133.333333333333,4,1,0,5,0,0
16050.7,-142.857142857143,4,1,0,5,0,0
16061.4,-156.25,4,1,0,5,0,0
16072.1,-172.413793103448,4,1,0,5,0,0
16082.8,-196.078431372549,4,1,0,5,0,0
16093.5,-227.272727272727,4,1,0,5,0,0
16104.2,-277.777777777778,4,1,0,5,0,0
16114.9,-357.142857142857,4,1,0,5,0,0
16125.6,-526.315789473684,4,1,0,5,0,0
16136.3,-1000,4,1,0,5,0,0
16147,-100,4,1,0,5,0,0
16361,-200,4,1,0,5,0,0
17218,-80,4,1,0,5,0,0
17433,-1000,4,1,0,5,0,0
17647,-80,4,1,0,5,0,0
17754,-1000,4,1,0,5,0,0
17861,-100,4,1,0,5,0,0
18397,-1000,4,1,0,5,0,0
18718,-80,4,1,0,5,0,0
18826,-1000,4,1,0,5,0,0
18933,-80,4,1,0,5,0,0
19040,-1000,4,1,0,5,0,0
19147,-80,4,1,0,5,0,0
19254,-1000,4,1,0,5,0,0
19361,-100,4,1,0,5,0,0
19371.75,-100,4,1,0,5,0,0
19382.5,-101.010101010101,4,1,0,5,0,0
19393.25,-102.040816326531,4,1,0,5,0,0
19404,-104.166666666667,4,1,0,5,0,0
19414.75,-106.382978723404,4,1,0,5,0,0
19425.5,-109.89010989011,4,1,0,5,0,0
19436.25,-113.636363636364,4,1,0,5,0,0
19447,-119.047619047619,4,1,0,5,0,0
19457.75,-125,4,1,0,5,0,0
19468.5,-133.333333333333,4,1,0,5,0,0
19479.25,-142.857142857143,4,1,0,5,0,0
19490,-156.25,4,1,0,5,0,0
19500.75,-172.413793103448,4,1,0,5,0,0
19511.5,-196.078431372549,4,1,0,5,0,0
19522.25,-227.272727272727,4,1,0,5,0,0
19533,-277.777777777778,4,1,0,5,0,0
19543.75,-357.142857142857,4,1,0,5,0,0
19554.5,-526.315789473684,4,1,0,5,0,0
19565.25,-1000,4,1,0,5,0,0
19576,-10,4,1,0,5,0,0
20218,-1000,4,1,0,5,0,0
20647,-80,4,1,0,5,0,0
20861,-1000,4,1,0,5,0,0
21076,-80,4,1,0,5,0,0
21183,-1000,4,1,0,5,0,0
21290,-100,4,1,0,5,0,0
21504,-10,4,1,0,5,0,0
21933,-1000,4,1,0,5,0,0
22361,-10,4,1,0,5,0,0
22576,-1000,4,1,0,5,0,0
22790,-10,4,1,0,5,0,0
23004,-1000,4,1,0,5,0,0
23218,-100,4,1,0,5,0,0
23433,-200,4,1,0,5,0,0
23861,-100,4,1,0,5,0,0
24076,-80,4,1,0,5,0,0
24290,-1000,4,1,0,5,0,0
24504,-80,4,1,0,5,0,0
24611,-200,4,1,0,5,0,0
24718,-80,4,1,0,5,0,0
24826,-1000,4,1,0,5,0,0
24933,-100,4,1,0,5,0,0
25147,-50,4,1,0,5,0,0
25254,-1000,4,1,0,5,0,0
25576,-100,4,1,0,5,0,0
25790,-200,4,1,0,5,0,0
25811,-123.456790123457,4,1,0,5,0,0
25833,-89.2857142857143,4,1,0,5,0,0
25854,-70.9219858156028,4,1,0,5,0,0
25876,-59.5238095238095,4,1,0,5,0,0
25897,-52.3560209424084,4,1,0,5,0,0
25918,-47.1698113207547,4,1,0,5,0,0
25940,-43.859649122807,4,1,0,5,0,0
25961,-41.6666666666667,4,1,0,5,0,0
25983,-40.3225806451613,4,1,0,5,0,0
26004,-1000,4,1,0,5,0,0
26218,-200,4,1,0,5,0,0
26239,-123.456790123457,4,1,0,5,0,0
26261,-89.2857142857143,4,1,0,5,0,0
26282,-70.9219858156028,4,1,0,5,0,0
26304,-59.5238095238095,4,1,0,5,0,0
26325,-52.3560209424084,4,1,0,5,0,0
26346,-47.1698113207547,4,1,0,5,0,0
26368,-43.859649122807,4,1,0,5,0,0
26389,-41.6666666666667,4,1,0,5,0,0
26411,-40.3225806451613,4,1,0,5,0,0
26432,-1000,4,1,0,5,0,0
26646,-200,4,1,0,5,0,0
26667,-123.456790123457,4,1,0,5,0,0
26689,-89.2857142857143,4,1,0,5,0,0
26710,-70.9219858156028,4,1,0,5,0,0
26732,-59.5238095238095,4,1,0,5,0,0
26753,-52.3560209424084,4,1,0,5,0,0
26774,-47.1698113207547,4,1,0,5,0,0
26796,-43.859649122807,4,1,0,5,0,0
26817,-41.6666666666667,4,1,0,5,0,0
26839,-40.3225806451613,4,1,0,5,0,0
26860,-1000,4,1,0,5,0,0
27074,-200,4,1,0,5,0,0
27504,-100,4,1,0,5,0,0
27538.28,-100,4,1,0,5,0,0
27555.42,-100,4,1,0,5,0,0
27572.56,-100,4,1,0,5,0,0
27589.7,-100,4,1,0,5,0,0
27606.84,-101.010101010101,4,1,0,5,0,0
27623.98,-101.010101010101,4,1,0,5,0,0
27641.12,-101.010101010101,4,1,0,5,0,0
27658.26,-102.040816326531,4,1,0,5,0,0
27675.4,-102.040816326531,4,1,0,5,0,0
27692.54,-102.040816326531,4,1,0,5,0,0
27709.68,-103.092783505155,4,1,0,5,0,0
27726.82,-103.092783505155,4,1,0,5,0,0
27743.96,-104.166666666667,4,1,0,5,0,0
27761.1,-104.166666666667,4,1,0,5,0,0
27778.24,-105.263157894737,4,1,0,5,0,0
27795.38,-106.382978723404,4,1,0,5,0,0
27812.52,-106.382978723404,4,1,0,5,0,0
27829.66,-107.52688172043,4,1,0,5,0,0
27846.8,-108.695652173913,4,1,0,5,0,0
27863.94,-109.89010989011,4,1,0,5,0,0
27881.08,-111.111111111111,4,1,0,5,0,0
27898.22,-112.359550561798,4,1,0,5,0,0
27915.36,-113.636363636364,4,1,0,5,0,0
27932.5,-113.636363636364,4,1,0,5,0,0
27949.64,-116.279069767442,4,1,0,5,0,0
27966.78,-117.647058823529,4,1,0,5,0,0
27983.92,-119.047619047619,4,1,0,5,0,0
28001.06,-120.481927710843,4,1,0,5,0,0
28018.2,-121.951219512195,4,1,0,5,0,0
28035.34,-123.456790123457,4,1,0,5,0,0
28052.48,-125,4,1,0,5,0,0
28069.62,-128.205128205128,4,1,0,5,0,0
28086.76,-129.87012987013,4,1,0,5,0,0
28103.9,-131.578947368421,4,1,0,5,0,0
28121.04,-135.135135135135,4,1,0,5,0,0
28138.18,-136.986301369863,4,1,0,5,0,0
28155.32,-140.845070422535,4,1,0,5,0,0
28172.46,-142.857142857143,4,1,0,5,0,0
28189.6,-147.058823529412,4,1,0,5,0,0
28206.74,-151.515151515152,4,1,0,5,0,0
28223.88,-153.846153846154,4,1,0,5,0,0
28241.02,-158.730158730159,4,1,0,5,0,0
28258.16,-163.934426229508,4,1,0,5,0,0
28275.3,-166.666666666667,4,1,0,5,0,0
28292.44,-172.413793103448,4,1,0,5,0,0
28309.58,-178.571428571429,4,1,0,5,0,0
28326.72,-185.185185185185,4,1,0,5,0,0
28343.86,-192.307692307692,4,1,0,5,0,0
28361,-200,4,1,0,5,0,0
28361,-200,4,1,0,5,0,0
28373.86,-200,4,1,0,5,0,0
28386.72,-200,4,1,0,5,0,0
28399.58,-200,4,1,0,5,0,0
28412.44,-200,4,1,0,5,0,0
28425.3,-196.078431372549,4,1,0,5,0,0
28438.16,-196.078431372549,4,1,0,5,0,0
28451.02,-196.078431372549,4,1,0,5,0,0
28463.88,-192.307692307692,4,1,0,5,0,0
28476.74,-192.307692307692,4,1,0,5,0,0
28489.6,-188.679245283019,4,1,0,5,0,0
28502.46,-185.185185185185,4,1,0,5,0,0
28515.32,-185.185185185185,4,1,0,5,0,0
28528.18,-181.818181818182,4,1,0,5,0,0
28541.04,-178.571428571429,4,1,0,5,0,0
28553.9,-175.438596491228,4,1,0,5,0,0
28566.76,-172.413793103448,4,1,0,5,0,0
28579.62,-169.491525423729,4,1,0,5,0,0
28592.48,-166.666666666667,4,1,0,5,0,0
28605.34,-163.934426229508,4,1,0,5,0,0
28618.2,-161.290322580645,4,1,0,5,0,0
28631.06,-158.730158730159,4,1,0,5,0,0
28643.92,-153.846153846154,4,1,0,5,0,0
28656.78,-151.515151515152,4,1,0,5,0,0
28669.64,-149.253731343284,4,1,0,5,0,0
28682.5,-144.927536231884,4,1,0,5,0,0
28695.36,-142.857142857143,4,1,0,5,0,0
28708.22,-138.888888888889,4,1,0,5,0,0
28721.08,-135.135135135135,4,1,0,5,0,0
28733.94,-133.333333333333,4,1,0,5,0,0
28746.8,-129.87012987013,4,1,0,5,0,0
28759.66,-126.582278481013,4,1,0,5,0,0
28772.52,-123.456790123457,4,1,0,5,0,0
28785.38,-120.481927710843,4,1,0,5,0,0
28798.24,-117.647058823529,4,1,0,5,0,0
28811.1,-114.942528735632,4,1,0,5,0,0
28823.96,-112.359550561798,4,1,0,5,0,0
28836.82,-109.89010989011,4,1,0,5,0,0
28849.68,-107.52688172043,4,1,0,5,0,0
28862.54,-104.166666666667,4,1,0,5,0,0
28875.4,-102.040816326531,4,1,0,5,0,0
28888.26,-100,4,1,0,5,0,0
28901.12,-97.0873786407767,4,1,0,5,0,0
28913.98,-95.2380952380952,4,1,0,5,0,0
28926.84,-92.5925925925926,4,1,0,5,0,0
28939.7,-90.0900900900901,4,1,0,5,0,0
28952.56,-88.495575221239,4,1,0,5,0,0
28965.42,-86.2068965517241,4,1,0,5,0,0
28978.28,-84.0336134453782,4,1,0,5,0,0
28991.14,-81.9672131147541,4,1,0,5,0,0
29004,-80,4,1,0,5,0,0
29004,-80,4,1,0,5,0,0
29012.58,-80,4,1,0,5,0,0
29021.16,-80,4,1,0,5,0,0
29029.74,-80,4,1,0,5,0,0
29038.32,-80,4,1,0,5,0,0
29046.9,-80,4,1,0,5,0,0
29055.48,-80,4,1,0,5,0,0
29064.06,-80,4,1,0,5,0,0
29072.64,-80.6451612903226,4,1,0,5,0,0
29081.22,-80.6451612903226,4,1,0,5,0,0
29089.8,-80.6451612903226,4,1,0,5,0,0
29098.38,-80.6451612903226,4,1,0,5,0,0
29106.96,-80.6451612903226,4,1,0,5,0,0
29115.54,-81.3008130081301,4,1,0,5,0,0
29124.12,-81.3008130081301,4,1,0,5,0,0
29132.7,-81.3008130081301,4,1,0,5,0,0
29141.28,-81.9672131147541,4,1,0,5,0,0
29149.86,-81.9672131147541,4,1,0,5,0,0
29158.44,-81.9672131147541,4,1,0,5,0,0
29167.02,-82.6446280991736,4,1,0,5,0,0
29175.6,-82.6446280991736,4,1,0,5,0,0
29184.18,-82.6446280991736,4,1,0,5,0,0
29192.76,-83.3333333333333,4,1,0,5,0,0
29201.34,-83.3333333333333,4,1,0,5,0,0
29209.92,-84.0336134453782,4,1,0,5,0,0
29218.5,-84.0336134453782,4,1,0,5,0,0
29227.08,-84.7457627118644,4,1,0,5,0,0
29235.66,-84.7457627118644,4,1,0,5,0,0
29244.24,-85.4700854700855,4,1,0,5,0,0
29252.82,-85.4700854700855,4,1,0,5,0,0
29261.4,-86.2068965517241,4,1,0,5,0,0
29269.98,-86.9565217391304,4,1,0,5,0,0
29278.56,-86.9565217391304,4,1,0,5,0,0
29287.14,-87.719298245614,4,1,0,5,0,0
29295.72,-88.495575221239,4,1,0,5,0,0
29304.3,-88.495575221239,4,1,0,5,0,0
29312.88,-89.2857142857143,4,1,0,5,0,0
29321.46,-90.0900900900901,4,1,0,5,0,0
29330.04,-90.0900900900901,4,1,0,5,0,0
29338.62,-90.9090909090909,4,1,0,5,0,0
29347.2,-91.743119266055,4,1,0,5,0,0
29355.78,-92.5925925925926,4,1,0,5,0,0
29364.36,-93.4579439252336,4,1,0,5,0,0
29372.94,-93.4579439252336,4,1,0,5,0,0
29381.52,-94.3396226415094,4,1,0,5,0,0
29390.1,-95.2380952380952,4,1,0,5,0,0
29398.68,-96.1538461538461,4,1,0,5,0,0
29407.26,-97.0873786407767,4,1,0,5,0,0
29415.84,-98.0392156862745,4,1,0,5,0,0
29424.42,-99.009900990099,4,1,0,5,0,0
29433,-100,4,1,0,5,0,0
29433,-100,4,1,0,5,0,0
29437.28,-100,4,1,0,5,0,0
29441.56,-100,4,1,0,5,0,0
29445.84,-100,4,1,0,5,0,0
29450.12,-100,4,1,0,5,0,0
29454.4,-101.010101010101,4,1,0,5,0,0
29458.68,-101.010101010101,4,1,0,5,0,0
29462.96,-101.010101010101,4,1,0,5,0,0
29467.24,-102.040816326531,4,1,0,5,0,0
29471.52,-102.040816326531,4,1,0,5,0,0
29475.8,-103.092783505155,4,1,0,5,0,0
29480.08,-104.166666666667,4,1,0,5,0,0
29484.36,-104.166666666667,4,1,0,5,0,0
29488.64,-105.263157894737,4,1,0,5,0,0
29492.92,-106.382978723404,4,1,0,5,0,0
29497.2,-107.52688172043,4,1,0,5,0,0
29501.48,-108.695652173913,4,1,0,5,0,0
29505.76,-109.89010989011,4,1,0,5,0,0
29510.04,-111.111111111111,4,1,0,5,0,0
29514.32,-112.359550561798,4,1,0,5,0,0
29518.6,-113.636363636364,4,1,0,5,0,0
29522.88,-114.942528735632,4,1,0,5,0,0
29527.16,-117.647058823529,4,1,0,5,0,0
29531.44,-119.047619047619,4,1,0,5,0,0
29535.72,-120.481927710843,4,1,0,5,0,0
29540,-123.456790123457,4,1,0,5,0,0
29544.28,-125,4,1,0,5,0,0
29548.56,-128.205128205128,4,1,0,5,0,0
29552.84,-131.578947368421,4,1,0,5,0,0
29557.12,-133.333333333333,4,1,0,5,0,0
29561.4,-136.986301369863,4,1,0,5,0,0
29565.68,-140.845070422535,4,1,0,5,0,0
29569.96,-144.927536231884,4,1,0,5,0,0
29574.24,-149.253731343284,4,1,0,5,0,0
29578.52,-153.846153846154,4,1,0,5,0,0
29582.8,-158.730158730159,4,1,0,5,0,0
29587.08,-163.934426229508,4,1,0,5,0,0
29591.36,-169.491525423729,4,1,0,5,0,0
29595.64,-175.438596491228,4,1,0,5,0,0
29599.92,-185.185185185185,4,1,0,5,0,0
29604.2,-192.307692307692,4,1,0,5,0,0
29608.48,-200,4,1,0,5,0,0
29612.76,-212.765957446809,4,1,0,5,0,0
29617.04,-222.222222222222,4,1,0,5,0,0
29621.32,-238.095238095238,4,1,0,5,0,0
29625.6,-256.410256410256,4,1,0,5,0,0
29629.88,-270.27027027027,4,1,0,5,0,0
29634.16,-294.117647058824,4,1,0,5,0,0
29638.44,-322.58064516129,4,1,0,5,0,0
29642.72,-357.142857142857,4,1,0,5,0,0
29647,-400,4,1,0,5,0,0
29647,-400,4,1,0,5,0,0
29672.72,-400,4,1,0,5,0,0
29698.44,-400,4,1,0,5,0,0
29724.16,-400,4,1,0,5,0,0
29749.88,-400,4,1,0,5,0,0
29775.6,-384.615384615385,4,1,0,5,0,0
29801.32,-384.615384615385,4,1,0,5,0,0
29827.04,-384.615384615385,4,1,0,5,0,0
29852.76,-370.37037037037,4,1,0,5,0,0
29878.48,-370.37037037037,4,1,0,5,0,0
29904.2,-357.142857142857,4,1,0,5,0,0
29929.92,-344.827586206897,4,1,0,5,0,0
29955.64,-344.827586206897,4,1,0,5,0,0
29981.36,-333.333333333333,4,1,0,5,0,0
30007.08,-322.58064516129,4,1,0,5,0,0
30032.8,-312.5,4,1,0,5,0,0
30058.52,-303.030303030303,4,1,0,5,0,0
30084.24,-294.117647058824,4,1,0,5,0,0
30109.96,-285.714285714286,4,1,0,5,0,0
30135.68,-277.777777777778,4,1,0,5,0,0
30161.4,-270.27027027027,4,1,0,5,0,0
30187.12,-263.157894736842,4,1,0,5,0,0
30212.84,-250,4,1,0,5,0,0
30238.56,-243.90243902439,4,1,0,5,0,0
30264.28,-238.095238095238,4,1,0,5,0,0
30290,-227.272727272727,4,1,0,5,0,0
30315.72,-222.222222222222,4,1,0,5,0,0
30341.44,-212.765957446809,4,1,0,5,0,0
30367.16,-204.081632653061,4,1,0,5,0,0
30392.88,-200,4,1,0,5,0,0
30418.6,-192.307692307692,4,1,0,5,0,0
30444.32,-185.185185185185,4,1,0,5,0,0
30470.04,-178.571428571429,4,1,0,5,0,0
30495.76,-172.413793103448,4,1,0,5,0,0
30521.48,-166.666666666667,4,1,0,5,0,0
30547.2,-161.290322580645,4,1,0,5,0,0
30572.92,-156.25,4,1,0,5,0,0
30598.64,-151.515151515152,4,1,0,5,0,0
30624.36,-147.058823529412,4,1,0,5,0,0
30650.08,-140.845070422535,4,1,0,5,0,0
30675.8,-136.986301369863,4,1,0,5,0,0
30701.52,-133.333333333333,4,1,0,5,0,0
30718,-66.6666666666667,4,1,0,5,0,0
30722.3,-66.6666666666667,4,1,0,5,0,0
30726.6,-66.6666666666667,4,1,0,5,0,0
30730.9,-66.6666666666667,4,1,0,5,0,0
30735.2,-66.6666666666667,4,1,0,5,0,0
30739.5,-66.6666666666667,4,1,0,5,0,0
30743.8,-67.1140939597315,4,1,0,5,0,0
30748.1,-67.1140939597315,4,1,0,5,0,0
30752.4,-67.1140939597315,4,1,0,5,0,0
30756.7,-67.5675675675676,4,1,0,5,0,0
30761,-67.5675675675676,4,1,0,5,0,0
30765.3,-67.5675675675676,4,1,0,5,0,0
30769.6,-68.0272108843538,4,1,0,5,0,0
30773.9,-68.0272108843538,4,1,0,5,0,0
30778.2,-68.4931506849315,4,1,0,5,0,0
30782.5,-68.4931506849315,4,1,0,5,0,0
30786.8,-68.9655172413793,4,1,0,5,0,0
30791.1,-69.4444444444444,4,1,0,5,0,0
30795.4,-69.4444444444444,4,1,0,5,0,0
30799.7,-69.9300699300699,4,1,0,5,0,0
30804,-70.4225352112676,4,1,0,5,0,0
30808.3,-70.9219858156028,4,1,0,5,0,0
30812.6,-71.4285714285714,4,1,0,5,0,0
30816.9,-71.9424460431655,4,1,0,5,0,0
30821.2,-72.463768115942,4,1,0,5,0,0
30825.5,-72.463768115942,4,1,0,5,0,0
30829.8,-73.5294117647059,4,1,0,5,0,0
30834.1,-74.0740740740741,4,1,0,5,0,0
30838.4,-74.6268656716418,4,1,0,5,0,0
30842.7,-75.187969924812,4,1,0,5,0,0
30847,-75.7575757575758,4,1,0,5,0,0
30851.3,-76.3358778625954,4,1,0,5,0,0
30855.6,-76.9230769230769,4,1,0,5,0,0
30859.9,-78.125,4,1,0,5,0,0
30864.2,-78.740157480315,4,1,0,5,0,0
30868.5,-79.3650793650794,4,1,0,5,0,0
30872.8,-80.6451612903226,4,1,0,5,0,0
30877.1,-81.3008130081301,4,1,0,5,0,0
30881.4,-82.6446280991736,4,1,0,5,0,0
30885.7,-83.3333333333333,4,1,0,5,0,0
30890,-84.7457627118644,4,1,0,5,0,0
30894.3,-86.2068965517241,4,1,0,5,0,0
30898.6,-86.9565217391304,4,1,0,5,0,0
30902.9,-88.495575221239,4,1,0,5,0,0
30907.2,-90.0900900900901,4,1,0,5,0,0
30911.5,-90.9090909090909,4,1,0,5,0,0
30915.8,-92.5925925925926,4,1,0,5,0,0
30920.1,-94.3396226415094,4,1,0,5,0,0
30924.4,-96.1538461538461,4,1,0,5,0,0
30928.7,-98.0392156862745,4,1,0,5,0,0
30933,-100,4,1,0,5,0,0
30933,-100,4,1,0,5,0,0
30950.14,-100,4,1,0,5,0,0
30967.28,-100,4,1,0,5,0,0
30984.42,-100,4,1,0,5,0,0
31001.56,-100,4,1,0,5,0,0
31018.7,-100,4,1,0,5,0,0
31035.84,-100,4,1,0,5,0,0
31052.98,-100,4,1,0,5,0,0
31070.12,-99.009900990099,4,1,0,5,0,0
31087.26,-99.009900990099,4,1,0,5,0,0
31104.4,-99.009900990099,4,1,0,5,0,0
31121.54,-99.009900990099,4,1,0,5,0,0
31138.68,-99.009900990099,4,1,0,5,0,0
31155.82,-98.0392156862745,4,1,0,5,0,0
31172.96,-98.0392156862745,4,1,0,5,0,0
31190.1,-98.0392156862745,4,1,0,5,0,0
31207.24,-97.0873786407767,4,1,0,5,0,0
31224.38,-97.0873786407767,4,1,0,5,0,0
31241.52,-97.0873786407767,4,1,0,5,0,0
31258.66,-96.1538461538461,4,1,0,5,0,0
31275.8,-96.1538461538461,4,1,0,5,0,0
31292.94,-96.1538461538461,4,1,0,5,0,0
31310.08,-95.2380952380952,4,1,0,5,0,0
31327.22,-95.2380952380952,4,1,0,5,0,0
31344.36,-94.3396226415094,4,1,0,5,0,0
31361.5,-94.3396226415094,4,1,0,5,0,0
31378.64,-93.4579439252336,4,1,0,5,0,0
31395.78,-93.4579439252336,4,1,0,5,0,0
31412.92,-92.5925925925926,4,1,0,5,0,0
31430.06,-92.5925925925926,4,1,0,5,0,0
31447.2,-91.743119266055,4,1,0,5,0,0
31464.34,-90.9090909090909,4,1,0,5,0,0
31481.48,-90.9090909090909,4,1,0,5,0,0
31498.62,-90.0900900900901,4,1,0,5,0,0
31515.76,-89.2857142857143,4,1,0,5,0,0
31532.9,-89.2857142857143,4,1,0,5,0,0
31550.04,-88.495575221239,4,1,0,5,0,0
31567.18,-87.719298245614,4,1,0,5,0,0
31584.32,-87.719298245614,4,1,0,5,0,0
31601.46,-86.9565217391304,4,1,0,5,0,0
31618.6,-86.2068965517241,4,1,0,5,0,0
31635.74,-85.4700854700855,4,1,0,5,0,0
31652.88,-84.7457627118644,4,1,0,5,0,0
31670.02,-84.7457627118644,4,1,0,5,0,0
31687.16,-84.0336134453782,4,1,0,5,0,0
31704.3,-83.3333333333333,4,1,0,5,0,0
31721.44,-82.6446280991736,4,1,0,5,0,0
31738.58,-81.9672131147541,4,1,0,5,0,0
31755.72,-81.3008130081301,4,1,0,5,0,0
31772.86,-80.6451612903226,4,1,0,5,0,0
31790,-80,4,1,0,5,0,0
31790,-80,4,1,0,5,0,0
31811.42,-80,4,1,0,5,0,0
31832.84,-80,4,1,0,5,0,0
31854.26,-80,4,1,0,5,0,0
31875.68,-80,4,1,0,5,0,0
31897.1,-80.6451612903226,4,1,0,5,0,0
31918.52,-80.6451612903226,4,1,0,5,0,0
31939.94,-80.6451612903226,4,1,0,5,0,0
31961.36,-81.3008130081301,4,1,0,5,0,0
31982.78,-81.3008130081301,4,1,0,5,0,0
32004.2,-81.9672131147541,4,1,0,5,0,0
32025.62,-82.6446280991736,4,1,0,5,0,0
32047.04,-82.6446280991736,4,1,0,5,0,0
32068.46,-83.3333333333333,4,1,0,5,0,0
32089.88,-84.0336134453782,4,1,0,5,0,0
32111.3,-84.7457627118644,4,1,0,5,0,0
32132.72,-85.4700854700855,4,1,0,5,0,0
32154.14,-86.2068965517241,4,1,0,5,0,0
32175.56,-86.9565217391304,4,1,0,5,0,0
32196.98,-87.719298245614,4,1,0,5,0,0
32218.4,-88.495575221239,4,1,0,5,0,0
32239.82,-89.2857142857143,4,1,0,5,0,0
32261.24,-90.9090909090909,4,1,0,5,0,0
32282.66,-91.743119266055,4,1,0,5,0,0
32304.08,-92.5925925925926,4,1,0,5,0,0
32325.5,-94.3396226415094,4,1,0,5,0,0
32346.92,-95.2380952380952,4,1,0,5,0,0
32368.34,-97.0873786407767,4,1,0,5,0,0
32389.76,-99.009900990099,4,1,0,5,0,0
32411.18,-100,4,1,0,5,0,0
32432.6,-102.040816326531,4,1,0,5,0,0
32454.02,-104.166666666667,4,1,0,5,0,0
32475.44,-106.382978723404,4,1,0,5,0,0
32496.86,-108.695652173913,4,1,0,5,0,0
32518.28,-111.111111111111,4,1,0,5,0,0
32539.7,-113.636363636364,4,1,0,5,0,0
32561.12,-116.279069767442,4,1,0,5,0,0
32582.54,-119.047619047619,4,1,0,5,0,0
32603.96,-121.951219512195,4,1,0,5,0,0
32625.38,-126.582278481013,4,1,0,5,0,0
32646.8,-129.87012987013,4,1,0,5,0,0
32668.22,-133.333333333333,4,1,0,5,0,0
32689.64,-138.888888888889,4,1,0,5,0,0
32711.06,-142.857142857143,4,1,0,5,0,0
32732.48,-149.253731343284,4,1,0,5,0,0
32753.9,-156.25,4,1,0,5,0,0
32775.32,-161.290322580645,4,1,0,5,0,0
32796.74,-169.491525423729,4,1,0,5,0,0
32818.16,-178.571428571429,4,1,0,5,0,0
32839.58,-188.679245283019,4,1,0,5,0,0
32861,-200,4,1,0,5,0,0
32861,-200,4,1,0,5,0,0
32861,-200,4,1,0,5,0,0
32869.58,-200,4,1,0,5,0,0
32869.58,-200,4,1,0,5,0,0
32878.16,-200,4,1,0,5,0,0
32878.16,-200,4,1,0,5,0,0
32886.74,-200,4,1,0,5,0,0
32886.74,-200,4,1,0,5,0,0
32895.32,-200,4,1,0,5,0,0
32895.32,-200,4,1,0,5,0,0
32903.9,-196.078431372549,4,1,0,5,0,0
32903.9,-196.078431372549,4,1,0,5,0,0
32912.48,-196.078431372549,4,1,0,5,0,0
32912.48,-196.078431372549,4,1,0,5,0,0
32921.06,-196.078431372549,4,1,0,5,0,0
32921.06,-196.078431372549,4,1,0,5,0,0
32929.64,-196.078431372549,4,1,0,5,0,0
32929.64,-196.078431372549,4,1,0,5,0,0
32938.22,-192.307692307692,4,1,0,5,0,0
32938.22,-192.307692307692,4,1,0,5,0,0
32946.8,-192.307692307692,4,1,0,5,0,0
32946.8,-192.307692307692,4,1,0,5,0,0
32955.38,-192.307692307692,4,1,0,5,0,0
32955.38,-192.307692307692,4,1,0,5,0,0
32963.96,-188.679245283019,4,1,0,5,0,0
32963.96,-188.679245283019,4,1,0,5,0,0
32972.54,-188.679245283019,4,1,0,5,0,0
32972.54,-188.679245283019,4,1,0,5,0,0
32981.12,-185.185185185185,4,1,0,5,0,0
32981.12,-185.185185185185,4,1,0,5,0,0
32989.7,-181.818181818182,4,1,0,5,0,0
32989.7,-181.818181818182,4,1,0,5,0,0
32998.28,-181.818181818182,4,1,0,5,0,0
32998.28,-181.818181818182,4,1,0,5,0,0
33006.86,-178.571428571429,4,1,0,5,0,0
33006.86,-178.571428571429,4,1,0,5,0,0
33015.44,-178.571428571429,4,1,0,5,0,0
33015.44,-178.571428571429,4,1,0,5,0,0
33024.02,-175.438596491228,4,1,0,5,0,0
33024.02,-175.438596491228,4,1,0,5,0,0
33032.6,-172.413793103448,4,1,0,5,0,0
33032.6,-172.413793103448,4,1,0,5,0,0
33041.18,-169.491525423729,4,1,0,5,0,0
33041.18,-169.491525423729,4,1,0,5,0,0
33049.76,-166.666666666667,4,1,0,5,0,0
33049.76,-166.666666666667,4,1,0,5,0,0
33058.34,-163.934426229508,4,1,0,5,0,0
33058.34,-163.934426229508,4,1,0,5,0,0
33066.92,-161.290322580645,4,1,0,5,0,0
33066.92,-161.290322580645,4,1,0,5,0,0
33075.5,-158.730158730159,4,1,0,5,0,0
33075.5,-158.730158730159,4,1,0,5,0,0
33084.08,-156.25,4,1,0,5,0,0
33084.08,-156.25,4,1,0,5,0,0
33092.66,-153.846153846154,4,1,0,5,0,0
33092.66,-153.846153846154,4,1,0,5,0,0
33101.24,-151.515151515152,4,1,0,5,0,0
33101.24,-151.515151515152,4,1,0,5,0,0
33109.82,-149.253731343284,4,1,0,5,0,0
33109.82,-149.253731343284,4,1,0,5,0,0
33118.4,-147.058823529412,4,1,0,5,0,0
33118.4,-147.058823529412,4,1,0,5,0,0
33126.98,-144.927536231884,4,1,0,5,0,0
33126.98,-144.927536231884,4,1,0,5,0,0
33135.56,-142.857142857143,4,1,0,5,0,0
33135.56,-142.857142857143,4,1,0,5,0,0
33144.14,-138.888888888889,4,1,0,5,0,0
33144.14,-138.888888888889,4,1,0,5,0,0
33152.72,-136.986301369863,4,1,0,5,0,0
33152.72,-136.986301369863,4,1,0,5,0,0
33161.3,-133.333333333333,4,1,0,5,0,0
33161.3,-133.333333333333,4,1,0,5,0,0
33169.88,-131.578947368421,4,1,0,5,0,0
33169.88,-131.578947368421,4,1,0,5,0,0
33178.46,-129.87012987013,4,1,0,5,0,0
33178.46,-129.87012987013,4,1,0,5,0,0
33187.04,-126.582278481013,4,1,0,5,0,0
33187.04,-126.582278481013,4,1,0,5,0,0
33195.62,-125,4,1,0,5,0,0
33195.62,-125,4,1,0,5,0,0
33204.2,-121.951219512195,4,1,0,5,0,0
33204.2,-121.951219512195,4,1,0,5,0,0
33212.78,-119.047619047619,4,1,0,5,0,0
33212.78,-119.047619047619,4,1,0,5,0,0
33221.36,-117.647058823529,4,1,0,5,0,0
33221.36,-117.647058823529,4,1,0,5,0,0
33229.94,-114.942528735632,4,1,0,5,0,0
33229.94,-114.942528735632,4,1,0,5,0,0
33238.52,-112.359550561798,4,1,0,5,0,0
33238.52,-112.359550561798,4,1,0,5,0,0
33247.1,-109.89010989011,4,1,0,5,0,0
33247.1,-109.89010989011,4,1,0,5,0,0
33255.68,-108.695652173913,4,1,0,5,0,0
33255.68,-108.695652173913,4,1,0,5,0,0
33264.26,-106.382978723404,4,1,0,5,0,0
33264.26,-106.382978723404,4,1,0,5,0,0
33272.84,-104.166666666667,4,1,0,5,0,0
33272.84,-104.166666666667,4,1,0,5,0,0
33281.42,-102.040816326531,4,1,0,5,0,0
33281.42,-102.040816326531,4,1,0,5,0,0
33290,-100,4,1,0,5,0,0
33290,-100,4,1,0,5,0,0
33290,-100,4,1,0,5,0,0
33311.42,-100,4,1,0,5,0,0
33332.84,-100,4,1,0,5,0,0
33354.26,-100,4,1,0,5,0,0
33375.68,-100,4,1,0,5,0,0
33397.1,-100,4,1,0,5,0,0
33418.52,-100,4,1,0,5,0,0
33439.94,-100,4,1,0,5,0,0
33461.36,-99.009900990099,4,1,0,5,0,0
33482.78,-99.009900990099,4,1,0,5,0,0
33504.2,-99.009900990099,4,1,0,5,0,0
33525.62,-99.009900990099,4,1,0,5,0,0
33547.04,-99.009900990099,4,1,0,5,0,0
33568.46,-98.0392156862745,4,1,0,5,0,0
33589.88,-98.0392156862745,4,1,0,5,0,0
33611.3,-98.0392156862745,4,1,0,5,0,0
33632.72,-97.0873786407767,4,1,0,5,0,0
33654.14,-97.0873786407767,4,1,0,5,0,0
33675.56,-97.0873786407767,4,1,0,5,0,0
33696.98,-96.1538461538461,4,1,0,5,0,0
33718.4,-96.1538461538461,4,1,0,5,0,0
33739.82,-96.1538461538461,4,1,0,5,0,0
33761.24,-95.2380952380952,4,1,0,5,0,0
33782.66,-95.2380952380952,4,1,0,5,0,0
33804.08,-94.3396226415094,4,1,0,5,0,0
33825.5,-94.3396226415094,4,1,0,5,0,0
33846.92,-93.4579439252336,4,1,0,5,0,0
33868.34,-93.4579439252336,4,1,0,5,0,0
33889.76,-92.5925925925926,4,1,0,5,0,0
33911.18,-92.5925925925926,4,1,0,5,0,0
33932.6,-91.743119266055,4,1,0,5,0,0
33954.02,-90.9090909090909,4,1,0,5,0,0
33975.44,-90.9090909090909,4,1,0,5,0,0
33996.86,-90.0900900900901,4,1,0,5,0,0
34018.28,-89.2857142857143,4,1,0,5,0,0
34039.7,-89.2857142857143,4,1,0,5,0,0
34061.12,-88.495575221239,4,1,0,5,0,0
34082.54,-87.719298245614,4,1,0,5,0,0
34103.96,-87.719298245614,4,1,0,5,0,0
34125.38,-86.9565217391304,4,1,0,5,0,0
34146.8,-86.2068965517241,4,1,0,5,0,0
34168.22,-85.4700854700855,4,1,0,5,0,0
34189.64,-84.7457627118644,4,1,0,5,0,0
34211.06,-84.7457627118644,4,1,0,5,0,0
34232.48,-84.0336134453782,4,1,0,5,0,0
34253.9,-83.3333333333333,4,1,0,5,0,0
34275.32,-82.6446280991736,4,1,0,5,0,0
34296.74,-81.9672131147541,4,1,0,5,0,0
34318.16,-81.3008130081301,4,1,0,5,0,0
34339.58,-80.6451612903226,4,1,0,5,0,0
34361,-125,4,1,0,5,0,0
34361,-100,4,1,0,5,0,0
34382,-117.647058823529,4,1,0,5,0,0
34404,-112.359550561798,4,1,0,5,0,0
34425,-106.382978723404,4,1,0,5,0,0
34447,-102.040816326531,4,1,0,5,0,0
34468,-99.009900990099,4,1,0,5,0,0
34490,-96.1538461538461,4,1,0,5,0,0
34511,-93.4579439252336,4,1,0,5,0,0
34533,-91.743119266055,4,1,0,5,0,0
34554,-90.9090909090909,4,1,0,5,0,0
34618,-91.743119266055,4,1,0,5,0,0
34640,-93.4579439252336,4,1,0,5,0,0
34661,-96.1538461538461,4,1,0,5,0,0
34683,-99.009900990099,4,1,0,5,0,0
34704,-102.040816326531,4,1,0,5,0,0
34726,-106.382978723404,4,1,0,5,0,0
34747,-112.359550561798,4,1,0,5,0,0
34769,-117.647058823529,4,1,0,5,0,0
34790,-125,4,1,0,5,0,0
34811,-117.647058823529,4,1,0,5,0,0
34833,-112.359550561798,4,1,0,5,0,0
34854,-106.382978723404,4,1,0,5,0,0
34876,-102.040816326531,4,1,0,5,0,0
34897,-99.009900990099,4,1,0,5,0,0
34919,-96.1538461538461,4,1,0,5,0,0
34940,-93.4579439252336,4,1,0,5,0,0
34962,-91.743119266055,4,1,0,5,0,0
34983,-90.9090909090909,4,1,0,5,0,0
35047,-91.743119266055,4,1,0,5,0,0
35069,-93.4579439252336,4,1,0,5,0,0
35090,-96.1538461538461,4,1,0,5,0,0
35112,-99.009900990099,4,1,0,5,0,0
35133,-102.040816326531,4,1,0,5,0,0
35155,-106.382978723404,4,1,0,5,0,0
35176,-112.359550561798,4,1,0,5,0,0
35198,-117.647058823529,4,1,0,5,0,0
35219,-125,4,1,0,5,0,0
35240,-117.647058823529,4,1,0,5,0,0
35262,-112.359550561798,4,1,0,5,0,0
35283,-106.382978723404,4,1,0,5,0,0
35305,-102.040816326531,4,1,0,5,0,0
35326,-99.009900990099,4,1,0,5,0,0
35348,-96.1538461538461,4,1,0,5,0,0
35369,-93.4579439252336,4,1,0,5,0,0
35391,-91.743119266055,4,1,0,5,0,0
35412,-90.9090909090909,4,1,0,5,0,0
35476,-91.743119266055,4,1,0,5,0,0
35498,-93.4579439252336,4,1,0,5,0,0
35519,-96.1538461538461,4,1,0,5,0,0
35541,-99.009900990099,4,1,0,5,0,0
35562,-102.040816326531,4,1,0,5,0,0
35584,-106.382978723404,4,1,0,5,0,0
35605,-112.359550561798,4,1,0,5,0,0
35627,-117.647058823529,4,1,0,5,0,0
35648,-125,4,1,0,5,0,0
35669,-117.647058823529,4,1,0,5,0,0
35691,-112.359550561798,4,1,0,5,0,0
35712,-106.382978723404,4,1,0,5,0,0
35734,-102.040816326531,4,1,0,5,0,0
35755,-99.009900990099,4,1,0,5,0,0
35777,-96.1538461538461,4,1,0,5,0,0
35798,-93.4579439252336,4,1,0,5,0,0
35820,-91.743119266055,4,1,0,5,0,0
35841,-90.9090909090909,4,1,0,5,0,0
35905,-91.743119266055,4,1,0,5,0,0
35927,-93.4579439252336,4,1,0,5,0,0
35948,-96.1538461538461,4,1,0,5,0,0
35970,-99.009900990099,4,1,0,5,0,0
35991,-102.040816326531,4,1,0,5,0,0
36013,-106.382978723404,4,1,0,5,0,0
36034,-112.359550561798,4,1,0,5,0,0
36056,-117.647058823529,4,1,0,5,0,0
36077,-125,4,1,0,5,0,0
36098,-117.647058823529,4,1,0,5,0,0
36120,-112.359550561798,4,1,0,5,0,0
36141,-106.382978723404,4,1,0,5,0,0
36163,-102.040816326531,4,1,0,5,0,0
36184,-99.009900990099,4,1,0,5,0,0
36206,-96.1538461538461,4,1,0,5,0,0
36227,-93.4579439252336,4,1,0,5,0,0
36249,-91.743119266055,4,1,0,5,0,0
36270,-90.9090909090909,4,1,0,5,0,0
36334,-91.743119266055,4,1,0,5,0,0
36356,-93.4579439252336,4,1,0,5,0,0
36377,-96.1538461538461,4,1,0,5,0,0
36399,-99.009900990099,4,1,0,5,0,0
36420,-102.040816326531,4,1,0,5,0,0
36442,-106.382978723404,4,1,0,5,0,0
36463,-112.359550561798,4,1,0,5,0,0
36485,-117.647058823529,4,1,0,5,0,0
36506,-125,4,1,0,5,0,0
36527,-117.647058823529,4,1,0,5,0,0
36549,-112.359550561798,4,1,0,5,0,0
36570,-106.382978723404,4,1,0,5,0,0
36592,-102.040816326531,4,1,0,5,0,0
36613,-99.009900990099,4,1,0,5,0,0
36635,-96.1538461538461,4,1,0,5,0,0
36656,-93.4579439252336,4,1,0,5,0,0
36678,-91.743119266055,4,1,0,5,0,0
36699,-90.9090909090909,4,1,0,5,0,0
36763,-91.743119266055,4,1,0,5,0,0
36785,-93.4579439252336,4,1,0,5,0,0
36806,-96.1538461538461,4,1,0,5,0,0
36828,-99.009900990099,4,1,0,5,0,0
36849,-102.040816326531,4,1,0,5,0,0
36871,-106.382978723404,4,1,0,5,0,0
36892,-112.359550561798,4,1,0,5,0,0
36914,-117.647058823529,4,1,0,5,0,0
36933,-10,4,1,0,5,0,0
37361,-1000,4,1,0,5,0,0
37576,-100,4,1,0,5,0,0
37790,-125,4,1,0,5,0,0
37811,-117.647058823529,4,1,0,5,0,0
37833,-112.359550561798,4,1,0,5,0,0
37854,-106.382978723404,4,1,0,5,0,0
37876,-102.040816326531,4,1,0,5,0,0
37897,-99.009900990099,4,1,0,5,0,0
37918,-96.1538461538461,4,1,0,5,0,0
37940,-93.4579439252336,4,1,0,5,0,0
37961,-91.743119266055,4,1,0,5,0,0
37983,-90.9090909090909,4,1,0,5,0,0
38047,-91.743119266055,4,1,0,5,0,0
38068,-93.4579439252336,4,1,0,5,0,0
38090,-96.1538461538461,4,1,0,5,0,0
38111,-99.009900990099,4,1,0,5,0,0
38132,-102.040816326531,4,1,0,5,0,0
38154,-106.382978723404,4,1,0,5,0,0
38175,-112.359550561798,4,1,0,5,0,0
38197,-117.647058823529,4,1,0,5,0,0
38218,-125,4,1,0,5,0,0
38239,-117.647058823529,4,1,0,5,0,0
38261,-112.359550561798,4,1,0,5,0,0
38282,-106.382978723404,4,1,0,5,0,0
38304,-102.040816326531,4,1,0,5,0,0
38325,-99.009900990099,4,1,0,5,0,0
38346,-96.1538461538461,4,1,0,5,0,0
38368,-93.4579439252336,4,1,0,5,0,0
38389,-91.743119266055,4,1,0,5,0,0
38411,-90.9090909090909,4,1,0,5,0,0
38475,-91.743119266055,4,1,0,5,0,0
38496,-93.4579439252336,4,1,0,5,0,0
38518,-96.1538461538461,4,1,0,5,0,0
38539,-99.009900990099,4,1,0,5,0,0
38560,-102.040816326531,4,1,0,5,0,0
38582,-106.382978723404,4,1,0,5,0,0
38603,-112.359550561798,4,1,0,5,0,0
38625,-117.647058823529,4,1,0,5,0,0
38646,-125,4,1,0,5,0,0
38667,-117.647058823529,4,1,0,5,0,0
38689,-112.359550561798,4,1,0,5,0,0
38710,-106.382978723404,4,1,0,5,0,0
38732,-102.040816326531,4,1,0,5,0,0
38753,-99.009900990099,4,1,0,5,0,0
38774,-96.1538461538461,4,1,0,5,0,0
38796,-93.4579439252336,4,1,0,5,0,0
38817,-91.743119266055,4,1,0,5,0,0
38839,-90.9090909090909,4,1,0,5,0,0
38903,-91.743119266055,4,1,0,5,0,0
38924,-93.4579439252336,4,1,0,5,0,0
38946,-96.1538461538461,4,1,0,5,0,0
38967,-99.009900990099,4,1,0,5,0,0
38988,-102.040816326531,4,1,0,5,0,0
39010,-106.382978723404,4,1,0,5,0,0
39031,-112.359550561798,4,1,0,5,0,0
39053,-117.647058823529,4,1,0,5,0,0
39074,-125,4,1,0,5,0,0
39095,-117.647058823529,4,1,0,5,0,0
39117,-112.359550561798,4,1,0,5,0,0
39138,-106.382978723404,4,1,0,5,0,0
39160,-102.040816326531,4,1,0,5,0,0
39181,-99.009900990099,4,1,0,5,0,0
39202,-96.1538461538461,4,1,0,5,0,0
39224,-93.4579439252336,4,1,0,5,0,0
39245,-91.743119266055,4,1,0,5,0,0
39267,-90.9090909090909,4,1,0,5,0,0
39331,-91.743119266055,4,1,0,5,0,0
39352,-93.4579439252336,4,1,0,5,0,0
39374,-96.1538461538461,4,1,0,5,0,0
39395,-99.009900990099,4,1,0,5,0,0
39416,-102.040816326531,4,1,0,5,0,0
39438,-106.382978723404,4,1,0,5,0,0
39459,-112.359550561798,4,1,0,5,0,0
39481,-117.647058823529,4,1,0,5,0,0
39502,-125,4,1,0,5,0,0
39523,-117.647058823529,4,1,0,5,0,0
39545,-112.359550561798,4,1,0,5,0,0
39566,-106.382978723404,4,1,0,5,0,0
39588,-102.040816326531,4,1,0,5,0,0
39609,-99.009900990099,4,1,0,5,0,0
39630,-96.1538461538461,4,1,0,5,0,0
39652,-93.4579439252336,4,1,0,5,0,0
39673,-91.743119266055,4,1,0,5,0,0
39695,-90.9090909090909,4,1,0,5,0,0
39759,-91.743119266055,4,1,0,5,0,0
39780,-93.4579439252336,4,1,0,5,0,0
39802,-96.1538461538461,4,1,0,5,0,0
39823,-99.009900990099,4,1,0,5,0,0
39844,-102.040816326531,4,1,0,5,0,0
39866,-106.382978723404,4,1,0,5,0,0
39887,-112.359550561798,4,1,0,5,0,0
39909,-117.647058823529,4,1,0,5,0,0
39930,-125,4,1,0,5,0,0
39951,-117.647058823529,4,1,0,5,0,0
39973,-112.359550561798,4,1,0,5,0,0
39994,-106.382978723404,4,1,0,5,0,0
40016,-102.040816326531,4,1,0,5,0,0
40037,-99.009900990099,4,1,0,5,0,0
40058,-96.1538461538461,4,1,0,5,0,0
40080,-93.4579439252336,4,1,0,5,0,0
40101,-91.743119266055,4,1,0,5,0,0
40123,-90.9090909090909,4,1,0,5,0,0
40187,-91.743119266055,4,1,0,5,0,0
40208,-93.4579439252336,4,1,0,5,0,0
40230,-96.1538461538461,4,1,0,5,0,0
40251,-99.009900990099,4,1,0,5,0,0
40272,-102.040816326531,4,1,0,5,0,0
40294,-106.382978723404,4,1,0,5,0,0
40315,-112.359550561798,4,1,0,5,0,0
40337,-117.647058823529,4,1,0,5,0,0
40358,-125,4,1,0,5,0,0
40379,-117.647058823529,4,1,0,5,0,0
40401,-112.359550561798,4,1,0,5,0,0
40422,-106.382978723404,4,1,0,5,0,0
40444,-102.040816326531,4,1,0,5,0,0
40465,-99.009900990099,4,1,0,5,0,0
40486,-96.1538461538461,4,1,0,5,0,0
40508,-93.4579439252336,4,1,0,5,0,0
40529,-91.743119266055,4,1,0,5,0,0
40551,-90.9090909090909,4,1,0,5,0,0
40615,-91.743119266055,4,1,0,5,0,0
40636,-93.4579439252336,4,1,0,5,0,0
40658,-96.1538461538461,4,1,0,5,0,0
40679,-99.009900990099,4,1,0,5,0,0
40700,-102.040816326531,4,1,0,5,0,0
40722,-106.382978723404,4,1,0,5,0,0
40743,-112.359550561798,4,1,0,5,0,0
40765,-117.647058823529,4,1,0,5,0,0
42504,-100,4,1,0,5,0,0
42518.3,-100,4,1,0,5,0,0
42532.6,-100,4,1,0,5,0,0
42546.9,-99.009900990099,4,1,0,5,0,0
42561.2,-98.0392156862745,4,1,0,5,0,0
42575.5,-97.0873786407767,4,1,0,5,0,0
42589.8,-96.1538461538461,4,1,0,5,0,0
42604.1,-95.2380952380952,4,1,0,5,0,0
42618.4,-93.4579439252336,4,1,0,5,0,0
42632.7,-91.743119266055,4,1,0,5,0,0
42647,-90.0900900900901,4,1,0,5,0,0
42661.3,-88.495575221239,4,1,0,5,0,0
42675.6,-86.2068965517241,4,1,0,5,0,0
42689.9,-84.0336134453782,4,1,0,5,0,0
42704.2,-81.9672131147541,4,1,0,5,0,0
42718.5,-80,4,1,0,5,0,0
42732.8,-78.125,4,1,0,5,0,0
42747.1,-75.7575757575758,4,1,0,5,0,0
42761.4,-73.5294117647059,4,1,0,5,0,0
42775.7,-71.4285714285714,4,1,0,5,0,0
42790,-69.4444444444444,4,1,0,5,0,0
42804.3,-67.1140939597315,4,1,0,5,0,0
42818.6,-64.9350649350649,4,1,0,5,0,0
42832.9,-62.8930817610063,4,1,0,5,0,0
42847.2,-60.9756097560976,4,1,0,5,0,0
42861.5,-59.1715976331361,4,1,0,5,0,0
42875.8,-57.1428571428571,4,1,0,5,0,0
42890.1,-55.2486187845304,4,1,0,5,0,0
42904.4,-53.475935828877,4,1,0,5,0,0
42918.7,-51.8134715025907,4,1,0,5,0,0
42933,-50,4,1,0,5,0,0
43040,-100,4,1,0,5,0,0
44218,-100,4,1,0,5,0,0
44232.3,-100,4,1,0,5,0,0
44246.6,-100,4,1,0,5,0,0
44260.9,-99.009900990099,4,1,0,5,0,0
44275.2,-98.0392156862745,4,1,0,5,0,0
44289.5,-97.0873786407767,4,1,0,5,0,0
44303.8,-96.1538461538461,4,1,0,5,0,0
44318.1,-95.2380952380952,4,1,0,5,0,0
44332.4,-93.4579439252336,4,1,0,5,0,0
44346.7,-91.743119266055,4,1,0,5,0,0
44361,-90.0900900900901,4,1,0,5,0,0
44375.3,-88.495575221239,4,1,0,5,0,0
44389.6,-86.2068965517241,4,1,0,5,0,0
44403.9,-84.0336134453782,4,1,0,5,0,0
44418.2,-81.9672131147541,4,1,0,5,0,0
44432.5,-80,4,1,0,5,0,0
44446.8,-78.125,4,1,0,5,0,0
44461.1,-75.7575757575758,4,1,0,5,0,0
44475.4,-73.5294117647059,4,1,0,5,0,0
44489.7,-71.4285714285714,4,1,0,5,0,0
44504,-69.4444444444444,4,1,0,5,0,0
44518.3,-67.1140939597315,4,1,0,5,0,0
44532.6,-64.9350649350649,4,1,0,5,0,0
44546.9,-62.8930817610063,4,1,0,5,0,0
44561.2,-60.9756097560976,4,1,0,5,0,0
44575.5,-59.1715976331361,4,1,0,5,0,0
44589.8,-57.1428571428571,4,1,0,5,0,0
44604.1,-55.2486187845304,4,1,0,5,0,0
44618.4,-53.475935828877,4,1,0,5,0,0
44632.7,-51.8134715025907,4,1,0,5,0,0
44647,-50,4,1,0,5,0,0
44754,-100,4,1,0,5,0,0
45933,-100,4,1,0,5,0,0
45947.2666666667,-100,4,1,0,5,0,0
45961.5333333333,-100,4,1,0,5,0,0
45975.8,-99.009900990099,4,1,0,5,0,0
45990.0666666667,-98.0392156862745,4,1,0,5,0,0
46004.3333333333,-97.0873786407767,4,1,0,5,0,0
46018.6,-96.1538461538461,4,1,0,5,0,0
46032.8666666667,-95.2380952380952,4,1,0,5,0,0
46047.1333333333,-93.4579439252336,4,1,0,5,0,0
46061.4,-91.743119266055,4,1,0,5,0,0
46075.6666666667,-90.0900900900901,4,1,0,5,0,0
46089.9333333333,-88.495575221239,4,1,0,5,0,0
46104.2,-86.2068965517241,4,1,0,5,0,0
46118.4666666667,-84.0336134453782,4,1,0,5,0,0
46132.7333333333,-81.9672131147541,4,1,0,5,0,0
46147,-80,4,1,0,5,0,0
46161.2666666667,-78.125,4,1,0,5,0,0
46175.5333333333,-75.7575757575758,4,1,0,5,0,0
46189.8,-73.5294117647059,4,1,0,5,0,0
46204.0666666667,-71.4285714285714,4,1,0,5,0,0
46218.3333333333,-69.4444444444444,4,1,0,5,0,0
46232.6,-67.1140939597315,4,1,0,5,0,0
46246.8666666667,-64.9350649350649,4,1,0,5,0,0
46261.1333333333,-62.8930817610063,4,1,0,5,0,0
46275.4,-60.9756097560976,4,1,0,5,0,0
46289.6666666667,-59.1715976331361,4,1,0,5,0,0
46303.9333333333,-57.1428571428571,4,1,0,5,0,0
46318.2,-55.2486187845304,4,1,0,5,0,0
46332.4666666667,-53.475935828877,4,1,0,5,0,0
46346.7333333333,-51.8134715025907,4,1,0,5,0,0
46361,-50,4,1,0,5,0,0
46468,-100,4,1,0,5,0,0
47647,-100,4,1,0,5,0,0
47661.3,-100,4,1,0,5,0,0
47675.6,-100,4,1,0,5,0,0
47689.9,-99.009900990099,4,1,0,5,0,0
47704.2,-98.0392156862745,4,1,0,5,0,0
47718.5,-97.0873786407767,4,1,0,5,0,0
47732.8,-96.1538461538461,4,1,0,5,0,0
47747.1,-95.2380952380952,4,1,0,5,0,0
47761.4,-93.4579439252336,4,1,0,5,0,0
47775.7,-91.743119266055,4,1,0,5,0,0
47790,-90.0900900900901,4,1,0,5,0,0
47804.3,-88.495575221239,4,1,0,5,0,0
47818.6,-86.2068965517241,4,1,0,5,0,0
47832.9,-84.0336134453782,4,1,0,5,0,0
47847.2,-81.9672131147541,4,1,0,5,0,0
47861.5,-80,4,1,0,5,0,0
47875.8,-78.125,4,1,0,5,0,0
47890.1,-75.7575757575758,4,1,0,5,0,0
47904.4,-73.5294117647059,4,1,0,5,0,0
47918.7,-71.4285714285714,4,1,0,5,0,0
47933,-69.4444444444444,4,1,0,5,0,0
47947.3,-67.1140939597315,4,1,0,5,0,0
47961.6,-64.9350649350649,4,1,0,5,0,0
47975.9,-62.8930817610063,4,1,0,5,0,0
47990.2,-60.9756097560976,4,1,0,5,0,0
48004.5,-59.1715976331361,4,1,0,5,0,0
48018.8,-57.1428571428571,4,1,0,5,0,0
48033.1,-55.2486187845304,4,1,0,5,0,0
48047.4,-53.475935828877,4,1,0,5,0,0
48061.7,-51.8134715025907,4,1,0,5,0,0
48076,-50,4,1,0,5,0,0
48183,-100,4,1,0,5,0,0
49361,-100,4,1,0,5,0,0
49375.3,-100,4,1,0,5,0,0
49389.6,-100,4,1,0,5,0,0
49403.9,-99.009900990099,4,1,0,5,0,0
49418.2,-98.0392156862745,4,1,0,5,0,0
49432.5,-97.0873786407767,4,1,0,5,0,0
49446.8,-96.1538461538461,4,1,0,5,0,0
49461.1,-95.2380952380952,4,1,0,5,0,0
49475.4,-93.4579439252336,4,1,0,5,0,0
49489.7,-91.743119266055,4,1,0,5,0,0
49504,-90.0900900900901,4,1,0,5,0,0
49518.3,-88.495575221239,4,1,0,5,0,0
49532.6,-86.2068965517241,4,1,0,5,0,0
49546.9,-84.0336134453782,4,1,0,5,0,0
49561.2,-81.9672131147541,4,1,0,5,0,0
49575.5,-80,4,1,0,5,0,0
49589.8,-78.125,4,1,0,5,0,0
49604.1,-75.7575757575758,4,1,0,5,0,0
49618.4,-73.5294117647059,4,1,0,5,0,0
49632.7,-71.4285714285714,4,1,0,5,0,0
49647,-69.4444444444444,4,1,0,5,0,0
49661.3,-67.1140939597315,4,1,0,5,0,0
49675.6,-64.9350649350649,4,1,0,5,0,0
49689.9,-62.8930817610063,4,1,0,5,0,0
49704.2,-60.9756097560976,4,1,0,5,0,0
49718.5,-59.1715976331361,4,1,0,5,0,0
49732.8,-57.1428571428571,4,1,0,5,0,0
49747.1,-55.2486187845304,4,1,0,5,0,0
49761.4,-53.475935828877,4,1,0,5,0,0
49775.7,-51.8134715025907,4,1,0,5,0,0
49790,-50,4,1,0,5,0,0
49897,-100,4,1,0,5,0,0
51076,-100,4,1,0,5,0,0
51090.2666666667,-100,4,1,0,5,0,0
51104.5333333333,-100,4,1,0,5,0,0
51118.8,-99.009900990099,4,1,0,5,0,0
51133.0666666667,-98.0392156862745,4,1,0,5,0,0
51147.3333333333,-97.0873786407767,4,1,0,5,0,0
51161.6,-96.1538461538461,4,1,0,5,0,0
51175.8666666667,-95.2380952380952,4,1,0,5,0,0
51190.1333333333,-93.4579439252336,4,1,0,5,0,0
51204.4,-91.743119266055,4,1,0,5,0,0
51218.6666666667,-90.0900900900901,4,1,0,5,0,0
51232.9333333333,-88.495575221239,4,1,0,5,0,0
51247.2,-86.2068965517241,4,1,0,5,0,0
51261.4666666667,-84.0336134453782,4,1,0,5,0,0
51275.7333333333,-81.9672131147541,4,1,0,5,0,0
51290,-80,4,1,0,5,0,0
51304.2666666667,-78.125,4,1,0,5,0,0
51318.5333333333,-75.7575757575758,4,1,0,5,0,0
51332.8,-73.5294117647059,4,1,0,5,0,0
51347.0666666667,-71.4285714285714,4,1,0,5,0,0
51361.3333333333,-69.4444444444444,4,1,0,5,0,0
51375.6,-67.1140939597315,4,1,0,5,0,0
51389.8666666667,-64.9350649350649,4,1,0,5,0,0
51404.1333333333,-62.8930817610063,4,1,0,5,0,0
51418.4,-60.9756097560976,4,1,0,5,0,0
51432.6666666667,-59.1715976331361,4,1,0,5,0,0
51446.9333333333,-57.1428571428571,4,1,0,5,0,0
51461.2,-55.2486187845304,4,1,0,5,0,0
51475.4666666667,-53.475935828877,4,1,0,5,0,0
51489.7333333333,-51.8134715025907,4,1,0,5,0,0
51504,-50,4,1,0,5,0,0
51611,-100,4,1,0,5,0,0
52790,-100,4,1,0,5,0,0
52804.2666666667,-100,4,1,0,5,0,0
52818.5333333333,-100,4,1,0,5,0,0
52832.8,-99.009900990099,4,1,0,5,0,0
52847.0666666667,-98.0392156862745,4,1,0,5,0,0
52861.3333333333,-97.0873786407767,4,1,0,5,0,0
52875.6,-96.1538461538461,4,1,0,5,0,0
52889.8666666667,-95.2380952380952,4,1,0,5,0,0
52904.1333333333,-93.4579439252336,4,1,0,5,0,0
52918.4,-91.743119266055,4,1,0,5,0,0
52932.6666666667,-90.0900900900901,4,1,0,5,0,0
52946.9333333333,-88.495575221239,4,1,0,5,0,0
52961.2,-86.2068965517241,4,1,0,5,0,0
52975.4666666667,-84.0336134453782,4,1,0,5,0,0
52989.7333333333,-81.9672131147541,4,1,0,5,0,0
53004,-80,4,1,0,5,0,0
53018.2666666667,-78.125,4,1,0,5,0,0
53032.5333333333,-75.7575757575758,4,1,0,5,0,0
53046.8,-73.5294117647059,4,1,0,5,0,0
53061.0666666667,-71.4285714285714,4,1,0,5,0,0
53075.3333333333,-69.4444444444444,4,1,0,5,0,0
53089.6,-67.1140939597315,4,1,0,5,0,0
53103.8666666667,-64.9350649350649,4,1,0,5,0,0
53118.1333333333,-62.8930817610063,4,1,0,5,0,0
53132.4,-60.9756097560976,4,1,0,5,0,0
53146.6666666667,-59.1715976331361,4,1,0,5,0,0
53160.9333333333,-57.1428571428571,4,1,0,5,0,0
53175.2,-55.2486187845304,4,1,0,5,0,0
53189.4666666667,-53.475935828877,4,1,0,5,0,0
53203.7333333333,-51.8134715025907,4,1,0,5,0,0
53218,-50,4,1,0,5,0,0
53454.56,-10000,4,1,0,5,0,0
53486.7,-10000,4,1,0,5,0,0
53518.84,-10000,4,1,0,5,0,0
53550.98,-5000,4,1,0,5,0,0
53583.12,-3333.33333333333,4,1,0,5,0,0
53615.26,-3333.33333333333,4,1,0,5,0,0
53647.4,-2500,4,1,0,5,0,0
53679.54,-2000,4,1,0,5,0,0
53711.68,-1666.66666666667,4,1,0,5,0,0
53743.82,-1428.57142857143,4,1,0,5,0,0
53775.96,-1250,4,1,0,5,0,0
53808.1,-1111.11111111111,4,1,0,5,0,0
53840.24,-1000,4,1,0,5,0,0
53872.38,-833.333333333333,4,1,0,5,0,0
53904.52,-769.230769230769,4,1,0,5,0,0
53936.66,-714.285714285714,4,1,0,5,0,0
53968.8,-625,4,1,0,5,0,0
54000.94,-555.555555555556,4,1,0,5,0,0
54033.08,-526.315789473684,4,1,0,5,0,0
54065.22,-476.190476190476,4,1,0,5,0,0
54097.36,-434.782608695652,4,1,0,5,0,0
54129.5,-400,4,1,0,5,0,0
54161.64,-370.37037037037,4,1,0,5,0,0
54193.78,-344.827586206897,4,1,0,5,0,0
54225.92,-322.58064516129,4,1,0,5,0,0
54258.06,-294.117647058824,4,1,0,5,0,0
54290.2,-277.777777777778,4,1,0,5,0,0
54322.34,-263.157894736842,4,1,0,5,0,0
54354.48,-243.90243902439,4,1,0,5,0,0
54386.62,-227.272727272727,4,1,0,5,0,0
54418.76,-217.391304347826,4,1,0,5,0,0
54450.9,-204.081632653061,4,1,0,5,0,0
54483.04,-192.307692307692,4,1,0,5,0,0
54515.18,-181.818181818182,4,1,0,5,0,0
54547.32,-172.413793103448,4,1,0,5,0,0
54579.46,-163.934426229508,4,1,0,5,0,0
54611.6,-156.25,4,1,0,5,0,0
54643.74,-149.253731343284,4,1,0,5,0,0
54675.88,-140.845070422535,4,1,0,5,0,0
54708.02,-135.135135135135,4,1,0,5,0,0
54740.16,-129.87012987013,4,1,0,5,0,0
54772.3,-123.456790123457,4,1,0,5,0,0
54804.44,-117.647058823529,4,1,0,5,0,0
54836.58,-113.636363636364,4,1,0,5,0,0
54868.72,-108.695652173913,4,1,0,5,0,0
54900.86,-104.166666666667,4,1,0,5,0,0
54933,-100,4,1,0,5,0,0
54933,-100,4,1,0,5,0,0
54950.14,-100,4,1,0,5,0,0
54967.28,-100,4,1,0,5,0,0
54984.42,-100,4,1,0,5,0,0
55001.56,-100,4,1,0,5,0,0
55018.7,-100,4,1,0,5,0,0
55035.84,-101.010101010101,4,1,0,5,0,0
55052.98,-101.010101010101,4,1,0,5,0,0
55070.12,-101.010101010101,4,1,0,5,0,0
55087.26,-102.040816326531,4,1,0,5,0,0
55104.4,-102.040816326531,4,1,0,5,0,0
55121.54,-102.040816326531,4,1,0,5,0,0
55138.68,-103.092783505155,4,1,0,5,0,0
55155.82,-103.092783505155,4,1,0,5,0,0
55172.96,-104.166666666667,4,1,0,5,0,0
55190.1,-104.166666666667,4,1,0,5,0,0
55207.24,-105.263157894737,4,1,0,5,0,0
55224.38,-106.382978723404,4,1,0,5,0,0
55241.52,-106.382978723404,4,1,0,5,0,0
55258.66,-107.52688172043,4,1,0,5,0,0
55275.8,-108.695652173913,4,1,0,5,0,0
55292.94,-109.89010989011,4,1,0,5,0,0
55310.08,-111.111111111111,4,1,0,5,0,0
55327.22,-112.359550561798,4,1,0,5,0,0
55344.36,-113.636363636364,4,1,0,5,0,0
55361.5,-113.636363636364,4,1,0,5,0,0
55378.64,-116.279069767442,4,1,0,5,0,0
55395.78,-117.647058823529,4,1,0,5,0,0
55412.92,-119.047619047619,4,1,0,5,0,0
55430.06,-120.481927710843,4,1,0,5,0,0
55447.2,-121.951219512195,4,1,0,5,0,0
55464.34,-123.456790123457,4,1,0,5,0,0
55481.48,-125,4,1,0,5,0,0
55498.62,-128.205128205128,4,1,0,5,0,0
55515.76,-129.87012987013,4,1,0,5,0,0
55532.9,-131.578947368421,4,1,0,5,0,0
55550.04,-135.135135135135,4,1,0,5,0,0
55567.18,-136.986301369863,4,1,0,5,0,0
55584.32,-140.845070422535,4,1,0,5,0,0
55601.46,-142.857142857143,4,1,0,5,0,0
55618.6,-147.058823529412,4,1,0,5,0,0
55635.74,-151.515151515152,4,1,0,5,0,0
55652.88,-153.846153846154,4,1,0,5,0,0
55670.02,-158.730158730159,4,1,0,5,0,0
55687.16,-163.934426229508,4,1,0,5,0,0
55704.3,-166.666666666667,4,1,0,5,0,0
55721.44,-172.413793103448,4,1,0,5,0,0
55738.58,-178.571428571429,4,1,0,5,0,0
55755.72,-185.185185185185,4,1,0,5,0,0
55772.86,-192.307692307692,4,1,0,5,0,0
55790,-200,4,1,0,5,0,0
55790,-200,4,1,0,5,0,0
55802.86,-200,4,1,0,5,0,0
55815.72,-200,4,1,0,5,0,0
55828.58,-200,4,1,0,5,0,0
55841.44,-200,4,1,0,5,0,0
55854.3,-196.078431372549,4,1,0,5,0,0
55867.16,-196.078431372549,4,1,0,5,0,0
55880.02,-196.078431372549,4,1,0,5,0,0
55892.88,-192.307692307692,4,1,0,5,0,0
55905.74,-192.307692307692,4,1,0,5,0,0
55918.6,-188.679245283019,4,1,0,5,0,0
55931.46,-185.185185185185,4,1,0,5,0,0
55944.32,-185.185185185185,4,1,0,5,0,0
55957.18,-181.818181818182,4,1,0,5,0,0
55970.04,-178.571428571429,4,1,0,5,0,0
55982.9,-175.438596491228,4,1,0,5,0,0
55995.76,-172.413793103448,4,1,0,5,0,0
56008.62,-169.491525423729,4,1,0,5,0,0
56021.48,-166.666666666667,4,1,0,5,0,0
56034.34,-163.934426229508,4,1,0,5,0,0
56047.2,-161.290322580645,4,1,0,5,0,0
56060.06,-158.730158730159,4,1,0,5,0,0
56072.92,-153.846153846154,4,1,0,5,0,0
56085.78,-151.515151515152,4,1,0,5,0,0
56098.64,-149.253731343284,4,1,0,5,0,0
56111.5,-144.927536231884,4,1,0,5,0,0
56124.36,-142.857142857143,4,1,0,5,0,0
56137.22,-138.888888888889,4,1,0,5,0,0
56150.08,-135.135135135135,4,1,0,5,0,0
56162.94,-133.333333333333,4,1,0,5,0,0
56175.8,-129.87012987013,4,1,0,5,0,0
56188.66,-126.582278481013,4,1,0,5,0,0
56201.52,-123.456790123457,4,1,0,5,0,0
56214.38,-120.481927710843,4,1,0,5,0,0
56227.24,-117.647058823529,4,1,0,5,0,0
56240.1,-114.942528735632,4,1,0,5,0,0
56252.96,-112.359550561798,4,1,0,5,0,0
56265.82,-109.89010989011,4,1,0,5,0,0
56278.68,-107.52688172043,4,1,0,5,0,0
56291.54,-104.166666666667,4,1,0,5,0,0
56304.4,-102.040816326531,4,1,0,5,0,0
56317.26,-100,4,1,0,5,0,0
56330.12,-97.0873786407767,4,1,0,5,0,0
56342.98,-95.2380952380952,4,1,0,5,0,0
56355.84,-92.5925925925926,4,1,0,5,0,0
56368.7,-90.0900900900901,4,1,0,5,0,0
56381.56,-88.495575221239,4,1,0,5,0,0
56394.42,-86.2068965517241,4,1,0,5,0,0
56407.28,-84.0336134453782,4,1,0,5,0,0
56420.14,-81.9672131147541,4,1,0,5,0,0
56433,-80,4,1,0,5,0,0
56433,-80,4,1,0,5,0,0
56445.86,-80,4,1,0,5,0,0
56458.72,-80,4,1,0,5,0,0
56471.58,-80,4,1,0,5,0,0
56484.44,-80,4,1,0,5,0,0
56497.3,-80,4,1,0,5,0,0
56510.16,-80,4,1,0,5,0,0
56523.02,-80,4,1,0,5,0,0
56535.88,-80.6451612903226,4,1,0,5,0,0
56548.74,-80.6451612903226,4,1,0,5,0,0
56561.6,-80.6451612903226,4,1,0,5,0,0
56574.46,-80.6451612903226,4,1,0,5,0,0
56587.32,-80.6451612903226,4,1,0,5,0,0
56600.18,-81.3008130081301,4,1,0,5,0,0
56613.04,-81.3008130081301,4,1,0,5,0,0
56625.9,-81.3008130081301,4,1,0,5,0,0
56638.76,-81.9672131147541,4,1,0,5,0,0
56651.62,-81.9672131147541,4,1,0,5,0,0
56664.48,-81.9672131147541,4,1,0,5,0,0
56677.34,-82.6446280991736,4,1,0,5,0,0
56690.2,-82.6446280991736,4,1,0,5,0,0
56703.06,-82.6446280991736,4,1,0,5,0,0
56715.92,-83.3333333333333,4,1,0,5,0,0
56728.78,-83.3333333333333,4,1,0,5,0,0
56741.64,-84.0336134453782,4,1,0,5,0,0
56754.5,-84.0336134453782,4,1,0,5,0,0
56767.36,-84.7457627118644,4,1,0,5,0,0
56780.22,-84.7457627118644,4,1,0,5,0,0
56793.08,-85.4700854700855,4,1,0,5,0,0
56805.94,-85.4700854700855,4,1,0,5,0,0
56818.8,-86.2068965517241,4,1,0,5,0,0
56831.66,-86.9565217391304,4,1,0,5,0,0
56844.52,-86.9565217391304,4,1,0,5,0,0
56857.38,-87.719298245614,4,1,0,5,0,0
56870.24,-88.495575221239,4,1,0,5,0,0
56883.1,-88.495575221239,4,1,0,5,0,0
56895.96,-89.2857142857143,4,1,0,5,0,0
56908.82,-90.0900900900901,4,1,0,5,0,0
56921.68,-90.0900900900901,4,1,0,5,0,0
56934.54,-90.9090909090909,4,1,0,5,0,0
56947.4,-91.743119266055,4,1,0,5,0,0
56960.26,-92.5925925925926,4,1,0,5,0,0
56973.12,-93.4579439252336,4,1,0,5,0,0
56985.98,-93.4579439252336,4,1,0,5,0,0
56998.84,-94.3396226415094,4,1,0,5,0,0
57011.7,-95.2380952380952,4,1,0,5,0,0
57024.56,-96.1538461538461,4,1,0,5,0,0
57037.42,-97.0873786407767,4,1,0,5,0,0
57050.28,-98.0392156862745,4,1,0,5,0,0
57063.14,-99.009900990099,4,1,0,5,0,0
57076,-100,4,1,0,5,0,0
57076,-100,4,1,0,5,0,0
57093.14,-100,4,1,0,5,0,0
57110.28,-100,4,1,0,5,0,0
57127.42,-100,4,1,0,5,0,0
57144.56,-100,4,1,0,5,0,0
57161.7,-100,4,1,0,5,0,0
57178.84,-101.010101010101,4,1,0,5,0,0
57195.98,-101.010101010101,4,1,0,5,0,0
57213.12,-101.010101010101,4,1,0,5,0,0
57230.26,-102.040816326531,4,1,0,5,0,0
57247.4,-102.040816326531,4,1,0,5,0,0
57264.54,-102.040816326531,4,1,0,5,0,0
57281.68,-103.092783505155,4,1,0,5,0,0
57298.82,-103.092783505155,4,1,0,5,0,0
57315.96,-104.166666666667,4,1,0,5,0,0
57333.1,-104.166666666667,4,1,0,5,0,0
57350.24,-105.263157894737,4,1,0,5,0,0
57367.38,-106.382978723404,4,1,0,5,0,0
57384.52,-106.382978723404,4,1,0,5,0,0
57401.66,-107.52688172043,4,1,0,5,0,0
57418.8,-108.695652173913,4,1,0,5,0,0
57435.94,-109.89010989011,4,1,0,5,0,0
57453.08,-111.111111111111,4,1,0,5,0,0
57470.22,-112.359550561798,4,1,0,5,0,0
57487.36,-113.636363636364,4,1,0,5,0,0
57504.5,-113.636363636364,4,1,0,5,0,0
57521.64,-116.279069767442,4,1,0,5,0,0
57538.78,-117.647058823529,4,1,0,5,0,0
57555.92,-119.047619047619,4,1,0,5,0,0
57573.06,-120.481927710843,4,1,0,5,0,0
57590.2,-121.951219512195,4,1,0,5,0,0
57607.34,-123.456790123457,4,1,0,5,0,0
57624.48,-125,4,1,0,5,0,0
57641.62,-128.205128205128,4,1,0,5,0,0
57658.76,-129.87012987013,4,1,0,5,0,0
57675.9,-131.578947368421,4,1,0,5,0,0
57693.04,-135.135135135135,4,1,0,5,0,0
57710.18,-136.986301369863,4,1,0,5,0,0
57727.32,-140.845070422535,4,1,0,5,0,0
57744.46,-142.857142857143,4,1,0,5,0,0
57761.6,-147.058823529412,4,1,0,5,0,0
57778.74,-151.515151515152,4,1,0,5,0,0
57795.88,-153.846153846154,4,1,0,5,0,0
57813.02,-158.730158730159,4,1,0,5,0,0
57830.16,-163.934426229508,4,1,0,5,0,0
57847.3,-166.666666666667,4,1,0,5,0,0
57864.44,-172.413793103448,4,1,0,5,0,0
57881.58,-178.571428571429,4,1,0,5,0,0
57898.72,-185.185185185185,4,1,0,5,0,0
57915.86,-192.307692307692,4,1,0,5,0,0
57933,-200,4,1,0,5,0,0
57933,-200,4,1,0,5,0,0
57950.14,-200,4,1,0,5,0,0
57967.28,-200,4,1,0,5,0,0
57984.42,-200,4,1,0,5,0,0
58001.56,-200,4,1,0,5,0,0
58018.7,-196.078431372549,4,1,0,5,0,0
58035.84,-196.078431372549,4,1,0,5,0,0
58052.98,-196.078431372549,4,1,0,5,0,0
58070.12,-192.307692307692,4,1,0,5,0,0
58087.26,-192.307692307692,4,1,0,5,0,0
58104.4,-188.679245283019,4,1,0,5,0,0
58121.54,-185.185185185185,4,1,0,5,0,0
58138.68,-185.185185185185,4,1,0,5,0,0
58155.82,-181.818181818182,4,1,0,5,0,0
58172.96,-178.571428571429,4,1,0,5,0,0
58190.1,-175.438596491228,4,1,0,5,0,0
58207.24,-172.413793103448,4,1,0,5,0,0
58224.38,-169.491525423729,4,1,0,5,0,0
58241.52,-166.666666666667,4,1,0,5,0,0
58258.66,-163.934426229508,4,1,0,5,0,0
58275.8,-161.290322580645,4,1,0,5,0,0
58292.94,-158.730158730159,4,1,0,5,0,0
58310.08,-153.846153846154,4,1,0,5,0,0
58327.22,-151.515151515152,4,1,0,5,0,0
58344.36,-149.253731343284,4,1,0,5,0,0
58361.5,-144.927536231884,4,1,0,5,0,0
58378.64,-142.857142857143,4,1,0,5,0,0
58395.78,-138.888888888889,4,1,0,5,0,0
58412.92,-135.135135135135,4,1,0,5,0,0
58430.06,-133.333333333333,4,1,0,5,0,0
58447.2,-129.87012987013,4,1,0,5,0,0
58464.34,-126.582278481013,4,1,0,5,0,0
58481.48,-123.456790123457,4,1,0,5,0,0
58498.62,-120.481927710843,4,1,0,5,0,0
58515.76,-117.647058823529,4,1,0,5,0,0
58532.9,-114.942528735632,4,1,0,5,0,0
58550.04,-112.359550561798,4,1,0,5,0,0
58567.18,-109.89010989011,4,1,0,5,0,0
58584.32,-107.52688172043,4,1,0,5,0,0
58601.46,-104.166666666667,4,1,0,5,0,0
58618.6,-102.040816326531,4,1,0,5,0,0
58635.74,-100,4,1,0,5,0,0
58652.88,-97.0873786407767,4,1,0,5,0,0
58670.02,-95.2380952380952,4,1,0,5,0,0
58687.16,-92.5925925925926,4,1,0,5,0,0
58704.3,-90.0900900900901,4,1,0,5,0,0
58721.44,-88.495575221239,4,1,0,5,0,0
58738.58,-86.2068965517241,4,1,0,5,0,0
58755.72,-84.0336134453782,4,1,0,5,0,0
58772.86,-81.9672131147541,4,1,0,5,0,0
58790,-80,4,1,0,5,0,0
58790,-80,4,1,0,5,0,0
58802.86,-80,4,1,0,5,0,0
58815.72,-80,4,1,0,5,0,0
58828.58,-80,4,1,0,5,0,0
58841.44,-80,4,1,0,5,0,0
58854.3,-80.6451612903226,4,1,0,5,0,0
58867.16,-80.6451612903226,4,1,0,5,0,0
58880.02,-80.6451612903226,4,1,0,5,0,0
58892.88,-81.3008130081301,4,1,0,5,0,0
58905.74,-81.3008130081301,4,1,0,5,0,0
58918.6,-81.9672131147541,4,1,0,5,0,0
58931.46,-82.6446280991736,4,1,0,5,0,0
58944.32,-82.6446280991736,4,1,0,5,0,0
58957.18,-83.3333333333333,4,1,0,5,0,0
58970.04,-84.0336134453782,4,1,0,5,0,0
58982.9,-84.7457627118644,4,1,0,5,0,0
58995.76,-85.4700854700855,4,1,0,5,0,0
59008.62,-86.2068965517241,4,1,0,5,0,0
59021.48,-86.9565217391304,4,1,0,5,0,0
59034.34,-87.719298245614,4,1,0,5,0,0
59047.2,-88.495575221239,4,1,0,5,0,0
59060.06,-89.2857142857143,4,1,0,5,0,0
59072.92,-90.9090909090909,4,1,0,5,0,0
59085.78,-91.743119266055,4,1,0,5,0,0
59098.64,-92.5925925925926,4,1,0,5,0,0
59111.5,-94.3396226415094,4,1,0,5,0,0
59124.36,-95.2380952380952,4,1,0,5,0,0
59137.22,-97.0873786407767,4,1,0,5,0,0
59150.08,-99.009900990099,4,1,0,5,0,0
59162.94,-100,4,1,0,5,0,0
59175.8,-102.040816326531,4,1,0,5,0,0
59188.66,-104.166666666667,4,1,0,5,0,0
59201.52,-106.382978723404,4,1,0,5,0,0
59214.38,-108.695652173913,4,1,0,5,0,0
59227.24,-111.111111111111,4,1,0,5,0,0
59240.1,-113.636363636364,4,1,0,5,0,0
59252.96,-116.279069767442,4,1,0,5,0,0
59265.82,-119.047619047619,4,1,0,5,0,0
59278.68,-121.951219512195,4,1,0,5,0,0
59291.54,-126.582278481013,4,1,0,5,0,0
59304.4,-129.87012987013,4,1,0,5,0,0
59317.26,-133.333333333333,4,1,0,5,0,0
59330.12,-138.888888888889,4,1,0,5,0,0
59342.98,-142.857142857143,4,1,0,5,0,0
59355.84,-149.253731343284,4,1,0,5,0,0
59368.7,-156.25,4,1,0,5,0,0
59381.56,-161.290322580645,4,1,0,5,0,0
59394.42,-169.491525423729,4,1,0,5,0,0
59407.28,-178.571428571429,4,1,0,5,0,0
59420.14,-188.679245283019,4,1,0,5,0,0
59433,-200,4,1,0,5,0,0
59433,-200,4,1,0,5,0,0
59445.86,-200,4,1,0,5,0,0
59458.72,-200,4,1,0,5,0,0
59471.58,-200,4,1,0,5,0,0
59484.44,-200,4,1,0,5,0,0
59497.3,-196.078431372549,4,1,0,5,0,0
59510.16,-196.078431372549,4,1,0,5,0,0
59523.02,-196.078431372549,4,1,0,5,0,0
59535.88,-196.078431372549,4,1,0,5,0,0
59548.74,-192.307692307692,4,1,0,5,0,0
59561.6,-192.307692307692,4,1,0,5,0,0
59574.46,-192.307692307692,4,1,0,5,0,0
59587.32,-188.679245283019,4,1,0,5,0,0
59600.18,-188.679245283019,4,1,0,5,0,0
59613.04,-185.185185185185,4,1,0,5,0,0
59625.9,-181.818181818182,4,1,0,5,0,0
59638.76,-181.818181818182,4,1,0,5,0,0
59651.62,-178.571428571429,4,1,0,5,0,0
59664.48,-178.571428571429,4,1,0,5,0,0
59677.34,-175.438596491228,4,1,0,5,0,0
59690.2,-172.413793103448,4,1,0,5,0,0
59703.06,-169.491525423729,4,1,0,5,0,0
59715.92,-166.666666666667,4,1,0,5,0,0
59728.78,-163.934426229508,4,1,0,5,0,0
59741.64,-161.290322580645,4,1,0,5,0,0
59754.5,-158.730158730159,4,1,0,5,0,0
59767.36,-156.25,4,1,0,5,0,0
59780.22,-153.846153846154,4,1,0,5,0,0
59793.08,-151.515151515152,4,1,0,5,0,0
59805.94,-149.253731343284,4,1,0,5,0,0
59818.8,-147.058823529412,4,1,0,5,0,0
59831.66,-144.927536231884,4,1,0,5,0,0
59844.52,-142.857142857143,4,1,0,5,0,0
59857.38,-138.888888888889,4,1,0,5,0,0
59870.24,-136.986301369863,4,1,0,5,0,0
59883.1,-133.333333333333,4,1,0,5,0,0
59895.96,-131.578947368421,4,1,0,5,0,0
59908.82,-129.87012987013,4,1,0,5,0,0
59921.68,-126.582278481013,4,1,0,5,0,0
59934.54,-125,4,1,0,5,0,0
59947.4,-121.951219512195,4,1,0,5,0,0
59960.26,-119.047619047619,4,1,0,5,0,0
59973.12,-117.647058823529,4,1,0,5,0,0
59985.98,-114.942528735632,4,1,0,5,0,0
59998.84,-112.359550561798,4,1,0,5,0,0
60011.7,-109.89010989011,4,1,0,5,0,0
60024.56,-108.695652173913,4,1,0,5,0,0
60037.42,-106.382978723404,4,1,0,5,0,0
60050.28,-104.166666666667,4,1,0,5,0,0
60063.14,-102.040816326531,4,1,0,5,0,0
60076,-100,4,1,0,5,0,0
60076,-100,4,1,0,5,0,0
60093.14,-100,4,1,0,5,0,0
60110.28,-100,4,1,0,5,0,0
60127.42,-100,4,1,0,5,0,0
60144.56,-100,4,1,0,5,0,0
60161.7,-100,4,1,0,5,0,0
60178.84,-101.010101010101,4,1,0,5,0,0
60195.98,-101.010101010101,4,1,0,5,0,0
60213.12,-101.010101010101,4,1,0,5,0,0
60230.26,-102.040816326531,4,1,0,5,0,0
60247.4,-102.040816326531,4,1,0,5,0,0
60264.54,-102.040816326531,4,1,0,5,0,0
60281.68,-103.092783505155,4,1,0,5,0,0
60298.82,-103.092783505155,4,1,0,5,0,0
60315.96,-104.166666666667,4,1,0,5,0,0
60333.1,-104.166666666667,4,1,0,5,0,0
60350.24,-105.263157894737,4,1,0,5,0,0
60367.38,-106.382978723404,4,1,0,5,0,0
60384.52,-106.382978723404,4,1,0,5,0,0
60401.66,-107.52688172043,4,1,0,5,0,0
60418.8,-108.695652173913,4,1,0,5,0,0
60435.94,-109.89010989011,4,1,0,5,0,0
60453.08,-111.111111111111,4,1,0,5,0,0
60470.22,-112.359550561798,4,1,0,5,0,0
60487.36,-113.636363636364,4,1,0,5,0,0
60504.5,-113.636363636364,4,1,0,5,0,0
60521.64,-116.279069767442,4,1,0,5,0,0
60538.78,-117.647058823529,4,1,0,5,0,0
60555.92,-119.047619047619,4,1,0,5,0,0
60573.06,-120.481927710843,4,1,0,5,0,0
60590.2,-121.951219512195,4,1,0,5,0,0
60607.34,-123.456790123457,4,1,0,5,0,0
60624.48,-125,4,1,0,5,0,0
60641.62,-128.205128205128,4,1,0,5,0,0
60658.76,-129.87012987013,4,1,0,5,0,0
60675.9,-131.578947368421,4,1,0,5,0,0
60693.04,-135.135135135135,4,1,0,5,0,0
60710.18,-136.986301369863,4,1,0,5,0,0
60727.32,-140.845070422535,4,1,0,5,0,0
60744.46,-142.857142857143,4,1,0,5,0,0
60761.6,-147.058823529412,4,1,0,5,0,0
60778.74,-151.515151515152,4,1,0,5,0,0
60795.88,-153.846153846154,4,1,0,5,0,0
60813.02,-158.730158730159,4,1,0,5,0,0
60830.16,-163.934426229508,4,1,0,5,0,0
60847.3,-166.666666666667,4,1,0,5,0,0
60864.44,-172.413793103448,4,1,0,5,0,0
60881.58,-178.571428571429,4,1,0,5,0,0
60898.72,-185.185185185185,4,1,0,5,0,0
60915.86,-192.307692307692,4,1,0,5,0,0
60933,-200,4,1,0,5,0,0
60933,-200,4,1,0,5,0,0
60950.14,-200,4,1,0,5,0,0
60967.28,-200,4,1,0,5,0,0
60984.42,-200,4,1,0,5,0,0
61001.56,-200,4,1,0,5,0,0
61018.7,-196.078431372549,4,1,0,5,0,0
61035.84,-196.078431372549,4,1,0,5,0,0
61052.98,-196.078431372549,4,1,0,5,0,0
61070.12,-192.307692307692,4,1,0,5,0,0
61087.26,-192.307692307692,4,1,0,5,0,0
61104.4,-188.679245283019,4,1,0,5,0,0
61121.54,-185.185185185185,4,1,0,5,0,0
61138.68,-185.185185185185,4,1,0,5,0,0
61155.82,-181.818181818182,4,1,0,5,0,0
61172.96,-178.571428571429,4,1,0,5,0,0
61190.1,-175.438596491228,4,1,0,5,0,0
61207.24,-172.413793103448,4,1,0,5,0,0
61224.38,-169.491525423729,4,1,0,5,0,0
61241.52,-166.666666666667,4,1,0,5,0,0
61258.66,-163.934426229508,4,1,0,5,0,0
61275.8,-161.290322580645,4,1,0,5,0,0
61292.94,-158.730158730159,4,1,0,5,0,0
61310.08,-153.846153846154,4,1,0,5,0,0
61327.22,-151.515151515152,4,1,0,5,0,0
61344.36,-149.253731343284,4,1,0,5,0,0
61361.5,-144.927536231884,4,1,0,5,0,0
61378.64,-142.857142857143,4,1,0,5,0,0
61395.78,-138.888888888889,4,1,0,5,0,0
61412.92,-135.135135135135,4,1,0,5,0,0
61430.06,-133.333333333333,4,1,0,5,0,0
61447.2,-129.87012987013,4,1,0,5,0,0
61464.34,-126.582278481013,4,1,0,5,0,0
61481.48,-123.456790123457,4,1,0,5,0,0
61498.62,-120.481927710843,4,1,0,5,0,0
61515.76,-117.647058823529,4,1,0,5,0,0
61532.9,-114.942528735632,4,1,0,5,0,0
61550.04,-112.359550561798,4,1,0,5,0,0
61567.18,-109.89010989011,4,1,0,5,0,0
61584.32,-107.52688172043,4,1,0,5,0,0
61601.46,-104.166666666667,4,1,0,5,0,0
61618.6,-102.040816326531,4,1,0,5,0,0
61635.74,-100,4,1,0,5,0,0
61652.88,-97.0873786407767,4,1,0,5,0,0
61670.02,-95.2380952380952,4,1,0,5,0,0
61687.16,-92.5925925925926,4,1,0,5,0,0
61704.3,-90.0900900900901,4,1,0,5,0,0
61721.44,-88.495575221239,4,1,0,5,0,0
61738.58,-86.2068965517241,4,1,0,5,0,0
61755.72,-84.0336134453782,4,1,0,5,0,0
61772.86,-81.9672131147541,4,1,0,5,0,0
61790,-80,4,1,0,5,0,0
61790,-80,4,1,0,5,0,0
61807.14,-80,4,1,0,5,0,0
61824.28,-80,4,1,0,5,0,0
61841.42,-80,4,1,0,5,0,0
61858.56,-80,4,1,0,5,0,0
61875.7,-80.6451612903226,4,1,0,5,0,0
61892.84,-80.6451612903226,4,1,0,5,0,0
61909.98,-80.6451612903226,4,1,0,5,0,0
61927.12,-81.3008130081301,4,1,0,5,0,0
61944.26,-81.3008130081301,4,1,0,5,0,0
61961.4,-81.9672131147541,4,1,0,5,0,0
61978.54,-82.6446280991736,4,1,0,5,0,0
61995.68,-82.6446280991736,4,1,0,5,0,0
62012.82,-83.3333333333333,4,1,0,5,0,0
62029.96,-84.0336134453782,4,1,0,5,0,0
62047.1,-84.7457627118644,4,1,0,5,0,0
62064.24,-85.4700854700855,4,1,0,5,0,0
62081.38,-86.2068965517241,4,1,0,5,0,0
62098.52,-86.9565217391304,4,1,0,5,0,0
62115.66,-87.719298245614,4,1,0,5,0,0
62132.8,-88.495575221239,4,1,0,5,0,0
62149.94,-89.2857142857143,4,1,0,5,0,0
62167.08,-90.9090909090909,4,1,0,5,0,0
62184.22,-91.743119266055,4,1,0,5,0,0
62201.36,-92.5925925925926,4,1,0,5,0,0
62218.5,-94.3396226415094,4,1,0,5,0,0
62235.64,-95.2380952380952,4,1,0,5,0,0
62252.78,-97.0873786407767,4,1,0,5,0,0
62269.92,-99.009900990099,4,1,0,5,0,0
62287.06,-100,4,1,0,5,0,0
62304.2,-102.040816326531,4,1,0,5,0,0
62321.34,-104.166666666667,4,1,0,5,0,0
62338.48,-106.382978723404,4,1,0,5,0,0
62355.62,-108.695652173913,4,1,0,5,0,0
62372.76,-111.111111111111,4,1,0,5,0,0
62389.9,-113.636363636364,4,1,0,5,0,0
62407.04,-116.279069767442,4,1,0,5,0,0
62424.18,-119.047619047619,4,1,0,5,0,0
62441.32,-121.951219512195,4,1,0,5,0,0
62458.46,-126.582278481013,4,1,0,5,0,0
62475.6,-129.87012987013,4,1,0,5,0,0
62492.74,-133.333333333333,4,1,0,5,0,0
62509.88,-138.888888888889,4,1,0,5,0,0
62527.02,-142.857142857143,4,1,0,5,0,0
62544.16,-149.253731343284,4,1,0,5,0,0
62561.3,-156.25,4,1,0,5,0,0
62578.44,-161.290322580645,4,1,0,5,0,0
62595.58,-169.491525423729,4,1,0,5,0,0
62612.72,-178.571428571429,4,1,0,5,0,0
62629.86,-188.679245283019,4,1,0,5,0,0
62647,-200,4,1,0,5,0,0
62647,-200,4,1,0,5,0,0
62664.14,-200,4,1,0,5,0,0
62681.28,-200,4,1,0,5,0,0
62698.42,-200,4,1,0,5,0,0
62715.56,-200,4,1,0,5,0,0
62732.7,-196.078431372549,4,1,0,5,0,0
62749.84,-196.078431372549,4,1,0,5,0,0
62766.98,-196.078431372549,4,1,0,5,0,0
62784.12,-192.307692307692,4,1,0,5,0,0
62801.26,-192.307692307692,4,1,0,5,0,0
62818.4,-188.679245283019,4,1,0,5,0,0
62835.54,-185.185185185185,4,1,0,5,0,0
62852.68,-185.185185185185,4,1,0,5,0,0
62869.82,-181.818181818182,4,1,0,5,0,0
62886.96,-178.571428571429,4,1,0,5,0,0
62904.1,-175.438596491228,4,1,0,5,0,0
62921.24,-172.413793103448,4,1,0,5,0,0
62938.38,-169.491525423729,4,1,0,5,0,0
62955.52,-166.666666666667,4,1,0,5,0,0
62972.66,-163.934426229508,4,1,0,5,0,0
62989.8,-161.290322580645,4,1,0,5,0,0
63006.94,-158.730158730159,4,1,0,5,0,0
63024.08,-153.846153846154,4,1,0,5,0,0
63041.22,-151.515151515152,4,1,0,5,0,0
63058.36,-149.253731343284,4,1,0,5,0,0
63075.5,-144.927536231884,4,1,0,5,0,0
63092.64,-142.857142857143,4,1,0,5,0,0
63109.78,-138.888888888889,4,1,0,5,0,0
63126.92,-135.135135135135,4,1,0,5,0,0
63144.06,-133.333333333333,4,1,0,5,0,0
63161.2,-129.87012987013,4,1,0,5,0,0
63178.34,-126.582278481013,4,1,0,5,0,0
63195.48,-123.456790123457,4,1,0,5,0,0
63212.62,-120.481927710843,4,1,0,5,0,0
63229.76,-117.647058823529,4,1,0,5,0,0
63246.9,-114.942528735632,4,1,0,5,0,0
63264.04,-112.359550561798,4,1,0,5,0,0
63281.18,-109.89010989011,4,1,0,5,0,0
63298.32,-107.52688172043,4,1,0,5,0,0
63315.46,-104.166666666667,4,1,0,5,0,0
63332.6,-102.040816326531,4,1,0,5,0,0
63349.74,-100,4,1,0,5,0,0
63366.88,-97.0873786407767,4,1,0,5,0,0
63384.02,-95.2380952380952,4,1,0,5,0,0
63401.16,-92.5925925925926,4,1,0,5,0,0
63418.3,-90.0900900900901,4,1,0,5,0,0
63435.44,-88.495575221239,4,1,0,5,0,0
63452.58,-86.2068965517241,4,1,0,5,0,0
63469.72,-84.0336134453782,4,1,0,5,0,0
63486.86,-81.9672131147541,4,1,0,5,0,0
63504,-80,4,1,0,5,0,0
63504,-80,4,1,0,5,0,0
63521.14,-80,4,1,0,5,0,0
63538.28,-80,4,1,0,5,0,0
63555.42,-80,4,1,0,5,0,0
63572.56,-80,4,1,0,5,0,0
63589.7,-80.6451612903226,4,1,0,5,0,0
63606.84,-80.6451612903226,4,1,0,5,0,0
63623.98,-80.6451612903226,4,1,0,5,0,0
63641.12,-81.3008130081301,4,1,0,5,0,0
63658.26,-81.3008130081301,4,1,0,5,0,0
63675.4,-81.9672131147541,4,1,0,5,0,0
63692.54,-82.6446280991736,4,1,0,5,0,0
63709.68,-82.6446280991736,4,1,0,5,0,0
63726.82,-83.3333333333333,4,1,0,5,0,0
63743.96,-84.0336134453782,4,1,0,5,0,0
63761.1,-84.7457627118644,4,1,0,5,0,0
63778.24,-85.4700854700855,4,1,0,5,0,0
63795.38,-86.2068965517241,4,1,0,5,0,0
63812.52,-86.9565217391304,4,1,0,5,0,0
63829.66,-87.719298245614,4,1,0,5,0,0
63846.8,-88.495575221239,4,1,0,5,0,0
63863.94,-89.2857142857143,4,1,0,5,0,0
63881.08,-90.9090909090909,4,1,0,5,0,0
63898.22,-91.743119266055,4,1,0,5,0,0
63915.36,-92.5925925925926,4,1,0,5,0,0
63932.5,-94.3396226415094,4,1,0,5,0,0
63949.64,-95.2380952380952,4,1,0,5,0,0
63966.78,-97.0873786407767,4,1,0,5,0,0
63983.92,-99.009900990099,4,1,0,5,0,0
64001.06,-100,4,1,0,5,0,0
64018.2,-102.040816326531,4,1,0,5,0,0
64035.34,-104.166666666667,4,1,0,5,0,0
64052.48,-106.382978723404,4,1,0,5,0,0
64069.62,-108.695652173913,4,1,0,5,0,0
64086.76,-111.111111111111,4,1,0,5,0,0
64103.9,-113.636363636364,4,1,0,5,0,0
64121.04,-116.279069767442,4,1,0,5,0,0
64138.18,-119.047619047619,4,1,0,5,0,0
64155.32,-121.951219512195,4,1,0,5,0,0
64172.46,-126.582278481013,4,1,0,5,0,0
64189.6,-129.87012987013,4,1,0,5,0,0
64206.74,-133.333333333333,4,1,0,5,0,0
64223.88,-138.888888888889,4,1,0,5,0,0
64241.02,-142.857142857143,4,1,0,5,0,0
64258.16,-149.253731343284,4,1,0,5,0,0
64275.3,-156.25,4,1,0,5,0,0
64292.44,-161.290322580645,4,1,0,5,0,0
64309.58,-169.491525423729,4,1,0,5,0,0
64326.72,-178.571428571429,4,1,0,5,0,0
64343.86,-188.679245283019,4,1,0,5,0,0
64361,-200,4,1,0,5,0,0
64361,-200,4,1,0,5,0,0
64378.14,-200,4,1,0,5,0,0
64395.28,-200,4,1,0,5,0,0
64412.42,-200,4,1,0,5,0,0
64429.56,-200,4,1,0,5,0,0
64446.7,-196.078431372549,4,1,0,5,0,0
64463.84,-196.078431372549,4,1,0,5,0,0
64480.98,-196.078431372549,4,1,0,5,0,0
64498.12,-192.307692307692,4,1,0,5,0,0
64515.26,-192.307692307692,4,1,0,5,0,0
64532.4,-188.679245283019,4,1,0,5,0,0
64549.54,-185.185185185185,4,1,0,5,0,0
64566.68,-185.185185185185,4,1,0,5,0,0
64583.82,-181.818181818182,4,1,0,5,0,0
64600.96,-178.571428571429,4,1,0,5,0,0
64618.1,-175.438596491228,4,1,0,5,0,0
64635.24,-172.413793103448,4,1,0,5,0,0
64652.38,-169.491525423729,4,1,0,5,0,0
64669.52,-166.666666666667,4,1,0,5,0,0
64686.66,-163.934426229508,4,1,0,5,0,0
64703.8,-161.290322580645,4,1,0,5,0,0
64720.94,-158.730158730159,4,1,0,5,0,0
64738.08,-153.846153846154,4,1,0,5,0,0
64755.22,-151.515151515152,4,1,0,5,0,0
64772.36,-149.253731343284,4,1,0,5,0,0
64789.5,-144.927536231884,4,1,0,5,0,0
64806.64,-142.857142857143,4,1,0,5,0,0
64823.78,-138.888888888889,4,1,0,5,0,0
64840.92,-135.135135135135,4,1,0,5,0,0
64858.06,-133.333333333333,4,1,0,5,0,0
64875.2,-129.87012987013,4,1,0,5,0,0
64892.34,-126.582278481013,4,1,0,5,0,0
64909.48,-123.456790123457,4,1,0,5,0,0
64926.62,-120.481927710843,4,1,0,5,0,0
64943.76,-117.647058823529,4,1,0,5,0,0
64960.9,-114.942528735632,4,1,0,5,0,0
64978.04,-112.359550561798,4,1,0,5,0,0
64995.18,-109.89010989011,4,1,0,5,0,0
65012.32,-107.52688172043,4,1,0,5,0,0
65029.46,-104.166666666667,4,1,0,5,0,0
65046.6,-102.040816326531,4,1,0,5,0,0
65063.74,-100,4,1,0,5,0,0
65080.88,-97.0873786407767,4,1,0,5,0,0
65098.02,-95.2380952380952,4,1,0,5,0,0
65115.16,-92.5925925925926,4,1,0,5,0,0
65132.3,-90.0900900900901,4,1,0,5,0,0
65149.44,-88.495575221239,4,1,0,5,0,0
65166.58,-86.2068965517241,4,1,0,5,0,0
65183.72,-84.0336134453782,4,1,0,5,0,0
65200.86,-81.9672131147541,4,1,0,5,0,0
65218,-80,4,1,0,5,0,0
65218,-80,4,1,0,5,0,0
65252.3,-80,4,1,0,5,0,0
65286.6,-80,4,1,0,5,0,0
65320.9,-80,4,1,0,5,0,0
65355.2,-80,4,1,0,5,0,0
65389.5,-80.6451612903226,4,1,0,5,0,0
65423.8,-80.6451612903226,4,1,0,5,0,0
65458.1,-80.6451612903226,4,1,0,5,0,0
65492.4,-81.3008130081301,4,1,0,5,0,0
65526.7,-81.3008130081301,4,1,0,5,0,0
65561,-81.9672131147541,4,1,0,5,0,0
65595.3,-82.6446280991736,4,1,0,5,0,0
65629.6,-82.6446280991736,4,1,0,5,0,0
65663.9,-83.3333333333333,4,1,0,5,0,0
65698.2,-84.0336134453782,4,1,0,5,0,0
65732.5,-84.7457627118644,4,1,0,5,0,0
65766.8,-85.4700854700855,4,1,0,5,0,0
65801.1,-86.2068965517241,4,1,0,5,0,0
65835.4,-86.9565217391304,4,1,0,5,0,0
65869.7,-87.719298245614,4,1,0,5,0,0
65904,-88.495575221239,4,1,0,5,0,0
65938.3,-89.2857142857143,4,1,0,5,0,0
65972.6,-90.9090909090909,4,1,0,5,0,0
66006.9,-91.743119266055,4,1,0,5,0,0
66041.2,-92.5925925925926,4,1,0,5,0,0
66075.5,-94.3396226415094,4,1,0,5,0,0
66109.8,-95.2380952380952,4,1,0,5,0,0
66144.1,-97.0873786407767,4,1,0,5,0,0
66178.4,-99.009900990099,4,1,0,5,0,0
66212.7,-100,4,1,0,5,0,0
66247,-102.040816326531,4,1,0,5,0,0
66281.3,-104.166666666667,4,1,0,5,0,0
66315.6,-106.382978723404,4,1,0,5,0,0
66349.9,-108.695652173913,4,1,0,5,0,0
66384.2,-111.111111111111,4,1,0,5,0,0
66418.5,-113.636363636364,4,1,0,5,0,0
66452.8,-116.279069767442,4,1,0,5,0,0
66487.1,-119.047619047619,4,1,0,5,0,0
66521.4,-121.951219512195,4,1,0,5,0,0
66555.7,-126.582278481013,4,1,0,5,0,0
66590,-129.87012987013,4,1,0,5,0,0
66624.3,-133.333333333333,4,1,0,5,0,0
66658.6,-138.888888888889,4,1,0,5,0,0
66692.9,-142.857142857143,4,1,0,5,0,0
66727.2,-149.253731343284,4,1,0,5,0,0
66761.5,-156.25,4,1,0,5,0,0
66795.8,-161.290322580645,4,1,0,5,0,0
66830.1,-169.491525423729,4,1,0,5,0,0
66864.4,-178.571428571429,4,1,0,5,0,0
66898.7,-188.679245283019,4,1,0,5,0,0
66933,-10,4,1,0,5,0,0
67040,-1000,4,1,0,5,0,0
67361,-100,4,1,0,5,0,0
68647,-1000,4,1,0,5,0,0
69290,-100,4,1,0,5,0,0
69504,-1000,4,1,0,5,0,0
70147,-100,4,1,0,5,0,0
70361,-1000,4,1,0,5,0,0
71004,-100,4,1,0,5,0,0
71218,-1000,4,1,0,5,0,0
71861,-100,4,1,0,5,0,0
72504,-66.6666666666667,4,1,0,5,0,0
72718,-1000,4,1,0,5,0,0
72933,-66.6666666666667,4,1,0,5,0,0
73040,-1000,4,1,0,5,0,0
73147,-66.6666666666667,4,1,0,5,0,0
73361,-1000,4,1,0,5,0,0
73576,-66.6666666666667,4,1,0,5,0,0
73683,-1000,4,1,0,5,0,0
73790,-66.6666666666667,4,1,0,5,0,0
73897,-1000,4,1,0,5,0,0
74004,-66.6666666666667,4,1,0,5,0,0
74111,-1000,4,1,0,5,0,0
74218,-100,4,1,0,5,0,0
74433,-1000,4,1,0,5,0,0
75504,-100,4,1,0,5,0,0
75933,-66.6666666666667,4,1,0,5,0,0
76040,-1000,4,1,0,5,0,0
76147,-100,4,1,0,5,0,0
76683,-1000,4,1,0,5,0,0
77004,-66.6666666666667,4,1,0,5,0,0
77111,-1000,4,1,0,5,0,0
77218,-100,4,1,0,5,0,0
77433,-66.6666666666667,4,1,0,5,0,0
77540,-1000,4,1,0,5,0,0
77647,-100,4,1,0,5,0,0
78076,-66.6666666666667,4,1,0,5,0,0
78183,-1000,4,1,0,5,0,0
78290,-200,4,1,0,5,0,0
78933,-100,4,1,0,5,0,0
82361,-66.6666666666667,4,1,0,5,0,0
82576,-1000,4,1,0,5,0,0
82790,-66.6666666666667,4,1,0,5,0,0
82897,-1000,4,1,0,5,0,0
83004,-100,4,1,0,5,0,0
83540,-1000,4,1,0,5,0,0
83861,-66.6666666666667,4,1,0,5,0,0
83968,-1000,4,1,0,5,0,0
84076,-66.6666666666667,4,1,0,5,0,0
84290,-100,4,1,0,5,0,0
84933,-200,4,1,0,5,0,0
85790,-66.6666666666667,4,1,0,5,0,0
86004,-1000,4,1,0,5,0,0
86218,-66.6666666666667,4,1,0,5,0,0
86326,-1000,4,1,0,5,0,0
86647,-66.6666666666667,4,1,0,5,0,0
86861,-1000,4,1,0,5,0,0
87076,-10,4,1,0,5,0,0
87183,-1000,4,1,0,5,0,0
87504,-100,4,1,0,5,0,0
87933,-10,4,1,0,5,0,0
87956.3636363636,-10,4,1,0,5,0,0
87979.7272727273,-10.01001001001,4,1,0,5,0,0
88003.0909090909,-10.0300902708124,4,1,0,5,0,0
88026.4545454545,-10.0502512562814,4,1,0,5,0,0
88049.8181818182,-10.0704934541793,4,1,0,5,0,0
88073.1818181818,-10.1112234580384,4,1,0,5,0,0
88096.5454545455,-10.1522842639594,4,1,0,5,0,0
88119.9090909091,-10.1936799184506,4,1,0,5,0,0
88143.2727272727,-10.2459016393443,4,1,0,5,0,0
88166.6363636364,-10.3092783505155,4,1,0,5,0,0
88190,-10.3734439834025,4,1,0,5,0,0
88213.3636363636,-10.4493207941484,4,1,0,5,0,0
88236.7272727273,-10.5263157894737,4,1,0,5,0,0
88260.0909090909,-10.6157112526539,4,1,0,5,0,0
88283.4545454545,-10.7181136120043,4,1,0,5,0,0
88306.8181818182,-10.8225108225108,4,1,0,5,0,0
88330.1818181818,-10.9409190371991,4,1,0,5,0,0
88353.5454545455,-11.0619469026549,4,1,0,5,0,0
88376.9090909091,-11.1982082866741,4,1,0,5,0,0
88400.2727272727,-11.3507377979569,4,1,0,5,0,0
88423.6363636364,-11.5074798619102,4,1,0,5,0,0
88447,-11.6822429906542,4,1,0,5,0,0
88470.3636363636,-11.8623962040332,4,1,0,5,0,0
88493.7272727273,-12.0627261761158,4,1,0,5,0,0
88517.0909090909,-12.2850122850123,4,1,0,5,0,0
88540.4545454545,-12.5156445556946,4,1,0,5,0,0
88563.8181818182,-12.7713920817369,4,1,0,5,0,0
88587.1818181818,-13.0378096479791,4,1,0,5,0,0
88610.5454545455,-13.3333333333333,4,1,0,5,0,0
88633.9090909091,-13.6612021857923,4,1,0,5,0,0
88657.2727272727,-14.0056022408964,4,1,0,5,0,0
88680.6363636364,-14.3884892086331,4,1,0,5,0,0
88704,-14.792899408284,4,1,0,5,0,0
88727.3636363636,-15.2439024390244,4,1,0,5,0,0
88750.7272727273,-15.7232704402516,4,1,0,5,0,0
88774.0909090909,-16.2866449511401,4,1,0,5,0,0
88797.4545454545,-16.8634064080944,4,1,0,5,0,0
88820.8181818182,-17.5438596491228,4,1,0,5,0,0
88844.1818181818,-18.2815356489945,4,1,0,5,0,0
88867.5454545455,-19.0839694656489,4,1,0,5,0,0
88890.9090909091,-20,4,1,0,5,0,0
88914.2727272727,-21.0526315789474,4,1,0,5,0,0
88937.6363636364,-22.2222222222222,4,1,0,5,0,0
88961,-23.5849056603774,4,1,0,5,0,0
88984.3636363636,-25.1256281407035,4,1,0,5,0,0
89007.7272727273,-27.027027027027,4,1,0,5,0,0
89031.0909090909,-29.1545189504373,4,1,0,5,0,0
89054.4545454545,-31.7460317460317,4,1,0,5,0,0
89077.8181818182,-34.965034965035,4,1,0,5,0,0
89101.1818181818,-39.0625,4,1,0,5,0,0
89124.5454545455,-44.2477876106195,4,1,0,5,0,0
89147.9090909091,-51.0204081632653,4,1,0,5,0,0
89171.2727272727,-60.9756097560976,4,1,0,5,0,0
89194.6363636364,-75.7575757575758,4,1,0,5,0,0
89218,-66.6666666666667,4,1,0,5,0,0
89433,-1000,4,1,0,5,0,0
89647,-66.6666666666667,4,1,0,5,0,0
89754,-1000,4,1,0,5,0,0
89861,-100,4,1,0,5,0,0
90076,-66.6666666666667,4,1,0,5,0,0
90397,-1000,4,1,0,5,0,0
90718,-66.6666666666667,4,1,0,5,0,0
90826,-1000,4,1,0,5,0,0
90933,-66.6666666666667,4,1,0,5,0,0
91147,-100,4,1,0,5,0,0
91361,-66.6666666666667,4,1,0,5,0,0
91468,-1000,4,1,0,5,0,0
91576,-100,4,1,0,5,0,0
91790,-1000,4,1,0,5,0,0
91897,-80,4,1,0,5,0,0
92004,-200,4,1,0,5,0,0
92647,-100,4,1,0,5,0,0
92647,-142.857142857143,4,1,0,5,0,0
92668,-131.578947368421,4,1,0,5,0,0
92690,-121.951219512195,4,1,0,5,0,0
92711,-113.636363636364,4,1,0,5,0,0
92733,-106.382978723404,4,1,0,5,0,0
92754,-102.040816326531,4,1,0,5,0,0
92776,-98.0392156862745,4,1,0,5,0,0
92797,-94.3396226415094,4,1,0,5,0,0
92819,-92.5925925925926,4,1,0,5,0,0
92840,-90.9090909090909,4,1,0,5,0,0
92904,-92.5925925925926,4,1,0,5,0,0
92926,-94.3396226415094,4,1,0,5,0,0
92947,-98.0392156862745,4,1,0,5,0,0
92969,-102.040816326531,4,1,0,5,0,0
92990,-106.382978723404,4,1,0,5,0,0
93012,-113.636363636364,4,1,0,5,0,0
93033,-121.951219512195,4,1,0,5,0,0
93055,-131.578947368421,4,1,0,5,0,0
93076,-142.857142857143,4,1,0,5,0,0
93097,-131.578947368421,4,1,0,5,0,0
93119,-121.951219512195,4,1,0,5,0,0
93140,-113.636363636364,4,1,0,5,0,0
93162,-106.382978723404,4,1,0,5,0,0
93183,-102.040816326531,4,1,0,5,0,0
93205,-98.0392156862745,4,1,0,5,0,0
93226,-94.3396226415094,4,1,0,5,0,0
93248,-92.5925925925926,4,1,0,5,0,0
93269,-90.9090909090909,4,1,0,5,0,0
93333,-92.5925925925926,4,1,0,5,0,0
93355,-94.3396226415094,4,1,0,5,0,0
93376,-98.0392156862745,4,1,0,5,0,0
93398,-102.040816326531,4,1,0,5,0,0
93419,-106.382978723404,4,1,0,5,0,0
93441,-113.636363636364,4,1,0,5,0,0
93462,-121.951219512195,4,1,0,5,0,0
93484,-131.578947368421,4,1,0,5,0,0
93505,-142.857142857143,4,1,0,5,0,0
93526,-131.578947368421,4,1,0,5,0,0
93548,-121.951219512195,4,1,0,5,0,0
93569,-113.636363636364,4,1,0,5,0,0
93591,-106.382978723404,4,1,0,5,0,0
93612,-102.040816326531,4,1,0,5,0,0
93634,-98.0392156862745,4,1,0,5,0,0
93655,-94.3396226415094,4,1,0,5,0,0
93677,-92.5925925925926,4,1,0,5,0,0
93698,-90.9090909090909,4,1,0,5,0,0
93762,-92.5925925925926,4,1,0,5,0,0
93784,-94.3396226415094,4,1,0,5,0,0
93805,-98.0392156862745,4,1,0,5,0,0
93827,-102.040816326531,4,1,0,5,0,0
93848,-106.382978723404,4,1,0,5,0,0
93870,-113.636363636364,4,1,0,5,0,0
93891,-121.951219512195,4,1,0,5,0,0
93913,-131.578947368421,4,1,0,5,0,0
93934,-142.857142857143,4,1,0,5,0,0
93955,-131.578947368421,4,1,0,5,0,0
93977,-121.951219512195,4,1,0,5,0,0
93998,-113.636363636364,4,1,0,5,0,0
94020,-106.382978723404,4,1,0,5,0,0
94041,-102.040816326531,4,1,0,5,0,0
94063,-98.0392156862745,4,1,0,5,0,0
94084,-94.3396226415094,4,1,0,5,0,0
94106,-92.5925925925926,4,1,0,5,0,0
94127,-90.9090909090909,4,1,0,5,0,0
94191,-92.5925925925926,4,1,0,5,0,0
94213,-94.3396226415094,4,1,0,5,0,0
94234,-98.0392156862745,4,1,0,5,0,0
94256,-102.040816326531,4,1,0,5,0,0
94277,-106.382978723404,4,1,0,5,0,0
94299,-113.636363636364,4,1,0,5,0,0
94320,-121.951219512195,4,1,0,5,0,0
94342,-131.578947368421,4,1,0,5,0,0
94363,-142.857142857143,4,1,0,5,0,0
94384,-131.578947368421,4,1,0,5,0,0
94406,-121.951219512195,4,1,0,5,0,0
94427,-113.636363636364,4,1,0,5,0,0
94449,-106.382978723404,4,1,0,5,0,0
94470,-102.040816326531,4,1,0,5,0,0
94492,-98.0392156862745,4,1,0,5,0,0
94513,-94.3396226415094,4,1,0,5,0,0
94535,-92.5925925925926,4,1,0,5,0,0
94556,-90.9090909090909,4,1,0,5,0,0
94620,-92.5925925925926,4,1,0,5,0,0
94642,-94.3396226415094,4,1,0,5,0,0
94663,-98.0392156862745,4,1,0,5,0,0
94685,-102.040816326531,4,1,0,5,0,0
94706,-106.382978723404,4,1,0,5,0,0
94728,-113.636363636364,4,1,0,5,0,0
94749,-121.951219512195,4,1,0,5,0,0
94771,-131.578947368421,4,1,0,5,0,0
94792,-142.857142857143,4,1,0,5,0,0
94813,-131.578947368421,4,1,0,5,0,0
94835,-121.951219512195,4,1,0,5,0,0
94856,-113.636363636364,4,1,0,5,0,0
94878,-106.382978723404,4,1,0,5,0,0
94899,-102.040816326531,4,1,0,5,0,0
94921,-98.0392156862745,4,1,0,5,0,0
94942,-94.3396226415094,4,1,0,5,0,0
94964,-92.5925925925926,4,1,0,5,0,0
94985,-90.9090909090909,4,1,0,5,0,0
95049,-92.5925925925926,4,1,0,5,0,0
95071,-94.3396226415094,4,1,0,5,0,0
95092,-98.0392156862745,4,1,0,5,0,0
95114,-102.040816326531,4,1,0,5,0,0
95135,-106.382978723404,4,1,0,5,0,0
95157,-113.636363636364,4,1,0,5,0,0
95178,-121.951219512195,4,1,0,5,0,0
95200,-131.578947368421,4,1,0,5,0,0
97361,-100,4,1,0,5,0,0
97375.3,-100,4,1,0,5,0,0
97389.6,-100,4,1,0,5,0,0
97403.9,-99.009900990099,4,1,0,5,0,0
97418.2,-98.0392156862745,4,1,0,5,0,0
97432.5,-97.0873786407767,4,1,0,5,0,0
97446.8,-96.1538461538461,4,1,0,5,0,0
97461.1,-95.2380952380952,4,1,0,5,0,0
97475.4,-93.4579439252336,4,1,0,5,0,0
97489.7,-91.743119266055,4,1,0,5,0,0
97504,-90.0900900900901,4,1,0,5,0,0
97518.3,-88.495575221239,4,1,0,5,0,0
97532.6,-86.2068965517241,4,1,0,5,0,0
97546.9,-84.0336134453782,4,1,0,5,0,0
97561.2,-81.9672131147541,4,1,0,5,0,0
97575.5,-80,4,1,0,5,0,0
97589.8,-78.125,4,1,0,5,0,0
97604.1,-75.7575757575758,4,1,0,5,0,0
97618.4,-73.5294117647059,4,1,0,5,0,0
97632.7,-71.4285714285714,4,1,0,5,0,0
97647,-69.4444444444444,4,1,0,5,0,0
97661.3,-67.1140939597315,4,1,0,5,0,0
97675.6,-64.9350649350649,4,1,0,5,0,0
97689.9,-62.8930817610063,4,1,0,5,0,0
97704.2,-60.9756097560976,4,1,0,5,0,0
97718.5,-59.1715976331361,4,1,0,5,0,0
97732.8,-57.1428571428571,4,1,0,5,0,0
97747.1,-55.2486187845304,4,1,0,5,0,0
97761.4,-53.475935828877,4,1,0,5,0,0
97775.7,-51.8134715025907,4,1,0,5,0,0
97790,-50,4,1,0,5,0,0
97897,-100,4,1,0,5,0,0
99075,-100,4,1,0,5,0,0
99089.3,-100,4,1,0,5,0,0
99103.6,-100,4,1,0,5,0,0
99117.9,-99.009900990099,4,1,0,5,0,0
99132.2,-98.0392156862745,4,1,0,5,0,0
99146.5,-97.0873786407767,4,1,0,5,0,0
99160.8,-96.1538461538461,4,1,0,5,0,0
99175.1,-95.2380952380952,4,1,0,5,0,0
99189.4,-93.4579439252336,4,1,0,5,0,0
99203.7,-91.743119266055,4,1,0,5,0,0
99218,-90.0900900900901,4,1,0,5,0,0
99232.3,-88.495575221239,4,1,0,5,0,0
99246.6,-86.2068965517241,4,1,0,5,0,0
99260.9,-84.0336134453782,4,1,0,5,0,0
99275.2,-81.9672131147541,4,1,0,5,0,0
99289.5,-80,4,1,0,5,0,0
99303.8,-78.125,4,1,0,5,0,0
99318.1,-75.7575757575758,4,1,0,5,0,0
99332.4,-73.5294117647059,4,1,0,5,0,0
99346.7,-71.4285714285714,4,1,0,5,0,0
99361,-69.4444444444444,4,1,0,5,0,0
99375.3,-67.1140939597315,4,1,0,5,0,0
99389.6,-64.9350649350649,4,1,0,5,0,0
99403.9,-62.8930817610063,4,1,0,5,0,0
99418.2,-60.9756097560976,4,1,0,5,0,0
99432.5,-59.1715976331361,4,1,0,5,0,0
99446.8,-57.1428571428571,4,1,0,5,0,0
99461.1,-55.2486187845304,4,1,0,5,0,0
99475.4,-53.475935828877,4,1,0,5,0,0
99489.7,-51.8134715025907,4,1,0,5,0,0
99504,-50,4,1,0,5,0,0
99611,-100,4,1,0,5,0,0
100790,-100,4,1,0,5,0,0
100804.266666667,-100,4,1,0,5,0,0
100818.533333333,-100,4,1,0,5,0,0
100832.8,-99.009900990099,4,1,0,5,0,0
100847.066666667,-98.0392156862745,4,1,0,5,0,0
100861.333333333,-97.0873786407767,4,1,0,5,0,0
100875.6,-96.1538461538461,4,1,0,5,0,0
100889.866666667,-95.2380952380952,4,1,0,5,0,0
100904.133333333,-93.4579439252336,4,1,0,5,0,0
100918.4,-91.743119266055,4,1,0,5,0,0
100932.666666667,-90.0900900900901,4,1,0,5,0,0
100946.933333333,-88.495575221239,4,1,0,5,0,0
100961.2,-86.2068965517241,4,1,0,5,0,0
100975.466666667,-84.0336134453782,4,1,0,5,0,0
100989.733333333,-81.9672131147541,4,1,0,5,0,0
101004,-80,4,1,0,5,0,0
101018.266666667,-78.125,4,1,0,5,0,0
101032.533333333,-75.7575757575758,4,1,0,5,0,0
101046.8,-73.5294117647059,4,1,0,5,0,0
101061.066666667,-71.4285714285714,4,1,0,5,0,0
101075.333333333,-69.4444444444444,4,1,0,5,0,0
101089.6,-67.1140939597315,4,1,0,5,0,0
101103.866666667,-64.9350649350649,4,1,0,5,0,0
101118.133333333,-62.8930817610063,4,1,0,5,0,0
101132.4,-60.9756097560976,4,1,0,5,0,0
101146.666666667,-59.1715976331361,4,1,0,5,0,0
101160.933333333,-57.1428571428571,4,1,0,5,0,0
101175.2,-55.2486187845304,4,1,0,5,0,0
101189.466666667,-53.475935828877,4,1,0,5,0,0
101203.733333333,-51.8134715025907,4,1,0,5,0,0
101218,-50,4,1,0,5,0,0
101325,-100,4,1,0,5,0,0
102504,-100,4,1,0,5,0,0
102518.3,-100,4,1,0,5,0,0
102532.6,-100,4,1,0,5,0,0
102546.9,-99.009900990099,4,1,0,5,0,0
102561.2,-98.0392156862745,4,1,0,5,0,0
102575.5,-97.0873786407767,4,1,0,5,0,0
102589.8,-96.1538461538461,4,1,0,5,0,0
102604.1,-95.2380952380952,4,1,0,5,0,0
102618.4,-93.4579439252336,4,1,0,5,0,0
102632.7,-91.743119266055,4,1,0,5,0,0
102647,-90.0900900900901,4,1,0,5,0,0
102661.3,-88.495575221239,4,1,0,5,0,0
102675.6,-86.2068965517241,4,1,0,5,0,0
102689.9,-84.0336134453782,4,1,0,5,0,0
102704.2,-81.9672131147541,4,1,0,5,0,0
102718.5,-80,4,1,0,5,0,0
102732.8,-78.125,4,1,0,5,0,0
102747.1,-75.7575757575758,4,1,0,5,0,0
102761.4,-73.5294117647059,4,1,0,5,0,0
102775.7,-71.4285714285714,4,1,0,5,0,0
102790,-69.4444444444444,4,1,0,5,0,0
102804.3,-67.1140939597315,4,1,0,5,0,0
102818.6,-64.9350649350649,4,1,0,5,0,0
102832.9,-62.8930817610063,4,1,0,5,0,0
102847.2,-60.9756097560976,4,1,0,5,0,0
102861.5,-59.1715976331361,4,1,0,5,0,0
102875.8,-57.1428571428571,4,1,0,5,0,0
102890.1,-55.2486187845304,4,1,0,5,0,0
102904.4,-53.475935828877,4,1,0,5,0,0
102918.7,-51.8134715025907,4,1,0,5,0,0
102933,-50,4,1,0,5,0,0
103040,-100,4,1,0,5,0,0
104218,-100,4,1,0,5,0,0
104232.3,-100,4,1,0,5,0,0
104246.6,-100,4,1,0,5,0,0
104260.9,-99.009900990099,4,1,0,5,0,0
104275.2,-98.0392156862745,4,1,0,5,0,0
104289.5,-97.0873786407767,4,1,0,5,0,0
104303.8,-96.1538461538461,4,1,0,5,0,0
104318.1,-95.2380952380952,4,1,0,5,0,0
104332.4,-93.4579439252336,4,1,0,5,0,0
104346.7,-91.743119266055,4,1,0,5,0,0
104361,-90.0900900900901,4,1,0,5,0,0
104375.3,-88.495575221239,4,1,0,5,0,0
104389.6,-86.2068965517241,4,1,0,5,0,0
104403.9,-84.0336134453782,4,1,0,5,0,0
104418.2,-81.9672131147541,4,1,0,5,0,0
104432.5,-80,4,1,0,5,0,0
104446.8,-78.125,4,1,0,5,0,0
104461.1,-75.7575757575758,4,1,0,5,0,0
104475.4,-73.5294117647059,4,1,0,5,0,0
104489.7,-71.4285714285714,4,1,0,5,0,0
104504,-69.4444444444444,4,1,0,5,0,0
104518.3,-67.1140939597315,4,1,0,5,0,0
104532.6,-64.9350649350649,4,1,0,5,0,0
104546.9,-62.8930817610063,4,1,0,5,0,0
104561.2,-60.9756097560976,4,1,0,5,0,0
104575.5,-59.1715976331361,4,1,0,5,0,0
104589.8,-57.1428571428571,4,1,0,5,0,0
104604.1,-55.2486187845304,4,1,0,5,0,0
104618.4,-53.475935828877,4,1,0,5,0,0
104632.7,-51.8134715025907,4,1,0,5,0,0
104647,-50,4,1,0,5,0,0
104754,-100,4,1,0,5,0,0
105933,-100,4,1,0,5,0,0
105947.266666667,-100,4,1,0,5,0,0
105961.533333333,-100,4,1,0,5,0,0
105975.8,-99.009900990099,4,1,0,5,0,0
105990.066666667,-98.0392156862745,4,1,0,5,0,0
106004.333333333,-97.0873786407767,4,1,0,5,0,0
106018.6,-96.1538461538461,4,1,0,5,0,0
106032.866666667,-95.2380952380952,4,1,0,5,0,0
106047.133333333,-93.4579439252336,4,1,0,5,0,0
106061.4,-91.743119266055,4,1,0,5,0,0
106075.666666667,-90.0900900900901,4,1,0,5,0,0
106089.933333333,-88.495575221239,4,1,0,5,0,0
106104.2,-86.2068965517241,4,1,0,5,0,0
106118.466666667,-84.0336134453782,4,1,0,5,0,0
106132.733333333,-81.9672131147541,4,1,0,5,0,0
106147,-80,4,1,0,5,0,0
106161.266666667,-78.125,4,1,0,5,0,0
106175.533333333,-75.7575757575758,4,1,0,5,0,0
106189.8,-73.5294117647059,4,1,0,5,0,0
106204.066666667,-71.4285714285714,4,1,0,5,0,0
106218.333333333,-69.4444444444444,4,1,0,5,0,0
106232.6,-67.1140939597315,4,1,0,5,0,0
106246.866666667,-64.9350649350649,4,1,0,5,0,0
106261.133333333,-62.8930817610063,4,1,0,5,0,0
106275.4,-60.9756097560976,4,1,0,5,0,0
106289.666666667,-59.1715976331361,4,1,0,5,0,0
106303.933333333,-57.1428571428571,4,1,0,5,0,0
106318.2,-55.2486187845304,4,1,0,5,0,0
106332.466666667,-53.475935828877,4,1,0,5,0,0
106346.733333333,-51.8134715025907,4,1,0,5,0,0
106361,-50,4,1,0,5,0,0
106468,-100,4,1,0,5,0,0
107647,-100,4,1,0,5,0,0
107661.266666667,-100,4,1,0,5,0,0
107675.533333333,-100,4,1,0,5,0,0
107689.8,-99.009900990099,4,1,0,5,0,0
107704.066666667,-98.0392156862745,4,1,0,5,0,0
107718.333333333,-97.0873786407767,4,1,0,5,0,0
107732.6,-96.1538461538461,4,1,0,5,0,0
107746.866666667,-95.2380952380952,4,1,0,5,0,0
107761.133333333,-93.4579439252336,4,1,0,5,0,0
107775.4,-91.743119266055,4,1,0,5,0,0
107789.666666667,-90.0900900900901,4,1,0,5,0,0
107803.933333333,-88.495575221239,4,1,0,5,0,0
107818.2,-86.2068965517241,4,1,0,5,0,0
107832.466666667,-84.0336134453782,4,1,0,5,0,0
107846.733333333,-81.9672131147541,4,1,0,5,0,0
107861,-80,4,1,0,5,0,0
107875.266666667,-78.125,4,1,0,5,0,0
107889.533333333,-75.7575757575758,4,1,0,5,0,0
107903.8,-73.5294117647059,4,1,0,5,0,0
107918.066666667,-71.4285714285714,4,1,0,5,0,0
107932.333333333,-69.4444444444444,4,1,0,5,0,0
107946.6,-67.1140939597315,4,1,0,5,0,0
107960.866666667,-64.9350649350649,4,1,0,5,0,0
107975.133333333,-62.8930817610063,4,1,0,5,0,0
107989.4,-60.9756097560976,4,1,0,5,0,0
108003.666666667,-59.1715976331361,4,1,0,5,0,0
108017.933333333,-57.1428571428571,4,1,0,5,0,0
108032.2,-55.2486187845304,4,1,0,5,0,0
108046.466666667,-53.475935828877,4,1,0,5,0,0
108060.733333333,-51.8134715025907,4,1,0,5,0,0
108075,-50,4,1,0,5,0,0
108183,-100,4,1,0,5,0,0
109361,-100,4,1,0,5,0,0
109375.266666667,-100,4,1,0,5,0,0
109389.533333333,-100,4,1,0,5,0,0
109403.8,-99.009900990099,4,1,0,5,0,0
109418.066666667,-98.0392156862745,4,1,0,5,0,0
109432.333333333,-97.0873786407767,4,1,0,5,0,0
109446.6,-96.1538461538461,4,1,0,5,0,0
109460.866666667,-95.2380952380952,4,1,0,5,0,0
109475.133333333,-93.4579439252336,4,1,0,5,0,0
109489.4,-91.743119266055,4,1,0,5,0,0
109503.666666667,-90.0900900900901,4,1,0,5,0,0
109517.933333333,-88.495575221239,4,1,0,5,0,0
109532.2,-86.2068965517241,4,1,0,5,0,0
109546.466666667,-84.0336134453782,4,1,0,5,0,0
109560.733333333,-81.9672131147541,4,1,0,5,0,0
109575,-80,4,1,0,5,0,0
109589.266666667,-78.125,4,1,0,5,0,0
109603.533333333,-75.7575757575758,4,1,0,5,0,0
109617.8,-73.5294117647059,4,1,0,5,0,0
109632.066666667,-71.4285714285714,4,1,0,5,0,0
109646.333333333,-69.4444444444444,4,1,0,5,0,0
109660.6,-67.1140939597315,4,1,0,5,0,0
109674.866666667,-64.9350649350649,4,1,0,5,0,0
109689.133333333,-62.8930817610063,4,1,0,5,0,0
109703.4,-60.9756097560976,4,1,0,5,0,0
109717.666666667,-59.1715976331361,4,1,0,5,0,0
109731.933333333,-57.1428571428571,4,1,0,5,0,0
109746.2,-55.2486187845304,4,1,0,5,0,0
109760.466666667,-53.475935828877,4,1,0,5,0,0
109774.733333333,-51.8134715025907,4,1,0,5,0,0
109789,-50,4,1,0,5,0,0
109897,-100,4,1,0,5,0,0
110218,-1000,4,1,0,5,0,0
112361,-1000,4,1,0,5,0,0
112378.14,-1000,4,1,0,5,0,0
112395.28,-1000,4,1,0,5,0,0
112412.42,-1000,4,1,0,5,0,0
112429.56,-909.090909090909,4,1,0,5,0,0
112446.7,-909.090909090909,4,1,0,5,0,0
112463.84,-909.090909090909,4,1,0,5,0,0
112480.98,-833.333333333333,4,1,0,5,0,0
112498.12,-833.333333333333,4,1,0,5,0,0
112515.26,-769.230769230769,4,1,0,5,0,0
112532.4,-714.285714285714,4,1,0,5,0,0
112549.54,-714.285714285714,4,1,0,5,0,0
112566.68,-666.666666666667,4,1,0,5,0,0
112583.82,-625,4,1,0,5,0,0
112600.96,-588.235294117647,4,1,0,5,0,0
112618.1,-555.555555555556,4,1,0,5,0,0
112635.24,-526.315789473684,4,1,0,5,0,0
112652.38,-500,4,1,0,5,0,0
112669.52,-454.545454545455,4,1,0,5,0,0
112686.66,-434.782608695652,4,1,0,5,0,0
112703.8,-416.666666666667,4,1,0,5,0,0
112720.94,-384.615384615385,4,1,0,5,0,0
112738.08,-370.37037037037,4,1,0,5,0,0
112755.22,-344.827586206897,4,1,0,5,0,0
112772.36,-322.58064516129,4,1,0,5,0,0
112789.5,-303.030303030303,4,1,0,5,0,0
112806.64,-294.117647058824,4,1,0,5,0,0
112823.78,-277.777777777778,4,1,0,5,0,0
112840.92,-263.157894736842,4,1,0,5,0,0
112858.06,-250,4,1,0,5,0,0
112875.2,-238.095238095238,4,1,0,5,0,0
112892.34,-222.222222222222,4,1,0,5,0,0
112909.48,-212.765957446809,4,1,0,5,0,0
112926.62,-204.081632653061,4,1,0,5,0,0
112943.76,-192.307692307692,4,1,0,5,0,0
112960.9,-185.185185185185,4,1,0,5,0,0
112978.04,-175.438596491228,4,1,0,5,0,0
112995.18,-169.491525423729,4,1,0,5,0,0
113012.32,-161.290322580645,4,1,0,5,0,0
113029.46,-153.846153846154,4,1,0,5,0,0
113046.6,-147.058823529412,4,1,0,5,0,0
113063.74,-140.845070422535,4,1,0,5,0,0
113080.88,-135.135135135135,4,1,0,5,0,0
113098.02,-129.87012987013,4,1,0,5,0,0
113115.16,-125,4,1,0,5,0,0
113132.3,-120.481927710843,4,1,0,5,0,0
113149.44,-116.279069767442,4,1,0,5,0,0
113166.58,-111.111111111111,4,1,0,5,0,0
113183.72,-107.52688172043,4,1,0,5,0,0
113200.86,-104.166666666667,4,1,0,5,0,0
113218,-100,4,1,0,5,0,0
113218,-100,4,1,0,5,0,0
113218,-100,4,1,0,5,0,0
113235.14,-100,4,1,0,5,0,0
113252.28,-100,4,1,0,5,0,0
113269.42,-100,4,1,0,5,0,0
113286.56,-100,4,1,0,5,0,0
113303.7,-100,4,1,0,5,0,0
113320.84,-101.010101010101,4,1,0,5,0,0
113337.98,-101.010101010101,4,1,0,5,0,0
113355.12,-101.010101010101,4,1,0,5,0,0
113372.26,-102.040816326531,4,1,0,5,0,0
113389.4,-102.040816326531,4,1,0,5,0,0
113406.54,-102.040816326531,4,1,0,5,0,0
113423.68,-103.092783505155,4,1,0,5,0,0
113440.82,-103.092783505155,4,1,0,5,0,0
113457.96,-104.166666666667,4,1,0,5,0,0
113475.1,-104.166666666667,4,1,0,5,0,0
113492.24,-105.263157894737,4,1,0,5,0,0
113509.38,-106.382978723404,4,1,0,5,0,0
113526.52,-106.382978723404,4,1,0,5,0,0
113543.66,-107.52688172043,4,1,0,5,0,0
113560.8,-108.695652173913,4,1,0,5,0,0
113577.94,-109.89010989011,4,1,0,5,0,0
113595.08,-111.111111111111,4,1,0,5,0,0
113612.22,-112.359550561798,4,1,0,5,0,0
113629.36,-113.636363636364,4,1,0,5,0,0
113646.5,-113.636363636364,4,1,0,5,0,0
113663.64,-116.279069767442,4,1,0,5,0,0
113680.78,-117.647058823529,4,1,0,5,0,0
113697.92,-119.047619047619,4,1,0,5,0,0
113715.06,-120.481927710843,4,1,0,5,0,0
113732.2,-121.951219512195,4,1,0,5,0,0
113749.34,-123.456790123457,4,1,0,5,0,0
113766.48,-125,4,1,0,5,0,0
113783.62,-128.205128205128,4,1,0,5,0,0
113800.76,-129.87012987013,4,1,0,5,0,0
113817.9,-131.578947368421,4,1,0,5,0,0
113835.04,-135.135135135135,4,1,0,5,0,0
113852.18,-136.986301369863,4,1,0,5,0,0
113869.32,-140.845070422535,4,1,0,5,0,0
113886.46,-142.857142857143,4,1,0,5,0,0
113903.6,-147.058823529412,4,1,0,5,0,0
113920.74,-151.515151515152,4,1,0,5,0,0
113937.88,-153.846153846154,4,1,0,5,0,0
113955.02,-158.730158730159,4,1,0,5,0,0
113972.16,-163.934426229508,4,1,0,5,0,0
113989.3,-166.666666666667,4,1,0,5,0,0
114006.44,-172.413793103448,4,1,0,5,0,0
114023.58,-178.571428571429,4,1,0,5,0,0
114040.72,-185.185185185185,4,1,0,5,0,0
114057.86,-192.307692307692,4,1,0,5,0,0
114075,-200,4,1,0,5,0,0
114075,-200,4,1,0,5,0,0
114087.86,-200,4,1,0,5,0,0
114100.72,-200,4,1,0,5,0,0
114113.58,-200,4,1,0,5,0,0
114126.44,-200,4,1,0,5,0,0
114139.3,-196.078431372549,4,1,0,5,0,0
114152.16,-196.078431372549,4,1,0,5,0,0
114165.02,-196.078431372549,4,1,0,5,0,0
114177.88,-192.307692307692,4,1,0,5,0,0
114190.74,-192.307692307692,4,1,0,5,0,0
114203.6,-188.679245283019,4,1,0,5,0,0
114216.46,-185.185185185185,4,1,0,5,0,0
114229.32,-185.185185185185,4,1,0,5,0,0
114242.18,-181.818181818182,4,1,0,5,0,0
114255.04,-178.571428571429,4,1,0,5,0,0
114267.9,-175.438596491228,4,1,0,5,0,0
114280.76,-172.413793103448,4,1,0,5,0,0
114293.62,-169.491525423729,4,1,0,5,0,0
114306.48,-166.666666666667,4,1,0,5,0,0
114319.34,-163.934426229508,4,1,0,5,0,0
114332.2,-161.290322580645,4,1,0,5,0,0
114345.06,-158.730158730159,4,1,0,5,0,0
114357.92,-153.846153846154,4,1,0,5,0,0
114370.78,-151.515151515152,4,1,0,5,0,0
114383.64,-149.253731343284,4,1,0,5,0,0
114396.5,-144.927536231884,4,1,0,5,0,0
114409.36,-142.857142857143,4,1,0,5,0,0
114422.22,-138.888888888889,4,1,0,5,0,0
114435.08,-135.135135135135,4,1,0,5,0,0
114447.94,-133.333333333333,4,1,0,5,0,0
114460.8,-129.87012987013,4,1,0,5,0,0
114473.66,-126.582278481013,4,1,0,5,0,0
114486.52,-123.456790123457,4,1,0,5,0,0
114499.38,-120.481927710843,4,1,0,5,0,0
114512.24,-117.647058823529,4,1,0,5,0,0
114525.1,-114.942528735632,4,1,0,5,0,0
114537.96,-112.359550561798,4,1,0,5,0,0
114550.82,-109.89010989011,4,1,0,5,0,0
114563.68,-107.52688172043,4,1,0,5,0,0
114576.54,-104.166666666667,4,1,0,5,0,0
114589.4,-102.040816326531,4,1,0,5,0,0
114602.26,-100,4,1,0,5,0,0
114615.12,-97.0873786407767,4,1,0,5,0,0
114627.98,-95.2380952380952,4,1,0,5,0,0
114640.84,-92.5925925925926,4,1,0,5,0,0
114653.7,-90.0900900900901,4,1,0,5,0,0
114666.56,-88.495575221239,4,1,0,5,0,0
114679.42,-86.2068965517241,4,1,0,5,0,0
114692.28,-84.0336134453782,4,1,0,5,0,0
114705.14,-81.9672131147541,4,1,0,5,0,0
114718,-80,4,1,0,5,0,0
114718,-80,4,1,0,5,0,0
114730.86,-80,4,1,0,5,0,0
114743.72,-80,4,1,0,5,0,0
114756.58,-80,4,1,0,5,0,0
114769.44,-80,4,1,0,5,0,0
114782.3,-80,4,1,0,5,0,0
114795.16,-80,4,1,0,5,0,0
114808.02,-80,4,1,0,5,0,0
114820.88,-80.6451612903226,4,1,0,5,0,0
114833.74,-80.6451612903226,4,1,0,5,0,0
114846.6,-80.6451612903226,4,1,0,5,0,0
114859.46,-80.6451612903226,4,1,0,5,0,0
114872.32,-80.6451612903226,4,1,0,5,0,0
114885.18,-81.3008130081301,4,1,0,5,0,0
114898.04,-81.3008130081301,4,1,0,5,0,0
114910.9,-81.3008130081301,4,1,0,5,0,0
114923.76,-81.9672131147541,4,1,0,5,0,0
114936.62,-81.9672131147541,4,1,0,5,0,0
114949.48,-81.9672131147541,4,1,0,5,0,0
114962.34,-82.6446280991736,4,1,0,5,0,0
114975.2,-82.6446280991736,4,1,0,5,0,0
114988.06,-82.6446280991736,4,1,0,5,0,0
115000.92,-83.3333333333333,4,1,0,5,0,0
115013.78,-83.3333333333333,4,1,0,5,0,0
115026.64,-84.0336134453782,4,1,0,5,0,0
115039.5,-84.0336134453782,4,1,0,5,0,0
115052.36,-84.7457627118644,4,1,0,5,0,0
115065.22,-84.7457627118644,4,1,0,5,0,0
115078.08,-85.4700854700855,4,1,0,5,0,0
115090.94,-85.4700854700855,4,1,0,5,0,0
115103.8,-86.2068965517241,4,1,0,5,0,0
115116.66,-86.9565217391304,4,1,0,5,0,0
115129.52,-86.9565217391304,4,1,0,5,0,0
115142.38,-87.719298245614,4,1,0,5,0,0
115155.24,-88.495575221239,4,1,0,5,0,0
115168.1,-88.495575221239,4,1,0,5,0,0
115180.96,-89.2857142857143,4,1,0,5,0,0
115193.82,-90.0900900900901,4,1,0,5,0,0
115206.68,-90.0900900900901,4,1,0,5,0,0
115219.54,-90.9090909090909,4,1,0,5,0,0
115232.4,-91.743119266055,4,1,0,5,0,0
115245.26,-92.5925925925926,4,1,0,5,0,0
115258.12,-93.4579439252336,4,1,0,5,0,0
115270.98,-93.4579439252336,4,1,0,5,0,0
115283.84,-94.3396226415094,4,1,0,5,0,0
115296.7,-95.2380952380952,4,1,0,5,0,0
115309.56,-96.1538461538461,4,1,0,5,0,0
115322.42,-97.0873786407767,4,1,0,5,0,0
115335.28,-98.0392156862745,4,1,0,5,0,0
115348.14,-99.009900990099,4,1,0,5,0,0
115361,-100,4,1,0,5,0,0
115361,-100,4,1,0,5,0,0
115378.14,-100,4,1,0,5,0,0
115395.28,-100,4,1,0,5,0,0
115412.42,-100,4,1,0,5,0,0
115429.56,-100,4,1,0,5,0,0
115446.7,-100,4,1,0,5,0,0
115463.84,-101.010101010101,4,1,0,5,0,0
115480.98,-101.010101010101,4,1,0,5,0,0
115498.12,-101.010101010101,4,1,0,5,0,0
115515.26,-102.040816326531,4,1,0,5,0,0
115532.4,-102.040816326531,4,1,0,5,0,0
115549.54,-102.040816326531,4,1,0,5,0,0
115566.68,-103.092783505155,4,1,0,5,0,0
115583.82,-103.092783505155,4,1,0,5,0,0
115600.96,-104.166666666667,4,1,0,5,0,0
115618.1,-104.166666666667,4,1,0,5,0,0
115635.24,-105.263157894737,4,1,0,5,0,0
115652.38,-106.382978723404,4,1,0,5,0,0
115669.52,-106.382978723404,4,1,0,5,0,0
115686.66,-107.52688172043,4,1,0,5,0,0
115703.8,-108.695652173913,4,1,0,5,0,0
115720.94,-109.89010989011,4,1,0,5,0,0
115738.08,-111.111111111111,4,1,0,5,0,0
115755.22,-112.359550561798,4,1,0,5,0,0
115772.36,-113.636363636364,4,1,0,5,0,0
115789.5,-113.636363636364,4,1,0,5,0,0
115806.64,-116.279069767442,4,1,0,5,0,0
115823.78,-117.647058823529,4,1,0,5,0,0
115840.92,-119.047619047619,4,1,0,5,0,0
115858.06,-120.481927710843,4,1,0,5,0,0
115875.2,-121.951219512195,4,1,0,5,0,0
115892.34,-123.456790123457,4,1,0,5,0,0
115909.48,-125,4,1,0,5,0,0
115926.62,-128.205128205128,4,1,0,5,0,0
115943.76,-129.87012987013,4,1,0,5,0,0
115960.9,-131.578947368421,4,1,0,5,0,0
115978.04,-135.135135135135,4,1,0,5,0,0
115995.18,-136.986301369863,4,1,0,5,0,0
116012.32,-140.845070422535,4,1,0,5,0,0
116029.46,-142.857142857143,4,1,0,5,0,0
116046.6,-147.058823529412,4,1,0,5,0,0
116063.74,-151.515151515152,4,1,0,5,0,0
116080.88,-153.846153846154,4,1,0,5,0,0
116098.02,-158.730158730159,4,1,0,5,0,0
116115.16,-163.934426229508,4,1,0,5,0,0
116132.3,-166.666666666667,4,1,0,5,0,0
116149.44,-172.413793103448,4,1,0,5,0,0
116166.58,-178.571428571429,4,1,0,5,0,0
116183.72,-185.185185185185,4,1,0,5,0,0
116200.86,-192.307692307692,4,1,0,5,0,0
116218,-200,4,1,0,5,0,0
116218,-200,4,1,0,5,0,0
116235.14,-200,4,1,0,5,0,0
116252.28,-200,4,1,0,5,0,0
116269.42,-200,4,1,0,5,0,0
116286.56,-200,4,1,0,5,0,0
116303.7,-196.078431372549,4,1,0,5,0,0
116320.84,-196.078431372549,4,1,0,5,0,0
116337.98,-196.078431372549,4,1,0,5,0,0
116355.12,-192.307692307692,4,1,0,5,0,0
116372.26,-192.307692307692,4,1,0,5,0,0
116389.4,-188.679245283019,4,1,0,5,0,0
116406.54,-185.185185185185,4,1,0,5,0,0
116423.68,-185.185185185185,4,1,0,5,0,0
116440.82,-181.818181818182,4,1,0,5,0,0
116457.96,-178.571428571429,4,1,0,5,0,0
116475.1,-175.438596491228,4,1,0,5,0,0
116492.24,-172.413793103448,4,1,0,5,0,0
116509.38,-169.491525423729,4,1,0,5,0,0
116526.52,-166.666666666667,4,1,0,5,0,0
116543.66,-163.934426229508,4,1,0,5,0,0
116560.8,-161.290322580645,4,1,0,5,0,0
116577.94,-158.730158730159,4,1,0,5,0,0
116595.08,-153.846153846154,4,1,0,5,0,0
116612.22,-151.515151515152,4,1,0,5,0,0
116629.36,-149.253731343284,4,1,0,5,0,0
116646.5,-144.927536231884,4,1,0,5,0,0
116663.64,-142.857142857143,4,1,0,5,0,0
116680.78,-138.888888888889,4,1,0,5,0,0
116697.92,-135.135135135135,4,1,0,5,0,0
116715.06,-133.333333333333,4,1,0,5,0,0
116732.2,-129.87012987013,4,1,0,5,0,0
116749.34,-126.582278481013,4,1,0,5,0,0
116766.48,-123.456790123457,4,1,0,5,0,0
116783.62,-120.481927710843,4,1,0,5,0,0
116800.76,-117.647058823529,4,1,0,5,0,0
116817.9,-114.942528735632,4,1,0,5,0,0
116835.04,-112.359550561798,4,1,0,5,0,0
116852.18,-109.89010989011,4,1,0,5,0,0
116869.32,-107.52688172043,4,1,0,5,0,0
116886.46,-104.166666666667,4,1,0,5,0,0
116903.6,-102.040816326531,4,1,0,5,0,0
116920.74,-100,4,1,0,5,0,0
116937.88,-97.0873786407767,4,1,0,5,0,0
116955.02,-95.2380952380952,4,1,0,5,0,0
116972.16,-92.5925925925926,4,1,0,5,0,0
116989.3,-90.0900900900901,4,1,0,5,0,0
117006.44,-88.495575221239,4,1,0,5,0,0
117023.58,-86.2068965517241,4,1,0,5,0,0
117040.72,-84.0336134453782,4,1,0,5,0,0
117057.86,-81.9672131147541,4,1,0,5,0,0
117075,-80,4,1,0,5,0,0
117075,-80,4,1,0,5,0,0
117087.86,-80,4,1,0,5,0,0
117100.72,-80,4,1,0,5,0,0
117113.58,-80,4,1,0,5,0,0
117126.44,-80,4,1,0,5,0,0
117139.3,-80.6451612903226,4,1,0,5,0,0
117152.16,-80.6451612903226,4,1,0,5,0,0
117165.02,-80.6451612903226,4,1,0,5,0,0
117177.88,-81.3008130081301,4,1,0,5,0,0
117190.74,-81.3008130081301,4,1,0,5,0,0
117203.6,-81.9672131147541,4,1,0,5,0,0
117216.46,-82.6446280991736,4,1,0,5,0,0
117229.32,-82.6446280991736,4,1,0,5,0,0
117242.18,-83.3333333333333,4,1,0,5,0,0
117255.04,-84.0336134453782,4,1,0,5,0,0
117267.9,-84.7457627118644,4,1,0,5,0,0
117280.76,-85.4700854700855,4,1,0,5,0,0
117293.62,-86.2068965517241,4,1,0,5,0,0
117306.48,-86.9565217391304,4,1,0,5,0,0
117319.34,-87.719298245614,4,1,0,5,0,0
117332.2,-88.495575221239,4,1,0,5,0,0
117345.06,-89.2857142857143,4,1,0,5,0,0
117357.92,-90.9090909090909,4,1,0,5,0,0
117370.78,-91.743119266055,4,1,0,5,0,0
117383.64,-92.5925925925926,4,1,0,5,0,0
117396.5,-94.3396226415094,4,1,0,5,0,0
117409.36,-95.2380952380952,4,1,0,5,0,0
117422.22,-97.0873786407767,4,1,0,5,0,0
117435.08,-99.009900990099,4,1,0,5,0,0
117447.94,-100,4,1,0,5,0,0
117460.8,-102.040816326531,4,1,0,5,0,0
117473.66,-104.166666666667,4,1,0,5,0,0
117486.52,-106.382978723404,4,1,0,5,0,0
117499.38,-108.695652173913,4,1,0,5,0,0
117512.24,-111.111111111111,4,1,0,5,0,0
117525.1,-113.636363636364,4,1,0,5,0,0
117537.96,-116.279069767442,4,1,0,5,0,0
117550.82,-119.047619047619,4,1,0,5,0,0
117563.68,-121.951219512195,4,1,0,5,0,0
117576.54,-126.582278481013,4,1,0,5,0,0
117589.4,-129.87012987013,4,1,0,5,0,0
117602.26,-133.333333333333,4,1,0,5,0,0
117615.12,-138.888888888889,4,1,0,5,0,0
117627.98,-142.857142857143,4,1,0,5,0,0
117640.84,-149.253731343284,4,1,0,5,0,0
117653.7,-156.25,4,1,0,5,0,0
117666.56,-161.290322580645,4,1,0,5,0,0
117679.42,-169.491525423729,4,1,0,5,0,0
117692.28,-178.571428571429,4,1,0,5,0,0
117705.14,-188.679245283019,4,1,0,5,0,0
117718,-200,4,1,0,5,0,0
117718,-200,4,1,0,5,0,0
117730.86,-200,4,1,0,5,0,0
117743.72,-200,4,1,0,5,0,0
117756.58,-200,4,1,0,5,0,0
117769.44,-200,4,1,0,5,0,0
117782.3,-196.078431372549,4,1,0,5,0,0
117795.16,-196.078431372549,4,1,0,5,0,0
117808.02,-196.078431372549,4,1,0,5,0,0
117820.88,-196.078431372549,4,1,0,5,0,0
117833.74,-192.307692307692,4,1,0,5,0,0
117846.6,-192.307692307692,4,1,0,5,0,0
117859.46,-192.307692307692,4,1,0,5,0,0
117872.32,-188.679245283019,4,1,0,5,0,0
117885.18,-188.679245283019,4,1,0,5,0,0
117898.04,-185.185185185185,4,1,0,5,0,0
117910.9,-181.818181818182,4,1,0,5,0,0
117923.76,-181.818181818182,4,1,0,5,0,0
117936.62,-178.571428571429,4,1,0,5,0,0
117949.48,-178.571428571429,4,1,0,5,0,0
117962.34,-175.438596491228,4,1,0,5,0,0
117975.2,-172.413793103448,4,1,0,5,0,0
117988.06,-169.491525423729,4,1,0,5,0,0
118000.92,-166.666666666667,4,1,0,5,0,0
118013.78,-163.934426229508,4,1,0,5,0,0
118026.64,-161.290322580645,4,1,0,5,0,0
118039.5,-158.730158730159,4,1,0,5,0,0
118052.36,-156.25,4,1,0,5,0,0
118065.22,-153.846153846154,4,1,0,5,0,0
118078.08,-151.515151515152,4,1,0,5,0,0
118090.94,-149.253731343284,4,1,0,5,0,0
118103.8,-147.058823529412,4,1,0,5,0,0
118116.66,-144.927536231884,4,1,0,5,0,0
118129.52,-142.857142857143,4,1,0,5,0,0
118142.38,-138.888888888889,4,1,0,5,0,0
118155.24,-136.986301369863,4,1,0,5,0,0
118168.1,-133.333333333333,4,1,0,5,0,0
118180.96,-131.578947368421,4,1,0,5,0,0
118193.82,-129.87012987013,4,1,0,5,0,0
118206.68,-126.582278481013,4,1,0,5,0,0
118219.54,-125,4,1,0,5,0,0
118232.4,-121.951219512195,4,1,0,5,0,0
118245.26,-119.047619047619,4,1,0,5,0,0
118258.12,-117.647058823529,4,1,0,5,0,0
118270.98,-114.942528735632,4,1,0,5,0,0
118283.84,-112.359550561798,4,1,0,5,0,0
118296.7,-109.89010989011,4,1,0,5,0,0
118309.56,-108.695652173913,4,1,0,5,0,0
118322.42,-106.382978723404,4,1,0,5,0,0
118335.28,-104.166666666667,4,1,0,5,0,0
118348.14,-102.040816326531,4,1,0,5,0,0
118361,-100,4,1,0,5,0,0
118361,-100,4,1,0,5,0,0
118378.14,-100,4,1,0,5,0,0
118395.28,-100,4,1,0,5,0,0
118412.42,-100,4,1,0,5,0,0
118429.56,-100,4,1,0,5,0,0
118446.7,-100,4,1,0,5,0,0
118463.84,-101.010101010101,4,1,0,5,0,0
118480.98,-101.010101010101,4,1,0,5,0,0
118498.12,-101.010101010101,4,1,0,5,0,0
118515.26,-102.040816326531,4,1,0,5,0,0
118532.4,-102.040816326531,4,1,0,5,0,0
118549.54,-102.040816326531,4,1,0,5,0,0
118566.68,-103.092783505155,4,1,0,5,0,0
118583.82,-103.092783505155,4,1,0,5,0,0
118600.96,-104.166666666667,4,1,0,5,0,0
118618.1,-104.166666666667,4,1,0,5,0,0
118635.24,-105.263157894737,4,1,0,5,0,0
118652.38,-106.382978723404,4,1,0,5,0,0
118669.52,-106.382978723404,4,1,0,5,0,0
118686.66,-107.52688172043,4,1,0,5,0,0
118703.8,-108.695652173913,4,1,0,5,0,0
118720.94,-109.89010989011,4,1,0,5,0,0
118738.08,-111.111111111111,4,1,0,5,0,0
118755.22,-112.359550561798,4,1,0,5,0,0
118772.36,-113.636363636364,4,1,0,5,0,0
118789.5,-113.636363636364,4,1,0,5,0,0
118806.64,-116.279069767442,4,1,0,5,0,0
118823.78,-117.647058823529,4,1,0,5,0,0
118840.92,-119.047619047619,4,1,0,5,0,0
118858.06,-120.481927710843,4,1,0,5,0,0
118875.2,-121.951219512195,4,1,0,5,0,0
118892.34,-123.456790123457,4,1,0,5,0,0
118909.48,-125,4,1,0,5,0,0
118926.62,-128.205128205128,4,1,0,5,0,0
118943.76,-129.87012987013,4,1,0,5,0,0
118960.9,-131.578947368421,4,1,0,5,0,0
118978.04,-135.135135135135,4,1,0,5,0,0
118995.18,-136.986301369863,4,1,0,5,0,0
119012.32,-140.845070422535,4,1,0,5,0,0
119029.46,-142.857142857143,4,1,0,5,0,0
119046.6,-147.058823529412,4,1,0,5,0,0
119063.74,-151.515151515152,4,1,0,5,0,0
119080.88,-153.846153846154,4,1,0,5,0,0
119098.02,-158.730158730159,4,1,0,5,0,0
119115.16,-163.934426229508,4,1,0,5,0,0
119132.3,-166.666666666667,4,1,0,5,0,0
119149.44,-172.413793103448,4,1,0,5,0,0
119166.58,-178.571428571429,4,1,0,5,0,0
119183.72,-185.185185185185,4,1,0,5,0,0
119200.86,-192.307692307692,4,1,0,5,0,0
119218,-200,4,1,0,5,0,0
119218,-200,4,1,0,5,0,0
119235.14,-200,4,1,0,5,0,0
119252.28,-200,4,1,0,5,0,0
119269.42,-200,4,1,0,5,0,0
119286.56,-200,4,1,0,5,0,0
119303.7,-196.078431372549,4,1,0,5,0,0
119320.84,-196.078431372549,4,1,0,5,0,0
119337.98,-196.078431372549,4,1,0,5,0,0
119355.12,-192.307692307692,4,1,0,5,0,0
119372.26,-192.307692307692,4,1,0,5,0,0
119389.4,-188.679245283019,4,1,0,5,0,0
119406.54,-185.185185185185,4,1,0,5,0,0
119423.68,-185.185185185185,4,1,0,5,0,0
119440.82,-181.818181818182,4,1,0,5,0,0
119457.96,-178.571428571429,4,1,0,5,0,0
119475.1,-175.438596491228,4,1,0,5,0,0
119492.24,-172.413793103448,4,1,0,5,0,0
119509.38,-169.491525423729,4,1,0,5,0,0
119526.52,-166.666666666667,4,1,0,5,0,0
119543.66,-163.934426229508,4,1,0,5,0,0
119560.8,-161.290322580645,4,1,0,5,0,0
119577.94,-158.730158730159,4,1,0,5,0,0
119595.08,-153.846153846154,4,1,0,5,0,0
119612.22,-151.515151515152,4,1,0,5,0,0
119629.36,-149.253731343284,4,1,0,5,0,0
119646.5,-144.927536231884,4,1,0,5,0,0
119663.64,-142.857142857143,4,1,0,5,0,0
119680.78,-138.888888888889,4,1,0,5,0,0
119697.92,-135.135135135135,4,1,0,5,0,0
119715.06,-133.333333333333,4,1,0,5,0,0
119732.2,-129.87012987013,4,1,0,5,0,0
119749.34,-126.582278481013,4,1,0,5,0,0
119766.48,-123.456790123457,4,1,0,5,0,0
119783.62,-120.481927710843,4,1,0,5,0,0
119800.76,-117.647058823529,4,1,0,5,0,0
119817.9,-114.942528735632,4,1,0,5,0,0
119835.04,-112.359550561798,4,1,0,5,0,0
119852.18,-109.89010989011,4,1,0,5,0,0
119869.32,-107.52688172043,4,1,0,5,0,0
119886.46,-104.166666666667,4,1,0,5,0,0
119903.6,-102.040816326531,4,1,0,5,0,0
119920.74,-100,4,1,0,5,0,0
119937.88,-97.0873786407767,4,1,0,5,0,0
119955.02,-95.2380952380952,4,1,0,5,0,0
119972.16,-92.5925925925926,4,1,0,5,0,0
119989.3,-90.0900900900901,4,1,0,5,0,0
120006.44,-88.495575221239,4,1,0,5,0,0
120023.58,-86.2068965517241,4,1,0,5,0,0
120040.72,-84.0336134453782,4,1,0,5,0,0
120057.86,-81.9672131147541,4,1,0,5,0,0
120075,-80,4,1,0,5,0,0
120075,-80,4,1,0,5,0,0
120092.14,-80,4,1,0,5,0,0
120109.28,-80,4,1,0,5,0,0
120126.42,-80,4,1,0,5,0,0
120143.56,-80,4,1,0,5,0,0
120160.7,-80.6451612903226,4,1,0,5,0,0
120177.84,-80.6451612903226,4,1,0,5,0,0
120194.98,-80.6451612903226,4,1,0,5,0,0
120212.12,-81.3008130081301,4,1,0,5,0,0
120229.26,-81.3008130081301,4,1,0,5,0,0
120246.4,-81.9672131147541,4,1,0,5,0,0
120263.54,-82.6446280991736,4,1,0,5,0,0
120280.68,-82.6446280991736,4,1,0,5,0,0
120297.82,-83.3333333333333,4,1,0,5,0,0
120314.96,-84.0336134453782,4,1,0,5,0,0
120332.1,-84.7457627118644,4,1,0,5,0,0
120349.24,-85.4700854700855,4,1,0,5,0,0
120366.38,-86.2068965517241,4,1,0,5,0,0
120383.52,-86.9565217391304,4,1,0,5,0,0
120400.66,-87.719298245614,4,1,0,5,0,0
120417.8,-88.495575221239,4,1,0,5,0,0
120434.94,-89.2857142857143,4,1,0,5,0,0
120452.08,-90.9090909090909,4,1,0,5,0,0
120469.22,-91.743119266055,4,1,0,5,0,0
120486.36,-92.5925925925926,4,1,0,5,0,0
120503.5,-94.3396226415094,4,1,0,5,0,0
120520.64,-95.2380952380952,4,1,0,5,0,0
120537.78,-97.0873786407767,4,1,0,5,0,0
120554.92,-99.009900990099,4,1,0,5,0,0
120572.06,-100,4,1,0,5,0,0
120589.2,-102.040816326531,4,1,0,5,0,0
120606.34,-104.166666666667,4,1,0,5,0,0
120623.48,-106.382978723404,4,1,0,5,0,0
120640.62,-108.695652173913,4,1,0,5,0,0
120657.76,-111.111111111111,4,1,0,5,0,0
120674.9,-113.636363636364,4,1,0,5,0,0
120692.04,-116.279069767442,4,1,0,5,0,0
120709.18,-119.047619047619,4,1,0,5,0,0
120726.32,-121.951219512195,4,1,0,5,0,0
120743.46,-126.582278481013,4,1,0,5,0,0
120760.6,-129.87012987013,4,1,0,5,0,0
120777.74,-133.333333333333,4,1,0,5,0,0
120794.88,-138.888888888889,4,1,0,5,0,0
120812.02,-142.857142857143,4,1,0,5,0,0
120829.16,-149.253731343284,4,1,0,5,0,0
120846.3,-156.25,4,1,0,5,0,0
120863.44,-161.290322580645,4,1,0,5,0,0
120880.58,-169.491525423729,4,1,0,5,0,0
120897.72,-178.571428571429,4,1,0,5,0,0
120914.86,-188.679245283019,4,1,0,5,0,0
120932,-200,4,1,0,5,0,0
120932,-200,4,1,0,5,0,0
120949.14,-200,4,1,0,5,0,0
120966.28,-200,4,1,0,5,0,0
120983.42,-200,4,1,0,5,0,0
121000.56,-200,4,1,0,5,0,0
121017.7,-196.078431372549,4,1,0,5,0,0
121034.84,-196.078431372549,4,1,0,5,0,0
121051.98,-196.078431372549,4,1,0,5,0,0
121069.12,-192.307692307692,4,1,0,5,0,0
121086.26,-192.307692307692,4,1,0,5,0,0
121103.4,-188.679245283019,4,1,0,5,0,0
121120.54,-185.185185185185,4,1,0,5,0,0
121137.68,-185.185185185185,4,1,0,5,0,0
121154.82,-181.818181818182,4,1,0,5,0,0
121171.96,-178.571428571429,4,1,0,5,0,0
121189.1,-175.438596491228,4,1,0,5,0,0
121206.24,-172.413793103448,4,1,0,5,0,0
121223.38,-169.491525423729,4,1,0,5,0,0
121240.52,-166.666666666667,4,1,0,5,0,0
121257.66,-163.934426229508,4,1,0,5,0,0
121274.8,-161.290322580645,4,1,0,5,0,0
121291.94,-158.730158730159,4,1,0,5,0,0
121309.08,-153.846153846154,4,1,0,5,0,0
121326.22,-151.515151515152,4,1,0,5,0,0
121343.36,-149.253731343284,4,1,0,5,0,0
121360.5,-144.927536231884,4,1,0,5,0,0
121377.64,-142.857142857143,4,1,0,5,0,0
121394.78,-138.888888888889,4,1,0,5,0,0
121411.92,-135.135135135135,4,1,0,5,0,0
121429.06,-133.333333333333,4,1,0,5,0,0
121446.2,-129.87012987013,4,1,0,5,0,0
121463.34,-126.582278481013,4,1,0,5,0,0
121480.48,-123.456790123457,4,1,0,5,0,0
121497.62,-120.481927710843,4,1,0,5,0,0
121514.76,-117.647058823529,4,1,0,5,0,0
121531.9,-114.942528735632,4,1,0,5,0,0
121549.04,-112.359550561798,4,1,0,5,0,0
121566.18,-109.89010989011,4,1,0,5,0,0
121583.32,-107.52688172043,4,1,0,5,0,0
121600.46,-104.166666666667,4,1,0,5,0,0
121617.6,-102.040816326531,4,1,0,5,0,0
121634.74,-100,4,1,0,5,0,0
121651.88,-97.0873786407767,4,1,0,5,0,0
121669.02,-95.2380952380952,4,1,0,5,0,0
121686.16,-92.5925925925926,4,1,0,5,0,0
121703.3,-90.0900900900901,4,1,0,5,0,0
121720.44,-88.495575221239,4,1,0,5,0,0
121737.58,-86.2068965517241,4,1,0,5,0,0
121754.72,-84.0336134453782,4,1,0,5,0,0
121771.86,-81.9672131147541,4,1,0,5,0,0
121789,-80,4,1,0,5,0,0
121789,-80,4,1,0,5,0,0
121806.14,-80,4,1,0,5,0,0
121823.28,-80,4,1,0,5,0,0
121840.42,-80,4,1,0,5,0,0
121857.56,-80,4,1,0,5,0,0
121874.7,-80.6451612903226,4,1,0,5,0,0
121891.84,-80.6451612903226,4,1,0,5,0,0
121908.98,-80.6451612903226,4,1,0,5,0,0
121926.12,-81.3008130081301,4,1,0,5,0,0
121943.26,-81.3008130081301,4,1,0,5,0,0
121960.4,-81.9672131147541,4,1,0,5,0,0
121977.54,-82.6446280991736,4,1,0,5,0,0
121994.68,-82.6446280991736,4,1,0,5,0,0
122011.82,-83.3333333333333,4,1,0,5,0,0
122028.96,-84.0336134453782,4,1,0,5,0,0
122046.1,-84.7457627118644,4,1,0,5,0,0
122063.24,-85.4700854700855,4,1,0,5,0,0
122080.38,-86.2068965517241,4,1,0,5,0,0
122097.52,-86.9565217391304,4,1,0,5,0,0
122114.66,-87.719298245614,4,1,0,5,0,0
122131.8,-88.495575221239,4,1,0,5,0,0
122148.94,-89.2857142857143,4,1,0,5,0,0
122166.08,-90.9090909090909,4,1,0,5,0,0
122183.22,-91.743119266055,4,1,0,5,0,0
122200.36,-92.5925925925926,4,1,0,5,0,0
122217.5,-94.3396226415094,4,1,0,5,0,0
122234.64,-95.2380952380952,4,1,0,5,0,0
122251.78,-97.0873786407767,4,1,0,5,0,0
122268.92,-99.009900990099,4,1,0,5,0,0
122286.06,-100,4,1,0,5,0,0
122303.2,-102.040816326531,4,1,0,5,0,0
122320.34,-104.166666666667,4,1,0,5,0,0
122337.48,-106.382978723404,4,1,0,5,0,0
122354.62,-108.695652173913,4,1,0,5,0,0
122371.76,-111.111111111111,4,1,0,5,0,0
122388.9,-113.636363636364,4,1,0,5,0,0
122406.04,-116.279069767442,4,1,0,5,0,0
122423.18,-119.047619047619,4,1,0,5,0,0
122440.32,-121.951219512195,4,1,0,5,0,0
122457.46,-126.582278481013,4,1,0,5,0,0
122474.6,-129.87012987013,4,1,0,5,0,0
122491.74,-133.333333333333,4,1,0,5,0,0
122508.88,-138.888888888889,4,1,0,5,0,0
122526.02,-142.857142857143,4,1,0,5,0,0
122543.16,-149.253731343284,4,1,0,5,0,0
122560.3,-156.25,4,1,0,5,0,0
122577.44,-161.290322580645,4,1,0,5,0,0
122594.58,-169.491525423729,4,1,0,5,0,0
122611.72,-178.571428571429,4,1,0,5,0,0
122628.86,-188.679245283019,4,1,0,5,0,0
122646,-200,4,1,0,5,0,0
122646,-200,4,1,0,5,0,0
122663.14,-200,4,1,0,5,0,0
122680.28,-200,4,1,0,5,0,0
122697.42,-200,4,1,0,5,0,0
122714.56,-200,4,1,0,5,0,0
122731.7,-196.078431372549,4,1,0,5,0,0
122748.84,-196.078431372549,4,1,0,5,0,0
122765.98,-196.078431372549,4,1,0,5,0,0
122783.12,-192.307692307692,4,1,0,5,0,0
122800.26,-192.307692307692,4,1,0,5,0,0
122817.4,-188.679245283019,4,1,0,5,0,0
122834.54,-185.185185185185,4,1,0,5,0,0
122851.68,-185.185185185185,4,1,0,5,0,0
122868.82,-181.818181818182,4,1,0,5,0,0
122885.96,-178.571428571429,4,1,0,5,0,0
122903.1,-175.438596491228,4,1,0,5,0,0
122920.24,-172.413793103448,4,1,0,5,0,0
122937.38,-169.491525423729,4,1,0,5,0,0
122954.52,-166.666666666667,4,1,0,5,0,0
122971.66,-163.934426229508,4,1,0,5,0,0
122988.8,-161.290322580645,4,1,0,5,0,0
123005.94,-158.730158730159,4,1,0,5,0,0
123023.08,-153.846153846154,4,1,0,5,0,0
123040.22,-151.515151515152,4,1,0,5,0,0
123057.36,-149.253731343284,4,1,0,5,0,0
123074.5,-144.927536231884,4,1,0,5,0,0
123091.64,-142.857142857143,4,1,0,5,0,0
123108.78,-138.888888888889,4,1,0,5,0,0
123125.92,-135.135135135135,4,1,0,5,0,0
123143.06,-133.333333333333,4,1,0,5,0,0
123160.2,-129.87012987013,4,1,0,5,0,0
123177.34,-126.582278481013,4,1,0,5,0,0
123194.48,-123.456790123457,4,1,0,5,0,0
123211.62,-120.481927710843,4,1,0,5,0,0
123228.76,-117.647058823529,4,1,0,5,0,0
123245.9,-114.942528735632,4,1,0,5,0,0
123263.04,-112.359550561798,4,1,0,5,0,0
123280.18,-109.89010989011,4,1,0,5,0,0
123297.32,-107.52688172043,4,1,0,5,0,0
123314.46,-104.166666666667,4,1,0,5,0,0
123331.6,-102.040816326531,4,1,0,5,0,0
123348.74,-100,4,1,0,5,0,0
123365.88,-97.0873786407767,4,1,0,5,0,0
123383.02,-95.2380952380952,4,1,0,5,0,0
123400.16,-92.5925925925926,4,1,0,5,0,0
123417.3,-90.0900900900901,4,1,0,5,0,0
123434.44,-88.495575221239,4,1,0,5,0,0
123451.58,-86.2068965517241,4,1,0,5,0,0
123468.72,-84.0336134453782,4,1,0,5,0,0
123485.86,-81.9672131147541,4,1,0,5,0,0
123503,-80,4,1,0,5,0,0
123503,-80,4,1,0,5,0,0
123537.3,-80,4,1,0,5,0,0
123571.6,-80,4,1,0,5,0,0
123605.9,-80,4,1,0,5,0,0
123640.2,-80,4,1,0,5,0,0
123674.5,-80.6451612903226,4,1,0,5,0,0
123708.8,-80.6451612903226,4,1,0,5,0,0
123743.1,-80.6451612903226,4,1,0,5,0,0
123777.4,-81.3008130081301,4,1,0,5,0,0
123811.7,-81.3008130081301,4,1,0,5,0,0
123846,-81.9672131147541,4,1,0,5,0,0
123880.3,-82.6446280991736,4,1,0,5,0,0
123914.6,-82.6446280991736,4,1,0,5,0,0
123948.9,-83.3333333333333,4,1,0,5,0,0
123983.2,-84.0336134453782,4,1,0,5,0,0
124017.5,-84.7457627118644,4,1,0,5,0,0
124051.8,-85.4700854700855,4,1,0,5,0,0
124086.1,-86.2068965517241,4,1,0,5,0,0
124120.4,-86.9565217391304,4,1,0,5,0,0
124154.7,-87.719298245614,4,1,0,5,0,0
124189,-88.495575221239,4,1,0,5,0,0
124223.3,-89.2857142857143,4,1,0,5,0,0
124257.6,-90.9090909090909,4,1,0,5,0,0
124291.9,-91.743119266055,4,1,0,5,0,0
124326.2,-92.5925925925926,4,1,0,5,0,0
124360.5,-94.3396226415094,4,1,0,5,0,0
124394.8,-95.2380952380952,4,1,0,5,0,0
124429.1,-97.0873786407767,4,1,0,5,0,0
124463.4,-99.009900990099,4,1,0,5,0,0
124497.7,-100,4,1,0,5,0,0
124532,-102.040816326531,4,1,0,5,0,0
124566.3,-104.166666666667,4,1,0,5,0,0
124600.6,-106.382978723404,4,1,0,5,0,0
124634.9,-108.695652173913,4,1,0,5,0,0
124669.2,-111.111111111111,4,1,0,5,0,0
124703.5,-113.636363636364,4,1,0,5,0,0
124737.8,-116.279069767442,4,1,0,5,0,0
124772.1,-119.047619047619,4,1,0,5,0,0
124806.4,-121.951219512195,4,1,0,5,0,0
124840.7,-126.582278481013,4,1,0,5,0,0
124875,-129.87012987013,4,1,0,5,0,0
124909.3,-133.333333333333,4,1,0,5,0,0
124943.6,-138.888888888889,4,1,0,5,0,0
124977.9,-142.857142857143,4,1,0,5,0,0
125012.2,-149.253731343284,4,1,0,5,0,0
125046.5,-156.25,4,1,0,5,0,0
125080.8,-161.290322580645,4,1,0,5,0,0
125115.1,-169.491525423729,4,1,0,5,0,0
125149.4,-178.571428571429,4,1,0,5,0,0
125183.7,-188.679245283019,4,1,0,5,0,0
125218,-200,4,1,0,5,0,0
125235.16,-200,4,1,0,5,0,0
125252.32,-200,4,1,0,5,0,0
125269.48,-200,4,1,0,5,0,0
125286.64,-200,4,1,0,5,0,0
125303.8,-196.078431372549,4,1,0,5,0,0
125320.96,-196.078431372549,4,1,0,5,0,0
125338.12,-196.078431372549,4,1,0,5,0,0
125355.28,-192.307692307692,4,1,0,5,0,0
125372.44,-192.307692307692,4,1,0,5,0,0
125389.6,-188.679245283019,4,1,0,5,0,0
125406.76,-185.185185185185,4,1,0,5,0,0
125423.92,-185.185185185185,4,1,0,5,0,0
125441.08,-181.818181818182,4,1,0,5,0,0
125458.24,-178.571428571429,4,1,0,5,0,0
125475.4,-175.438596491228,4,1,0,5,0,0
125492.56,-172.413793103448,4,1,0,5,0,0
125509.72,-169.491525423729,4,1,0,5,0,0
125526.88,-166.666666666667,4,1,0,5,0,0
125544.04,-163.934426229508,4,1,0,5,0,0
125561.2,-161.290322580645,4,1,0,5,0,0
125578.36,-158.730158730159,4,1,0,5,0,0
125595.52,-153.846153846154,4,1,0,5,0,0
125612.68,-151.515151515152,4,1,0,5,0,0
125629.84,-149.253731343284,4,1,0,5,0,0
125647,-144.927536231884,4,1,0,5,0,0
125664.16,-142.857142857143,4,1,0,5,0,0
125681.32,-138.888888888889,4,1,0,5,0,0
125698.48,-135.135135135135,4,1,0,5,0,0
125715.64,-133.333333333333,4,1,0,5,0,0
125732.8,-129.87012987013,4,1,0,5,0,0
125749.96,-126.582278481013,4,1,0,5,0,0
125767.12,-123.456790123457,4,1,0,5,0,0
125784.28,-120.481927710843,4,1,0,5,0,0
125801.44,-117.647058823529,4,1,0,5,0,0
125818.6,-114.942528735632,4,1,0,5,0,0
125835.76,-112.359550561798,4,1,0,5,0,0
125852.92,-109.89010989011,4,1,0,5,0,0
125870.08,-107.52688172043,4,1,0,5,0,0
125887.24,-104.166666666667,4,1,0,5,0,0
125904.4,-102.040816326531,4,1,0,5,0,0
125921.56,-100,4,1,0,5,0,0
125938.72,-97.0873786407767,4,1,0,5,0,0
125955.88,-95.2380952380952,4,1,0,5,0,0
125973.04,-92.5925925925926,4,1,0,5,0,0
125990.2,-90.0900900900901,4,1,0,5,0,0
126007.36,-88.495575221239,4,1,0,5,0,0
126024.52,-86.2068965517241,4,1,0,5,0,0
126041.68,-84.0336134453782,4,1,0,5,0,0
126058.84,-81.9672131147541,4,1,0,5,0,0
126076,-80,4,1,0,5,0,0
126076,-80,4,1,0,5,0,0
126093.14,-80,4,1,0,5,0,0
126110.28,-80,4,1,0,5,0,0
126127.42,-80,4,1,0,5,0,0
126144.56,-80,4,1,0,5,0,0
126161.7,-80,4,1,0,5,0,0
126178.84,-80,4,1,0,5,0,0
126195.98,-80,4,1,0,5,0,0
126213.12,-80.6451612903226,4,1,0,5,0,0
126230.26,-80.6451612903226,4,1,0,5,0,0
126247.4,-80.6451612903226,4,1,0,5,0,0
126264.54,-80.6451612903226,4,1,0,5,0,0
126281.68,-80.6451612903226,4,1,0,5,0,0
126298.82,-81.3008130081301,4,1,0,5,0,0
126315.96,-81.3008130081301,4,1,0,5,0,0
126333.1,-81.3008130081301,4,1,0,5,0,0
126350.24,-81.9672131147541,4,1,0,5,0,0
126367.38,-81.9672131147541,4,1,0,5,0,0
126384.52,-81.9672131147541,4,1,0,5,0,0
126401.66,-82.6446280991736,4,1,0,5,0,0
126418.8,-82.6446280991736,4,1,0,5,0,0
126435.94,-82.6446280991736,4,1,0,5,0,0
126453.08,-83.3333333333333,4,1,0,5,0,0
126470.22,-83.3333333333333,4,1,0,5,0,0
126487.36,-84.0336134453782,4,1,0,5,0,0
126504.5,-84.0336134453782,4,1,0,5,0,0
126521.64,-84.7457627118644,4,1,0,5,0,0
126538.78,-84.7457627118644,4,1,0,5,0,0
126555.92,-85.4700854700855,4,1,0,5,0,0
126573.06,-85.4700854700855,4,1,0,5,0,0
126590.2,-86.2068965517241,4,1,0,5,0,0
126607.34,-86.9565217391304,4,1,0,5,0,0
126624.48,-86.9565217391304,4,1,0,5,0,0
126641.62,-87.719298245614,4,1,0,5,0,0
126658.76,-88.495575221239,4,1,0,5,0,0
126675.9,-88.495575221239,4,1,0,5,0,0
126693.04,-89.2857142857143,4,1,0,5,0,0
126710.18,-90.0900900900901,4,1,0,5,0,0
126727.32,-90.0900900900901,4,1,0,5,0,0
126744.46,-90.9090909090909,4,1,0,5,0,0
126761.6,-91.743119266055,4,1,0,5,0,0
126778.74,-92.5925925925926,4,1,0,5,0,0
126795.88,-93.4579439252336,4,1,0,5,0,0
126813.02,-93.4579439252336,4,1,0,5,0,0
126830.16,-94.3396226415094,4,1,0,5,0,0
126847.3,-95.2380952380952,4,1,0,5,0,0
126864.44,-96.1538461538461,4,1,0,5,0,0
126881.58,-97.0873786407767,4,1,0,5,0,0
126898.72,-98.0392156862745,4,1,0,5,0,0
126915.86,-99.009900990099,4,1,0,5,0,0
126933,-100,4,1,0,5,0,0
126933,-100,4,1,0,5,0,0
126933,-100,4,1,0,5,0,0
126950.14,-100,4,1,0,5,0,0
126967.28,-100,4,1,0,5,0,0
126984.42,-100,4,1,0,5,0,0
127001.56,-100,4,1,0,5,0,0
127018.7,-100,4,1,0,5,0,0
127035.84,-101.010101010101,4,1,0,5,0,0
127052.98,-101.010101010101,4,1,0,5,0,0
127070.12,-101.010101010101,4,1,0,5,0,0
127087.26,-102.040816326531,4,1,0,5,0,0
127104.4,-102.040816326531,4,1,0,5,0,0
127121.54,-102.040816326531,4,1,0,5,0,0
127138.68,-103.092783505155,4,1,0,5,0,0
127155.82,-103.092783505155,4,1,0,5,0,0
127172.96,-104.166666666667,4,1,0,5,0,0
127190.1,-104.166666666667,4,1,0,5,0,0
127207.24,-105.263157894737,4,1,0,5,0,0
127224.38,-106.382978723404,4,1,0,5,0,0
127241.52,-106.382978723404,4,1,0,5,0,0
127258.66,-107.52688172043,4,1,0,5,0,0
127275.8,-108.695652173913,4,1,0,5,0,0
127292.94,-109.89010989011,4,1,0,5,0,0
127310.08,-111.111111111111,4,1,0,5,0,0
127327.22,-112.359550561798,4,1,0,5,0,0
127344.36,-113.636363636364,4,1,0,5,0,0
127361.5,-113.636363636364,4,1,0,5,0,0
127378.64,-116.279069767442,4,1,0,5,0,0
127395.78,-117.647058823529,4,1,0,5,0,0
127412.92,-119.047619047619,4,1,0,5,0,0
127430.06,-120.481927710843,4,1,0,5,0,0
127447.2,-121.951219512195,4,1,0,5,0,0
127464.34,-123.456790123457,4,1,0,5,0,0
127481.48,-125,4,1,0,5,0,0
127498.62,-128.205128205128,4,1,0,5,0,0
127515.76,-129.87012987013,4,1,0,5,0,0
127532.9,-131.578947368421,4,1,0,5,0,0
127550.04,-135.135135135135,4,1,0,5,0,0
127567.18,-136.986301369863,4,1,0,5,0,0
127584.32,-140.845070422535,4,1,0,5,0,0
127601.46,-142.857142857143,4,1,0,5,0,0
127618.6,-147.058823529412,4,1,0,5,0,0
127635.74,-151.515151515152,4,1,0,5,0,0
127652.88,-153.846153846154,4,1,0,5,0,0
127670.02,-158.730158730159,4,1,0,5,0,0
127687.16,-163.934426229508,4,1,0,5,0,0
127704.3,-166.666666666667,4,1,0,5,0,0
127721.44,-172.413793103448,4,1,0,5,0,0
127738.58,-178.571428571429,4,1,0,5,0,0
127755.72,-185.185185185185,4,1,0,5,0,0
127772.86,-192.307692307692,4,1,0,5,0,0
127790,-200,4,1,0,5,0,0
127790,-200,4,1,0,5,0,0
127802.86,-200,4,1,0,5,0,0
127815.72,-200,4,1,0,5,0,0
127828.58,-200,4,1,0,5,0,0
127841.44,-200,4,1,0,5,0,0
127854.3,-196.078431372549,4,1,0,5,0,0
127867.16,-196.078431372549,4,1,0,5,0,0
127880.02,-196.078431372549,4,1,0,5,0,0
127892.88,-192.307692307692,4,1,0,5,0,0
127905.74,-192.307692307692,4,1,0,5,0,0
127918.6,-188.679245283019,4,1,0,5,0,0
127931.46,-185.185185185185,4,1,0,5,0,0
127944.32,-185.185185185185,4,1,0,5,0,0
127957.18,-181.818181818182,4,1,0,5,0,0
127970.04,-178.571428571429,4,1,0,5,0,0
127982.9,-175.438596491228,4,1,0,5,0,0
127995.76,-172.413793103448,4,1,0,5,0,0
128008.62,-169.491525423729,4,1,0,5,0,0
128021.48,-166.666666666667,4,1,0,5,0,0
128034.34,-163.934426229508,4,1,0,5,0,0
128047.2,-161.290322580645,4,1,0,5,0,0
128060.06,-158.730158730159,4,1,0,5,0,0
128072.92,-153.846153846154,4,1,0,5,0,0
128085.78,-151.515151515152,4,1,0,5,0,0
128098.64,-149.253731343284,4,1,0,5,0,0
128111.5,-144.927536231884,4,1,0,5,0,0
128124.36,-142.857142857143,4,1,0,5,0,0
128137.22,-138.888888888889,4,1,0,5,0,0
128150.08,-135.135135135135,4,1,0,5,0,0
128162.94,-133.333333333333,4,1,0,5,0,0
128175.8,-129.87012987013,4,1,0,5,0,0
128188.66,-126.582278481013,4,1,0,5,0,0
128201.52,-123.456790123457,4,1,0,5,0,0
128214.38,-120.481927710843,4,1,0,5,0,0
128227.24,-117.647058823529,4,1,0,5,0,0
128240.1,-114.942528735632,4,1,0,5,0,0
128252.96,-112.359550561798,4,1,0,5,0,0
128265.82,-109.89010989011,4,1,0,5,0,0
128278.68,-107.52688172043,4,1,0,5,0,0
128291.54,-104.166666666667,4,1,0,5,0,0
128304.4,-102.040816326531,4,1,0,5,0,0
128317.26,-100,4,1,0,5,0,0
128330.12,-97.0873786407767,4,1,0,5,0,0
128342.98,-95.2380952380952,4,1,0,5,0,0
128355.84,-92.5925925925926,4,1,0,5,0,0
128368.7,-90.0900900900901,4,1,0,5,0,0
128381.56,-88.495575221239,4,1,0,5,0,0
128394.42,-86.2068965517241,4,1,0,5,0,0
128407.28,-84.0336134453782,4,1,0,5,0,0
128420.14,-81.9672131147541,4,1,0,5,0,0
128433,-80,4,1,0,5,0,0
128433,-80,4,1,0,5,0,0
128445.86,-80,4,1,0,5,0,0
128458.72,-80,4,1,0,5,0,0
128471.58,-80,4,1,0,5,0,0
128484.44,-80,4,1,0,5,0,0
128497.3,-80,4,1,0,5,0,0
128510.16,-80,4,1,0,5,0,0
128523.02,-80,4,1,0,5,0,0
128535.88,-80.6451612903226,4,1,0,5,0,0
128548.74,-80.6451612903226,4,1,0,5,0,0
128561.6,-80.6451612903226,4,1,0,5,0,0
128574.46,-80.6451612903226,4,1,0,5,0,0
128587.32,-80.6451612903226,4,1,0,5,0,0
128600.18,-81.3008130081301,4,1,0,5,0,0
128613.04,-81.3008130081301,4,1,0,5,0,0
128625.9,-81.3008130081301,4,1,0,5,0,0
128638.76,-81.9672131147541,4,1,0,5,0,0
128651.62,-81.9672131147541,4,1,0,5,0,0
128664.48,-81.9672131147541,4,1,0,5,0,0
128677.34,-82.6446280991736,4,1,0,5,0,0
128690.2,-82.6446280991736,4,1,0,5,0,0
128703.06,-82.6446280991736,4,1,0,5,0,0
128715.92,-83.3333333333333,4,1,0,5,0,0
128728.78,-83.3333333333333,4,1,0,5,0,0
128741.64,-84.0336134453782,4,1,0,5,0,0
128754.5,-84.0336134453782,4,1,0,5,0,0
128767.36,-84.7457627118644,4,1,0,5,0,0
128780.22,-84.7457627118644,4,1,0,5,0,0
128793.08,-85.4700854700855,4,1,0,5,0,0
128805.94,-85.4700854700855,4,1,0,5,0,0
128818.8,-86.2068965517241,4,1,0,5,0,0
128831.66,-86.9565217391304,4,1,0,5,0,0
128844.52,-86.9565217391304,4,1,0,5,0,0
128857.38,-87.719298245614,4,1,0,5,0,0
128870.24,-88.495575221239,4,1,0,5,0,0
128883.1,-88.495575221239,4,1,0,5,0,0
128895.96,-89.2857142857143,4,1,0,5,0,0
128908.82,-90.0900900900901,4,1,0,5,0,0
128921.68,-90.0900900900901,4,1,0,5,0,0
128934.54,-90.9090909090909,4,1,0,5,0,0
128947.4,-91.743119266055,4,1,0,5,0,0
128960.26,-92.5925925925926,4,1,0,5,0,0
128973.12,-93.4579439252336,4,1,0,5,0,0
128985.98,-93.4579439252336,4,1,0,5,0,0
128998.84,-94.3396226415094,4,1,0,5,0,0
129011.7,-95.2380952380952,4,1,0,5,0,0
129024.56,-96.1538461538461,4,1,0,5,0,0
129037.42,-97.0873786407767,4,1,0,5,0,0
129050.28,-98.0392156862745,4,1,0,5,0,0
129063.14,-99.009900990099,4,1,0,5,0,0
129076,-100,4,1,0,5,0,0
129076,-100,4,1,0,5,0,0
129093.14,-100,4,1,0,5,0,0
129110.28,-100,4,1,0,5,0,0
129127.42,-100,4,1,0,5,0,0
129144.56,-100,4,1,0,5,0,0
129161.7,-100,4,1,0,5,0,0
129178.84,-101.010101010101,4,1,0,5,0,0
129195.98,-101.010101010101,4,1,0,5,0,0
129213.12,-101.010101010101,4,1,0,5,0,0
129230.26,-102.040816326531,4,1,0,5,0,0
129247.4,-102.040816326531,4,1,0,5,0,0
129264.54,-102.040816326531,4,1,0,5,0,0
129281.68,-103.092783505155,4,1,0,5,0,0
129298.82,-103.092783505155,4,1,0,5,0,0
129315.96,-104.166666666667,4,1,0,5,0,0
129333.1,-104.166666666667,4,1,0,5,0,0
129350.24,-105.263157894737,4,1,0,5,0,0
129367.38,-106.382978723404,4,1,0,5,0,0
129384.52,-106.382978723404,4,1,0,5,0,0
129401.66,-107.52688172043,4,1,0,5,0,0
129418.8,-108.695652173913,4,1,0,5,0,0
129435.94,-109.89010989011,4,1,0,5,0,0
129453.08,-111.111111111111,4,1,0,5,0,0
129470.22,-112.359550561798,4,1,0,5,0,0
129487.36,-113.636363636364,4,1,0,5,0,0
129504.5,-113.636363636364,4,1,0,5,0,0
129521.64,-116.279069767442,4,1,0,5,0,0
129538.78,-117.647058823529,4,1,0,5,0,0
129555.92,-119.047619047619,4,1,0,5,0,0
129573.06,-120.481927710843,4,1,0,5,0,0
129590.2,-121.951219512195,4,1,0,5,0,0
129607.34,-123.456790123457,4,1,0,5,0,0
129624.48,-125,4,1,0,5,0,0
129641.62,-128.205128205128,4,1,0,5,0,0
129658.76,-129.87012987013,4,1,0,5,0,0
129675.9,-131.578947368421,4,1,0,5,0,0
129693.04,-135.135135135135,4,1,0,5,0,0
129710.18,-136.986301369863,4,1,0,5,0,0
129727.32,-140.845070422535,4,1,0,5,0,0
129744.46,-142.857142857143,4,1,0,5,0,0
129761.6,-147.058823529412,4,1,0,5,0,0
129778.74,-151.515151515152,4,1,0,5,0,0
129795.88,-153.846153846154,4,1,0,5,0,0
129813.02,-158.730158730159,4,1,0,5,0,0
129830.16,-163.934426229508,4,1,0,5,0,0
129847.3,-166.666666666667,4,1,0,5,0,0
129864.44,-172.413793103448,4,1,0,5,0,0
129881.58,-178.571428571429,4,1,0,5,0,0
129898.72,-185.185185185185,4,1,0,5,0,0
129915.86,-192.307692307692,4,1,0,5,0,0
129933,-200,4,1,0,5,0,0
129933,-200,4,1,0,5,0,0
129950.14,-200,4,1,0,5,0,0
129967.28,-200,4,1,0,5,0,0
129984.42,-200,4,1,0,5,0,0
130001.56,-200,4,1,0,5,0,0
130018.7,-196.078431372549,4,1,0,5,0,0
130035.84,-196.078431372549,4,1,0,5,0,0
130052.98,-196.078431372549,4,1,0,5,0,0
130070.12,-192.307692307692,4,1,0,5,0,0
130087.26,-192.307692307692,4,1,0,5,0,0
130104.4,-188.679245283019,4,1,0,5,0,0
130121.54,-185.185185185185,4,1,0,5,0,0
130138.68,-185.185185185185,4,1,0,5,0,0
130155.82,-181.818181818182,4,1,0,5,0,0
130172.96,-178.571428571429,4,1,0,5,0,0
130190.1,-175.438596491228,4,1,0,5,0,0
130207.24,-172.413793103448,4,1,0,5,0,0
130224.38,-169.491525423729,4,1,0,5,0,0
130241.52,-166.666666666667,4,1,0,5,0,0
130258.66,-163.934426229508,4,1,0,5,0,0
130275.8,-161.290322580645,4,1,0,5,0,0
130292.94,-158.730158730159,4,1,0,5,0,0
130310.08,-153.846153846154,4,1,0,5,0,0
130327.22,-151.515151515152,4,1,0,5,0,0
130344.36,-149.253731343284,4,1,0,5,0,0
130361.5,-144.927536231884,4,1,0,5,0,0
130378.64,-142.857142857143,4,1,0,5,0,0
130395.78,-138.888888888889,4,1,0,5,0,0
130412.92,-135.135135135135,4,1,0,5,0,0
130430.06,-133.333333333333,4,1,0,5,0,0
130447.2,-129.87012987013,4,1,0,5,0,0
130464.34,-126.582278481013,4,1,0,5,0,0
130481.48,-123.456790123457,4,1,0,5,0,0
130498.62,-120.481927710843,4,1,0,5,0,0
130515.76,-117.647058823529,4,1,0,5,0,0
130532.9,-114.942528735632,4,1,0,5,0,0
130550.04,-112.359550561798,4,1,0,5,0,0
130567.18,-109.89010989011,4,1,0,5,0,0
130584.32,-107.52688172043,4,1,0,5,0,0
130601.46,-104.166666666667,4,1,0,5,0,0
130618.6,-102.040816326531,4,1,0,5,0,0
130635.74,-100,4,1,0,5,0,0
130652.88,-97.0873786407767,4,1,0,5,0,0
130670.02,-95.2380952380952,4,1,0,5,0,0
130687.16,-92.5925925925926,4,1,0,5,0,0
130704.3,-90.0900900900901,4,1,0,5,0,0
130721.44,-88.495575221239,4,1,0,5,0,0
130738.58,-86.2068965517241,4,1,0,5,0,0
130755.72,-84.0336134453782,4,1,0,5,0,0
130772.86,-81.9672131147541,4,1,0,5,0,0
130790,-80,4,1,0,5,0,0
130790,-80,4,1,0,5,0,0
130802.86,-80,4,1,0,5,0,0
130815.72,-80,4,1,0,5,0,0
130828.58,-80,4,1,0,5,0,0
130841.44,-80,4,1,0,5,0,0
130854.3,-80.6451612903226,4,1,0,5,0,0
130867.16,-80.6451612903226,4,1,0,5,0,0
130880.02,-80.6451612903226,4,1,0,5,0,0
130892.88,-81.3008130081301,4,1,0,5,0,0
130905.74,-81.3008130081301,4,1,0,5,0,0
130918.6,-81.9672131147541,4,1,0,5,0,0
130931.46,-82.6446280991736,4,1,0,5,0,0
130944.32,-82.6446280991736,4,1,0,5,0,0
130957.18,-83.3333333333333,4,1,0,5,0,0
130970.04,-84.0336134453782,4,1,0,5,0,0
130982.9,-84.7457627118644,4,1,0,5,0,0
130995.76,-85.4700854700855,4,1,0,5,0,0
131008.62,-86.2068965517241,4,1,0,5,0,0
131021.48,-86.9565217391304,4,1,0,5,0,0
131034.34,-87.719298245614,4,1,0,5,0,0
131047.2,-88.495575221239,4,1,0,5,0,0
131060.06,-89.2857142857143,4,1,0,5,0,0
131072.92,-90.9090909090909,4,1,0,5,0,0
131085.78,-91.743119266055,4,1,0,5,0,0
131098.64,-92.5925925925926,4,1,0,5,0,0
131111.5,-94.3396226415094,4,1,0,5,0,0
131124.36,-95.2380952380952,4,1,0,5,0,0
131137.22,-97.0873786407767,4,1,0,5,0,0
131150.08,-99.009900990099,4,1,0,5,0,0
131162.94,-100,4,1,0,5,0,0
131175.8,-102.040816326531,4,1,0,5,0,0
131188.66,-104.166666666667,4,1,0,5,0,0
131201.52,-106.382978723404,4,1,0,5,0,0
131214.38,-108.695652173913,4,1,0,5,0,0
131227.24,-111.111111111111,4,1,0,5,0,0
131240.1,-113.636363636364,4,1,0,5,0,0
131252.96,-116.279069767442,4,1,0,5,0,0
131265.82,-119.047619047619,4,1,0,5,0,0
131278.68,-121.951219512195,4,1,0,5,0,0
131291.54,-126.582278481013,4,1,0,5,0,0
131304.4,-129.87012987013,4,1,0,5,0,0
131317.26,-133.333333333333,4,1,0,5,0,0
131330.12,-138.888888888889,4,1,0,5,0,0
131342.98,-142.857142857143,4,1,0,5,0,0
131355.84,-149.253731343284,4,1,0,5,0,0
131368.7,-156.25,4,1,0,5,0,0
131381.56,-161.290322580645,4,1,0,5,0,0
131394.42,-169.491525423729,4,1,0,5,0,0
131407.28,-178.571428571429,4,1,0,5,0,0
131420.14,-188.679245283019,4,1,0,5,0,0
131433,-200,4,1,0,5,0,0
131433,-200,4,1,0,5,0,0
131445.86,-200,4,1,0,5,0,0
131458.72,-200,4,1,0,5,0,0
131471.58,-200,4,1,0,5,0,0
131484.44,-200,4,1,0,5,0,0
131497.3,-196.078431372549,4,1,0,5,0,0
131510.16,-196.078431372549,4,1,0,5,0,0
131523.02,-196.078431372549,4,1,0,5,0,0
131535.88,-196.078431372549,4,1,0,5,0,0
131548.74,-192.307692307692,4,1,0,5,0,0
131561.6,-192.307692307692,4,1,0,5,0,0
131574.46,-192.307692307692,4,1,0,5,0,0
131587.32,-188.679245283019,4,1,0,5,0,0
131600.18,-188.679245283019,4,1,0,5,0,0
131613.04,-185.185185185185,4,1,0,5,0,0
131625.9,-181.818181818182,4,1,0,5,0,0
131638.76,-181.818181818182,4,1,0,5,0,0
131651.62,-178.571428571429,4,1,0,5,0,0
131664.48,-178.571428571429,4,1,0,5,0,0
131677.34,-175.438596491228,4,1,0,5,0,0
131690.2,-172.413793103448,4,1,0,5,0,0
131703.06,-169.491525423729,4,1,0,5,0,0
131715.92,-166.666666666667,4,1,0,5,0,0
131728.78,-163.934426229508,4,1,0,5,0,0
131741.64,-161.290322580645,4,1,0,5,0,0
131754.5,-158.730158730159,4,1,0,5,0,0
131767.36,-156.25,4,1,0,5,0,0
131780.22,-153.846153846154,4,1,0,5,0,0
131793.08,-151.515151515152,4,1,0,5,0,0
131805.94,-149.253731343284,4,1,0,5,0,0
131818.8,-147.058823529412,4,1,0,5,0,0
131831.66,-144.927536231884,4,1,0,5,0,0
131844.52,-142.857142857143,4,1,0,5,0,0
131857.38,-138.888888888889,4,1,0,5,0,0
131870.24,-136.986301369863,4,1,0,5,0,0
131883.1,-133.333333333333,4,1,0,5,0,0
131895.96,-131.578947368421,4,1,0,5,0,0
131908.82,-129.87012987013,4,1,0,5,0,0
131921.68,-126.582278481013,4,1,0,5,0,0
131934.54,-125,4,1,0,5,0,0
131947.4,-121.951219512195,4,1,0,5,0,0
131960.26,-119.047619047619,4,1,0,5,0,0
131973.12,-117.647058823529,4,1,0,5,0,0
131985.98,-114.942528735632,4,1,0,5,0,0
131998.84,-112.359550561798,4,1,0,5,0,0
132011.7,-109.89010989011,4,1,0,5,0,0
132024.56,-108.695652173913,4,1,0,5,0,0
132037.42,-106.382978723404,4,1,0,5,0,0
132050.28,-104.166666666667,4,1,0,5,0,0
132063.14,-102.040816326531,4,1,0,5,0,0
132076,-100,4,1,0,5,0,0
132076,-100,4,1,0,5,0,0
132093.14,-100,4,1,0,5,0,0
132110.28,-100,4,1,0,5,0,0
132127.42,-100,4,1,0,5,0,0
132144.56,-100,4,1,0,5,0,0
132161.7,-100,4,1,0,5,0,0
132178.84,-101.010101010101,4,1,0,5,0,0
132195.98,-101.010101010101,4,1,0,5,0,0
132213.12,-101.010101010101,4,1,0,5,0,0
132230.26,-102.040816326531,4,1,0,5,0,0
132247.4,-102.040816326531,4,1,0,5,0,0
132264.54,-102.040816326531,4,1,0,5,0,0
132281.68,-103.092783505155,4,1,0,5,0,0
132298.82,-103.092783505155,4,1,0,5,0,0
132315.96,-104.166666666667,4,1,0,5,0,0
132333.1,-104.166666666667,4,1,0,5,0,0
132350.24,-105.263157894737,4,1,0,5,0,0
132367.38,-106.382978723404,4,1,0,5,0,0
132384.52,-106.382978723404,4,1,0,5,0,0
132401.66,-107.52688172043,4,1,0,5,0,0
132418.8,-108.695652173913,4,1,0,5,0,0
132435.94,-109.89010989011,4,1,0,5,0,0
132453.08,-111.111111111111,4,1,0,5,0,0
132470.22,-112.359550561798,4,1,0,5,0,0
132487.36,-113.636363636364,4,1,0,5,0,0
132504.5,-113.636363636364,4,1,0,5,0,0
132521.64,-116.279069767442,4,1,0,5,0,0
132538.78,-117.647058823529,4,1,0,5,0,0
132555.92,-119.047619047619,4,1,0,5,0,0
132573.06,-120.481927710843,4,1,0,5,0,0
132590.2,-121.951219512195,4,1,0,5,0,0
132607.34,-123.456790123457,4,1,0,5,0,0
132624.48,-125,4,1,0,5,0,0
132641.62,-128.205128205128,4,1,0,5,0,0
132658.76,-129.87012987013,4,1,0,5,0,0
132675.9,-131.578947368421,4,1,0,5,0,0
132693.04,-135.135135135135,4,1,0,5,0,0
132710.18,-136.986301369863,4,1,0,5,0,0
132727.32,-140.845070422535,4,1,0,5,0,0
132744.46,-142.857142857143,4,1,0,5,0,0
132761.6,-147.058823529412,4,1,0,5,0,0
132778.74,-151.515151515152,4,1,0,5,0,0
132795.88,-153.846153846154,4,1,0,5,0,0
132813.02,-158.730158730159,4,1,0,5,0,0
132830.16,-163.934426229508,4,1,0,5,0,0
132847.3,-166.666666666667,4,1,0,5,0,0
132864.44,-172.413793103448,4,1,0,5,0,0
132881.58,-178.571428571429,4,1,0,5,0,0
132898.72,-185.185185185185,4,1,0,5,0,0
132915.86,-192.307692307692,4,1,0,5,0,0
132933,-200,4,1,0,5,0,0
132933,-200,4,1,0,5,0,0
132950.14,-200,4,1,0,5,0,0
132967.28,-200,4,1,0,5,0,0
132984.42,-200,4,1,0,5,0,0
133001.56,-200,4,1,0,5,0,0
133018.7,-196.078431372549,4,1,0,5,0,0
133035.84,-196.078431372549,4,1,0,5,0,0
133052.98,-196.078431372549,4,1,0,5,0,0
133070.12,-192.307692307692,4,1,0,5,0,0
133087.26,-192.307692307692,4,1,0,5,0,0
133104.4,-188.679245283019,4,1,0,5,0,0
133121.54,-185.185185185185,4,1,0,5,0,0
133138.68,-185.185185185185,4,1,0,5,0,0
133155.82,-181.818181818182,4,1,0,5,0,0
133172.96,-178.571428571429,4,1,0,5,0,0
133190.1,-175.438596491228,4,1,0,5,0,0
133207.24,-172.413793103448,4,1,0,5,0,0
133224.38,-169.491525423729,4,1,0,5,0,0
133241.52,-166.666666666667,4,1,0,5,0,0
133258.66,-163.934426229508,4,1,0,5,0,0
133275.8,-161.290322580645,4,1,0,5,0,0
133292.94,-158.730158730159,4,1,0,5,0,0
133310.08,-153.846153846154,4,1,0,5,0,0
133327.22,-151.515151515152,4,1,0,5,0,0
133344.36,-149.253731343284,4,1,0,5,0,0
133361.5,-144.927536231884,4,1,0,5,0,0
133378.64,-142.857142857143,4,1,0,5,0,0
133395.78,-138.888888888889,4,1,0,5,0,0
133412.92,-135.135135135135,4,1,0,5,0,0
133430.06,-133.333333333333,4,1,0,5,0,0
133447.2,-129.87012987013,4,1,0,5,0,0
133464.34,-126.582278481013,4,1,0,5,0,0
133481.48,-123.456790123457,4,1,0,5,0,0
133498.62,-120.481927710843,4,1,0,5,0,0
133515.76,-117.647058823529,4,1,0,5,0,0
133532.9,-114.942528735632,4,1,0,5,0,0
133550.04,-112.359550561798,4,1,0,5,0,0
133567.18,-109.89010989011,4,1,0,5,0,0
133584.32,-107.52688172043,4,1,0,5,0,0
133601.46,-104.166666666667,4,1,0,5,0,0
133618.6,-102.040816326531,4,1,0,5,0,0
133635.74,-100,4,1,0,5,0,0
133652.88,-97.0873786407767,4,1,0,5,0,0
133670.02,-95.2380952380952,4,1,0,5,0,0
133687.16,-92.5925925925926,4,1,0,5,0,0
133704.3,-90.0900900900901,4,1,0,5,0,0
133721.44,-88.495575221239,4,1,0,5,0,0
133738.58,-86.2068965517241,4,1,0,5,0,0
133755.72,-84.0336134453782,4,1,0,5,0,0
133772.86,-81.9672131147541,4,1,0,5,0,0
133790,-80,4,1,0,5,0,0
133790,-80,4,1,0,5,0,0
133807.14,-80,4,1,0,5,0,0
133824.28,-80,4,1,0,5,0,0
133841.42,-80,4,1,0,5,0,0
133858.56,-80,4,1,0,5,0,0
133875.7,-80.6451612903226,4,1,0,5,0,0
133892.84,-80.6451612903226,4,1,0,5,0,0
133909.98,-80.6451612903226,4,1,0,5,0,0
133927.12,-81.3008130081301,4,1,0,5,0,0
133944.26,-81.3008130081301,4,1,0,5,0,0
133961.4,-81.9672131147541,4,1,0,5,0,0
133978.54,-82.6446280991736,4,1,0,5,0,0
133995.68,-82.6446280991736,4,1,0,5,0,0
134012.82,-83.3333333333333,4,1,0,5,0,0
134029.96,-84.0336134453782,4,1,0,5,0,0
134047.1,-84.7457627118644,4,1,0,5,0,0
134064.24,-85.4700854700855,4,1,0,5,0,0
134081.38,-86.2068965517241,4,1,0,5,0,0
134098.52,-86.9565217391304,4,1,0,5,0,0
134115.66,-87.719298245614,4,1,0,5,0,0
134132.8,-88.495575221239,4,1,0,5,0,0
134149.94,-89.2857142857143,4,1,0,5,0,0
134167.08,-90.9090909090909,4,1,0,5,0,0
134184.22,-91.743119266055,4,1,0,5,0,0
134201.36,-92.5925925925926,4,1,0,5,0,0
134218.5,-94.3396226415094,4,1,0,5,0,0
134235.64,-95.2380952380952,4,1,0,5,0,0
134252.78,-97.0873786407767,4,1,0,5,0,0
134269.92,-99.009900990099,4,1,0,5,0,0
134287.06,-100,4,1,0,5,0,0
134304.2,-102.040816326531,4,1,0,5,0,0
134321.34,-104.166666666667,4,1,0,5,0,0
134338.48,-106.382978723404,4,1,0,5,0,0
134355.62,-108.695652173913,4,1,0,5,0,0
134372.76,-111.111111111111,4,1,0,5,0,0
134389.9,-113.636363636364,4,1,0,5,0,0
134407.04,-116.279069767442,4,1,0,5,0,0
134424.18,-119.047619047619,4,1,0,5,0,0
134441.32,-121.951219512195,4,1,0,5,0,0
134458.46,-126.582278481013,4,1,0,5,0,0
134475.6,-129.87012987013,4,1,0,5,0,0
134492.74,-133.333333333333,4,1,0,5,0,0
134509.88,-138.888888888889,4,1,0,5,0,0
134527.02,-142.857142857143,4,1,0,5,0,0
134544.16,-149.253731343284,4,1,0,5,0,0
134561.3,-156.25,4,1,0,5,0,0
134578.44,-161.290322580645,4,1,0,5,0,0
134595.58,-169.491525423729,4,1,0,5,0,0
134612.72,-178.571428571429,4,1,0,5,0,0
134629.86,-188.679245283019,4,1,0,5,0,0
134647,-200,4,1,0,5,0,0
134647,-200,4,1,0,5,0,0
134664.14,-200,4,1,0,5,0,0
134681.28,-200,4,1,0,5,0,0
134698.42,-200,4,1,0,5,0,0
134715.56,-200,4,1,0,5,0,0
134732.7,-196.078431372549,4,1,0,5,0,0
134749.84,-196.078431372549,4,1,0,5,0,0
134766.98,-196.078431372549,4,1,0,5,0,0
134784.12,-192.307692307692,4,1,0,5,0,0
134801.26,-192.307692307692,4,1,0,5,0,0
134818.4,-188.679245283019,4,1,0,5,0,0
134835.54,-185.185185185185,4,1,0,5,0,0
134852.68,-185.185185185185,4,1,0,5,0,0
134869.82,-181.818181818182,4,1,0,5,0,0
134886.96,-178.571428571429,4,1,0,5,0,0
134904.1,-175.438596491228,4,1,0,5,0,0
134921.24,-172.413793103448,4,1,0,5,0,0
134938.38,-169.491525423729,4,1,0,5,0,0
134955.52,-166.666666666667,4,1,0,5,0,0
134972.66,-163.934426229508,4,1,0,5,0,0
134989.8,-161.290322580645,4,1,0,5,0,0
135006.94,-158.730158730159,4,1,0,5,0,0
135024.08,-153.846153846154,4,1,0,5,0,0
135041.22,-151.515151515152,4,1,0,5,0,0
135058.36,-149.253731343284,4,1,0,5,0,0
135075.5,-144.927536231884,4,1,0,5,0,0
135092.64,-142.857142857143,4,1,0,5,0,0
135109.78,-138.888888888889,4,1,0,5,0,0
135126.92,-135.135135135135,4,1,0,5,0,0
135144.06,-133.333333333333,4,1,0,5,0,0
135161.2,-129.87012987013,4,1,0,5,0,0
135178.34,-126.582278481013,4,1,0,5,0,0
135195.48,-123.456790123457,4,1,0,5,0,0
135212.62,-120.481927710843,4,1,0,5,0,0
135229.76,-117.647058823529,4,1,0,5,0,0
135246.9,-114.942528735632,4,1,0,5,0,0
135264.04,-112.359550561798,4,1,0,5,0,0
135281.18,-109.89010989011,4,1,0,5,0,0
135298.32,-107.52688172043,4,1,0,5,0,0
135315.46,-104.166666666667,4,1,0,5,0,0
135332.6,-102.040816326531,4,1,0,5,0,0
135349.74,-100,4,1,0,5,0,0
135366.88,-97.0873786407767,4,1,0,5,0,0
135384.02,-95.2380952380952,4,1,0,5,0,0
135401.16,-92.5925925925926,4,1,0,5,0,0
135418.3,-90.0900900900901,4,1,0,5,0,0
135435.44,-88.495575221239,4,1,0,5,0,0
135452.58,-86.2068965517241,4,1,0,5,0,0
135469.72,-84.0336134453782,4,1,0,5,0,0
135486.86,-81.9672131147541,4,1,0,5,0,0
135504,-80,4,1,0,5,0,0
135504,-80,4,1,0,5,0,0
135521.14,-80,4,1,0,5,0,0
135538.28,-80,4,1,0,5,0,0
135555.42,-80,4,1,0,5,0,0
135572.56,-80,4,1,0,5,0,0
135589.7,-80.6451612903226,4,1,0,5,0,0
135606.84,-80.6451612903226,4,1,0,5,0,0
135623.98,-80.6451612903226,4,1,0,5,0,0
135641.12,-81.3008130081301,4,1,0,5,0,0
135658.26,-81.3008130081301,4,1,0,5,0,0
135675.4,-81.9672131147541,4,1,0,5,0,0
135692.54,-82.6446280991736,4,1,0,5,0,0
135709.68,-82.6446280991736,4,1,0,5,0,0
135726.82,-83.3333333333333,4,1,0,5,0,0
135743.96,-84.0336134453782,4,1,0,5,0,0
135761.1,-84.7457627118644,4,1,0,5,0,0
135778.24,-85.4700854700855,4,1,0,5,0,0
135795.38,-86.2068965517241,4,1,0,5,0,0
135812.52,-86.9565217391304,4,1,0,5,0,0
135829.66,-87.719298245614,4,1,0,5,0,0
135846.8,-88.495575221239,4,1,0,5,0,0
135863.94,-89.2857142857143,4,1,0,5,0,0
135881.08,-90.9090909090909,4,1,0,5,0,0
135898.22,-91.743119266055,4,1,0,5,0,0
135915.36,-92.5925925925926,4,1,0,5,0,0
135932.5,-94.3396226415094,4,1,0,5,0,0
135949.64,-95.2380952380952,4,1,0,5,0,0
135966.78,-97.0873786407767,4,1,0,5,0,0
135983.92,-99.009900990099,4,1,0,5,0,0
136001.06,-100,4,1,0,5,0,0
136018.2,-102.040816326531,4,1,0,5,0,0
136035.34,-104.166666666667,4,1,0,5,0,0
136052.48,-106.382978723404,4,1,0,5,0,0
136069.62,-108.695652173913,4,1,0,5,0,0
136086.76,-111.111111111111,4,1,0,5,0,0
136103.9,-113.636363636364,4,1,0,5,0,0
136121.04,-116.279069767442,4,1,0,5,0,0
136138.18,-119.047619047619,4,1,0,5,0,0
136155.32,-121.951219512195,4,1,0,5,0,0
136172.46,-126.582278481013,4,1,0,5,0,0
136189.6,-129.87012987013,4,1,0,5,0,0
136206.74,-133.333333333333,4,1,0,5,0,0
136223.88,-138.888888888889,4,1,0,5,0,0
136241.02,-142.857142857143,4,1,0,5,0,0
136258.16,-149.253731343284,4,1,0,5,0,0
136275.3,-156.25,4,1,0,5,0,0
136292.44,-161.290322580645,4,1,0,5,0,0
136309.58,-169.491525423729,4,1,0,5,0,0
136326.72,-178.571428571429,4,1,0,5,0,0
136343.86,-188.679245283019,4,1,0,5,0,0
136361,-200,4,1,0,5,0,0
136361,-200,4,1,0,5,0,0
136378.14,-200,4,1,0,5,0,0
136395.28,-200,4,1,0,5,0,0
136412.42,-200,4,1,0,5,0,0
136429.56,-200,4,1,0,5,0,0
136446.7,-196.078431372549,4,1,0,5,0,0
136463.84,-196.078431372549,4,1,0,5,0,0
136480.98,-196.078431372549,4,1,0,5,0,0
136498.12,-192.307692307692,4,1,0,5,0,0
136515.26,-192.307692307692,4,1,0,5,0,0
136532.4,-188.679245283019,4,1,0,5,0,0
136549.54,-185.185185185185,4,1,0,5,0,0
136566.68,-185.185185185185,4,1,0,5,0,0
136583.82,-181.818181818182,4,1,0,5,0,0
136600.96,-178.571428571429,4,1,0,5,0,0
136618.1,-175.438596491228,4,1,0,5,0,0
136635.24,-172.413793103448,4,1,0,5,0,0
136652.38,-169.491525423729,4,1,0,5,0,0
136669.52,-166.666666666667,4,1,0,5,0,0
136686.66,-163.934426229508,4,1,0,5,0,0
136703.8,-161.290322580645,4,1,0,5,0,0
136720.94,-158.730158730159,4,1,0,5,0,0
136738.08,-153.846153846154,4,1,0,5,0,0
136755.22,-151.515151515152,4,1,0,5,0,0
136772.36,-149.253731343284,4,1,0,5,0,0
136789.5,-144.927536231884,4,1,0,5,0,0
136806.64,-142.857142857143,4,1,0,5,0,0
136823.78,-138.888888888889,4,1,0,5,0,0
136840.92,-135.135135135135,4,1,0,5,0,0
136858.06,-133.333333333333,4,1,0,5,0,0
136875.2,-129.87012987013,4,1,0,5,0,0
136892.34,-126.582278481013,4,1,0,5,0,0
136909.48,-123.456790123457,4,1,0,5,0,0
136926.62,-120.481927710843,4,1,0,5,0,0
136943.76,-117.647058823529,4,1,0,5,0,0
136960.9,-114.942528735632,4,1,0,5,0,0
136978.04,-112.359550561798,4,1,0,5,0,0
136995.18,-109.89010989011,4,1,0,5,0,0
137012.32,-107.52688172043,4,1,0,5,0,0
137029.46,-104.166666666667,4,1,0,5,0,0
137046.6,-102.040816326531,4,1,0,5,0,0
137063.74,-100,4,1,0,5,0,0
137080.88,-97.0873786407767,4,1,0,5,0,0
137098.02,-95.2380952380952,4,1,0,5,0,0
137115.16,-92.5925925925926,4,1,0,5,0,0
137132.3,-90.0900900900901,4,1,0,5,0,0
137149.44,-88.495575221239,4,1,0,5,0,0
137166.58,-86.2068965517241,4,1,0,5,0,0
137183.72,-84.0336134453782,4,1,0,5,0,0
137200.86,-81.9672131147541,4,1,0,5,0,0
137218,-80,4,1,0,5,0,0
137218,-80,4,1,0,5,0,0
137344.43,-80,4,1,0,5,0,0
137470.86,-80,4,1,0,5,0,0
137597.29,-80,4,1,0,5,0,0
137723.72,-80,4,1,0,5,0,0
137850.15,-80,4,1,0,5,0,0
137976.58,-80,4,1,0,5,0,0
138103.01,-80.6451612903226,4,1,0,5,0,0
138229.44,-80.6451612903226,4,1,0,5,0,0
138355.87,-80.6451612903226,4,1,0,5,0,0
138482.3,-80.6451612903226,4,1,0,5,0,0
138608.73,-80.6451612903226,4,1,0,5,0,0
138735.16,-81.3008130081301,4,1,0,5,0,0
138861.59,-81.3008130081301,4,1,0,5,0,0
138988.02,-81.3008130081301,4,1,0,5,0,0
139114.45,-81.3008130081301,4,1,0,5,0,0
139240.88,-81.9672131147541,4,1,0,5,0,0
139367.31,-81.9672131147541,4,1,0,5,0,0
139493.74,-82.6446280991736,4,1,0,5,0,0
139620.17,-82.6446280991736,4,1,0,5,0,0
139746.6,-82.6446280991736,4,1,0,5,0,0
139873.03,-83.3333333333333,4,1,0,5,0,0
139999.46,-83.3333333333333,4,1,0,5,0,0
140125.89,-84.0336134453782,4,1,0,5,0,0
140252.32,-84.0336134453782,4,1,0,5,0,0
140378.75,-84.7457627118644,4,1,0,5,0,0
140505.18,-84.7457627118644,4,1,0,5,0,0
140631.61,-85.4700854700855,4,1,0,5,0,0
140758.04,-86.2068965517241,4,1,0,5,0,0
140884.47,-86.2068965517241,4,1,0,5,0,0
141010.9,-86.9565217391304,4,1,0,5,0,0
141137.33,-87.719298245614,4,1,0,5,0,0
141263.76,-87.719298245614,4,1,0,5,0,0
141390.19,-88.495575221239,4,1,0,5,0,0
141516.62,-89.2857142857143,4,1,0,5,0,0
141643.05,-89.2857142857143,4,1,0,5,0,0
141769.48,-90.0900900900901,4,1,0,5,0,0
141895.91,-90.9090909090909,4,1,0,5,0,0
142022.34,-91.743119266055,4,1,0,5,0,0
142148.77,-92.5925925925926,4,1,0,5,0,0
142275.2,-93.4579439252336,4,1,0,5,0,0
142401.63,-93.4579439252336,4,1,0,5,0,0
142528.06,-94.3396226415094,4,1,0,5,0,0
142654.49,-95.2380952380952,4,1,0,5,0,0
142780.92,-96.1538461538461,4,1,0,5,0,0
142907.35,-97.0873786407767,4,1,0,5,0,0
143033.78,-98.0392156862745,4,1,0,5,0,0
143160.21,-99.009900990099,4,1,0,5,0,0
143286.64,-100,4,1,0,5,0,0
143413.07,-101.010101010101,4,1,0,5,0,0
143539.5,-102.040816326531,4,1,0,5,0,0
143665.93,-104.166666666667,4,1,0,5,0,0
143792.36,-105.263157894737,4,1,0,5,0,0
143918.79,-106.382978723404,4,1,0,5,0,0
144045.22,-107.52688172043,4,1,0,5,0,0
144171.65,-108.695652173913,4,1,0,5,0,0
144298.08,-109.89010989011,4,1,0,5,0,0
144424.51,-112.359550561798,4,1,0,5,0,0
144550.94,-113.636363636364,4,1,0,5,0,0
144677.37,-114.942528735632,4,1,0,5,0,0
144803.8,-117.647058823529,4,1,0,5,0,0
144930.23,-119.047619047619,4,1,0,5,0,0
145056.66,-120.481927710843,4,1,0,5,0,0
145183.09,-123.456790123457,4,1,0,5,0,0
145309.52,-125,4,1,0,5,0,0
145435.95,-126.582278481013,4,1,0,5,0,0
145562.38,-129.87012987013,4,1,0,5,0,0
145688.81,-131.578947368421,4,1,0,5,0,0
145815.24,-135.135135135135,4,1,0,5,0,0
145941.67,-136.986301369863,4,1,0,5,0,0
146068.1,-140.845070422535,4,1,0,5,0,0
146194.53,-142.857142857143,4,1,0,5,0,0
146320.96,-147.058823529412,4,1,0,5,0,0
146447.39,-151.515151515152,4,1,0,5,0,0
146573.82,-153.846153846154,4,1,0,5,0,0
146700.25,-158.730158730159,4,1,0,5,0,0
146826.68,-163.934426229508,4,1,0,5,0,0
146953.11,-166.666666666667,4,1,0,5,0,0
147079.54,-172.413793103448,4,1,0,5,0,0
147205.97,-178.571428571429,4,1,0,5,0,0
147332.4,-181.818181818182,4,1,0,5,0,0
147458.83,-188.679245283019,4,1,0,5,0,0
147585.26,-196.078431372549,4,1,0,5,0,0
147711.69,-204.081632653061,4,1,0,5,0,0
147838.12,-212.765957446809,4,1,0,5,0,0
147964.55,-217.391304347826,4,1,0,5,0,0
148090.98,-227.272727272727,4,1,0,5,0,0
148217.41,-238.095238095238,4,1,0,5,0,0
148343.84,-250,4,1,0,5,0,0
148470.27,-263.157894736842,4,1,0,5,0,0
148596.7,-277.777777777778,4,1,0,5,0,0
148723.13,-294.117647058824,4,1,0,5,0,0
148849.56,-312.5,4,1,0,5,0,0
148975.99,-333.333333333333,4,1,0,5,0,0
149102.42,-357.142857142857,4,1,0,5,0,0
149228.85,-384.615384615385,4,1,0,5,0,0
149355.28,-416.666666666667,4,1,0,5,0,0
149481.71,-454.545454545455,4,1,0,5,0,0
149608.14,-526.315789473684,4,1,0,5,0,0
149734.57,-588.235294117647,4,1,0,5,0,0
149861,-666.666666666667,4,1,0,5,0,0

[HitObjects]
64,192,13790,5,0,0:0:0:0:
448,192,13790,1,0,0:0:0:0:
320,192,14218,128,0,14433:0:0:0:0:
64,192,14433,1,0,0:0:0:0:
448,192,14433,1,0,0:0:0:0:
192,192,14647,1,0,0:0:0:0:
320,192,14647,1,0,0:0:0:0:
192,192,15290,1,0,0:0:0:0:
320,192,15290,1,0,0:0:0:0:
448,192,15718,1,0,0:0:0:0:
64,192,15718,1,0,0:0:0:0:
192,192,15718,1,0,0:0:0:0:
64,192,15933,1,0,0:0:0:0:
448,192,15933,1,0,0:0:0:0:
320,192,15933,128,0,16147:0:0:0:0:
192,192,16147,1,0,0:0:0:0:
448,192,16361,128,0,17004:0:0:0:0:
64,192,17004,1,0,0:0:0:0:
64,192,17111,1,0,0:0:0:0:
64,192,17218,1,0,0:0:0:0:
320,192,17218,1,0,0:0:0:0:
64,192,17647,1,0,0:0:0:0:
448,192,17647,1,0,0:0:0:0:
320,192,17647,128,0,17861:0:0:0:0:
320,192,18076,1,0,0:0:0:0:
448,192,18076,1,0,0:0:0:0:
64,192,18290,1,0,0:0:0:0:
448,192,18290,1,0,0:0:0:0:
320,192,18718,1,0,0:0:0:0:
448,192,18718,1,0,0:0:0:0:
64,192,18718,1,0,0:0:0:0:
192,192,18933,1,0,0:0:0:0:
320,192,19147,1,0,0:0:0:0:
448,192,19147,1,0,0:0:0:0:
64,192,19361,1,0,0:0:0:0:
448,192,19361,128,0,19576:0:0:0:0:
192,192,19361,1,0,0:0:0:0:
64,192,19576,1,0,0:0:0:0:
64,192,20647,1,0,0:0:0:0:
448,192,20647,1,0,0:0:0:0:
192,192,21076,128,0,21290:0:0:0:0:
320,192,21076,1,0,0:0:0:0:
64,192,21290,1,0,0:0:0:0:
448,192,21290,1,0,0:0:0:0:
320,192,21504,1,0,0:0:0:0:
448,192,21504,1,0,0:0:0:0:
320,192,22361,1,0,0:0:0:0:
448,192,22361,128,0,22576:0:0:0:0:
64,192,22790,128,0,23004:0:0:0:0:
192,192,22790,1,0,0:0:0:0:
320,192,23218,1,0,0:0:0:0:
448,192,23218,1,0,0:0:0:0:
64,192,23433,1,0,0:0:0:0:
448,192,23433,1,0,0:0:0:0:
64,192,23861,1,0,0:0:0:0:
64,192,23968,1,0,0:0:0:0:
64,192,24076,1,0,0:0:0:0:
320,192,24076,1,0,0:0:0:0:
448,192,24504,128,0,24718:0:0:0:0:
192,192,24504,1,0,0:0:0:0:
64,192,24933,1,0,0:0:0:0:
192,192,24933,1,0,0:0:0:0:
64,192,25147,1,0,0:0:0:0:
448,192,25147,1,0,0:0:0:0:
320,192,25576,1,0,0:0:0:0:
448,192,25576,1,0,0:0:0:0:
64,192,25576,1,0,0:0:0:0:
320,192,25790,128,0,27397:0:0:0:0:
64,192,26218,128,0,27397:0:0:0:0:
448,192,26647,128,0,27397:0:0:0:0:
192,192,27076,128,0,27397:0:0:0:0:
64,192,27504,5,0,0:0:0:0:
448,192,27504,1,0,0:0:0:0:
192,192,27576,1,0,0:0:0:0:
320,192,27647,1,0,0:0:0:0:
64,192,27718,1,0,0:0:0:0:
192,192,27790,1,0,0:0:0:0:
448,192,27861,1,0,0:0:0:0:
320,192,27933,1,0,0:0:0:0:
64,192,28004,1,0,0:0:0:0:
192,192,28076,1,0,0:0:0:0:
448,192,28147,1,0,0:0:0:0:
64,192,28147,1,0,0:0:0:0:
320,192,28218,1,0,0:0:0:0:
64,192,28290,1,0,0:0:0:0:
448,192,28361,1,0,0:0:0:0:
320,192,28361,1,0,0:0:0:0:
192,192,28433,1,0,0:0:0:0:
320,192,28504,1,0,0:0:0:0:
64,192,28576,1,0,0:0:0:0:
192,192,28647,1,0,0:0:0:0:
320,192,28718,1,0,0:0:0:0:
448,192,28790,1,0,0:0:0:0:
64,192,28861,1,0,0:0:0:0:
448,192,28933,1,0,0:0:0:0:
192,192,29004,1,0,0:0:0:0:
320,192,29004,1,0,0:0:0:0:
64,192,29076,1,0,0:0:0:0:
320,192,29147,1,0,0:0:0:0:
448,192,29218,1,0,0:0:0:0:
64,192,29290,1,0,0:0:0:0:
192,192,29361,1,0,0:0:0:0:
320,192,29433,1,0,0:0:0:0:
448,192,29433,1,0,0:0:0:0:
64,192,29504,1,0,0:0:0:0:
448,192,29576,1,0,0:0:0:0:
192,192,29647,1,0,0:0:0:0:
64,192,29647,128,0,29754:0:0:0:0:
64,192,29861,128,0,29968:0:0:0:0:
64,192,30076,128,0,30183:0:0:0:0:
64,192,30290,128,0,30397:0:0:0:0:
64,192,30504,128,0,30611:0:0:0:0:
64,192,30718,1,0,0:0:0:0:
64,192,30826,1,0,0:0:0:0:
64,192,30933,1,0,0:0:0:0:
448,192,30933,1,0,0:0:0:0:
320,192,31004,1,0,0:0:0:0:
192,192,31076,1,0,0:0:0:0:
448,192,31147,1,0,0:0:0:0:
64,192,31218,1,0,0:0:0:0:
320,192,31290,1,0,0:0:0:0:
192,192,31361,1,0,0:0:0:0:
448,192,31433,1,0,0:0:0:0:
64,192,31504,1,0,0:0:0:0:
320,192,31576,1,0,0:0:0:0:
192,192,31647,1,0,0:0:0:0:
448,192,31718,1,0,0:0:0:0:
192,192,31790,1,0,0:0:0:0:
64,192,31790,1,0,0:0:0:0:
320,192,31861,1,0,0:0:0:0:
448,192,31933,1,0,0:0:0:0:
192,192,32004,1,0,0:0:0:0:
320,192,32076,1,0,0:0:0:0:
448,192,32147,1,0,0:0:0:0:
64,192,32218,1,0,0:0:0:0:
192,192,32290,1,0,0:0:0:0:
448,192,32361,1,0,0:0:0:0:
320,192,32433,1,0,0:0:0:0:
64,192,32433,1,0,0:0:0:0:
192,192,32504,1,0,0:0:0:0:
448,192,32576,1,0,0:0:0:0:
320,192,32647,1,0,0:0:0:0:
64,192,32718,1,0,0:0:0:0:
192,192,32790,1,0,0:0:0:0:
320,192,32861,1,0,0:0:0:0:
448,192,32861,1,0,0:0:0:0:
64,192,32933,1,0,0:0:0:0:
320,192,33004,1,0,0:0:0:0:
192,192,33076,1,0,0:0:0:0:
64,192,33076,1,0,0:0:0:0:
448,192,33147,1,0,0:0:0:0:
320,192,33218,1,0,0:0:0:0:
192,192,33290,1,0,0:0:0:0:
64,192,33290,1,0,0:0:0:0:
448,192,33361,1,0,0:0:0:0:
320,192,33433,1,0,0:0:0:0:
64,192,33504,1,0,0:0:0:0:
192,192,33504,1,0,0:0:0:0:
448,192,33576,1,0,0:0:0:0:
192,192,33647,1,0,0:0:0:0:
320,192,33718,1,0,0:0:0:0:
64,192,33790,1,0,0:0:0:0:
448,192,33861,1,0,0:0:0:0:
192,192,33933,1,0,0:0:0:0:
64,192,34004,1,0,0:0:0:0:
448,192,34004,1,0,0:0:0:0:
320,192,34076,1,0,0:0:0:0:
64,192,34147,1,0,0:0:0:0:
192,192,34147,1,0,0:0:0:0:
448,192,34218,1,0,0:0:0:0:
192,192,34290,1,0,0:0:0:0:
448,192,34361,1,0,0:0:0:0:
64,192,34361,1,0,0:0:0:0:
320,192,34468,1,0,0:0:0:0:
64,192,34576,1,0,0:0:0:0:
192,192,34683,1,0,0:0:0:0:
320,192,34790,1,0,0:0:0:0:
448,192,34790,1,0,0:0:0:0:
64,192,34897,1,0,0:0:0:0:
320,192,35004,1,0,0:0:0:0:
64,192,35111,1,0,0:0:0:0:
192,192,35218,1,0,0:0:0:0:
448,192,35218,1,0,0:0:0:0:
320,192,35326,1,0,0:0:0:0:
64,192,35433,1,0,0:0:0:0:
448,192,35540,1,0,0:0:0:0:
320,192,35647,1,0,0:0:0:0:
448,192,35754,1,0,0:0:0:0:
64,192,35861,1,0,0:0:0:0:
192,192,35861,1,0,0:0:0:0:
320,192,35968,1,0,0:0:0:0:
192,192,36076,1,0,0:0:0:0:
64,192,36183,1,0,0:0:0:0:
192,192,36290,1,0,0:0:0:0:
448,192,36290,1,0,0:0:0:0:
320,192,36397,1,0,0:0:0:0:
448,192,36504,1,0,0:0:0:0:
64,192,36504,1,0,0:0:0:0:
320,192,36611,1,0,0:0:0:0:
192,192,36718,1,0,0:0:0:0:
448,192,36826,1,0,0:0:0:0:
64,192,36933,1,0,0:0:0:0:
192,192,37790,1,0,0:0:0:0:
448,192,37790,1,0,0:0:0:0:
64,192,37897,1,0,0:0:0:0:
320,192,38004,1,0,0:0:0:0:
448,192,38111,1,0,0:0:0:0:
320,192,38218,1,0,0:0:0:0:
64,192,38218,1,0,0:0:0:0:
192,192,38326,1,0,0:0:0:0:
448,192,38433,1,0,0:0:0:0:
320,192,38540,1,0,0:0:0:0:
64,192,38647,1,0,0:0:0:0:
192,192,38647,1,0,0:0:0:0:
448,192,38754,1,0,0:0:0:0:
64,192,38861,1,0,0:0:0:0:
320,192,38861,1,0,0:0:0:0:
192,192,38968,1,0,0:0:0:0:
448,192,39076,1,0,0:0:0:0:
64,192,39183,1,0,0:0:0:0:
320,192,39290,1,0,0:0:0:0:
448,192,39290,1,0,0:0:0:0:
192,192,39397,1,0,0:0:0:0:
320,192,39504,1,0,0:0:0:0:
64,192,39611,1,0,0:0:0:0:
192,192,39718,1,0,0:0:0:0:
448,192,39718,1,0,0:0:0:0:
320,192,39826,1,0,0:0:0:0:
448,192,39933,1,0,0:0:0:0:
64,192,39933,1,0,0:0:0:0:
320,192,40040,1,0,0:0:0:0:
192,192,40147,1,0,0:0:0:0:
64,192,40147,1,0,0:0:0:0:
448,192,40254,1,0,0:0:0:0:
192,192,40361,1,0,0:0:0:0:
320,192,40361,1,0,0:0:0:0:
64,192,40468,1,0,0:0:0:0:
320,192,40576,1,0,0:0:0:0:
448,192,40576,1,0,0:0:0:0:
192,192,40683,1,0,0:0:0:0:
320,192,40790,1,0,0:0:0:0:
448,192,41111,1,0,0:0:0:0:
64,192,41218,1,0,0:0:0:0:
192,192,41861,1,0,0:0:0:0:
320,192,42076,1,0,0:0:0:0:
448,192,42504,5,0,0:0:0:0:
320,192,42540,1,0,0:0:0:0:
64,192,42576,1,0,0:0:0:0:
192,192,42611,1,0,0:0:0:0:
448,192,42647,1,0,0:0:0:0:
320,192,42683,1,0,0:0:0:0:
64,192,42718,1,0,0:0:0:0:
192,192,42772,1,0,0:0:0:0:
448,192,42826,1,0,0:0:0:0:
320,192,42879,1,0,0:0:0:0:
192,192,42933,1,0,0:0:0:0:
320,192,43576,1,0,0:0:0:0:
192,192,43790,1,0,0:0:0:0:
64,192,44218,5,0,0:0:0:0:
192,192,44254,1,0,0:0:0:0:
448,192,44290,1,0,0:0:0:0:
320,192,44326,1,0,0:0:0:0:
64,192,44361,1,0,0:0:0:0:
192,192,44397,1,0,0:0:0:0:
448,192,44433,1,0,0:0:0:0:
320,192,44486,1,0,0:0:0:0:
64,192,44540,1,0,0:0:0:0:
192,192,44593,1,0,0:0:0:0:
320,192,44647,1,0,0:0:0:0:
192,192,45290,1,0,0:0:0:0:
320,192,45504,1,0,0:0:0:0:
448,192,45933,5,0,0:0:0:0:
320,192,45968,1,0,0:0:0:0:
64,192,46004,1,0,0:0:0:0:
192,192,46040,1,0,0:0:0:0:
448,192,46076,1,0,0:0:0:0:
320,192,46111,1,0,0:0:0:0:
64,192,46147,1,0,0:0:0:0:
192,192,46201,1,0,0:0:0:0:
448,192,46254,1,0,0:0:0:0:
320,192,46308,1,0,0:0:0:0:
192,192,46361,1,0,0:0:0:0:
320,192,47004,1,0,0:0:0:0:
192,192,47218,1,0,0:0:0:0:
64,192,47647,5,0,0:0:0:0:
192,192,47683,1,0,0:0:0:0:
448,192,47718,1,0,0:0:0:0:
320,192,47754,1,0,0:0:0:0:
64,192,47790,1,0,0:0:0:0:
192,192,47826,1,0,0:0:0:0:
448,192,47861,1,0,0:0:0:0:
320,192,47915,1,0,0:0:0:0:
64,192,47968,1,0,0:0:0:0:
192,192,48022,1,0,0:0:0:0:
320,192,48076,1,0,0:0:0:0:
448,192,48718,1,0,0:0:0:0:
64,192,48933,1,0,0:0:0:0:
448,192,49361,5,0,0:0:0:0:
320,192,49397,1,0,0:0:0:0:
64,192,49433,1,0,0:0:0:0:
192,192,49468,1,0,0:0:0:0:
448,192,49504,1,0,0:0:0:0:
320,192,49540,1,0,0:0:0:0:
64,192,49576,1,0,0:0:0:0:
192,192,49629,1,0,0:0:0:0:
448,192,49683,1,0,0:0:0:0:
320,192,49736,1,0,0:0:0:0:
192,192,49790,1,0,0:0:0:0:
192,192,50433,1,0,0:0:0:0:
320,192,50647,1,0,0:0:0:0:
64,192,51076,5,0,0:0:0:0:
192,192,51111,1,0,0:0:0:0:
448,192,51147,1,0,0:0:0:0:
320,192,51183,1,0,0:0:0:0:
64,192,51218,1,0,0:0:0:0:
192,192,51254,1,0,0:0:0:0:
448,192,51290,1,0,0:0:0:0:
320,192,51343,1,0,0:0:0:0:
64,192,51397,1,0,0:0:0:0:
192,192,51451,1,0,0:0:0:0:
320,192,51504,1,0,0:0:0:0:
320,192,52147,1,0,0:0:0:0:
192,192,52361,1,0,0:0:0:0:
448,192,52790,5,0,0:0:0:0:
320,192,52826,1,0,0:0:0:0:
64,192,52861,1,0,0:0:0:0:
192,192,52897,1,0,0:0:0:0:
448,192,52933,1,0,0:0:0:0:
320,192,52968,1,0,0:0:0:0:
64,192,53004,1,0,0:0:0:0:
192,192,53058,1,0,0:0:0:0:
448,192,53111,1,0,0:0:0:0:
320,192,53165,1,0,0:0:0:0:
192,192,53218,1,0,0:0:0:0:
64,192,54933,1,0,0:0:0:0:
448,192,54933,1,0,0:0:0:0:
320,192,55004,1,0,0:0:0:0:
192,192,55076,1,0,0:0:0:0:
320,192,55147,1,0,0:0:0:0:
64,192,55218,1,0,0:0:0:0:
192,192,55290,1,0,0:0:0:0:
448,192,55361,1,0,0:0:0:0:
320,192,55433,1,0,0:0:0:0:
64,192,55504,1,0,0:0:0:0:
448,192,55576,1,0,0:0:0:0:
320,192,55576,1,0,0:0:0:0:
192,192,55647,1,0,0:0:0:0:
320,192,55718,1,0,0:0:0:0:
64,192,55790,1,0,0:0:0:0:
448,192,55790,1,0,0:0:0:0:
320,192,55861,1,0,0:0:0:0:
64,192,55933,1,0,0:0:0:0:
192,192,56004,1,0,0:0:0:0:
448,192,56076,1,0,0:0:0:0:
64,192,56147,1,0,0:0:0:0:
320,192,56218,1,0,0:0:0:0:
192,192,56290,1,0,0:0:0:0:
448,192,56361,1,0,0:0:0:0:
192,192,56433,1,0,0:0:0:0:
64,192,56433,1,0,0:0:0:0:
320,192,56504,1,0,0:0:0:0:
64,192,56576,1,0,0:0:0:0:
192,192,56647,1,0,0:0:0:0:
448,192,56718,1,0,0:0:0:0:
320,192,56790,1,0,0:0:0:0:
192,192,56861,1,0,0:0:0:0:
64,192,56861,1,0,0:0:0:0:
448,192,56933,1,0,0:0:0:0:
192,192,57004,1,0,0:0:0:0:
320,192,57076,1,0,0:0:0:0:
64,192,57076,1,0,0:0:0:0:
448,192,57147,1,0,0:0:0:0:
192,192,57218,1,0,0:0:0:0:
320,192,57290,1,0,0:0:0:0:
64,192,57361,1,0,0:0:0:0:
448,192,57433,1,0,0:0:0:0:
320,192,57504,1,0,0:0:0:0:
64,192,57504,1,0,0:0:0:0:
192,192,57576,1,0,0:0:0:0:
448,192,57647,1,0,0:0:0:0:
64,192,57718,1,0,0:0:0:0:
192,192,57718,1,0,0:0:0:0:
320,192,57790,1,0,0:0:0:0:
64,192,57861,1,0,0:0:0:0:
448,192,57933,1,0,0:0:0:0:
192,192,58004,1,0,0:0:0:0:
320,192,58076,1,0,0:0:0:0:
64,192,58147,1,0,0:0:0:0:
448,192,58147,1,0,0:0:0:0:
64,192,58254,1,0,0:0:0:0:
64,192,58361,1,0,0:0:0:0:
192,192,58361,1,0,0:0:0:0:
320,192,58433,1,0,0:0:0:0:
64,192,58504,1,0,0:0:0:0:
448,192,58576,1,0,0:0:0:0:
320,192,58647,1,0,0:0:0:0:
192,192,58718,1,0,0:0:0:0:
320,192,58790,1,0,0:0:0:0:
448,192,58790,1,0,0:0:0:0:
64,192,58861,1,0,0:0:0:0:
192,192,58933,1,0,0:0:0:0:
448,192,59004,1,0,0:0:0:0:
192,192,59076,1,0,0:0:0:0:
64,192,59147,1,0,0:0:0:0:
320,192,59218,1,0,0:0:0:0:
448,192,59218,1,0,0:0:0:0:
192,192,59290,1,0,0:0:0:0:
64,192,59361,1,0,0:0:0:0:
192,192,59433,1,0,0:0:0:0:
448,192,59433,1,0,0:0:0:0:
320,192,59504,1,0,0:0:0:0:
64,192,59576,1,0,0:0:0:0:
192,192,59647,1,0,0:0:0:0:
448,192,59718,1,0,0:0:0:0:
320,192,59790,1,0,0:0:0:0:
64,192,59861,1,0,0:0:0:0:
192,192,59861,1,0,0:0:0:0:
448,192,59933,1,0,0:0:0:0:
64,192,60004,1,0,0:0:0:0:
192,192,60076,1,0,0:0:0:0:
448,192,60147,1,0,0:0:0:0:
64,192,60218,1,0,0:0:0:0:
320,192,60290,1,0,0:0:0:0:
448,192,60290,1,0,0:0:0:0:
64,192,60361,1,0,0:0:0:0:
448,192,60433,1,0,0:0:0:0:
320,192,60504,1,0,0:0:0:0:
192,192,60504,1,0,0:0:0:0:
64,192,60576,1,0,0:0:0:0:
192,192,60647,1,0,0:0:0:0:
320,192,60718,1,0,0:0:0:0:
448,192,60718,1,0,0:0:0:0:
64,192,60790,1,0,0:0:0:0:
448,192,60861,1,0,0:0:0:0:
192,192,60933,1,0,0:0:0:0:
64,192,60933,1,0,0:0:0:0:
320,192,61004,1,0,0:0:0:0:
64,192,61076,1,0,0:0:0:0:
320,192,61147,1,0,0:0:0:0:
448,192,61147,1,0,0:0:0:0:
192,192,61218,1,0,0:0:0:0:
64,192,61290,1,0,0:0:0:0:
320,192,61361,1,0,0:0:0:0:
192,192,61433,1,0,0:0:0:0:
64,192,61433,1,0,0:0:0:0:
448,192,61504,1,0,0:0:0:0:
192,192,61576,1,0,0:0:0:0:
64,192,61576,1,0,0:0:0:0:
320,192,61647,1,0,0:0:0:0:
64,192,61718,1,0,0:0:0:0:
448,192,61790,1,0,0:0:0:0:
320,192,61790,1,0,0:0:0:0:
192,192,61861,1,0,0:0:0:0:
64,192,61933,1,0,0:0:0:0:
192,192,62004,1,0,0:0:0:0:
320,192,62076,1,0,0:0:0:0:
448,192,62147,1,0,0:0:0:0:
64,192,62218,1,0,0:0:0:0:
192,192,62290,1,0,0:0:0:0:
320,192,62361,1,0,0:0:0:0:
64,192,62433,1,0,0:0:0:0:
448,192,62433,1,0,0:0:0:0:
192,192,62504,1,0,0:0:0:0:
448,192,62576,1,0,0:0:0:0:
320,192,62647,1,0,0:0:0:0:
64,192,62647,1,0,0:0:0:0:
192,192,62718,1,0,0:0:0:0:
448,192,62790,1,0,0:0:0:0:
64,192,62861,1,0,0:0:0:0:
192,192,62933,1,0,0:0:0:0:
448,192,63004,1,0,0:0:0:0:
64,192,63076,1,0,0:0:0:0:
320,192,63147,1,0,0:0:0:0:
192,192,63218,1,0,0:0:0:0:
448,192,63290,1,0,0:0:0:0:
320,192,63290,1,0,0:0:0:0:
64,192,63361,1,0,0:0:0:0:
192,192,63433,1,0,0:0:0:0:
320,192,63504,1,0,0:0:0:0:
64,192,63576,1,0,0:0:0:0:
448,192,63647,1,0,0:0:0:0:
192,192,63718,1,0,0:0:0:0:
64,192,63718,1,0,0:0:0:0:
320,192,63790,1,0,0:0:0:0:
192,192,63861,1,0,0:0:0:0:
448,192,63933,1,0,0:0:0:0:
320,192,63933,1,0,0:0:0:0:
64,192,64004,1,0,0:0:0:0:
448,192,64076,1,0,0:0:0:0:
192,192,64147,1,0,0:0:0:0:
320,192,64218,1,0,0:0:0:0:
64,192,64290,1,0,0:0:0:0:
448,192,64361,1,0,0:0:0:0:
320,192,64361,1,0,0:0:0:0:
192,192,64433,1,0,0:0:0:0:
448,192,64504,1,0,0:0:0:0:
192,192,64576,1,0,0:0:0:0:
64,192,64576,1,0,0:0:0:0:
320,192,64647,1,0,0:0:0:0:
64,192,64718,1,0,0:0:0:0:
448,192,64790,1,0,0:0:0:0:
192,192,64861,1,0,0:0:0:0:
320,192,64933,1,0,0:0:0:0:
64,192,65004,1,0,0:0:0:0:
448,192,65004,1,0,0:0:0:0:
64,192,65111,1,0,0:0:0:0:
64,192,65218,1,0,0:0:0:0:
320,192,65218,1,0,0:0:0:0:
448,192,65290,1,0,0:0:0:0:
192,192,65361,1,0,0:0:0:0:
320,192,65433,1,0,0:0:0:0:
64,192,65504,1,0,0:0:0:0:
448,192,65576,1,0,0:0:0:0:
320,192,65647,1,0,0:0:0:0:
64,192,65647,1,0,0:0:0:0:
192,192,65718,1,0,0:0:0:0:
448,192,65790,1,0,0:0:0:0:
64,192,65861,1,0,0:0:0:0:
192,192,65933,1,0,0:0:0:0:
320,192,66004,1,0,0:0:0:0:
64,192,66076,1,0,0:0:0:0:
448,192,66076,1,0,0:0:0:0:
192,192,66147,1,0,0:0:0:0:
320,192,66218,1,0,0:0:0:0:
192,192,66290,1,0,0:0:0:0:
448,192,66290,1,0,0:0:0:0:
64,192,66361,1,0,0:0:0:0:
320,192,66433,1,0,0:0:0:0:
448,192,66504,1,0,0:0:0:0:
192,192,66576,1,0,0:0:0:0:
64,192,66647,1,0,0:0:0:0:
320,192,66718,1,0,0:0:0:0:
448,192,66718,1,0,0:0:0:0:
64,192,66790,1,0,0:0:0:0:
448,192,66861,1,0,0:0:0:0:
320,192,66933,1,0,0:0:0:0:
64,192,67361,1,0,0:0:0:0:
448,192,67361,1,0,0:0:0:0:
192,192,67433,1,0,0:0:0:0:
320,192,67504,1,0,0:0:0:0:
64,192,67576,1,0,0:0:0:0:
192,192,67576,1,0,0:0:0:0:
448,192,67647,1,0,0:0:0:0:
64,192,67718,1,0,0:0:0:0:
320,192,67790,1,0,0:0:0:0:
448,192,67790,1,0,0:0:0:0:
192,192,67861,1,0,0:0:0:0:
448,192,67933,1,0,0:0:0:0:
192,192,68004,1,0,0:0:0:0:
64,192,68004,1,0,0:0:0:0:
320,192,68076,1,0,0:0:0:0:
448,192,68147,1,0,0:0:0:0:
192,192,68218,1,0,0:0:0:0:
64,192,68290,1,0,0:0:0:0:
320,192,68361,1,0,0:0:0:0:
448,192,68433,1,0,0:0:0:0:
64,192,68433,1,0,0:0:0:0:
192,192,68504,1,0,0:0:0:0:
320,192,68576,1,0,0:0:0:0:
64,192,68647,1,0,0:0:0:0:
448,192,68647,1,0,0:0:0:0:
192,192,69504,1,0,0:0:0:0:
448,192,69504,1,0,0:0:0:0:
64,192,70361,1,0,0:0:0:0:
320,192,70361,1,0,0:0:0:0:
192,192,71218,1,0,0:0:0:0:
320,192,71218,1,0,0:0:0:0:
448,192,72076,1,0,0:0:0:0:
64,192,72076,1,0,0:0:0:0:
320,192,72504,128,0,72933:0:0:0:0:
64,192,72504,1,0,0:0:0:0:
448,192,72504,1,0,0:0:0:0:
64,192,72933,1,0,0:0:0:0:
192,192,72933,1,0,0:0:0:0:
64,192,73147,1,0,0:0:0:0:
448,192,73147,1,0,0:0:0:0:
192,192,73576,1,0,0:0:0:0:
320,192,73576,1,0,0:0:0:0:
448,192,73576,1,0,0:0:0:0:
192,192,73790,1,0,0:0:0:0:
64,192,74004,1,0,0:0:0:0:
320,192,74004,1,0,0:0:0:0:
192,192,74218,1,0,0:0:0:0:
448,192,74218,1,0,0:0:0:0:
448,192,74433,1,0,0:0:0:0:
64,192,75504,1,0,0:0:0:0:
448,192,75504,1,0,0:0:0:0:
320,192,75933,128,0,76147:0:0:0:0:
64,192,76147,1,0,0:0:0:0:
448,192,76147,1,0,0:0:0:0:
192,192,76361,1,0,0:0:0:0:
448,192,76361,1,0,0:0:0:0:
192,192,77004,1,0,0:0:0:0:
448,192,77004,1,0,0:0:0:0:
320,192,77218,1,0,0:0:0:0:
448,192,77433,1,0,0:0:0:0:
192,192,77433,1,0,0:0:0:0:
64,192,77433,1,0,0:0:0:0:
320,192,77647,128,0,77861:0:0:0:0:
448,192,77647,1,0,0:0:0:0:
64,192,77647,1,0,0:0:0:0:
192,192,77861,1,0,0:0:0:0:
320,192,78076,1,0,0:0:0:0:
448,192,78076,1,0,0:0:0:0:
64,192,78290,1,0,0:0:0:0:
448,192,78290,1,0,0:0:0:0:
64,192,78718,1,0,0:0:0:0:
64,192,78826,1,0,0:0:0:0:
64,192,78933,1,0,0:0:0:0:
320,192,78933,1,0,0:0:0:0:
64,192,79361,1,0,0:0:0:0:
320,192,79361,128,0,79576:0:0:0:0:
448,192,79361,1,0,0:0:0:0:
64,192,82361,1,0,0:0:0:0:
448,192,82361,1,0,0:0:0:0:
320,192,82790,128,0,83004:0:0:0:0:
64,192,83004,1,0,0:0:0:0:
448,192,83004,1,0,0:0:0:0:
192,192,83218,1,0,0:0:0:0:
320,192,83218,1,0,0:0:0:0:
192,192,83861,1,0,0:0:0:0:
320,192,83861,1,0,0:0:0:0:
448,192,84076,1,0,0:0:0:0:
64,192,84290,1,0,0:0:0:0:
192,192,84290,1,0,0:0:0:0:
320,192,84290,1,0,0:0:0:0:
64,192,84504,1,0,0:0:0:0:
448,192,84504,1,0,0:0:0:0:
320,192,84504,128,0,84933:0:0:0:0:
64,192,85576,1,0,0:0:0:0:
64,192,85683,1,0,0:0:0:0:
64,192,85790,1,0,0:0:0:0:
192,192,85790,1,0,0:0:0:0:
64,192,86218,1,0,0:0:0:0:
448,192,86218,1,0,0:0:0:0:
320,192,86218,128,0,86647:0:0:0:0:
192,192,86647,1,0,0:0:0:0:
448,192,86647,1,0,0:0:0:0:
64,192,87076,128,0,87147:0:0:0:0:
192,192,87076,1,0,0:0:0:0:
320,192,87504,1,0,0:0:0:0:
448,192,87504,128,0,87933:0:0:0:0:
192,192,87718,1,0,0:0:0:0:
64,192,87718,1,0,0:0:0:0:
64,192,89218,1,0,0:0:0:0:
448,192,89218,1,0,0:0:0:0:
320,192,89647,128,0,89861:0:0:0:0:
64,192,89861,1,0,0:0:0:0:
448,192,89861,1,0,0:0:0:0:
64,192,90076,1,0,0:0:0:0:
192,192,90076,1,0,0:0:0:0:
192,192,90718,1,0,0:0:0:0:
64,192,90718,1,0,0:0:0:0:
320,192,90933,1,0,0:0:0:0:
192,192,91147,1,0,0:0:0:0:
64,192,91147,1,0,0:0:0:0:
448,192,91147,1,0,0:0:0:0:
64,192,91361,1,0,0:0:0:0:
448,192,91361,1,0,0:0:0:0:
320,192,91576,1,0,0:0:0:0:
192,192,91790,1,0,0:0:0:0:
448,192,91790,1,0,0:0:0:0:
448,192,92004,1,0,0:0:0:0:
64,192,92004,1,0,0:0:0:0:
64,192,92433,1,0,0:0:0:0:
64,192,92540,1,0,0:0:0:0:
64,192,92647,1,0,0:0:0:0:
448,192,92647,1,0,0:0:0:0:
320,192,92754,1,0,0:0:0:0:
192,192,92861,1,0,0:0:0:0:
320,192,92968,1,0,0:0:0:0:
64,192,93076,1,0,0:0:0:0:
192,192,93076,1,0,0:0:0:0:
448,192,93183,1,0,0:0:0:0:
320,192,93290,1,0,0:0:0:0:
64,192,93397,1,0,0:0:0:0:
320,192,93504,1,0,0:0:0:0:
448,192,93504,1,0,0:0:0:0:
192,192,93611,1,0,0:0:0:0:
320,192,93718,1,0,0:0:0:0:
448,192,93826,1,0,0:0:0:0:
192,192,93933,1,0,0:0:0:0:
64,192,93933,1,0,0:0:0:0:
320,192,94040,1,0,0:0:0:0:
448,192,94147,1,0,0:0:0:0:
192,192,94254,1,0,0:0:0:0:
64,192,94361,1,0,0:0:0:0:
320,192,94361,1,0,0:0:0:0:
448,192,94468,1,0,0:0:0:0:
192,192,94576,1,0,0:0:0:0:
320,192,94683,1,0,0:0:0:0:
448,192,94790,1,0,0:0:0:0:
64,192,94790,1,0,0:0:0:0:
320,192,94897,1,0,0:0:0:0:
192,192,95004,1,0,0:0:0:0:
448,192,95004,1,0,0:0:0:0:
64,192,95111,1,0,0:0:0:0:
448,192,95968,1,0,0:0:0:0:
64,192,96076,1,0,0:0:0:0:
192,192,96718,1,0,0:0:0:0:
320,192,96933,1,0,0:0:0:0:
448,192,97361,5,0,0:0:0:0:
320,192,97397,1,0,0:0:0:0:
64,192,97433,1,0,0:0:0:0:
192,192,97468,1,0,0:0:0:0:
448,192,97504,1,0,0:0:0:0:
320,192,97540,1,0,0:0:0:0:
64,192,97576,1,0,0:0:0:0:
192,192,97629,1,0,0:0:0:0:
448,192,97683,1,0,0:0:0:0:
320,192,97736,1,0,0:0:0:0:
192,192,97790,1,0,0:0:0:0:
320,192,98433,1,0,0:0:0:0:
192,192,98647,1,0,0:0:0:0:
64,192,99076,5,0,0:0:0:0:
192,192,99111,1,0,0:0:0:0:
448,192,99147,1,0,0:0:0:0:
320,192,99183,1,0,0:0:0:0:
64,192,99218,1,0,0:0:0:0:
192,192,99254,1,0,0:0:0:0:
448,192,99290,1,0,0:0:0:0:
320,192,99343,1,0,0:0:0:0:
64,192,99397,1,0,0:0:0:0:
192,192,99451,1,0,0:0:0:0:
320,192,99504,1,0,0:0:0:0:
192,192,100147,1,0,0:0:0:0:
320,192,100361,1,0,0:0:0:0:
448,192,100790,5,0,0:0:0:0:
320,192,100826,1,0,0:0:0:0:
64,192,100861,1,0,0:0:0:0:
192,192,100897,1,0,0:0:0:0:
448,192,100933,1,0,0:0:0:0:
320,192,100968,1,0,0:0:0:0:
64,192,101004,1,0,0:0:0:0:
192,192,101058,1,0,0:0:0:0:
448,192,101111,1,0,0:0:0:0:
320,192,101165,1,0,0:0:0:0:
192,192,101218,1,0,0:0:0:0:
320,192,101861,1,0,0:0:0:0:
192,192,102076,1,0,0:0:0:0:
64,192,102504,5,0,0:0:0:0:
192,192,102540,1,0,0:0:0:0:
448,192,102576,1,0,0:0:0:0:
320,192,102611,1,0,0:0:0:0:
64,192,102647,1,0,0:0:0:0:
192,192,102683,1,0,0:0:0:0:
448,192,102718,1,0,0:0:0:0:
320,192,102772,1,0,0:0:0:0:
64,192,102826,1,0,0:0:0:0:
192,192,102879,1,0,0:0:0:0:
320,192,102933,1,0,0:0:0:0:
448,192,103576,1,0,0:0:0:0:
64,192,103790,1,0,0:0:0:0:
448,192,104218,5,0,0:0:0:0:
320,192,104254,1,0,0:0:0:0:
64,192,104290,1,0,0:0:0:0:
192,192,104326,1,0,0:0:0:0:
448,192,104361,1,0,0:0:0:0:
320,192,104397,1,0,0:0:0:0:
64,192,104433,1,0,0:0:0:0:
192,192,104486,1,0,0:0:0:0:
448,192,104540,1,0,0:0:0:0:
320,192,104593,1,0,0:0:0:0:
192,192,104647,1,0,0:0:0:0:
192,192,105290,1,0,0:0:0:0:
320,192,105504,1,0,0:0:0:0:
64,192,105933,5,0,0:0:0:0:
192,192,105968,1,0,0:0:0:0:
448,192,106004,1,0,0:0:0:0:
320,192,106040,1,0,0:0:0:0:
64,192,106076,1,0,0:0:0:0:
192,192,106111,1,0,0:0:0:0:
448,192,106147,1,0,0:0:0:0:
320,192,106201,1,0,0:0:0:0:
64,192,106254,1,0,0:0:0:0:
192,192,106308,1,0,0:0:0:0:
320,192,106361,1,0,0:0:0:0:
320,192,107004,1,0,0:0:0:0:
192,192,107218,1,0,0:0:0:0:
448,192,107647,5,0,0:0:0:0:
320,192,107683,1,0,0:0:0:0:
64,192,107718,1,0,0:0:0:0:
192,192,107754,1,0,0:0:0:0:
448,192,107790,1,0,0:0:0:0:
320,192,107826,1,0,0:0:0:0:
64,192,107861,1,0,0:0:0:0:
192,192,107915,1,0,0:0:0:0:
448,192,107968,1,0,0:0:0:0:
320,192,108022,1,0,0:0:0:0:
192,192,108076,1,0,0:0:0:0:
64,192,108718,1,0,0:0:0:0:
448,192,108933,1,0,0:0:0:0:
64,192,109361,5,0,0:0:0:0:
192,192,109397,1,0,0:0:0:0:
448,192,109433,1,0,0:0:0:0:
320,192,109468,1,0,0:0:0:0:
64,192,109504,1,0,0:0:0:0:
192,192,109540,1,0,0:0:0:0:
448,192,109576,1,0,0:0:0:0:
320,192,109629,1,0,0:0:0:0:
64,192,109683,1,0,0:0:0:0:
192,192,109736,1,0,0:0:0:0:
320,192,109790,1,0,0:0:0:0:
448,192,113218,1,0,0:0:0:0:
64,192,113218,1,0,0:0:0:0:
192,192,113290,1,0,0:0:0:0:
320,192,113361,1,0,0:0:0:0:
64,192,113433,1,0,0:0:0:0:
448,192,113504,1,0,0:0:0:0:
192,192,113576,1,0,0:0:0:0:
64,192,113647,1,0,0:0:0:0:
320,192,113647,1,0,0:0:0:0:
448,192,113718,1,0,0:0:0:0:
192,192,113790,1,0,0:0:0:0:
320,192,113861,1,0,0:0:0:0:
64,192,113933,1,0,0:0:0:0:
448,192,114004,1,0,0:0:0:0:
64,192,114076,1,0,0:0:0:0:
192,192,114076,1,0,0:0:0:0:
320,192,114147,1,0,0:0:0:0:
192,192,114218,1,0,0:0:0:0:
64,192,114290,1,0,0:0:0:0:
448,192,114290,1,0,0:0:0:0:
320,192,114361,1,0,0:0:0:0:
192,192,114433,1,0,0:0:0:0:
448,192,114504,1,0,0:0:0:0:
64,192,114576,1,0,0:0:0:0:
192,192,114647,1,0,0:0:0:0:
320,192,114718,1,0,0:0:0:0:
448,192,114718,1,0,0:0:0:0:
64,192,114790,1,0,0:0:0:0:
448,192,114861,1,0,0:0:0:0:
192,192,114933,1,0,0:0:0:0:
320,192,115004,1,0,0:0:0:0:
192,192,115076,1,0,0:0:0:0:
448,192,115147,1,0,0:0:0:0:
64,192,115147,1,0,0:0:0:0:
320,192,115218,1,0,0:0:0:0:
192,192,115290,1,0,0:0:0:0:
448,192,115361,1,0,0:0:0:0:
320,192,115361,1,0,0:0:0:0:
64,192,115433,1,0,0:0:0:0:
192,192,115504,1,0,0:0:0:0:
448,192,115576,1,0,0:0:0:0:
320,192,115576,1,0,0:0:0:0:
64,192,115647,1,0,0:0:0:0:
448,192,115718,1,0,0:0:0:0:
320,192,115790,1,0,0:0:0:0:
64,192,115790,1,0,0:0:0:0:
192,192,115861,1,0,0:0:0:0:
448,192,115933,1,0,0:0:0:0:
192,192,116004,1,0,0:0:0:0:
64,192,116004,1,0,0:0:0:0:
320,192,116076,1,0,0:0:0:0:
448,192,116147,1,0,0:0:0:0:
192,192,116218,1,0,0:0:0:0:
320,192,116290,1,0,0:0:0:0:
64,192,116290,1,0,0:0:0:0:
448,192,116361,1,0,0:0:0:0:
64,192,116433,1,0,0:0:0:0:
192,192,116433,1,0,0:0:0:0:
320,192,116504,1,0,0:0:0:0:
192,192,116576,1,0,0:0:0:0:
64,192,116647,1,0,0:0:0:0:
448,192,116647,1,0,0:0:0:0:
320,192,116718,1,0,0:0:0:0:
192,192,116790,1,0,0:0:0:0:
448,192,116861,1,0,0:0:0:0:
320,192,116933,1,0,0:0:0:0:
64,192,117004,1,0,0:0:0:0:
320,192,117076,1,0,0:0:0:0:
192,192,117147,1,0,0:0:0:0:
448,192,117218,1,0,0:0:0:0:
192,192,117290,1,0,0:0:0:0:
64,192,117290,1,0,0:0:0:0:
320,192,117361,1,0,0:0:0:0:
192,192,117433,1,0,0:0:0:0:
320,192,117504,1,0,0:0:0:0:
448,192,117504,1,0,0:0:0:0:
64,192,117576,1,0,0:0:0:0:
192,192,117647,1,0,0:0:0:0:
448,192,117718,1,0,0:0:0:0:
320,192,117790,1,0,0:0:0:0:
192,192,117861,1,0,0:0:0:0:
64,192,117933,1,0,0:0:0:0:
320,192,118004,1,0,0:0:0:0:
448,192,118076,1,0,0:0:0:0:
64,192,118147,1,0,0:0:0:0:
192,192,118147,1,0,0:0:0:0:
448,192,118218,1,0,0:0:0:0:
64,192,118290,1,0,0:0:0:0:
320,192,118361,1,0,0:0:0:0:
192,192,118433,1,0,0:0:0:0:
64,192,118504,1,0,0:0:0:0:
320,192,118576,1,0,0:0:0:0:
448,192,118576,1,0,0:0:0:0:
192,192,118647,1,0,0:0:0:0:
320,192,118718,1,0,0:0:0:0:
64,192,118790,1,0,0:0:0:0:
448,192,118790,1,0,0:0:0:0:
192,192,118861,1,0,0:0:0:0:
448,192,118933,1,0,0:0:0:0:
320,192,119004,1,0,0:0:0:0:
192,192,119076,1,0,0:0:0:0:
64,192,119147,1,0,0:0:0:0:
320,192,119218,1,0,0:0:0:0:
448,192,119218,1,0,0:0:0:0:
192,192,119290,1,0,0:0:0:0:
448,192,119361,1,0,0:0:0:0:
320,192,119433,1,0,0:0:0:0:
64,192,119433,1,0,0:0:0:0:
192,192,119504,1,0,0:0:0:0:
448,192,119576,1,0,0:0:0:0:
64,192,119647,1,0,0:0:0:0:
192,192,119718,1,0,0:0:0:0:
320,192,119790,1,0,0:0:0:0:
64,192,119861,1,0,0:0:0:0:
448,192,119861,1,0,0:0:0:0:
64,192,119968,1,0,0:0:0:0:
64,192,120076,1,0,0:0:0:0:
320,192,120147,1,0,0:0:0:0:
192,192,120218,1,0,0:0:0:0:
448,192,120290,1,0,0:0:0:0:
64,192,120361,1,0,0:0:0:0:
320,192,120433,1,0,0:0:0:0:
448,192,120504,1,0,0:0:0:0:
192,192,120504,1,0,0:0:0:0:
64,192,120576,1,0,0:0:0:0:
320,192,120647,1,0,0:0:0:0:
192,192,120718,1,0,0:0:0:0:
448,192,120790,1,0,0:0:0:0:
64,192,120861,1,0,0:0:0:0:
448,192,120933,1,0,0:0:0:0:
320,192,120933,1,0,0:0:0:0:
192,192,121004,1,0,0:0:0:0:
320,192,121076,1,0,0:0:0:0:
448,192,121147,1,0,0:0:0:0:
64,192,121147,1,0,0:0:0:0:
192,192,121218,1,0,0:0:0:0:
320,192,121290,1,0,0:0:0:0:
64,192,121361,1,0,0:0:0:0:
448,192,121433,1,0,0:0:0:0:
320,192,121504,1,0,0:0:0:0:
192,192,121576,1,0,0:0:0:0:
64,192,121576,1,0,0:0:0:0:
448,192,121647,1,0,0:0:0:0:
64,192,121718,1,0,0:0:0:0:
320,192,121790,1,0,0:0:0:0:
192,192,121861,1,0,0:0:0:0:
320,192,121933,1,0,0:0:0:0:
64,192,122004,1,0,0:0:0:0:
448,192,122004,1,0,0:0:0:0:
192,192,122076,1,0,0:0:0:0:
320,192,122147,1,0,0:0:0:0:
64,192,122218,1,0,0:0:0:0:
192,192,122218,1,0,0:0:0:0:
448,192,122290,1,0,0:0:0:0:
320,192,122361,1,0,0:0:0:0:
64,192,122433,1,0,0:0:0:0:
192,192,122433,1,0,0:0:0:0:
448,192,122504,1,0,0:0:0:0:
64,192,122576,1,0,0:0:0:0:
192,192,122647,1,0,0:0:0:0:
448,192,122647,1,0,0:0:0:0:
320,192,122718,1,0,0:0:0:0:
64,192,122790,1,0,0:0:0:0:
320,192,122861,1,0,0:0:0:0:
448,192,122861,1,0,0:0:0:0:
192,192,122933,1,0,0:0:0:0:
64,192,123004,1,0,0:0:0:0:
320,192,123076,1,0,0:0:0:0:
192,192,123147,1,0,0:0:0:0:
448,192,123147,1,0,0:0:0:0:
64,192,123218,1,0,0:0:0:0:
448,192,123290,1,0,0:0:0:0:
320,192,123290,1,0,0:0:0:0:
192,192,123361,1,0,0:0:0:0:
320,192,123433,1,0,0:0:0:0:
448,192,123504,1,0,0:0:0:0:
64,192,123504,1,0,0:0:0:0:
192,192,123576,1,0,0:0:0:0:
320,192,123647,1,0,0:0:0:0:
64,192,123718,1,0,0:0:0:0:
192,192,123790,1,0,0:0:0:0:
448,192,123861,1,0,0:0:0:0:
192,192,123933,1,0,0:0:0:0:
320,192,124004,1,0,0:0:0:0:
64,192,124076,1,0,0:0:0:0:
320,192,124147,1,0,0:0:0:0:
448,192,124147,1,0,0:0:0:0:
192,192,124218,1,0,0:0:0:0:
320,192,124290,1,0,0:0:0:0:
192,192,124361,1,0,0:0:0:0:
64,192,124361,1,0,0:0:0:0:
448,192,124433,1,0,0:0:0:0:
320,192,124504,1,0,0:0:0:0:
64,192,124576,1,0,0:0:0:0:
192,192,124647,1,0,0:0:0:0:
320,192,124718,1,0,0:0:0:0:
448,192,124790,1,0,0:0:0:0:
192,192,124861,1,0,0:0:0:0:
64,192,124933,1,0,0:0:0:0:
448,192,125004,1,0,0:0:0:0:
320,192,125004,1,0,0:0:0:0:
64,192,125076,1,0,0:0:0:0:
448,192,125147,1,0,0:0:0:0:
192,192,125218,1,0,0:0:0:0:
320,192,125290,1,0,0:0:0:0:
448,192,125361,1,0,0:0:0:0:
192,192,125433,1,0,0:0:0:0:
64,192,125433,1,0,0:0:0:0:
320,192,125504,1,0,0:0:0:0:
192,192,125576,1,0,0:0:0:0:
448,192,125647,1,0,0:0:0:0:
64,192,125647,1,0,0:0:0:0:
320,192,125718,1,0,0:0:0:0:
64,192,125790,1,0,0:0:0:0:
192,192,125861,1,0,0:0:0:0:
320,192,125933,1,0,0:0:0:0:
448,192,126004,1,0,0:0:0:0:
192,192,126076,1,0,0:0:0:0:
64,192,126076,1,0,0:0:0:0:
320,192,126147,1,0,0:0:0:0:
64,192,126218,1,0,0:0:0:0:
192,192,126290,1,0,0:0:0:0:
448,192,126290,1,0,0:0:0:0:
320,192,126361,1,0,0:0:0:0:
64,192,126433,1,0,0:0:0:0:
448,192,126504,1,0,0:0:0:0:
320,192,126576,1,0,0:0:0:0:
192,192,126647,1,0,0:0:0:0:
448,192,126718,1,0,0:0:0:0:
64,192,126718,1,0,0:0:0:0:
448,192,126826,1,0,0:0:0:0:
448,192,126933,1,0,0:0:0:0:
64,192,126933,1,0,0:0:0:0:
192,192,127004,1,0,0:0:0:0:
320,192,127076,1,0,0:0:0:0:
64,192,127147,1,0,0:0:0:0:
448,192,127218,1,0,0:0:0:0:
192,192,127290,1,0,0:0:0:0:
320,192,127361,1,0,0:0:0:0:
64,192,127361,1,0,0:0:0:0:
448,192,127433,1,0,0:0:0:0:
192,192,127504,1,0,0:0:0:0:
320,192,127576,1,0,0:0:0:0:
64,192,127647,1,0,0:0:0:0:
448,192,127718,1,0,0:0:0:0:
192,192,127790,1,0,0:0:0:0:
64,192,127790,1,0,0:0:0:0:
320,192,127861,1,0,0:0:0:0:
192,192,127933,1,0,0:0:0:0:
448,192,128004,1,0,0:0:0:0:
64,192,128004,1,0,0:0:0:0:
320,192,128076,1,0,0:0:0:0:
192,192,128147,1,0,0:0:0:0:
448,192,128218,1,0,0:0:0:0:
64,192,128290,1,0,0:0:0:0:
192,192,128361,1,0,0:0:0:0:
448,192,128433,1,0,0:0:0:0:
320,192,128433,1,0,0:0:0:0:
64,192,128504,1,0,0:0:0:0:
448,192,128576,1,0,0:0:0:0:
192,192,128647,1,0,0:0:0:0:
320,192,128718,1,0,0:0:0:0:
192,192,128790,1,0,0:0:0:0:
64,192,128861,1,0,0:0:0:0:
448,192,128861,1,0,0:0:0:0:
320,192,128933,1,0,0:0:0:0:
192,192,129004,1,0,0:0:0:0:
320,192,129076,1,0,0:0:0:0:
448,192,129076,1,0,0:0:0:0:
64,192,129147,1,0,0:0:0:0:
192,192,129218,1,0,0:0:0:0:
320,192,129290,1,0,0:0:0:0:
448,192,129290,1,0,0:0:0:0:
64,192,129361,1,0,0:0:0:0:
448,192,129433,1,0,0:0:0:0:
64,192,129504,1,0,0:0:0:0:
320,192,129504,1,0,0:0:0:0:
192,192,129576,1,0,0:0:0:0:
448,192,129647,1,0,0:0:0:0:
64,192,129718,1,0,0:0:0:0:
192,192,129718,1,0,0:0:0:0:
320,192,129790,1,0,0:0:0:0:
448,192,129861,1,0,0:0:0:0:
192,192,129933,1,0,0:0:0:0:
64,192,130004,1,0,0:0:0:0:
320,192,130004,1,0,0:0:0:0:
448,192,130076,1,0,0:0:0:0:
192,192,130147,1,0,0:0:0:0:
64,192,130147,1,0,0:0:0:0:
320,192,130218,1,0,0:0:0:0:
192,192,130290,1,0,0:0:0:0:
448,192,130361,1,0,0:0:0:0:
64,192,130361,1,0,0:0:0:0:
320,192,130433,1,0,0:0:0:0:
192,192,130504,1,0,0:0:0:0:
448,192,130576,1,0,0:0:0:0:
320,192,130647,1,0,0:0:0:0:
64,192,130718,1,0,0:0:0:0:
320,192,130790,1,0,0:0:0:0:
192,192,130861,1,0,0:0:0:0:
448,192,130933,1,0,0:0:0:0:
64,192,131004,1,0,0:0:0:0:
192,192,131004,1,0,0:0:0:0:
320,192,131076,1,0,0:0:0:0:
192,192,131147,1,0,0:0:0:0:
448,192,131218,1,0,0:0:0:0:
320,192,131218,1,0,0:0:0:0:
64,192,131290,1,0,0:0:0:0:
192,192,131361,1,0,0:0:0:0:
448,192,131433,1,0,0:0:0:0:
320,192,131504,1,0,0:0:0:0:
192,192,131576,1,0,0:0:0:0:
64,192,131647,1,0,0:0:0:0:
320,192,131718,1,0,0:0:0:0:
448,192,131790,1,0,0:0:0:0:
192,192,131861,1,0,0:0:0:0:
64,192,131861,1,0,0:0:0:0:
448,192,131933,1,0,0:0:0:0:
64,192,132004,1,0,0:0:0:0:
320,192,132076,1,0,0:0:0:0:
192,192,132147,1,0,0:0:0:0:
64,192,132218,1,0,0:0:0:0:
448,192,132290,1,0,0:0:0:0:
320,192,132290,1,0,0:0:0:0:
192,192,132361,1,0,0:0:0:0:
320,192,132433,1,0,0:0:0:0:
448,192,132504,1,0,0:0:0:0:
64,192,132504,1,0,0:0:0:0:
192,192,132576,1,0,0:0:0:0:
448,192,132647,1,0,0:0:0:0:
320,192,132718,1,0,0:0:0:0:
192,192,132790,1,0,0:0:0:0:
64,192,132861,1,0,0:0:0:0:
448,192,132933,1,0,0:0:0:0:
320,192,132933,1,0,0:0:0:0:
192,192,133004,1,0,0:0:0:0:
448,192,133076,1,0,0:0:0:0:
64,192,133147,1,0,0:0:0:0:
320,192,133147,1,0,0:0:0:0:
192,192,133218,1,0,0:0:0:0:
448,192,133290,1,0,0:0:0:0:
64,192,133361,1,0,0:0:0:0:
192,192,133433,1,0,0:0:0:0:
320,192,133504,1,0,0:0:0:0:
448,192,133576,1,0,0:0:0:0:
64,192,133576,1,0,0:0:0:0:
64,192,133683,1,0,0:0:0:0:
64,192,133790,1,0,0:0:0:0:
320,192,133861,1,0,0:0:0:0:
192,192,133933,1,0,0:0:0:0:
448,192,134004,1,0,0:0:0:0:
64,192,134076,1,0,0:0:0:0:
320,192,134147,1,0,0:0:0:0:
448,192,134218,1,0,0:0:0:0:
192,192,134218,1,0,0:0:0:0:
64,192,134290,1,0,0:0:0:0:
320,192,134361,1,0,0:0:0:0:
192,192,134433,1,0,0:0:0:0:
448,192,134504,1,0,0:0:0:0:
64,192,134576,1,0,0:0:0:0:
448,192,134647,1,0,0:0:0:0:
320,192,134647,1,0,0:0:0:0:
192,192,134718,1,0,0:0:0:0:
320,192,134790,1,0,0:0:0:0:
448,192,134861,1,0,0:0:0:0:
64,192,134861,1,0,0:0:0:0:
192,192,134933,1,0,0:0:0:0:
320,192,135004,1,0,0:0:0:0:
64,192,135076,1,0,0:0:0:0:
448,192,135147,1,0,0:0:0:0:
320,192,135218,1,0,0:0:0:0:
192,192,135290,1,0,0:0:0:0:
64,192,135290,1,0,0:0:0:0:
448,192,135361,1,0,0:0:0:0:
64,192,135433,1,0,0:0:0:0:
320,192,135504,1,0,0:0:0:0:
192,192,135576,1,0,0:0:0:0:
320,192,135647,1,0,0:0:0:0:
64,192,135718,1,0,0:0:0:0:
448,192,135718,1,0,0:0:0:0:
192,192,135790,1,0,0:0:0:0:
320,192,135861,1,0,0:0:0:0:
64,192,135933,1,0,0:0:0:0:
192,192,135933,1,0,0:0:0:0:
448,192,136004,1,0,0:0:0:0:
320,192,136076,1,0,0:0:0:0:
64,192,136147,1,0,0:0:0:0:
192,192,136147,1,0,0:0:0:0:
448,192,136218,1,0,0:0:0:0:
64,192,136290,1,0,0:0:0:0:
192,192,136361,1,0,0:0:0:0:
448,192,136361,1,0,0:0:0:0:
320,192,136433,1,0,0:0:0:0:
64,192,136504,1,0,0:0:0:0:
320,192,136576,1,0,0:0:0:0:
448,192,136576,1,0,0:0:0:0:
192,192,136647,1,0,0:0:0:0:
64,192,136718,1,0,0:0:0:0:
320,192,136790,1,0,0:0:0:0:
192,192,136861,1,0,0:0:0:0:
448,192,136861,1,0,0:0:0:0:
64,192,136933,1,0,0:0:0:0:
448,192,137004,1,0,0:0:0:0:
320,192,137004,1,0,0:0:0:0:
192,192,137076,1,0,0:0:0:0:
320,192,137147,1,0,0:0:0:0:
448,192,137218,1,0,0:0:0:0:
64,192,137218,1,0,0:0:0:0:
320,192,137647,128,0,137861:0:0:0:0:
64,192,137861,1,0,0:0:0:0:
448,192,137861,1,0,0:0:0:0:
192,192,138076,1,0,0:0:0:0:
320,192,138076,1,0,0:0:0:0:
64,192,138718,1,0,0:0:0:0:
192,192,138718,1,0,0:0:0:0:
320,192,138933,1,0,0:0:0:0:
192,192,139147,1,0,0:0:0:0:
64,192,139147,1,0,0:0:0:0:
64,192,139361,1,0,0:0:0:0:
448,192,139361,1,0,0:0:0:0:
320,192,139790,1,0,0:0:0:0:
448,192,139790,1,0,0:0:0:0:
64,192,139790,1,0,0:0:0:0:
64,192,140004,1,0,0:0:0:0:
448,192,140004,1,0,0:0:0:0:
64,192,140433,1,0,0:0:0:0:
64,192,140540,1,0,0:0:0:0:
64,192,140647,1,0,0:0:0:0:
320,192,140647,1,0,0:0:0:0:
192,192,141076,1,0,0:0:0:0:
448,192,141076,1,0,0:0:0:0:
192,192,141504,1,0,0:0:0:0:
64,192,141504,1,0,0:0:0:0:
448,192,141718,1,0,0:0:0:0:
320,192,141718,1,0,0:0:0:0:
192,192,142147,1,0,0:0:0:0:
64,192,142147,1,0,0:0:0:0:
448,192,142361,1,0,0:0:0:0:
192,192,142576,1,0,0:0:0:0:
64,192,142576,1,0,0:0:0:0:
320,192,142790,1,0,0:0:0:0:
448,192,142790,1,0,0:0:0:0:
320,192,143004,1,0,0:0:0:0:
448,192,143004,1,0,0:0:0:0:
192,192,143218,1,0,0:0:0:0:
64,192,143218,1,0,0:0:0:0:
320,192,143433,1,0,0:0:0:0:
448,192,143433,1,0,0:0:0:0:
64,192,143754,1,0,0:0:0:0:
192,192,143754,1,0,0:0:0:0:
64,192,143861,1,0,0:0:0:0:
192,192,143861,1,0,0:0:0:0:
64,192,144076,1,0,0:0:0:0:
448,192,144076,1,0,0:0:0:0:
192,192,144504,128,0,144718:0:0:0:0:
320,192,144718,1,0,0:0:0:0:
448,192,144718,1,0,0:0:0:0:
192,192,144933,1,0,0:0:0:0:
64,192,144933,1,0,0:0:0:0:
64,192,145576,1,0,0:0:0:0:
320,192,145576,1,0,0:0:0:0:
192,192,145790,1,0,0:0:0:0:
320,192,146004,1,0,0:0:0:0:
448,192,146004,1,0,0:0:0:0:
192,192,146218,1,0,0:0:0:0:
64,192,146218,1,0,0:0:0:0:
448,192,146647,1,0,0:0:0:0:
192,192,146647,1,0,0:0:0:0:
192,192,146861,1,0,0:0:0:0:
64,192,146861,1,0,0:0:0:0:
448,192,147290,1,0,0:0:0:0:
448,192,147397,1,0,0:0:0:0:
448,192,147504,1,0,0:0:0:0:
192,192,147504,1,0,0:0:0:0:
448,192,147933,128,0,148361:0:0:0:0:
192,192,148361,1,0,0:0:0:0:
64,192,148361,1,0,0:0:0:0:
448,192,148576,1,0,0:0:0:0:
320,192,148576,1,0,0:0:0:0:
448,192,149004,1,0,0:0:0:0:
192,192,149004,1,0,0:0:0:0:
64,192,149004,1,0,0:0:0:0:
192,192,149433,1,0,0:0:0:0:
64,192,149433,1,0,0:0:0:0:
448,192,149647,1,0,0:0:0:0:
448,192,149861,1,0,0:0:0:0:
