osu file format v14

[General]
AudioFilename: KC4K - AYAYA.mp3
AudioLeadIn: 0
PreviewTime: -1
Countdown: 0
SampleSet: Normal
StackLeniency: 1
Mode: 1
LetterboxInBreaks: 0
WidescreenStoryboard: 0

[Editor]
DistanceSpacing: 1.4
BeatDivisor: 4
GridSize: 32
TimelineZoom: 1

[Metadata]
Title:For Burn
TitleUnicode:For Burn
Artist:Various Artists
ArtistUnicode:Various Artists
Creator:Vulkin
Version:[KC4K - AYAYA!] Aya Oni
Source:
Tags:
BeatmapID:1437322
BeatmapSetID:679693

[Difficulty]
HPDrainRate:6
CircleSize:7
OverallDifficulty:6
ApproachRate:10
SliderMultiplier:1.4
SliderTickRate:1

[Events]
//Background and Video events
0,0,"Konachan.com - 243431 sample.jpg",0,0
//Break Periods
//Storyboard Layer 0 (Background)
//Storyboard Layer 1 (Fail)
//Storyboard Layer 2 (Pass)
//Storyboard Layer 3 (Foreground)
//Storyboard Sound Samples

[TimingPoints]
35.2046606915815,408.163265306122,4,1,0,70,1,0

[HitObjects]
256,192,35,5,4,0:0:0:0:
256,192,341,1,0,0:0:0:0:
256,192,647,1,0,0:0:0:0:
256,192,953,1,0,0:0:0:0:
256,192,1667,1,0,0:0:0:0:
256,192,2076,1,8,0:0:0:0:
256,192,2484,1,0,0:0:0:0:
256,192,2892,1,8,0:0:0:0:
256,192,3300,1,0,0:0:0:0:
256,192,3606,1,0,0:0:0:0:
256,192,3912,1,0,0:0:0:0:
256,192,4218,1,0,0:0:0:0:
256,192,4933,1,0,0:0:0:0:
256,192,5341,1,8,0:0:0:0:
256,192,5749,1,8,0:0:0:0:
256,192,6157,1,8,0:0:0:0:
256,192,6565,1,0,0:0:0:0:
256,192,6871,1,0,0:0:0:0:
256,192,7178,1,0,0:0:0:0:
256,192,7484,1,0,0:0:0:0:
256,192,8198,1,0,0:0:0:0:
256,192,8606,1,8,0:0:0:0:
256,192,9014,1,0,0:0:0:0:
256,192,9422,1,8,0:0:0:0:
256,192,9831,1,0,0:0:0:0:
256,192,10137,1,0,0:0:0:0:
256,192,10443,1,0,0:0:0:0:
256,192,10749,1,0,0:0:0:0:
256,192,11463,1,0,0:0:0:0:
256,192,11871,1,8,0:0:0:0:
256,192,12280,1,0,0:0:0:0:
256,192,12484,1,8,0:0:0:0:
256,192,12688,1,8,0:0:0:0:
256,192,12892,1,0,0:0:0:0:
256,192,13096,1,12,0:0:0:0:
256,192,13504,1,8,0:0:0:0:
256,192,13912,1,8,0:0:0:0:
256,192,14320,1,8,0:0:0:0:
256,192,14525,1,0,0:0:0:0:
256,192,14729,1,8,0:0:0:0:
256,192,15137,1,8,0:0:0:0:
256,192,15545,1,8,0:0:0:0:
256,192,15749,1,0,0:0:0:0:
256,192,15953,1,8,0:0:0:0:
256,192,16157,1,0,0:0:0:0:
256,192,16361,1,8,0:0:0:0:
256,192,16769,1,8,0:0:0:0:
256,192,17178,1,8,0:0:0:0:
256,192,17586,1,8,0:0:0:0:
256,192,17790,1,0,0:0:0:0:
256,192,17994,1,8,0:0:0:0:
256,192,18402,1,8,0:0:0:0:
256,192,18810,1,0,0:0:0:0:
256,192,19014,1,8,0:0:0:0:
256,192,19218,1,8,0:0:0:0:
256,192,19422,1,0,0:0:0:0:
256,192,19627,1,8,0:0:0:0:
256,192,20035,1,8,0:0:0:0:
256,192,20239,1,0,0:0:0:0:
256,192,20443,1,8,0:0:0:0:
256,192,20851,1,0,0:0:0:0:
256,192,21259,1,8,0:0:0:0:
256,192,21667,1,8,0:0:0:0:
256,192,21871,1,0,0:0:0:0:
256,192,22076,1,8,0:0:0:0:
256,192,22484,1,0,0:0:0:0:
256,192,22688,1,0,0:0:0:0:
256,192,22892,1,8,0:0:0:0:
256,192,23096,1,8,0:0:0:0:
256,192,23300,1,8,0:0:0:0:
256,192,23504,1,8,0:0:0:0:
256,192,23708,1,8,0:0:0:0:
256,192,23912,1,8,0:0:0:0:
256,192,24116,1,8,0:0:0:0:
256,192,24320,1,0,0:0:0:0:
256,192,24525,1,8,0:0:0:0:
256,192,24627,1,8,0:0:0:0:
256,192,24729,1,8,0:0:0:0:
256,192,24831,1,8,0:0:0:0:
256,192,24933,1,8,0:0:0:0:
256,192,25035,1,8,0:0:0:0:
256,192,25137,1,8,0:0:0:0:
256,192,25239,1,8,0:0:0:0:
256,192,25341,1,0,0:0:0:0:
256,192,25443,1,0,0:0:0:0:
256,192,25545,1,0,0:0:0:0:
256,192,25647,1,0,0:0:0:0:
256,192,25749,1,8,0:0:0:0:
256,192,25851,1,8,0:0:0:0:
256,192,25953,1,0,0:0:0:0:
256,192,26055,1,0,0:0:0:0:
256,192,26157,1,12,0:0:0:0:
256,192,26565,1,8,0:0:0:0:
256,192,26769,1,0,0:0:0:0:
256,192,26973,1,0,0:0:0:0:
256,192,27178,1,8,0:0:0:0:
256,192,27382,1,8,0:0:0:0:
256,192,27484,1,0,0:0:0:0:
256,192,27586,1,8,0:0:0:0:
256,192,27688,1,8,0:0:0:0:
256,192,27790,1,8,0:0:0:0:
256,192,28198,1,0,0:0:0:0:
256,192,28402,1,8,0:0:0:0:
256,192,28606,1,0,0:0:0:0:
256,192,28810,1,8,0:0:0:0:
256,192,29014,1,0,0:0:0:0:
256,192,29116,1,8,0:0:0:0:
256,192,29218,1,8,0:0:0:0:
256,192,29320,1,0,0:0:0:0:
256,192,29422,1,8,0:0:0:0:
256,192,29831,1,0,0:0:0:0:
256,192,30035,1,8,0:0:0:0:
256,192,30239,1,0,0:0:0:0:
256,192,30443,1,8,0:0:0:0:
256,192,30647,1,8,0:0:0:0:
256,192,30749,1,0,0:0:0:0:
256,192,30851,1,8,0:0:0:0:
256,192,30953,1,8,0:0:0:0:
256,192,31055,1,8,0:0:0:0:
256,192,31463,1,0,0:0:0:0:
256,192,31667,1,8,0:0:0:0:
256,192,31871,1,0,0:0:0:0:
256,192,32076,1,0,0:0:0:0:
256,192,32178,1,0,0:0:0:0:
256,192,32280,1,8,0:0:0:0:
256,192,32382,1,8,0:0:0:0:
256,192,32484,1,0,0:0:0:0:
256,192,32688,1,8,0:0:0:0:
256,192,33096,1,0,0:0:0:0:
256,192,33300,1,8,0:0:0:0:
256,192,33504,1,0,0:0:0:0:
256,192,33708,1,8,0:0:0:0:
256,192,33912,1,8,0:0:0:0:
256,192,34014,1,8,0:0:0:0:
256,192,34116,1,8,0:0:0:0:
256,192,34218,1,8,0:0:0:0:
256,192,34320,1,0,0:0:0:0:
256,192,34729,1,0,0:0:0:0:
256,192,34933,1,8,0:0:0:0:
256,192,35137,1,0,0:0:0:0:
256,192,35341,1,8,0:0:0:0:
256,192,35545,1,0,0:0:0:0:
256,192,35647,1,0,0:0:0:0:
256,192,35749,1,0,0:0:0:0:
256,192,35851,1,0,0:0:0:0:
256,192,35953,1,8,0:0:0:0:
256,192,36361,1,0,0:0:0:0:
256,192,36565,1,8,0:0:0:0:
256,192,36769,1,0,0:0:0:0:
256,192,36973,1,8,0:0:0:0:
256,192,37178,1,8,0:0:0:0:
256,192,37280,1,0,0:0:0:0:
256,192,37382,1,8,0:0:0:0:
256,192,37484,1,8,0:0:0:0:
256,192,37586,1,0,0:0:0:0:
256,192,37688,1,0,0:0:0:0:
256,192,37790,1,0,0:0:0:0:
256,192,37892,1,0,0:0:0:0:
256,192,37994,1,8,0:0:0:0:
256,192,38096,1,8,0:0:0:0:
256,192,38198,1,0,0:0:0:0:
256,192,38300,1,0,0:0:0:0:
256,192,38402,1,8,0:0:0:0:
256,192,38504,1,8,0:0:0:0:
256,192,38606,1,8,0:0:0:0:
256,192,38708,1,8,0:0:0:0:
256,192,38810,1,0,0:0:0:0:
256,192,38912,1,0,0:0:0:0:
256,192,39014,1,8,0:0:0:0:
256,192,39218,1,4,0:0:0:0:
256,192,39627,1,8,0:0:0:0:
256,192,39831,1,0,0:0:0:0:
256,192,40035,1,8,0:0:0:0:
256,192,40239,1,8,0:0:0:0:
256,192,40443,1,8,0:0:0:0:
256,192,40545,1,0,0:0:0:0:
256,192,40647,1,8,0:0:0:0:
256,192,40749,1,8,0:0:0:0:
256,192,40851,1,0,0:0:0:0:
256,192,41055,1,0,0:0:0:0:
256,192,41157,1,0,0:0:0:0:
256,192,41259,1,8,0:0:0:0:
256,192,41361,1,8,0:0:0:0:
256,192,41463,1,0,0:0:0:0:
256,192,41565,1,8,0:0:0:0:
256,192,41667,1,0,0:0:0:0:
256,192,41871,1,0,0:0:0:0:
256,192,41973,1,0,0:0:0:0:
256,192,42076,1,8,0:0:0:0:
256,192,42178,1,8,0:0:0:0:
256,192,42280,1,8,0:0:0:0:
256,192,42484,1,0,0:0:0:0:
256,192,42892,1,8,0:0:0:0:
256,192,43096,1,0,0:0:0:0:
256,192,43300,1,8,0:0:0:0:
256,192,43504,1,8,0:0:0:0:
256,192,43708,1,8,0:0:0:0:
256,192,43810,1,0,0:0:0:0:
256,192,43912,1,8,0:0:0:0:
256,192,44014,1,8,0:0:0:0:
256,192,44116,1,0,0:0:0:0:
256,192,44320,1,0,0:0:0:0:
256,192,44422,1,0,0:0:0:0:
256,192,44525,1,8,0:0:0:0:
256,192,44627,1,8,0:0:0:0:
256,192,44729,1,0,0:0:0:0:
256,192,44933,1,8,0:0:0:0:
256,192,45035,1,8,0:0:0:0:
256,192,45137,1,0,0:0:0:0:
256,192,45239,1,0,0:0:0:0:
256,192,45341,1,8,0:0:0:0:
256,192,45443,1,8,0:0:0:0:
256,192,45545,1,8,0:0:0:0:
256,192,45647,1,8,0:0:0:0:
256,192,45749,1,0,0:0:0:0:
256,192,46157,1,8,0:0:0:0:
256,192,46361,1,0,0:0:0:0:
256,192,46565,1,8,0:0:0:0:
256,192,46769,1,8,0:0:0:0:
256,192,46973,1,8,0:0:0:0:
256,192,47076,1,0,0:0:0:0:
256,192,47178,1,8,0:0:0:0:
256,192,47280,1,8,0:0:0:0:
256,192,47382,1,0,0:0:0:0:
256,192,47484,1,8,0:0:0:0:
256,192,47586,1,0,0:0:0:0:
256,192,47688,1,0,0:0:0:0:
256,192,47790,1,8,0:0:0:0:
256,192,47892,1,0,0:0:0:0:
256,192,47994,1,8,0:0:0:0:
256,192,48096,1,8,0:0:0:0:
256,192,48198,1,0,0:0:0:0:
256,192,48402,1,0,0:0:0:0:
256,192,48606,1,8,0:0:0:0:
256,192,48708,1,8,0:0:0:0:
256,192,48810,1,8,0:0:0:0:
256,192,48912,1,8,0:0:0:0:
256,192,49014,1,0,0:0:0:0:
256,192,49422,1,0,0:0:0:0:
256,192,49627,1,0,0:0:0:0:
256,192,49831,1,8,0:0:0:0:
256,192,50035,1,0,0:0:0:0:
256,192,50239,1,8,0:0:0:0:
256,192,50341,1,0,0:0:0:0:
256,192,50443,1,8,0:0:0:0:
256,192,50545,1,8,0:0:0:0:
256,192,50647,1,0,0:0:0:0:
256,192,50749,1,0,0:0:0:0:
256,192,50851,1,0,0:0:0:0:
256,192,50953,1,0,0:0:0:0:
256,192,51055,1,8,0:0:0:0:
256,192,51157,1,8,0:0:0:0:
256,192,51259,1,8,0:0:0:0:
256,192,51361,1,8,0:0:0:0:
256,192,51463,1,0,0:0:0:0:
256,192,51565,1,0,0:0:0:0:
256,192,51667,1,8,0:0:0:0:
256,192,51769,1,8,0:0:0:0:
256,192,51871,1,0,0:0:0:0:
256,192,51973,1,0,0:0:0:0:
256,192,52076,1,8,0:0:0:0:
256,192,52280,1,4,0:0:0:0:
256,192,52688,1,0,0:0:0:0:
256,192,52892,1,8,0:0:0:0:
256,192,53096,1,8,0:0:0:0:
256,192,53300,1,0,0:0:0:0:
256,192,53504,1,8,0:0:0:0:
256,192,53606,1,8,0:0:0:0:
256,192,53708,1,8,0:0:0:0:
256,192,53810,1,8,0:0:0:0:
256,192,53912,1,0,0:0:0:0:
256,192,54320,1,0,0:0:0:0:
256,192,54525,1,8,0:0:0:0:
256,192,54729,1,8,0:0:0:0:
256,192,54933,1,0,0:0:0:0:
256,192,55137,1,0,0:0:0:0:
256,192,55239,1,8,0:0:0:0:
256,192,55341,1,8,0:0:0:0:
256,192,55443,1,8,0:0:0:0:
256,192,55545,1,0,0:0:0:0:
256,192,55953,1,0,0:0:0:0:
256,192,56157,1,8,0:0:0:0:
256,192,56361,1,8,0:0:0:0:
256,192,56565,1,0,0:0:0:0:
256,192,56769,1,8,0:0:0:0:
256,192,56871,1,0,0:0:0:0:
256,192,56973,1,8,0:0:0:0:
256,192,57076,1,8,0:0:0:0:
256,192,57178,1,0,0:0:0:0:
256,192,57586,1,0,0:0:0:0:
256,192,57790,1,8,0:0:0:0:
256,192,57994,1,0,0:0:0:0:
256,192,58096,1,8,0:0:0:0:
256,192,58198,1,8,0:0:0:0:
256,192,58300,1,8,0:0:0:0:
256,192,58402,1,0,0:0:0:0:
256,192,58504,1,8,0:0:0:0:
256,192,58606,1,8,0:0:0:0:
256,192,58708,1,8,0:0:0:0:
256,192,58810,1,0,0:0:0:0:
256,192,59218,1,0,0:0:0:0:
256,192,59422,1,8,0:0:0:0:
256,192,59627,1,8,0:0:0:0:
256,192,59831,1,0,0:0:0:0:
256,192,60035,1,8,0:0:0:0:
256,192,60137,1,0,0:0:0:0:
256,192,60239,1,8,0:0:0:0:
256,192,60341,1,8,0:0:0:0:
256,192,60443,1,0,0:0:0:0:
256,192,60545,1,0,0:0:0:0:
256,192,60647,1,0,0:0:0:0:
256,192,60749,1,0,0:0:0:0:
256,192,60851,1,8,0:0:0:0:
256,192,61055,1,8,0:0:0:0:
256,192,61259,1,0,0:0:0:0:
256,192,61667,1,8,0:0:0:0:
256,192,61871,1,8,0:0:0:0:
256,192,62076,1,0,0:0:0:0:
256,192,62178,1,8,0:0:0:0:
256,192,62280,1,0,0:0:0:0:
256,192,62382,1,8,0:0:0:0:
256,192,62484,1,8,0:0:0:0:
256,192,62688,1,8,0:0:0:0:
256,192,62892,1,0,0:0:0:0:
256,192,63096,1,8,0:0:0:0:
256,192,63300,1,8,0:0:0:0:
256,192,63402,1,8,0:0:0:0:
256,192,63504,1,8,0:0:0:0:
256,192,63606,1,8,0:0:0:0:
256,192,63708,1,0,0:0:0:0:
256,192,64116,1,0,0:0:0:0:
256,192,64320,1,8,0:0:0:0:
256,192,64422,1,0,0:0:0:0:
256,192,64525,1,8,0:0:0:0:
256,192,64729,1,0,0:0:0:0:
256,192,64933,1,8,0:0:0:0:
256,192,65035,1,8,0:0:0:0:
256,192,65137,1,8,0:0:0:0:
256,192,65239,1,8,0:0:0:0:
256,192,65341,1,0,0:0:0:0:
256,192,65749,1,8,0:0:0:0:
256,192,65953,1,0,0:0:0:0:
256,192,66157,1,8,0:0:0:0:
256,192,66361,1,0,0:0:0:0:
256,192,66565,1,8,0:0:0:0:
256,192,66667,1,8,0:0:0:0:
256,192,66769,1,0,0:0:0:0:
256,192,66871,1,8,0:0:0:0:
256,192,66973,1,0,0:0:0:0:
256,192,67076,1,0,0:0:0:0:
256,192,67178,1,0,0:0:0:0:
256,192,67280,1,0,0:0:0:0:
256,192,67382,1,8,0:0:0:0:
256,192,67484,1,8,0:0:0:0:
256,192,67586,1,8,0:0:0:0:
256,192,67688,1,8,0:0:0:0:
256,192,67790,1,0,0:0:0:0:
256,192,67994,1,0,0:0:0:0:
256,192,68198,1,8,0:0:0:0:
256,192,68606,1,0,0:0:0:0:
256,192,68708,1,0,0:0:0:0:
256,192,68810,1,0,0:0:0:0:
256,192,68912,1,0,0:0:0:0:
256,192,69014,1,8,0:0:0:0:
256,192,69218,1,8,0:0:0:0:
256,192,69422,1,0,0:0:0:0:
256,192,69627,1,8,0:0:0:0:
256,192,69831,1,8,0:0:0:0:
256,192,69933,1,8,0:0:0:0:
256,192,70035,1,8,0:0:0:0:
256,192,70137,1,8,0:0:0:0:
256,192,70239,1,0,0:0:0:0:
256,192,70647,1,8,0:0:0:0:
256,192,70851,1,0,0:0:0:0:
256,192,71055,1,8,0:0:0:0:
256,192,71259,1,8,0:0:0:0:
256,192,71361,1,0,0:0:0:0:
256,192,71463,1,8,0:0:0:0:
256,192,71565,1,8,0:0:0:0:
256,192,71667,1,0,0:0:0:0:
256,192,71769,1,8,0:0:0:0:
256,192,71871,1,0,0:0:0:0:
256,192,72280,1,0,0:0:0:0:
256,192,72484,1,0,0:0:0:0:
256,192,72586,1,8,0:0:0:0:
256,192,72688,1,8,0:0:0:0:
256,192,72892,1,0,0:0:0:0:
256,192,73096,1,8,0:0:0:0:
256,192,73198,1,8,0:0:0:0:
256,192,73300,1,8,0:0:0:0:
256,192,73402,1,8,0:0:0:0:
256,192,73504,1,0,0:0:0:0:
256,192,73912,1,0,0:0:0:0:
256,192,74116,1,8,0:0:0:0:
256,192,74218,1,0,0:0:0:0:
256,192,74320,1,8,0:0:0:0:
256,192,74422,1,8,0:0:0:0:
256,192,74525,1,0,0:0:0:0:
256,192,74729,1,8,0:0:0:0:
256,192,75137,1,0,0:0:0:0:
256,192,75239,1,0,0:0:0:0:
256,192,75341,1,0,0:0:0:0:
256,192,75443,1,0,0:0:0:0:
256,192,75545,1,8,0:0:0:0:
256,192,75749,1,0,0:0:0:0:
256,192,75953,1,8,0:0:0:0:
256,192,76157,1,8,0:0:0:0:
256,192,76361,1,0,0:0:0:0:
256,192,76565,1,8,0:0:0:0:
256,192,76769,1,0,0:0:0:0:
256,192,76871,1,8,0:0:0:0:
256,192,76973,1,8,0:0:0:0:
256,192,77076,1,8,0:0:0:0:
256,192,77178,1,0,0:0:0:0:
256,192,77280,1,8,0:0:0:0:
256,192,77382,1,0,0:0:0:0:
256,192,77484,1,8,0:0:0:0:
256,192,77586,1,0,0:0:0:0:
256,192,77688,1,8,0:0:0:0:
256,192,77790,1,8,0:0:0:0:
256,192,77892,1,8,0:0:0:0:
256,192,77994,1,0,0:0:0:0:
256,192,78096,1,8,0:0:0:0:
256,192,78198,1,0,0:0:0:0:
256,192,78300,1,8,0:0:0:0:
256,192,78402,1,0,0:0:0:0:
256,192,78708,1,0,0:0:0:0:
256,192,79014,1,0,0:0:0:0:
256,192,79320,1,0,0:0:0:0:
256,192,80035,1,8,0:0:0:0:
256,192,80851,1,8,0:0:0:0:
256,192,81667,1,0,0:0:0:0:
256,192,81973,1,0,0:0:0:0:
256,192,82280,1,0,0:0:0:0:
256,192,82586,1,0,0:0:0:0:
256,192,83300,1,8,0:0:0:0:
256,192,84116,1,8,0:0:0:0:
256,192,84933,1,0,0:0:0:0:
256,192,85239,1,0,0:0:0:0:
256,192,85545,1,0,0:0:0:0:
256,192,85851,1,0,0:0:0:0:
256,192,86565,1,8,0:0:0:0:
256,192,86973,1,0,0:0:0:0:
256,192,87382,1,8,0:0:0:0:
256,192,88198,1,0,0:0:0:0:
256,192,88504,1,0,0:0:0:0:
256,192,88810,1,0,0:0:0:0:
256,192,89116,1,0,0:0:0:0:
256,192,89831,1,8,0:0:0:0:
256,192,90239,1,0,0:0:0:0:
256,192,90647,1,8,0:0:0:0:
256,192,90851,1,8,0:0:0:0:
256,192,91055,1,8,0:0:0:0:
256,192,91463,1,0,0:0:0:0:
256,192,91769,1,0,0:0:0:0:
256,192,92076,1,0,0:0:0:0:
256,192,92382,1,0,0:0:0:0:
256,192,92688,1,8,0:0:0:0:
256,192,93096,1,0,0:0:0:0:
256,192,93402,1,0,0:0:0:0:
256,192,93708,1,8,0:0:0:0:
256,192,94014,1,0,0:0:0:0:
256,192,94320,1,8,0:0:0:0:
256,192,94729,1,0,0:0:0:0:
256,192,95035,1,0,0:0:0:0:
256,192,95341,1,0,0:0:0:0:
256,192,95647,1,0,0:0:0:0:
256,192,95953,1,8,0:0:0:0:
256,192,96361,1,0,0:0:0:0:
256,192,96667,1,8,0:0:0:0:
256,192,96973,1,8,0:0:0:0:
256,192,97280,1,0,0:0:0:0:
256,192,97586,1,8,0:0:0:0:
256,192,97994,1,0,0:0:0:0:
256,192,98300,1,0,0:0:0:0:
256,192,98606,1,0,0:0:0:0:
256,192,98912,1,0,0:0:0:0:
256,192,99218,1,8,0:0:0:0:
256,192,99422,1,0,0:0:0:0:
256,192,99627,1,8,0:0:0:0:
256,192,99933,1,8,0:0:0:0:
256,192,100239,1,8,0:0:0:0:
256,192,100545,1,0,0:0:0:0:
256,192,100851,1,8,0:0:0:0:
256,192,101055,1,8,0:0:0:0:
256,192,101259,1,0,0:0:0:0:
256,192,101565,1,0,0:0:0:0:
256,192,101871,1,0,0:0:0:0:
256,192,102178,1,0,0:0:0:0:
256,192,102484,1,8,0:0:0:0:
256,192,102688,1,0,0:0:0:0:
256,192,102892,1,8,0:0:0:0:
256,192,103198,1,8,0:0:0:0:
256,192,103504,1,8,0:0:0:0:
256,192,103810,1,0,0:0:0:0:
256,192,104116,1,8,0:0:0:0:
256,192,104320,1,0,0:0:0:0:
256,192,104525,1,8,0:0:0:0:
256,192,104933,1,8,0:0:0:0:
256,192,105341,1,8,0:0:0:0:
256,192,105749,1,8,0:0:0:0:
256,192,105953,1,0,0:0:0:0:
256,192,106157,1,8,0:0:0:0:
256,192,106565,1,8,0:0:0:0:
256,192,106973,1,8,0:0:0:0:
256,192,107178,1,0,0:0:0:0:
256,192,107382,1,8,0:0:0:0:
256,192,107586,1,0,0:0:0:0:
256,192,107790,1,8,0:0:0:0:
256,192,108198,1,8,0:0:0:0:
256,192,108606,1,8,0:0:0:0:
256,192,109014,1,8,0:0:0:0:
256,192,109218,1,0,0:0:0:0:
256,192,109422,1,8,0:0:0:0:
256,192,109831,1,8,0:0:0:0:
256,192,110035,1,0,0:0:0:0:
256,192,110239,1,8,0:0:0:0:
256,192,110443,1,8,0:0:0:0:
256,192,110647,1,8,0:0:0:0:
256,192,110851,1,0,0:0:0:0:
256,192,111055,1,8,0:0:0:0:
256,192,111463,1,8,0:0:0:0:
256,192,111871,1,8,0:0:0:0:
256,192,112280,1,8,0:0:0:0:
256,192,112484,1,0,0:0:0:0:
256,192,112688,1,8,0:0:0:0:
256,192,113096,1,8,0:0:0:0:
256,192,113504,1,8,0:0:0:0:
256,192,113708,1,0,0:0:0:0:
256,192,113912,1,8,0:0:0:0:
256,192,114116,1,0,0:0:0:0:
256,192,114320,1,8,0:0:0:0:
256,192,114729,1,8,0:0:0:0:
256,192,115137,1,8,0:0:0:0:
256,192,115545,1,8,0:0:0:0:
256,192,115749,1,0,0:0:0:0:
256,192,115953,1,8,0:0:0:0:
256,192,116361,1,8,0:0:0:0:
256,192,116769,1,0,0:0:0:0:
256,192,116973,1,8,0:0:0:0:
256,192,117178,1,8,0:0:0:0:
256,192,117382,1,0,0:0:0:0:
256,192,117484,1,0,0:0:0:0:
256,192,117586,1,8,0:0:0:0:
256,192,117994,1,8,0:0:0:0:
256,192,118402,1,8,0:0:0:0:
256,192,118810,1,8,0:0:0:0:
256,192,119014,1,0,0:0:0:0:
256,192,119218,1,8,0:0:0:0:
256,192,119627,1,8,0:0:0:0:
256,192,120035,1,8,0:0:0:0:
256,192,120239,1,0,0:0:0:0:
256,192,120443,1,8,0:0:0:0:
256,192,120647,1,0,0:0:0:0:
256,192,120851,1,8,0:0:0:0:
256,192,121259,1,8,0:0:0:0:
256,192,121667,1,8,0:0:0:0:
256,192,122076,1,8,0:0:0:0:
256,192,122280,1,0,0:0:0:0:
256,192,122484,1,8,0:0:0:0:
256,192,122892,1,8,0:0:0:0:
256,192,123300,1,0,0:0:0:0:
256,192,123504,1,8,0:0:0:0:
256,192,123708,1,8,0:0:0:0:
256,192,123912,1,0,0:0:0:0:
256,192,124116,1,8,0:0:0:0:
256,192,124525,1,8,0:0:0:0:
256,192,124933,1,0,0:0:0:0:
256,192,125749,1,8,0:0:0:0:
256,192,126157,1,8,0:0:0:0:
256,192,126565,1,0,0:0:0:0:
256,192,127382,1,8,0:0:0:0:
256,192,127790,1,8,0:0:0:0:
256,192,128198,1,0,0:0:0:0:
256,192,128402,1,0,0:0:0:0:
256,192,128606,1,8,0:0:0:0:
256,192,128810,1,0,0:0:0:0:
256,192,129014,1,8,0:0:0:0:
256,192,129218,1,0,0:0:0:0:
256,192,129320,1,0,0:0:0:0:
256,192,129422,1,0,0:0:0:0:
256,192,129525,1,0,0:0:0:0:
256,192,129627,1,8,0:0:0:0:
256,192,129729,1,0,0:0:0:0:
256,192,129831,1,8,0:0:0:0:
256,192,129933,1,8,0:0:0:0:
256,192,130035,1,0,0:0:0:0:
256,192,130137,1,0,0:0:0:0:
256,192,130239,1,8,0:0:0:0:
256,192,130341,1,8,0:0:0:0:
256,192,130443,1,8,0:0:0:0:
256,192,130545,1,8,0:0:0:0:
256,192,130647,1,4,0:0:0:0:
256,192,133096,1,12,0:0:0:0:
256,192,133300,1,4,0:0:0:0:
256,192,133504,1,8,0:0:0:0:
256,192,133606,1,8,0:0:0:0:
256,192,133708,1,8,0:0:0:0:
256,192,133810,1,8,0:0:0:0:
256,192,133912,1,4,0:0:0:0:
256,192,134320,1,0,0:0:0:0:
256,192,134525,1,8,0:0:0:0:
256,192,134627,1,8,0:0:0:0:
256,192,134729,1,8,0:0:0:0:
256,192,134933,1,0,0:0:0:0:
256,192,135137,1,8,0:0:0:0:
256,192,135273,1,8,0:0:0:0:
256,192,135409,1,8,0:0:0:0:
256,192,135545,1,0,0:0:0:0:
256,192,135681,1,0,0:0:0:0:
256,192,135817,1,0,0:0:0:0:
256,192,135953,1,8,0:0:0:0:
256,192,136089,1,0,0:0:0:0:
256,192,136225,1,0,0:0:0:0:
256,192,136361,1,8,0:0:0:0:
256,192,136497,1,8,0:0:0:0:
256,192,136633,1,0,0:0:0:0:
256,192,136769,1,8,0:0:0:0:
256,192,136905,1,8,0:0:0:0:
256,192,137042,1,8,0:0:0:0:
256,192,137178,1,0,0:0:0:0:
256,192,137586,1,0,0:0:0:0:
256,192,137994,1,8,0:0:0:0:
256,192,138130,1,0,0:0:0:0:
256,192,138266,1,0,0:0:0:0:
256,192,138402,1,8,0:0:0:0:
256,192,138538,1,8,0:0:0:0:
256,192,138674,1,8,0:0:0:0:
256,192,138810,1,0,0:0:0:0:
256,192,138946,1,0,0:0:0:0:
256,192,139082,1,0,0:0:0:0:
256,192,139218,1,8,0:0:0:0:
256,192,139354,1,0,0:0:0:0:
256,192,139490,1,0,0:0:0:0:
256,192,139627,1,8,0:0:0:0:
256,192,139763,1,8,0:0:0:0:
256,192,139899,1,0,0:0:0:0:
256,192,140035,1,8,0:0:0:0:
256,192,140171,1,0,0:0:0:0:
256,192,140307,1,8,0:0:0:0:
256,192,140443,1,0,0:0:0:0:
256,192,140851,1,0,0:0:0:0:
256,192,141259,1,8,0:0:0:0:
256,192,141395,1,8,0:0:0:0:
256,192,141531,1,0,0:0:0:0:
256,192,141667,1,8,0:0:0:0:
256,192,141803,1,8,0:0:0:0:
256,192,141939,1,0,0:0:0:0:
256,192,142076,1,8,0:0:0:0:
256,192,142212,1,0,0:0:0:0:
256,192,142348,1,0,0:0:0:0:
256,192,142484,1,8,0:0:0:0:
256,192,142620,1,0,0:0:0:0:
256,192,142756,1,0,0:0:0:0:
256,192,142892,1,8,0:0:0:0:
256,192,143028,1,8,0:0:0:0:
256,192,143164,1,8,0:0:0:0:
256,192,143300,1,0,0:0:0:0:
256,192,143436,1,0,0:0:0:0:
256,192,143572,1,8,0:0:0:0:
256,192,143708,1,0,0:0:0:0:
256,192,144116,1,0,0:0:0:0:
256,192,144525,1,8,0:0:0:0:
256,192,144661,1,0,0:0:0:0:
256,192,144797,1,0,0:0:0:0:
256,192,144933,1,8,0:0:0:0:
256,192,145069,1,8,0:0:0:0:
256,192,145205,1,8,0:0:0:0:
256,192,145341,1,0,0:0:0:0:
256,192,145477,1,8,0:0:0:0:
256,192,145613,1,0,0:0:0:0:
256,192,145749,1,8,0:0:0:0:
256,192,145885,1,8,0:0:0:0:
256,192,146021,1,8,0:0:0:0:
256,192,146157,1,0,0:0:0:0:
256,192,146293,1,8,0:0:0:0:
256,192,146429,1,0,0:0:0:0:
256,192,146565,1,8,0:0:0:0:
256,192,146701,1,8,0:0:0:0:
256,192,146837,1,0,0:0:0:0:
256,192,146973,1,8,0:0:0:0:
256,192,147382,1,8,0:0:0:0:
256,192,147790,1,8,0:0:0:0:
256,192,147926,1,0,0:0:0:0:
256,192,148062,1,0,0:0:0:0:
256,192,148198,1,8,0:0:0:0:
256,192,148334,1,8,0:0:0:0:
256,192,148470,1,8,0:0:0:0:
256,192,148606,1,0,0:0:0:0:
256,192,148742,1,0,0:0:0:0:
256,192,148878,1,0,0:0:0:0:
256,192,149014,1,8,0:0:0:0:
256,192,149150,1,0,0:0:0:0:
256,192,149286,1,0,0:0:0:0:
256,192,149422,1,8,0:0:0:0:
256,192,149559,1,8,0:0:0:0:
256,192,149695,1,0,0:0:0:0:
256,192,149831,1,8,0:0:0:0:
256,192,149967,1,8,0:0:0:0:
256,192,150103,1,0,0:0:0:0:
256,192,150239,1,8,0:0:0:0:
256,192,150647,1,8,0:0:0:0:
256,192,151055,1,8,0:0:0:0:
256,192,151191,1,8,0:0:0:0:
256,192,151327,1,8,0:0:0:0:
256,192,151463,1,0,0:0:0:0:
256,192,151599,1,0,0:0:0:0:
256,192,151735,1,0,0:0:0:0:
256,192,151871,1,8,0:0:0:0:
256,192,152007,1,0,0:0:0:0:
256,192,152144,1,0,0:0:0:0:
256,192,152280,1,8,0:0:0:0:
256,192,152416,1,0,0:0:0:0:
256,192,152552,1,0,0:0:0:0:
256,192,152688,1,8,0:0:0:0:
256,192,152824,1,8,0:0:0:0:
256,192,152960,1,8,0:0:0:0:
256,192,153096,1,0,0:0:0:0:
256,192,153232,1,0,0:0:0:0:
256,192,153368,1,0,0:0:0:0:
256,192,153504,1,8,0:0:0:0:
256,192,153912,1,8,0:0:0:0:
256,192,154320,1,8,0:0:0:0:
256,192,154456,1,0,0:0:0:0:
256,192,154593,1,0,0:0:0:0:
256,192,154729,1,8,0:0:0:0:
256,192,154865,1,8,0:0:0:0:
256,192,155001,1,8,0:0:0:0:
256,192,155137,1,0,0:0:0:0:
256,192,155273,1,0,0:0:0:0:
256,192,155409,1,0,0:0:0:0:
256,192,155545,1,8,0:0:0:0:
256,192,155681,1,8,0:0:0:0:
256,192,155817,1,0,0:0:0:0:
256,192,155953,1,8,0:0:0:0:
256,192,156089,1,0,0:0:0:0:
256,192,156225,1,0,0:0:0:0:
256,192,156361,1,8,0:0:0:0:
256,192,156497,1,8,0:0:0:0:
256,192,156633,1,8,0:0:0:0:
256,192,156769,1,0,0:0:0:0:
256,192,157178,1,0,0:0:0:0:
256,192,157586,1,8,0:0:0:0:
256,192,157722,1,8,0:0:0:0:
256,192,157858,1,8,0:0:0:0:
256,192,157994,1,0,0:0:0:0:
256,192,158130,1,0,0:0:0:0:
256,192,158266,1,8,0:0:0:0:
256,192,158402,1,0,0:0:0:0:
256,192,158504,1,0,0:0:0:0:
256,192,158606,1,0,0:0:0:0:
256,192,158708,1,0,0:0:0:0:
256,192,158810,1,8,0:0:0:0:
256,192,158912,1,8,0:0:0:0:
256,192,159014,1,8,0:0:0:0:
256,192,159116,1,8,0:0:0:0:
256,192,159218,1,0,0:0:0:0:
256,192,159320,1,0,0:0:0:0:
256,192,159422,1,8,0:0:0:0:
256,192,159525,1,8,0:0:0:0:
256,192,159627,1,0,0:0:0:0:
256,192,159729,1,0,0:0:0:0:
256,192,159831,1,8,0:0:0:0:
256,192,159933,1,8,0:0:0:0:
256,192,160035,1,0,0:0:0:0:
256,192,160443,1,0,0:0:0:0:
256,192,160647,1,0,0:0:0:0:
256,192,160749,1,0,0:0:0:0:
256,192,160851,1,8,0:0:0:0:
256,192,161055,1,0,0:0:0:0:
256,192,161259,1,8,0:0:0:0:
256,192,161361,1,8,0:0:0:0:
256,192,161463,1,8,0:0:0:0:
256,192,161565,1,8,0:0:0:0:
256,192,161667,1,0,0:0:0:0:
256,192,161769,1,8,0:0:0:0:
256,192,161871,1,0,0:0:0:0:
256,192,161973,1,8,0:0:0:0:
256,192,162076,1,0,0:0:0:0:
256,192,162178,1,0,0:0:0:0:
256,192,162280,1,8,0:0:0:0:
256,192,162382,1,0,0:0:0:0:
256,192,162484,1,8,0:0:0:0:
256,192,162688,1,0,0:0:0:0:
256,192,162892,1,8,0:0:0:0:
256,192,162994,1,0,0:0:0:0:
256,192,163096,1,8,0:0:0:0:
256,192,163198,1,8,0:0:0:0:
256,192,163300,1,8,0:0:0:0:
256,192,163504,1,0,0:0:0:0:
256,192,163708,1,8,0:0:0:0:
256,192,163912,1,0,0:0:0:0:
256,192,164116,1,8,0:0:0:0:
256,192,164218,1,0,0:0:0:0:
256,192,164320,1,8,0:0:0:0:
256,192,164422,1,0,0:0:0:0:
256,192,164525,1,8,0:0:0:0:
256,192,164627,1,8,0:0:0:0:
256,192,164729,1,8,0:0:0:0:
256,192,164831,1,8,0:0:0:0:
256,192,164933,1,0,0:0:0:0:
256,192,165341,1,8,0:0:0:0:
256,192,165545,1,0,0:0:0:0:
256,192,165749,1,8,0:0:0:0:
256,192,165953,1,8,0:0:0:0:
256,192,166157,1,0,0:0:0:0:
256,192,166565,1,8,0:0:0:0:
256,192,166769,1,0,0:0:0:0:
256,192,166973,1,8,0:0:0:0:
256,192,167178,1,8,0:0:0:0:
256,192,167382,1,0,0:0:0:0:
256,192,167586,1,8,0:0:0:0:
256,192,167688,1,8,0:0:0:0:
256,192,167790,1,8,0:0:0:0:
256,192,167994,1,8,0:0:0:0:
256,192,168198,1,0,0:0:0:0:
256,192,168300,1,8,0:0:0:0:
256,192,168402,1,0,0:0:0:0:
256,192,168504,1,8,0:0:0:0:
256,192,168606,1,0,0:0:0:0:
256,192,168708,1,8,0:0:0:0:
256,192,168810,1,0,0:0:0:0:
256,192,168912,1,0,0:0:0:0:
256,192,169014,1,8,0:0:0:0:
256,192,169218,1,0,0:0:0:0:
256,192,169422,1,8,0:0:0:0:
256,192,169525,1,8,0:0:0:0:
256,192,169627,1,8,0:0:0:0:
256,192,169729,1,8,0:0:0:0:
256,192,169831,1,0,0:0:0:0:
256,192,170035,1,0,0:0:0:0:
256,192,170239,1,8,0:0:0:0:
256,192,170443,1,0,0:0:0:0:
256,192,170647,1,8,0:0:0:0:
256,192,170749,1,0,0:0:0:0:
256,192,170851,1,8,0:0:0:0:
256,192,170953,1,0,0:0:0:0:
256,192,171055,1,8,0:0:0:0:
256,192,171157,1,8,0:0:0:0:
256,192,171259,1,8,0:0:0:0:
256,192,171361,1,8,0:0:0:0:
256,192,171463,1,0,0:0:0:0:
256,192,171871,1,0,0:0:0:0:
256,192,172076,1,0,0:0:0:0:
256,192,172280,1,8,0:0:0:0:
256,192,172484,1,0,0:0:0:0:
256,192,172688,1,8,0:0:0:0:
256,192,172790,1,8,0:0:0:0:
256,192,172892,1,8,0:0:0:0:
256,192,172994,1,8,0:0:0:0:
256,192,173096,1,0,0:0:0:0:
256,192,173504,1,8,0:0:0:0:
256,192,173708,1,0,0:0:0:0:
256,192,173912,1,8,0:0:0:0:
256,192,174116,1,8,0:0:0:0:
256,192,174320,1,0,0:0:0:0:
256,192,174422,1,8,0:0:0:0:
256,192,174525,1,8,0:0:0:0:
256,192,174627,1,0,0:0:0:0:
256,192,174729,1,8,0:0:0:0:
256,192,174831,1,0,0:0:0:0:
256,192,174933,1,8,0:0:0:0:
256,192,175035,1,0,0:0:0:0:
256,192,175137,1,8,0:0:0:0:
256,192,175239,1,0,0:0:0:0:
256,192,175341,1,8,0:0:0:0:
256,192,175443,1,8,0:0:0:0:
256,192,175545,1,0,0:0:0:0:
256,192,175749,1,0,0:0:0:0:
256,192,175953,1,8,0:0:0:0:
256,192,176055,1,0,0:0:0:0:
256,192,176157,1,0,0:0:0:0:
256,192,176259,1,0,0:0:0:0:
256,192,176361,1,8,0:0:0:0:
256,192,176565,1,0,0:0:0:0:
256,192,176769,1,8,0:0:0:0:
256,192,176973,1,8,0:0:0:0:
256,192,177178,1,8,0:0:0:0:
256,192,177280,1,0,0:0:0:0:
256,192,177382,1,8,0:0:0:0:
256,192,177484,1,0,0:0:0:0:
256,192,177586,1,8,0:0:0:0:
256,192,177688,1,0,0:0:0:0:
256,192,177790,1,8,0:0:0:0:
256,192,177892,1,8,0:0:0:0:
256,192,177994,1,0,0:0:0:0:
256,192,178402,1,0,0:0:0:0:
256,192,178606,1,0,0:0:0:0:
256,192,178810,1,8,0:0:0:0:
256,192,179014,1,0,0:0:0:0:
256,192,179218,1,8,0:0:0:0:
256,192,179422,1,8,0:0:0:0:
256,192,179627,1,0,0:0:0:0:
256,192,179831,1,0,0:0:0:0:
256,192,180035,1,8,0:0:0:0:
256,192,180239,1,0,0:0:0:0:
256,192,180443,1,8,0:0:0:0:
256,192,180647,1,8,0:0:0:0:
256,192,180749,1,8,0:0:0:0:
256,192,180851,1,8,0:0:0:0:
256,192,181055,1,0,0:0:0:0:
256,192,181259,1,8,0:0:0:0:
256,192,181361,1,0,0:0:0:0:
256,192,181463,1,8,0:0:0:0:
256,192,181565,1,0,0:0:0:0:
256,192,181667,1,8,0:0:0:0:
256,192,181769,1,8,0:0:0:0:
256,192,181871,1,8,0:0:0:0:
256,192,181973,1,0,0:0:0:0:
256,192,182076,1,8,0:0:0:0:
256,192,182280,1,0,0:0:0:0:
256,192,182484,1,8,0:0:0:0:
256,192,182586,1,8,0:0:0:0:
256,192,182688,1,8,0:0:0:0:
256,192,182790,1,8,0:0:0:0:
256,192,182892,1,0,0:0:0:0:
256,192,183096,1,0,0:0:0:0:
256,192,183300,1,8,0:0:0:0:
256,192,183504,1,0,0:0:0:0:
256,192,183708,1,8,0:0:0:0:
256,192,183810,1,0,0:0:0:0:
256,192,183912,1,8,0:0:0:0:
256,192,184014,1,0,0:0:0:0:
256,192,184116,1,8,0:0:0:0:
256,192,184218,1,8,0:0:0:0:
256,192,184320,1,0,0:0:0:0:
256,192,184422,1,8,0:0:0:0:
256,192,184525,1,0,0:0:0:0:
256,192,184627,1,0,0:0:0:0:
256,192,184729,1,0,0:0:0:0:
256,192,184831,1,0,0:0:0:0:
256,192,184933,1,8,0:0:0:0:
256,192,185035,1,8,0:0:0:0:
256,192,185137,1,8,0:0:0:0:
256,192,185239,1,8,0:0:0:0:
256,192,185341,1,0,0:0:0:0:
256,192,185443,1,0,0:0:0:0:
256,192,185545,1,8,0:0:0:0:
256,192,185647,1,8,0:0:0:0:
256,192,185749,1,0,0:0:0:0:
256,192,185851,1,0,0:0:0:0:
256,192,185953,1,8,0:0:0:0:
256,192,186055,1,8,0:0:0:0:
256,192,186157,1,0,0:0:0:0:
256,192,186463,1,0,0:0:0:0:
256,192,186769,1,0,0:0:0:0:
256,192,187076,1,0,0:0:0:0:
256,192,187382,1,8,0:0:0:0:
256,192,187586,1,0,0:0:0:0:
256,192,187790,1,8,0:0:0:0:
256,192,187994,1,8,0:0:0:0:
256,192,188096,1,0,0:0:0:0:
256,192,188198,1,8,0:0:0:0:
256,192,188402,1,0,0:0:0:0:
256,192,188606,1,8,0:0:0:0:
256,192,188810,1,8,0:0:0:0:
256,192,188912,1,0,0:0:0:0:
256,192,189014,1,8,0:0:0:0:
256,192,189218,1,8,0:0:0:0:
256,192,189422,1,0,0:0:0:0:
256,192,189729,1,0,0:0:0:0:
256,192,190035,1,0,0:0:0:0:
256,192,190341,1,0,0:0:0:0:
256,192,190647,1,0,0:0:0:0:
256,192,191055,1,8,0:0:0:0:
256,192,191259,1,8,0:0:0:0:
256,192,191361,1,8,0:0:0:0:
256,192,191463,1,8,0:0:0:0:
256,192,191667,1,0,0:0:0:0:
256,192,191871,1,8,0:0:0:0:
256,192,192076,1,8,0:0:0:0:
256,192,192178,1,8,0:0:0:0:
256,192,192280,1,0,0:0:0:0:
256,192,192382,1,0,0:0:0:0:
256,192,192484,1,8,0:0:0:0:
256,192,192688,1,0,0:0:0:0:
256,192,192994,1,0,0:0:0:0:
256,192,193300,1,0,0:0:0:0:
256,192,193606,1,0,0:0:0:0:
256,192,193912,1,0,0:0:0:0:
256,192,194320,1,8,0:0:0:0:
256,192,194525,1,8,0:0:0:0:
256,192,194627,1,0,0:0:0:0:
256,192,194729,1,8,0:0:0:0:
256,192,194933,1,0,0:0:0:0:
256,192,195137,1,8,0:0:0:0:
256,192,195341,1,8,0:0:0:0:
256,192,195443,1,0,0:0:0:0:
256,192,195545,1,8,0:0:0:0:
256,192,195749,1,8,0:0:0:0:
256,192,195953,1,0,0:0:0:0:
256,192,196259,1,0,0:0:0:0:
256,192,196565,1,0,0:0:0:0:
256,192,196871,1,0,0:0:0:0:
256,192,197178,1,0,0:0:0:0:
256,192,197586,1,8,0:0:0:0:
256,192,197790,1,8,0:0:0:0:
256,192,197892,1,8,0:0:0:0:
256,192,197994,1,8,0:0:0:0:
256,192,198198,1,0,0:0:0:0:
256,192,198402,1,8,0:0:0:0:
256,192,198504,1,8,0:0:0:0:
256,192,198606,1,0,0:0:0:0:
256,192,198708,1,0,0:0:0:0:
256,192,198810,1,8,0:0:0:0:
256,192,198912,1,8,0:0:0:0:
256,192,199014,1,8,0:0:0:0:
256,192,199116,1,8,0:0:0:0:
256,192,199218,1,0,0:0:0:0:
256,192,199525,1,0,0:0:0:0:
256,192,199831,1,0,0:0:0:0:
256,192,200137,1,0,0:0:0:0:
256,192,200443,1,0,0:0:0:0:
256,192,200851,1,8,0:0:0:0:
256,192,201055,1,0,0:0:0:0:
256,192,201259,1,8,0:0:0:0:
256,192,201463,1,8,0:0:0:0:
256,192,201667,1,8,0:0:0:0:
256,192,201871,1,0,0:0:0:0:
256,192,202076,1,8,0:0:0:0:
256,192,202280,1,8,0:0:0:0:
256,192,202484,1,0,0:0:0:0:
256,192,202790,1,0,0:0:0:0:
256,192,203096,1,0,0:0:0:0:
256,192,203402,1,0,0:0:0:0:
256,192,203708,1,0,0:0:0:0:
256,192,204116,1,8,0:0:0:0:
256,192,204320,1,0,0:0:0:0:
256,192,204525,1,8,0:0:0:0:
256,192,204729,1,8,0:0:0:0:
256,192,204933,1,8,0:0:0:0:
256,192,205137,1,0,0:0:0:0:
256,192,205341,1,8,0:0:0:0:
256,192,205545,1,8,0:0:0:0:
256,192,205749,1,0,0:0:0:0:
256,192,206361,1,8,0:0:0:0:
256,192,206769,1,0,0:0:0:0:
256,192,206973,1,8,0:0:0:0:
256,192,207382,1,0,0:0:0:0:
256,192,207994,1,8,0:0:0:0:
256,192,208402,1,0,0:0:0:0:
256,192,208606,1,8,0:0:0:0:
256,192,208810,1,0,0:0:0:0:
256,192,209014,1,8,0:0:0:0:
256,192,209627,1,0,0:0:0:0:
256,192,210035,1,0,0:0:0:0:
256,192,210239,1,8,0:0:0:0:
256,192,210647,1,8,0:0:0:0:
256,192,211055,1,0,0:0:0:0:
256,192,211463,1,8,0:0:0:0:
256,192,211667,1,0,0:0:0:0:
256,192,211871,1,8,0:0:0:0:
256,192,211973,1,0,0:0:0:0:
256,192,212076,1,8,0:0:0:0:
256,192,212178,1,8,0:0:0:0:
256,192,212280,1,0,0:0:0:0:
