osu file format v14

[General]
AudioFilename: viridian.mp3
AudioLeadIn: 0
PreviewTime: 115590
Countdown: 0
SampleSet: Soft
StackLeniency: 0.7
Mode: 3
LetterboxInBreaks: 0
SpecialStyle: 0
WidescreenStoryboard: 1

[Editor]
DistanceSpacing: 0.8
BeatDivisor: 16
GridSize: 8
TimelineZoom: 1.2

[Metadata]
Title:Flow (Part 1)
TitleUnicode:Flow (Part 1)
Artist:Various Artists
ArtistUnicode:Various Artists
Creator:awemanrank100
Version:xarva - Faded Viridian [drifting]
Source:
Tags:4649ceynou DesKurisu Dessie Awang411 part pt. 1 one xarva Faded Viridian bms Kevin MacLeod Carefree Ayato × sak × 田島千種 Beyond the BLUE Ayato x sak x Chigusa Tajima REZZ x & Yultron Hell on Earth Salted Adventure Louie Zong dk rap to relax/study to donkey kong rap Josh Whelchel A Lost Dream ryo BRSのテーマ3 BRS no Thema 3 Theme 3 Black Rock Shooter HyuN 첫 번째 감정 First Emotion Kevin MacLeod Electro Cabello Moe Shop <3 moestep heart
BeatmapID:2426696
BeatmapSetID:1105209

[Difficulty]
HPDrainRate:7
CircleSize:10
OverallDifficulty:7
ApproachRate:5
SliderMultiplier:1.4
SliderTickRate:1

[Events]
//Background and Video events
0,0,"fv.png",0,0
//Break Periods
2,490,9590
2,10990,18890
2,20290,29090
2,30790,37490
2,38890,42590
2,43990,47390
2,48790,52340
2,58090,61790
2,87040,90290
2,101290,104990
2,106390,110390
//Storyboard Layer 0 (Background)
//Storyboard Layer 1 (Fail)
//Storyboard Layer 2 (Pass)
//Storyboard Layer 3 (Foreground)
//Storyboard Layer 4 (Overlay)
//Storyboard Sound Samples

[TimingPoints]
290,600,4,2,0,0,1,0

[HitObjects]
384,192,290,5,0,0:0:0:0:
332,192,10790,5,0,0:0:0:0:
435,192,20090,5,0,0:0:0:0:
25,192,30290,5,0,0:0:0:0:
179,192,38690,5,0,0:0:0:0:
128,192,43790,5,0,0:0:0:0:
76,192,48590,5,0,0:0:0:0:
230,192,53540,5,0,0:0:0:0:
435,192,57890,5,0,0:0:0:0:
384,192,62990,5,0,0:0:0:0:
486,192,67940,1,0,0:0:0:0:
179,192,72290,1,0,0:0:0:0:
384,192,77090,1,0,0:0:0:0:
332,192,82040,1,0,0:0:0:0:
76,192,86840,1,0,0:0:0:0:
230,192,91490,5,0,0:0:0:0:
384,192,96290,5,0,0:0:0:0:
332,192,101090,1,0,0:0:0:0:
486,192,106190,5,0,0:0:0:0:
128,192,111740,5,0,0:0:0:0:
384,192,115590,1,0,0:0:0:0:
332,192,118390,1,0,0:0:0:0:
435,192,119590,1,0,0:0:0:0:
384,192,122790,1,0,0:0:0:0:
281,192,123590,1,0,0:0:0:0:
76,192,124827,1,0,0:0:0:0:
179,192,127590,1,0,0:0:0:0:
25,192,132390,1,0,0:0:0:0:
332,192,133190,1,0,0:0:0:0:
486,192,134790,1,0,0:0:0:0:
281,192,137590,1,0,0:0:0:0:
384,192,138790,1,0,0:0:0:0:
435,192,141990,1,0,0:0:0:0:
281,192,142790,1,0,0:0:0:0:
76,192,143990,1,0,0:0:0:0:
486,192,146790,1,0,0:0:0:0:
128,192,151590,1,0,0:0:0:0:
230,192,152390,1,0,0:0:0:0:
384,192,153990,1,0,0:0:0:0:
435,192,155802,1,0,0:0:0:0:
76,192,156790,1,0,0:0:0:0:
179,192,157990,1,0,0:0:0:0:
486,192,158990,1,0,0:0:0:0:
179,192,161190,1,0,0:0:0:0:
25,192,161990,1,0,0:0:0:0:
332,192,163190,1,0,0:0:0:0:
435,192,165190,1,0,0:0:0:0:
76,192,165990,1,0,0:0:0:0:
486,192,167590,1,0,0:0:0:0:
25,192,170790,1,0,0:0:0:0:
128,192,171590,1,0,0:0:0:0:
332,192,173190,1,0,0:0:0:0:
384,192,175002,1,0,0:0:0:0:
179,192,175990,1,0,0:0:0:0:
230,192,177190,1,0,0:0:0:0:
435,192,178190,1,0,0:0:0:0:
179,192,180402,1,0,0:0:0:0:
128,192,181190,1,0,0:0:0:0:
281,192,182427,1,0,0:0:0:0:
486,192,184390,1,0,0:0:0:0:
384,192,185190,1,0,0:0:0:0:
435,192,186990,1,0,0:0:0:0:
25,192,189990,1,0,0:0:0:0:
76,192,190790,1,0,0:0:0:0:
281,192,192365,1,0,0:0:0:0:
435,192,194165,1,0,0:0:0:0:
76,192,195177,1,0,0:0:0:0:
179,192,196377,1,0,0:0:0:0:
486,192,197352,1,0,0:0:0:0:
230,192,199565,1,0,0:0:0:0:
25,192,200390,1,0,0:0:0:0:
179,192,201552,1,0,0:0:0:0:
435,192,203577,1,0,0:0:0:0:
128,192,204390,1,0,0:0:0:0:
486,192,205977,1,0,0:0:0:0:
230,192,209165,1,0,0:0:0:0:
179,192,209990,1,0,0:0:0:0:
281,192,211565,1,0,0:0:0:0:
384,192,213365,1,0,0:0:0:0:
230,192,214377,1,0,0:0:0:0:
128,192,215577,1,0,0:0:0:0:
435,192,216552,1,0,0:0:0:0:
332,192,218765,1,0,0:0:0:0:
281,192,219552,1,0,0:0:0:0:
76,192,220790,1,0,0:0:0:0:
486,192,222790,1,0,0:0:0:0:
25,192,223565,1,0,0:0:0:0:
179,192,225365,1,0,0:0:0:0:
