osu file format v14

[General]
AudioFilename: brs.mp3
AudioLeadIn: 0
PreviewTime: 26840
Countdown: 0
SampleSet: Soft
StackLeniency: 0.7
Mode: 3
LetterboxInBreaks: 0
SpecialStyle: 0
WidescreenStoryboard: 1

[Editor]
Bookmarks: 23790
DistanceSpacing: 0.8
BeatDivisor: 8
GridSize: 8
TimelineZoom: 2.1

[Metadata]
Title:Flow (Part 1)
TitleUnicode:Flow (Part 1)
Artist:Various Artists
ArtistUnicode:Various Artists
Creator:awemanrank100
Version:ryo - BRS no Thema 3 [sans eye]
Source:
Tags:4649ceynou DesKurisu Dessie Awang411 part pt. 1 one xarva Faded Viridian bms Kevin MacLeod Carefree Ayato × sak × 田島千種 Beyond the BLUE Ayato x sak x Chigusa Tajima REZZ x & Yultron Hell on Earth Salted Adventure Louie Zong dk rap to relax/study to donkey kong rap Josh Whelchel A Lost Dream ryo BRSのテーマ3 BRS no Thema 3 Theme 3 Black Rock Shooter HyuN 첫 번째 감정 First Emotion Kevin MacLeod Electro Cabello Moe Shop <3 moestep heart
BeatmapID:2426694
BeatmapSetID:1105209

[Difficulty]
HPDrainRate:6
CircleSize:10
OverallDifficulty:6
ApproachRate:5
SliderMultiplier:1.4
SliderTickRate:1

[Events]
//Background and Video events
0,0,"brs.jpg",0,0
//Break Periods
//Storyboard Layer 0 (Background)
//Storyboard Layer 1 (Fail)
//Storyboard Layer 2 (Pass)
//Storyboard Layer 3 (Foreground)
//Storyboard Layer 4 (Overlay)
//Storyboard Sound Samples

[TimingPoints]
1390,400,4,2,0,10,1,0
69390,428.571428571429,4,2,0,10,1,0
69390,-93.4579439252336,4,2,0,10,0,0
71104,444.444444444445,4,2,0,10,1,0
71104,-90.0900900900901,4,2,0,10,0,0
72159,750.000000000001,4,2,0,10,1,0
72159,-53.1914893617021,4,2,0,10,0,0
75632,545.454545454546,4,2,0,10,1,0
75632,-73.5294117647059,4,2,0,10,0,0

[HitObjects]
128,192,1390,5,0,0:0:0:0:
25,192,1390,1,0,0:0:0:0:
384,192,2190,1,0,0:0:0:0:
76,192,2990,1,0,0:0:0:0:
179,192,2990,1,0,0:0:0:0:
332,192,3790,1,0,0:0:0:0:
230,192,4590,1,0,0:0:0:0:
435,192,4590,1,0,0:0:0:0:
486,192,4990,1,0,0:0:0:0:
435,192,5190,1,0,0:0:0:0:
76,192,5590,1,0,0:0:0:0:
25,192,5790,1,0,0:0:0:0:
25,192,5990,1,0,0:0:0:0:
332,192,6190,1,0,0:0:0:0:
486,192,6190,1,0,0:0:0:0:
25,192,6990,1,0,0:0:0:0:
76,192,6990,1,0,0:0:0:0:
384,192,7790,1,0,0:0:0:0:
486,192,7790,1,0,0:0:0:0:
179,192,8390,1,0,0:0:0:0:
179,192,8590,1,0,0:0:0:0:
332,192,9390,1,0,0:0:0:0:
435,192,9390,1,0,0:0:0:0:
230,192,9990,1,0,0:0:0:0:
230,192,10190,1,0,0:0:0:0:
128,192,10990,1,0,0:0:0:0:
486,192,10990,1,0,0:0:0:0:
435,192,11390,1,0,0:0:0:0:
384,192,11590,1,0,0:0:0:0:
281,192,11990,1,0,0:0:0:0:
332,192,12390,1,0,0:0:0:0:
128,192,12590,1,0,0:0:0:0:
230,192,12590,1,0,0:0:0:0:
281,192,13390,1,0,0:0:0:0:
435,192,13390,1,0,0:0:0:0:
128,192,14190,5,0,0:0:0:0:
25,192,14190,1,0,0:0:0:0:
384,192,14990,1,0,0:0:0:0:
76,192,15790,1,0,0:0:0:0:
179,192,15790,1,0,0:0:0:0:
332,192,16590,1,0,0:0:0:0:
230,192,17390,1,0,0:0:0:0:
435,192,17390,1,0,0:0:0:0:
486,192,17790,1,0,0:0:0:0:
435,192,17990,1,0,0:0:0:0:
76,192,18390,1,0,0:0:0:0:
25,192,18590,1,0,0:0:0:0:
25,192,18790,1,0,0:0:0:0:
332,192,18990,1,0,0:0:0:0:
486,192,18990,1,0,0:0:0:0:
25,192,19790,1,0,0:0:0:0:
76,192,19790,1,0,0:0:0:0:
384,192,20590,1,0,0:0:0:0:
486,192,20590,1,0,0:0:0:0:
230,192,21390,1,0,0:0:0:0:
435,192,22190,1,0,0:0:0:0:
128,192,22190,1,0,0:0:0:0:
486,192,22990,1,0,0:0:0:0:
179,192,22990,1,0,0:0:0:0:
25,192,23390,1,0,0:0:0:0:
76,192,23590,1,0,0:0:0:0:
128,192,23790,1,0,0:0:0:0:
281,192,23790,1,0,0:0:0:0:
435,192,23790,1,0,0:0:0:0:
76,192,24590,1,0,0:0:0:0:
179,192,24590,1,0,0:0:0:0:
281,192,25390,1,0,0:0:0:0:
435,192,25390,1,0,0:0:0:0:
486,192,25390,1,0,0:0:0:0:
25,192,26190,1,0,0:0:0:0:
179,192,26190,1,0,0:0:0:0:
384,192,26840,1,0,0:0:0:0:
332,192,26890,1,0,0:0:0:0:
281,192,26940,1,0,0:0:0:0:
25,192,26990,1,0,0:0:0:0:
128,192,26990,1,0,0:0:0:0:
230,192,26990,1,0,0:0:0:0:
230,192,27790,1,0,0:0:0:0:
25,192,27790,1,0,0:0:0:0:
128,192,27790,1,0,0:0:0:0:
281,192,27790,1,0,0:0:0:0:
384,192,27790,1,0,0:0:0:0:
25,192,28590,1,0,0:0:0:0:
128,192,28590,1,0,0:0:0:0:
230,192,28590,1,0,0:0:0:0:
332,192,28590,1,0,0:0:0:0:
486,192,28590,1,0,0:0:0:0:
128,192,29390,1,0,0:0:0:0:
230,192,29390,1,0,0:0:0:0:
25,192,29390,1,0,0:0:0:0:
281,192,29390,1,0,0:0:0:0:
435,192,29390,1,0,0:0:0:0:
76,192,29990,1,0,0:0:0:0:
128,192,30090,1,0,0:0:0:0:
281,192,30190,1,0,0:0:0:0:
486,192,30190,1,0,0:0:0:0:
332,192,30190,1,0,0:0:0:0:
179,192,30190,1,0,0:0:0:0:
230,192,30590,1,0,0:0:0:0:
179,192,30790,1,0,0:0:0:0:
281,192,30990,1,0,0:0:0:0:
332,192,30990,1,0,0:0:0:0:
486,192,30990,1,0,0:0:0:0:
128,192,31190,1,0,0:0:0:0:
76,192,31390,1,0,0:0:0:0:
76,192,31590,1,0,0:0:0:0:
281,192,31790,1,0,0:0:0:0:
332,192,31790,1,0,0:0:0:0:
486,192,31790,1,0,0:0:0:0:
281,192,32590,1,0,0:0:0:0:
332,192,32590,1,0,0:0:0:0:
486,192,32590,1,0,0:0:0:0:
332,192,33190,1,0,0:0:0:0:
25,192,33390,1,0,0:0:0:0:
76,192,33390,1,0,0:0:0:0:
230,192,33390,1,0,0:0:0:0:
332,192,33390,1,0,0:0:0:0:
435,192,33990,1,0,0:0:0:0:
25,192,34190,1,0,0:0:0:0:
76,192,34190,1,0,0:0:0:0:
230,192,34190,1,0,0:0:0:0:
435,192,34190,1,0,0:0:0:0:
384,192,34790,1,0,0:0:0:0:
76,192,34990,1,0,0:0:0:0:
128,192,34990,1,0,0:0:0:0:
230,192,34990,1,0,0:0:0:0:
384,192,34990,1,0,0:0:0:0:
486,192,35590,1,0,0:0:0:0:
76,192,35790,1,0,0:0:0:0:
128,192,35790,1,0,0:0:0:0:
230,192,35790,1,0,0:0:0:0:
486,192,35790,1,0,0:0:0:0:
128,192,36323,1,0,0:0:0:0:
76,192,36456,1,0,0:0:0:0:
281,192,36590,1,0,0:0:0:0:
384,192,36590,1,0,0:0:0:0:
486,192,36590,1,0,0:0:0:0:
25,192,36590,1,0,0:0:0:0:
179,192,36990,1,0,0:0:0:0:
230,192,37190,1,0,0:0:0:0:
281,192,37390,1,0,0:0:0:0:
384,192,37390,1,0,0:0:0:0:
486,192,37390,1,0,0:0:0:0:
128,192,37590,1,0,0:0:0:0:
76,192,37790,1,0,0:0:0:0:
128,192,37990,1,0,0:0:0:0:
281,192,38190,1,0,0:0:0:0:
332,192,38190,1,0,0:0:0:0:
435,192,38190,1,0,0:0:0:0:
332,192,38990,1,0,0:0:0:0:
281,192,38990,1,0,0:0:0:0:
435,192,38990,1,0,0:0:0:0:
128,192,39590,1,0,0:0:0:0:
230,192,39590,1,0,0:0:0:0:
230,192,39790,1,0,0:0:0:0:
128,192,39790,1,0,0:0:0:0:
435,192,39790,1,0,0:0:0:0:
486,192,39790,1,0,0:0:0:0:
384,192,39790,1,0,0:0:0:0:
384,192,40590,1,0,0:0:0:0:
486,192,40590,1,0,0:0:0:0:
25,192,40590,1,0,0:0:0:0:
76,192,40590,1,0,0:0:0:0:
128,192,40590,1,0,0:0:0:0:
76,192,41390,1,0,0:0:0:0:
179,192,41390,1,0,0:0:0:0:
281,192,41390,1,0,0:0:0:0:
332,192,41390,1,0,0:0:0:0:
384,192,41390,1,0,0:0:0:0:
281,192,42190,1,0,0:0:0:0:
384,192,42190,1,0,0:0:0:0:
230,192,42190,1,0,0:0:0:0:
179,192,42190,1,0,0:0:0:0:
128,192,42190,1,0,0:0:0:0:
25,192,42990,1,0,0:0:0:0:
128,192,42990,1,0,0:0:0:0:
230,192,42990,1,0,0:0:0:0:
281,192,42990,1,0,0:0:0:0:
486,192,42990,1,0,0:0:0:0:
486,192,43390,1,0,0:0:0:0:
435,192,43590,1,0,0:0:0:0:
25,192,43790,1,0,0:0:0:0:
128,192,43790,1,0,0:0:0:0:
384,192,43990,1,0,0:0:0:0:
332,192,44190,1,0,0:0:0:0:
332,192,44390,1,0,0:0:0:0:
25,192,44590,1,0,0:0:0:0:
76,192,44590,1,0,0:0:0:0:
179,192,44590,1,0,0:0:0:0:
25,192,45390,1,0,0:0:0:0:
76,192,45390,1,0,0:0:0:0:
179,192,45390,1,0,0:0:0:0:
230,192,45990,1,0,0:0:0:0:
128,192,45990,1,0,0:0:0:0:
332,192,46190,1,0,0:0:0:0:
486,192,46190,1,0,0:0:0:0:
435,192,46190,1,0,0:0:0:0:
230,192,46190,1,0,0:0:0:0:
128,192,46190,1,0,0:0:0:0:
332,192,46990,1,0,0:0:0:0:
435,192,46990,1,0,0:0:0:0:
486,192,46990,1,0,0:0:0:0:
76,192,46990,1,0,0:0:0:0:
179,192,46990,1,0,0:0:0:0:
332,192,47790,1,0,0:0:0:0:
435,192,47790,1,0,0:0:0:0:
486,192,47790,1,0,0:0:0:0:
25,192,47790,1,0,0:0:0:0:
128,192,47790,1,0,0:0:0:0:
332,192,48590,1,0,0:0:0:0:
435,192,48590,1,0,0:0:0:0:
486,192,48590,1,0,0:0:0:0:
76,192,48590,1,0,0:0:0:0:
179,192,48590,1,0,0:0:0:0:
25,192,49390,1,0,0:0:0:0:
179,192,49390,1,0,0:0:0:0:
230,192,49390,1,0,0:0:0:0:
384,192,49390,1,0,0:0:0:0:
486,192,49390,1,0,0:0:0:0:
25,192,51790,1,0,0:0:0:0:
179,192,51790,1,0,0:0:0:0:
128,192,52590,1,0,0:0:0:0:
332,192,52590,1,0,0:0:0:0:
486,192,53390,1,0,0:0:0:0:
435,192,54190,1,0,0:0:0:0:
179,192,54190,1,0,0:0:0:0:
25,192,54990,1,0,0:0:0:0:
332,192,55790,1,0,0:0:0:0:
486,192,55790,1,0,0:0:0:0:
230,192,56190,1,0,0:0:0:0:
179,192,56390,1,0,0:0:0:0:
76,192,56790,1,0,0:0:0:0:
25,192,56990,1,0,0:0:0:0:
25,192,57190,1,0,0:0:0:0:
281,192,57390,1,0,0:0:0:0:
435,192,57390,1,0,0:0:0:0:
332,192,58790,1,0,0:0:0:0:
76,192,58990,1,0,0:0:0:0:
230,192,58990,1,0,0:0:0:0:
384,192,59390,1,0,0:0:0:0:
435,192,59590,1,0,0:0:0:0:
486,192,59590,1,0,0:0:0:0:
435,192,59790,1,0,0:0:0:0:
486,192,59790,1,0,0:0:0:0:
179,192,60190,1,0,0:0:0:0:
281,192,60590,1,0,0:0:0:0:
435,192,60590,1,0,0:0:0:0:
128,192,60990,1,0,0:0:0:0:
76,192,61190,1,0,0:0:0:0:
25,192,61190,1,0,0:0:0:0:
25,192,61390,1,0,0:0:0:0:
76,192,61390,1,0,0:0:0:0:
179,192,61790,1,0,0:0:0:0:
281,192,62190,1,0,0:0:0:0:
486,192,62190,1,0,0:0:0:0:
230,192,62590,1,0,0:0:0:0:
384,192,62590,1,0,0:0:0:0:
179,192,62790,1,0,0:0:0:0:
435,192,62990,1,0,0:0:0:0:
25,192,63190,1,0,0:0:0:0:
486,192,63390,1,0,0:0:0:0:
128,192,63590,1,0,0:0:0:0:
25,192,63790,1,0,0:0:0:0:
76,192,64190,1,0,0:0:0:0:
332,192,64590,1,0,0:0:0:0:
486,192,64590,1,0,0:0:0:0:
128,192,64590,1,0,0:0:0:0:
179,192,64990,1,0,0:0:0:0:
25,192,65390,1,0,0:0:0:0:
230,192,65390,1,0,0:0:0:0:
486,192,65390,1,0,0:0:0:0:
435,192,65790,1,0,0:0:0:0:
25,192,66190,1,0,0:0:0:0:
179,192,66190,1,0,0:0:0:0:
384,192,66190,1,0,0:0:0:0:
332,192,66590,1,0,0:0:0:0:
384,192,66990,1,0,0:0:0:0:
486,192,66990,1,0,0:0:0:0:
76,192,66990,1,0,0:0:0:0:
128,192,67390,1,0,0:0:0:0:
179,192,67790,1,0,0:0:0:0:
281,192,67790,1,0,0:0:0:0:
332,192,67790,1,0,0:0:0:0:
230,192,68190,1,0,0:0:0:0:
25,192,68590,1,0,0:0:0:0:
128,192,68590,1,0,0:0:0:0:
486,192,68990,1,0,0:0:0:0:
435,192,69190,1,0,0:0:0:0:
230,192,69390,1,0,0:0:0:0:
332,192,69604,1,0,0:0:0:0:
281,192,70032,1,0,0:0:0:0:
179,192,70247,1,0,0:0:0:0:
128,192,71104,1,0,0:0:0:0:
384,192,71548,1,0,0:0:0:0:
25,192,71992,1,0,0:0:0:0:
76,192,72048,1,0,0:0:0:0:
128,192,72104,1,0,0:0:0:0:
179,192,72159,1,0,0:0:0:0:
230,192,72252,1,0,0:0:0:0:
384,192,75632,1,0,0:0:0:0:
435,192,75700,1,0,0:0:0:0:
486,192,75768,1,0,0:0:0:0:
