osu file format v14

[General]
AudioFilename: adventure.mp3
AudioLeadIn: 0
PreviewTime: 14024
Countdown: 0
SampleSet: Soft
StackLeniency: 0.7
Mode: 3
LetterboxInBreaks: 0
SpecialStyle: 0
WidescreenStoryboard: 1

[Editor]
DistanceSpacing: 0.8
BeatDivisor: 6
GridSize: 8
TimelineZoom: 1.8

[Metadata]
Title:Flow (Part 1)
TitleUnicode:Flow (Part 1)
Artist:Various Artists
ArtistUnicode:Various Artists
Creator:awemanrank100
Version:Salted - Adventure [Well-Worn Path]
Source:
Tags:4649ceynou DesKurisu Dessie Awang411 part pt. 1 one xarva Faded Viridian bms Kevin MacLeod Carefree Ayato × sak × 田島千種 Beyond the BLUE Ayato x sak x Chigusa Tajima REZZ x & Yultron Hell on Earth Salted Adventure Louie Zong dk rap to relax/study to donkey kong rap Josh Whelchel A Lost Dream ryo BRSのテーマ3 BRS no Thema 3 Theme 3 Black Rock Shooter HyuN 첫 번째 감정 First Emotion Kevin MacLeod Electro Cabello Moe Shop <3 moestep heart
BeatmapID:2426684
BeatmapSetID:1105209

[Difficulty]
HPDrainRate:7
CircleSize:10
OverallDifficulty:7
ApproachRate:5
SliderMultiplier:1.4
SliderTickRate:1

[Events]
//Background and Video events
0,0,"Path Wallpaper 8.jpg",0,0
//Break Periods
//Storyboard Layer 0 (Background)
//Storyboard Layer 1 (Fail)
//Storyboard Layer 2 (Pass)
//Storyboard Layer 3 (Foreground)
//Storyboard Layer 4 (Overlay)
//Storyboard Sound Samples

[TimingPoints]
4751,582.52427184466,4,2,0,20,1,0
14024,582.52427184466,4,2,0,20,1,0

[HitObjects]
179,192,4751,5,0,0:0:0:0:
230,192,5333,1,0,0:0:0:0:
179,192,5916,1,0,0:0:0:0:
230,192,6498,1,0,0:0:0:0:
435,192,7081,1,0,0:0:0:0:
435,192,7663,1,0,0:0:0:0:
435,192,8246,1,0,0:0:0:0:
435,192,8828,1,0,0:0:0:0:
76,192,9411,1,0,0:0:0:0:
384,192,9993,1,0,0:0:0:0:
128,192,10576,1,0,0:0:0:0:
486,192,11158,1,0,0:0:0:0:
25,192,11741,1,0,0:0:0:0:
281,192,12323,1,0,0:0:0:0:
384,192,14024,1,0,0:0:0:0:
384,192,14315,1,0,0:0:0:0:
332,192,14460,1,0,0:0:0:0:
281,192,14606,1,0,0:0:0:0:
25,192,14897,1,0,0:0:0:0:
230,192,15189,1,0,0:0:0:0:
179,192,15480,1,0,0:0:0:0:
128,192,15771,1,0,0:0:0:0:
76,192,16062,1,0,0:0:0:0:
128,192,16354,1,0,0:0:0:0:
128,192,17810,1,0,0:0:0:0:
76,192,18101,1,0,0:0:0:0:
25,192,18392,1,0,0:0:0:0:
384,192,18684,1,0,0:0:0:0:
384,192,18975,1,0,0:0:0:0:
332,192,19121,1,0,0:0:0:0:
281,192,19266,1,0,0:0:0:0:
25,192,19557,1,0,0:0:0:0:
230,192,19849,1,0,0:0:0:0:
179,192,20140,1,0,0:0:0:0:
230,192,20431,1,0,0:0:0:0:
435,192,20723,1,0,0:0:0:0:
486,192,21014,1,0,0:0:0:0:
435,192,21888,1,0,0:0:0:0:
384,192,22033,1,0,0:0:0:0:
332,192,22179,1,0,0:0:0:0:
128,192,23344,1,0,0:0:0:0:
128,192,23635,1,0,0:0:0:0:
179,192,23781,1,0,0:0:0:0:
230,192,23926,1,0,0:0:0:0:
281,192,24218,1,0,0:0:0:0:
76,192,24509,1,0,0:0:0:0:
332,192,24800,1,0,0:0:0:0:
25,192,25091,1,0,0:0:0:0:
486,192,25383,1,0,0:0:0:0:
435,192,25674,1,0,0:0:0:0:
25,192,26548,1,0,0:0:0:0:
76,192,26693,1,0,0:0:0:0:
128,192,26839,1,0,0:0:0:0:
179,192,26985,1,0,0:0:0:0:
230,192,27130,1,0,0:0:0:0:
179,192,27422,1,0,0:0:0:0:
128,192,27713,1,0,0:0:0:0:
384,192,28004,1,0,0:0:0:0:
384,192,28295,1,0,0:0:0:0:
332,192,28441,1,0,0:0:0:0:
281,192,28587,1,0,0:0:0:0:
384,192,28878,1,0,0:0:0:0:
332,192,29023,1,0,0:0:0:0:
281,192,29169,1,0,0:0:0:0:
25,192,29460,1,0,0:0:0:0:
76,192,29752,1,0,0:0:0:0:
128,192,30043,1,0,0:0:0:0:
486,192,30334,1,0,0:0:0:0:
435,192,31208,1,0,0:0:0:0:
384,192,31354,1,0,0:0:0:0:
332,192,31499,1,0,0:0:0:0:
179,192,31645,1,0,0:0:0:0:
128,192,31790,1,0,0:0:0:0:
76,192,31936,1,0,0:0:0:0:
435,192,32082,1,0,0:0:0:0:
384,192,32227,1,0,0:0:0:0:
332,192,32373,1,0,0:0:0:0:
25,192,32664,1,0,0:0:0:0:
230,192,32664,1,0,0:0:0:0:
486,192,32956,1,0,0:0:0:0:
435,192,33101,1,0,0:0:0:0:
384,192,33247,1,0,0:0:0:0:
76,192,33538,1,0,0:0:0:0:
179,192,33829,1,0,0:0:0:0:
486,192,34121,1,0,0:0:0:0:
128,192,34412,1,0,0:0:0:0:
332,192,34557,1,0,0:0:0:0:
128,192,34703,1,0,0:0:0:0:
332,192,34849,1,0,0:0:0:0:
128,192,34994,1,0,0:0:0:0:
25,192,35868,1,0,0:0:0:0:
76,192,36014,1,0,0:0:0:0:
128,192,36159,1,0,0:0:0:0:
281,192,36451,1,0,0:0:0:0:
435,192,36742,1,0,0:0:0:0:
179,192,37324,1,0,0:0:0:0:
486,192,37616,1,0,0:0:0:0:
435,192,37761,1,0,0:0:0:0:
384,192,37907,1,0,0:0:0:0:
25,192,38198,1,0,0:0:0:0:
76,192,38344,1,0,0:0:0:0:
128,192,38490,1,0,0:0:0:0:
384,192,38781,1,0,0:0:0:0:
332,192,38926,1,0,0:0:0:0:
281,192,39072,1,0,0:0:0:0:
76,192,39218,1,0,0:0:0:0:
128,192,39363,1,0,0:0:0:0:
179,192,39509,1,0,0:0:0:0:
230,192,39655,1,0,0:0:0:0:
332,192,41985,1,0,0:0:0:0:
384,192,42422,1,0,0:0:0:0:
332,192,42567,1,0,0:0:0:0:
486,192,42858,1,0,0:0:0:0:
435,192,43150,1,0,0:0:0:0:
230,192,43732,1,0,0:0:0:0:
179,192,44023,1,0,0:0:0:0:
128,192,44315,1,0,0:0:0:0:
25,192,45189,1,0,0:0:0:0:
332,192,45480,1,0,0:0:0:0:
128,192,45771,1,0,0:0:0:0:
435,192,46062,1,0,0:0:0:0:
230,192,46354,1,0,0:0:0:0:
486,192,46645,1,0,0:0:0:0:
332,192,46936,1,0,0:0:0:0:
179,192,47082,1,0,0:0:0:0:
332,192,47227,1,0,0:0:0:0:
179,192,47373,1,0,0:0:0:0:
332,192,47519,1,0,0:0:0:0:
179,192,47810,1,0,0:0:0:0:
435,192,48392,1,0,0:0:0:0:
384,192,48684,1,0,0:0:0:0:
332,192,48975,1,0,0:0:0:0:
25,192,51305,1,0,0:0:0:0:
486,192,51596,1,0,0:0:0:0:
25,192,51888,1,0,0:0:0:0:
486,192,52179,1,0,0:0:0:0:
76,192,52470,1,0,0:0:0:0:
435,192,52761,1,0,0:0:0:0:
76,192,53053,1,0,0:0:0:0:
435,192,53344,1,0,0:0:0:0:
128,192,53635,1,0,0:0:0:0:
384,192,53926,1,0,0:0:0:0:
128,192,54218,1,0,0:0:0:0:
384,192,54509,1,0,0:0:0:0:
128,192,54800,1,0,0:0:0:0:
384,192,55091,1,0,0:0:0:0:
128,192,55383,1,0,0:0:0:0:
384,192,55674,1,0,0:0:0:0:
25,192,55965,1,0,0:0:0:0:
486,192,56257,1,0,0:0:0:0:
25,192,56548,1,0,0:0:0:0:
486,192,56839,1,0,0:0:0:0:
76,192,57130,1,0,0:0:0:0:
435,192,57422,1,0,0:0:0:0:
76,192,57713,1,0,0:0:0:0:
435,192,58004,1,0,0:0:0:0:
128,192,58295,1,0,0:0:0:0:
384,192,58587,1,0,0:0:0:0:
128,192,58878,1,0,0:0:0:0:
384,192,59169,1,0,0:0:0:0:
128,192,59460,1,0,0:0:0:0:
384,192,59752,1,0,0:0:0:0:
128,192,60043,1,0,0:0:0:0:
384,192,60334,1,0,0:0:0:0:
25,192,60625,1,0,0:0:0:0:
76,192,60917,1,0,0:0:0:0:
128,192,61208,1,0,0:0:0:0:
179,192,61499,1,0,0:0:0:0:
230,192,61790,1,0,0:0:0:0:
281,192,62082,1,0,0:0:0:0:
486,192,62373,1,0,0:0:0:0:
230,192,62664,1,0,0:0:0:0:
179,192,62956,1,0,0:0:0:0:
128,192,63247,1,0,0:0:0:0:
281,192,63538,1,0,0:0:0:0:
332,192,63829,1,0,0:0:0:0:
384,192,64121,1,0,0:0:0:0:
486,192,64703,1,0,0:0:0:0:
435,192,64994,1,0,0:0:0:0:
384,192,65286,1,0,0:0:0:0:
25,192,65577,1,0,0:0:0:0:
230,192,65868,1,0,0:0:0:0:
25,192,66159,1,0,0:0:0:0:
332,192,66451,1,0,0:0:0:0:
179,192,67033,1,0,0:0:0:0:
128,192,67324,1,0,0:0:0:0:
76,192,67616,1,0,0:0:0:0:
281,192,69946,1,0,0:0:0:0:
332,192,70237,1,0,0:0:0:0:
384,192,70528,1,0,0:0:0:0:
435,192,70820,1,0,0:0:0:0:
486,192,71111,1,0,0:0:0:0:
25,192,71402,1,0,0:0:0:0:
76,192,71693,1,0,0:0:0:0:
128,192,71985,1,0,0:0:0:0:
179,192,72276,1,0,0:0:0:0:
230,192,72567,1,0,0:0:0:0:
486,192,72858,1,0,0:0:0:0:
384,192,73150,1,0,0:0:0:0:
281,192,73441,1,0,0:0:0:0:
230,192,74023,1,0,0:0:0:0:
25,192,74315,1,0,0:0:0:0:
281,192,74606,1,0,0:0:0:0:
384,192,74897,1,0,0:0:0:0:
486,192,75189,1,0,0:0:0:0:
179,192,75480,1,0,0:0:0:0:
128,192,75771,1,0,0:0:0:0:
25,192,76354,1,0,0:0:0:0:
76,192,76645,1,0,0:0:0:0:
128,192,76936,1,0,0:0:0:0:
230,192,79266,1,0,0:0:0:0:
486,192,79557,1,0,0:0:0:0:
435,192,79703,1,0,0:0:0:0:
384,192,79849,1,0,0:0:0:0:
25,192,80140,1,0,0:0:0:0:
179,192,80431,1,0,0:0:0:0:
25,192,80723,1,0,0:0:0:0:
281,192,81014,1,0,0:0:0:0:
384,192,81305,1,0,0:0:0:0:
486,192,81596,1,0,0:0:0:0:
230,192,82470,1,0,0:0:0:0:
179,192,82616,1,0,0:0:0:0:
128,192,82761,1,0,0:0:0:0:
76,192,82907,1,0,0:0:0:0:
25,192,83053,1,0,0:0:0:0:
486,192,83344,1,0,0:0:0:0:
281,192,83635,1,0,0:0:0:0:
25,192,83926,1,0,0:0:0:0:
435,192,84218,1,0,0:0:0:0:
384,192,84363,1,0,0:0:0:0:
332,192,84509,1,0,0:0:0:0:
179,192,84800,1,0,0:0:0:0:
128,192,84946,1,0,0:0:0:0:
76,192,85091,1,0,0:0:0:0:
486,192,85383,1,0,0:0:0:0:
384,192,85674,1,0,0:0:0:0:
281,192,85965,1,0,0:0:0:0:
486,192,86257,1,0,0:0:0:0:
76,192,87130,1,0,0:0:0:0:
128,192,87276,1,0,0:0:0:0:
179,192,87422,1,0,0:0:0:0:
230,192,87567,1,0,0:0:0:0:
281,192,87713,1,0,0:0:0:0:
332,192,87858,1,0,0:0:0:0:
384,192,88004,1,0,0:0:0:0:
435,192,88150,1,0,0:0:0:0:
486,192,88295,1,0,0:0:0:0:
25,192,88587,1,0,0:0:0:0:
230,192,88587,1,0,0:0:0:0:
384,192,88878,1,0,0:0:0:0:
332,192,89023,1,0,0:0:0:0:
281,192,89169,1,0,0:0:0:0:
25,192,89460,1,0,0:0:0:0:
76,192,89752,1,0,0:0:0:0:
128,192,90043,1,0,0:0:0:0:
281,192,90334,1,0,0:0:0:0:
486,192,90480,1,0,0:0:0:0:
281,192,90625,1,0,0:0:0:0:
486,192,90771,1,0,0:0:0:0:
281,192,90917,1,0,0:0:0:0:
128,192,91790,1,0,0:0:0:0:
179,192,91936,1,0,0:0:0:0:
230,192,92082,1,0,0:0:0:0:
332,192,92373,1,0,0:0:0:0:
384,192,92664,1,0,0:0:0:0:
25,192,93247,1,0,0:0:0:0:
486,192,93538,1,0,0:0:0:0:
435,192,93684,1,0,0:0:0:0:
384,192,93829,1,0,0:0:0:0:
128,192,94121,1,0,0:0:0:0:
179,192,94266,1,0,0:0:0:0:
230,192,94412,1,0,0:0:0:0:
384,192,94703,1,0,0:0:0:0:
332,192,94849,1,0,0:0:0:0:
281,192,94994,1,0,0:0:0:0:
25,192,95140,1,0,0:0:0:0:
76,192,95286,1,0,0:0:0:0:
128,192,95431,1,0,0:0:0:0:
179,192,95577,1,0,0:0:0:0:
486,192,97907,1,0,0:0:0:0:
25,192,98344,1,0,0:0:0:0:
230,192,98490,1,0,0:0:0:0:
76,192,98781,1,0,0:0:0:0:
230,192,99072,1,0,0:0:0:0:
486,192,99655,1,0,0:0:0:0:
384,192,99946,1,0,0:0:0:0:
281,192,100237,1,0,0:0:0:0:
230,192,101111,1,0,0:0:0:0:
25,192,101402,1,0,0:0:0:0:
230,192,101693,1,0,0:0:0:0:
486,192,101985,1,0,0:0:0:0:
281,192,102276,1,0,0:0:0:0:
435,192,102567,1,0,0:0:0:0:
128,192,102858,1,0,0:0:0:0:
384,192,103004,1,0,0:0:0:0:
128,192,103150,1,0,0:0:0:0:
384,192,103295,1,0,0:0:0:0:
128,192,103441,1,0,0:0:0:0:
332,192,103732,1,0,0:0:0:0:
230,192,104315,1,0,0:0:0:0:
179,192,104606,1,0,0:0:0:0:
128,192,104897,1,0,0:0:0:0:
179,192,107227,1,0,0:0:0:0:
25,192,107664,1,0,0:0:0:0:
332,192,107810,1,0,0:0:0:0:
486,192,108101,1,0,0:0:0:0:
128,192,108392,1,0,0:0:0:0:
435,192,108975,1,0,0:0:0:0:
384,192,109266,1,0,0:0:0:0:
332,192,109557,1,0,0:0:0:0:
76,192,110431,1,0,0:0:0:0:
230,192,110723,1,0,0:0:0:0:
281,192,111014,1,0,0:0:0:0:
230,192,111305,1,0,0:0:0:0:
76,192,111596,1,0,0:0:0:0:
435,192,111888,1,0,0:0:0:0:
25,192,112179,1,0,0:0:0:0:
179,192,112324,1,0,0:0:0:0:
486,192,112470,1,0,0:0:0:0:
230,192,112616,1,0,0:0:0:0:
486,192,112761,1,0,0:0:0:0:
128,192,113053,1,0,0:0:0:0:
384,192,113635,1,0,0:0:0:0:
332,192,113926,1,0,0:0:0:0:
281,192,114218,1,0,0:0:0:0:
230,192,116548,1,0,0:0:0:0:
25,192,116548,1,0,0:0:0:0:
486,192,117276,1,0,0:0:0:0:
435,192,117422,1,0,0:0:0:0:
384,192,117567,1,0,0:0:0:0:
332,192,117713,1,0,0:0:0:0:
230,192,118004,1,0,0:0:0:0:
179,192,118295,1,0,0:0:0:0:
25,192,118587,1,0,0:0:0:0:
25,192,118878,1,0,0:0:0:0:
281,192,121208,1,0,0:0:0:0:
25,192,121936,1,0,0:0:0:0:
76,192,122082,1,0,0:0:0:0:
128,192,122227,1,0,0:0:0:0:
179,192,122373,1,0,0:0:0:0:
281,192,122664,1,0,0:0:0:0:
332,192,122956,1,0,0:0:0:0:
486,192,123247,1,0,0:0:0:0:
486,192,123538,1,0,0:0:0:0:
25,192,125868,1,0,0:0:0:0:
486,192,126159,1,0,0:0:0:0:
25,192,126451,1,0,0:0:0:0:
486,192,126742,1,0,0:0:0:0:
76,192,127033,1,0,0:0:0:0:
435,192,127324,1,0,0:0:0:0:
76,192,127616,1,0,0:0:0:0:
435,192,127907,1,0,0:0:0:0:
128,192,128198,1,0,0:0:0:0:
384,192,128490,1,0,0:0:0:0:
128,192,128781,1,0,0:0:0:0:
384,192,129072,1,0,0:0:0:0:
128,192,129363,1,0,0:0:0:0:
384,192,129655,1,0,0:0:0:0:
128,192,129946,1,0,0:0:0:0:
384,192,130237,1,0,0:0:0:0:
25,192,130528,1,0,0:0:0:0:
486,192,130820,1,0,0:0:0:0:
25,192,131111,1,0,0:0:0:0:
486,192,131402,1,0,0:0:0:0:
76,192,131693,1,0,0:0:0:0:
435,192,131985,1,0,0:0:0:0:
76,192,132276,1,0,0:0:0:0:
435,192,132567,1,0,0:0:0:0:
128,192,132858,1,0,0:0:0:0:
384,192,133150,1,0,0:0:0:0:
128,192,133441,1,0,0:0:0:0:
384,192,133732,1,0,0:0:0:0:
128,192,134023,1,0,0:0:0:0:
384,192,134315,1,0,0:0:0:0:
128,192,134606,1,0,0:0:0:0:
384,192,134897,1,0,0:0:0:0:
25,192,135189,1,0,0:0:0:0:
230,192,135189,1,0,0:0:0:0:
281,192,135625,1,0,0:0:0:0:
435,192,135771,1,0,0:0:0:0:
332,192,136062,1,0,0:0:0:0:
486,192,136354,1,0,0:0:0:0:
179,192,136936,1,0,0:0:0:0:
128,192,137227,1,0,0:0:0:0:
25,192,137519,1,0,0:0:0:0:
281,192,138392,1,0,0:0:0:0:
332,192,138684,1,0,0:0:0:0:
384,192,138975,1,0,0:0:0:0:
435,192,139266,1,0,0:0:0:0:
486,192,139557,1,0,0:0:0:0:
230,192,139849,1,0,0:0:0:0:
281,192,140140,1,0,0:0:0:0:
332,192,140286,1,0,0:0:0:0:
384,192,140431,1,0,0:0:0:0:
128,192,140577,1,0,0:0:0:0:
384,192,140723,1,0,0:0:0:0:
25,192,141014,1,0,0:0:0:0:
486,192,141596,1,0,0:0:0:0:
384,192,141888,1,0,0:0:0:0:
281,192,142179,1,0,0:0:0:0:
230,192,144509,1,0,0:0:0:0:
179,192,144655,1,0,0:0:0:0:
128,192,144800,1,0,0:0:0:0:
25,192,145091,1,0,0:0:0:0:
486,192,145674,1,0,0:0:0:0:
435,192,145820,1,0,0:0:0:0:
384,192,145965,1,0,0:0:0:0:
281,192,146257,1,0,0:0:0:0:
76,192,146839,1,0,0:0:0:0:
281,192,147276,1,0,0:0:0:0:
332,192,147422,1,0,0:0:0:0:
179,192,147713,1,0,0:0:0:0:
128,192,148004,1,0,0:0:0:0:
76,192,148295,1,0,0:0:0:0:
25,192,148587,1,0,0:0:0:0:
384,192,149169,1,0,0:0:0:0:
332,192,149315,1,0,0:0:0:0:
281,192,149460,1,0,0:0:0:0:
230,192,149752,1,0,0:0:0:0:
25,192,150334,1,0,0:0:0:0:
76,192,150480,1,0,0:0:0:0:
128,192,150625,1,0,0:0:0:0:
281,192,150917,1,0,0:0:0:0:
486,192,151499,1,0,0:0:0:0:
25,192,153829,1,0,0:0:0:0:
230,192,153829,1,0,0:0:0:0:
435,192,153829,1,0,0:0:0:0:
384,192,153975,1,0,0:0:0:0:
332,192,154121,1,0,0:0:0:0:
128,192,154412,1,0,0:0:0:0:
128,192,154994,1,0,0:0:0:0:
179,192,155140,1,0,0:0:0:0:
230,192,155286,1,0,0:0:0:0:
281,192,155577,1,0,0:0:0:0:
486,192,156159,1,0,0:0:0:0:
384,192,156596,1,0,0:0:0:0:
332,192,156742,1,0,0:0:0:0:
179,192,157033,1,0,0:0:0:0:
128,192,157324,1,0,0:0:0:0:
76,192,157616,1,0,0:0:0:0:
25,192,157907,1,0,0:0:0:0:
435,192,158490,1,0,0:0:0:0:
384,192,158635,1,0,0:0:0:0:
332,192,158781,1,0,0:0:0:0:
128,192,159072,1,0,0:0:0:0:
384,192,159655,1,0,0:0:0:0:
332,192,159800,1,0,0:0:0:0:
281,192,159946,1,0,0:0:0:0:
76,192,160237,1,0,0:0:0:0:
486,192,160820,1,0,0:0:0:0:
25,192,163150,1,0,0:0:0:0:
230,192,163441,1,0,0:0:0:0:
281,192,163732,1,0,0:0:0:0:
486,192,164023,1,0,0:0:0:0:
384,192,164315,1,0,0:0:0:0:
230,192,164897,1,0,0:0:0:0:
128,192,165189,1,0,0:0:0:0:
25,192,165480,1,0,0:0:0:0:
281,192,166354,1,0,0:0:0:0:
384,192,166645,1,0,0:0:0:0:
486,192,167227,1,0,0:0:0:0:
332,192,167519,1,0,0:0:0:0:
76,192,167810,1,0,0:0:0:0:
179,192,168101,1,0,0:0:0:0:
76,192,168392,1,0,0:0:0:0:
179,192,168684,1,0,0:0:0:0:
281,192,168975,1,0,0:0:0:0:
486,192,169557,1,0,0:0:0:0:
435,192,169849,1,0,0:0:0:0:
384,192,170140,1,0,0:0:0:0:
25,192,171014,1,0,0:0:0:0:
230,192,171305,1,0,0:0:0:0:
179,192,171888,1,0,0:0:0:0:
76,192,172179,1,0,0:0:0:0:
