osu file format v14

[General]
AudioFilename: carefree.mp3
AudioLeadIn: 0
PreviewTime: 947
Countdown: 0
SampleSet: Soft
StackLeniency: 0.7
Mode: 3
LetterboxInBreaks: 0
SpecialStyle: 0
WidescreenStoryboard: 1

[Editor]
DistanceSpacing: 0.8
BeatDivisor: 4
GridSize: 8
TimelineZoom: 0.4999999

[Metadata]
Title:Flow (Part 1)
TitleUnicode:Flow (Part 1)
Artist:Various Artists
ArtistUnicode:Various Artists
Creator:awemanrank100
Version:Kevin MacLeod - Carefree [Meadow]
Source:
Tags:4649ceynou DesKurisu Dessie Awang411 part pt. 1 one xarva Faded Viridian bms Kevin MacLeod Carefree Ayato × sak × 田島千種 Beyond the BLUE Ayato x sak x Chigusa Tajima REZZ x & Yultron Hell on Earth Salted Adventure Louie Zong dk rap to relax/study to donkey kong rap Josh Whelchel A Lost Dream ryo BRSのテーマ3 BRS no Thema 3 Theme 3 Black Rock Shooter HyuN 첫 번째 감정 First Emotion Kevin MacLeod Electro Cabello Moe Shop <3 moestep heart
BeatmapID:2426688
BeatmapSetID:1105209

[Difficulty]
HPDrainRate:7
CircleSize:10
OverallDifficulty:7
ApproachRate:5
SliderMultiplier:1.4
SliderTickRate:1

[Events]
//Background and Video events
0,0,"1QWGMXc-spring-meadow-wallpaper.jpg",0,0
//Break Periods
//Storyboard Layer 0 (Background)
//Storyboard Layer 1 (Fail)
//Storyboard Layer 2 (Pass)
//Storyboard Layer 3 (Foreground)
//Storyboard Layer 4 (Overlay)
//Storyboard Sound Samples

[TimingPoints]
10,625,4,2,0,20,1,0

[HitObjects]
486,192,322,5,0,0:0:0:0:
486,192,947,1,0,0:0:0:0:
179,192,1572,1,0,0:0:0:0:
179,192,2197,1,0,0:0:0:0:
332,192,2822,1,0,0:0:0:0:
332,192,3447,1,0,0:0:0:0:
76,192,4072,1,0,0:0:0:0:
76,192,4697,1,0,0:0:0:0:
486,192,5322,1,0,0:0:0:0:
486,192,5947,1,0,0:0:0:0:
128,192,6572,1,0,0:0:0:0:
128,192,7197,1,0,0:0:0:0:
435,192,7822,1,0,0:0:0:0:
435,192,8447,1,0,0:0:0:0:
230,192,9072,1,0,0:0:0:0:
230,192,9697,1,0,0:0:0:0:
332,192,10322,1,0,0:0:0:0:
332,192,10947,1,0,0:0:0:0:
76,192,11572,1,0,0:0:0:0:
76,192,12197,1,0,0:0:0:0:
281,192,12822,1,0,0:0:0:0:
281,192,13447,1,0,0:0:0:0:
25,192,14072,1,0,0:0:0:0:
25,192,14697,1,0,0:0:0:0:
384,192,15322,1,0,0:0:0:0:
384,192,15947,1,0,0:0:0:0:
179,192,16572,1,0,0:0:0:0:
179,192,17197,1,0,0:0:0:0:
435,192,17822,1,0,0:0:0:0:
435,192,18447,1,0,0:0:0:0:
128,192,19072,1,0,0:0:0:0:
128,192,19697,1,0,0:0:0:0:
281,192,20322,1,0,0:0:0:0:
332,192,20947,1,0,0:0:0:0:
384,192,21572,1,0,0:0:0:0:
435,192,22197,1,0,0:0:0:0:
486,192,22822,1,0,0:0:0:0:
25,192,23447,1,0,0:0:0:0:
76,192,24072,1,0,0:0:0:0:
128,192,24697,1,0,0:0:0:0:
179,192,25322,1,0,0:0:0:0:
486,192,25947,1,0,0:0:0:0:
435,192,26572,1,0,0:0:0:0:
384,192,27197,1,0,0:0:0:0:
332,192,27822,1,0,0:0:0:0:
76,192,28447,1,0,0:0:0:0:
128,192,29072,1,0,0:0:0:0:
179,192,29697,1,0,0:0:0:0:
230,192,30322,1,0,0:0:0:0:
435,192,30947,1,0,0:0:0:0:
384,192,31572,1,0,0:0:0:0:
332,192,32197,1,0,0:0:0:0:
281,192,32822,1,0,0:0:0:0:
230,192,33447,1,0,0:0:0:0:
179,192,34072,1,0,0:0:0:0:
128,192,34697,1,0,0:0:0:0:
76,192,35322,1,0,0:0:0:0:
486,192,35947,1,0,0:0:0:0:
435,192,36572,1,0,0:0:0:0:
384,192,37197,1,0,0:0:0:0:
332,192,37822,1,0,0:0:0:0:
25,192,38447,1,0,0:0:0:0:
76,192,39072,5,0,0:0:0:0:
128,192,39697,5,0,0:0:0:0:
486,192,40010,128,0,42510:0:0:0:0:
179,192,42510,128,0,45010:0:0:0:0:
384,192,45010,128,0,47510:0:0:0:0:
76,192,47510,128,0,50010:0:0:0:0:
435,192,50010,128,0,52510:0:0:0:0:
230,192,52510,128,0,55010:0:0:0:0:
332,192,55010,128,0,57510:0:0:0:0:
128,192,57510,128,0,60010:0:0:0:0:
281,192,60010,1,0,0:0:0:0:
179,192,62822,1,0,0:0:0:0:
179,192,63447,1,0,0:0:0:0:
435,192,63760,128,0,65010:0:0:0:0:
384,192,65010,1,0,0:0:0:0:
128,192,65322,1,0,0:0:0:0:
128,192,65947,1,0,0:0:0:0:
332,192,66572,1,0,0:0:0:0:
332,192,67197,1,0,0:0:0:0:
76,192,67822,1,0,0:0:0:0:
76,192,68447,1,0,0:0:0:0:
435,192,68760,128,0,70010:0:0:0:0:
332,192,70010,1,0,0:0:0:0:
230,192,70322,1,0,0:0:0:0:
230,192,70947,1,0,0:0:0:0:
486,192,71572,1,0,0:0:0:0:
486,192,72197,1,0,0:0:0:0:
25,192,72822,1,0,0:0:0:0:
25,192,73447,1,0,0:0:0:0:
281,192,74072,1,0,0:0:0:0:
281,192,74697,1,0,0:0:0:0:
128,192,75322,1,0,0:0:0:0:
128,192,75947,1,0,0:0:0:0:
384,192,76572,1,0,0:0:0:0:
384,192,77197,1,0,0:0:0:0:
128,192,77510,1,0,0:0:0:0:
435,192,78135,1,0,0:0:0:0:
76,192,78760,1,0,0:0:0:0:
486,192,79385,1,0,0:0:0:0:
25,192,80010,1,0,0:0:0:0:
