osu file format v14

[General]
AudioFilename: beyond.mp3
AudioLeadIn: 0
PreviewTime: 58310
Countdown: 0
SampleSet: Normal
StackLeniency: 0.7
Mode: 3
LetterboxInBreaks: 0
SpecialStyle: 0
WidescreenStoryboard: 1

[Editor]
Bookmarks: 12629
DistanceSpacing: 0.8
BeatDivisor: 4
GridSize: 8
TimelineZoom: 1

[Metadata]
Title:Flow (Part 1)
TitleUnicode:Flow (Part 1)
Artist:Various Artists
ArtistUnicode:Various Artists
Creator:awemanrank100
Version:Ayato x sak x Chigusa Tajima - Beyond the BLUE [boat]
Source:
Tags:4649ceynou DesKurisu Dessie Awang411 part pt. 1 one xarva Faded Viridian bms Kevin MacLeod Carefree Ayato × sak × 田島千種 Beyond the BLUE Ayato x sak x Chigusa Tajima REZZ x & Yultron Hell on Earth Salted Adventure Louie Zong dk rap to relax/study to donkey kong rap Josh Whelchel A Lost Dream ryo BRSのテーマ3 BRS no Thema 3 Theme 3 Black Rock Shooter HyuN 첫 번째 감정 First Emotion Kevin MacLeod Electro Cabello Moe Shop <3 moestep heart
BeatmapID:2426682
BeatmapSetID:1105209

[Difficulty]
HPDrainRate:7
CircleSize:10
OverallDifficulty:7
ApproachRate:5
SliderMultiplier:1.4
SliderTickRate:1

[Events]
//Background and Video events
0,0,"btb.png",0,0
//Break Periods
//Storyboard Layer 0 (Background)
//Storyboard Layer 1 (Fail)
//Storyboard Layer 2 (Pass)
//Storyboard Layer 3 (Foreground)
//Storyboard Layer 4 (Overlay)
//Storyboard Sound Samples

[TimingPoints]
1720,454.545454545455,4,1,0,20,1,0

[HitObjects]
332,192,1720,5,0,0:0:0:0:
25,192,2060,1,0,0:0:0:0:
128,192,2174,1,0,0:0:0:0:
128,192,2401,1,0,0:0:0:0:
486,192,2629,1,0,0:0:0:0:
384,192,2856,1,0,0:0:0:0:
281,192,3083,1,0,0:0:0:0:
179,192,3538,1,0,0:0:0:0:
76,192,3765,1,0,0:0:0:0:
384,192,4220,1,0,0:0:0:0:
435,192,4333,1,0,0:0:0:0:
486,192,4447,1,0,0:0:0:0:
25,192,4788,1,0,0:0:0:0:
128,192,4901,1,0,0:0:0:0:
128,192,5129,1,0,0:0:0:0:
486,192,5356,1,0,0:0:0:0:
332,192,5583,1,0,0:0:0:0:
281,192,5810,1,0,0:0:0:0:
128,192,6265,1,0,0:0:0:0:
230,192,6492,1,0,0:0:0:0:
25,192,7174,128,0,9901:0:0:0:0:
332,192,7174,1,0,0:0:0:0:
281,192,7515,1,0,0:0:0:0:
384,192,7629,1,0,0:0:0:0:
384,192,7856,1,0,0:0:0:0:
486,192,8083,1,0,0:0:0:0:
384,192,8310,1,0,0:0:0:0:
281,192,8538,1,0,0:0:0:0:
435,192,8992,1,0,0:0:0:0:
332,192,9220,1,0,0:0:0:0:
384,192,9674,1,0,0:0:0:0:
435,192,9788,1,0,0:0:0:0:
76,192,9901,128,0,11265:0:0:0:0:
486,192,9901,1,0,0:0:0:0:
332,192,10583,1,0,0:0:0:0:
179,192,11265,128,0,12401:0:0:0:0:
435,192,11265,1,0,0:0:0:0:
281,192,11947,1,0,0:0:0:0:
281,192,12629,1,0,0:0:0:0:
486,192,12629,1,0,0:0:0:0:
25,192,12970,1,0,0:0:0:0:
230,192,13083,1,0,0:0:0:0:
230,192,13310,1,0,0:0:0:0:
435,192,13538,1,0,0:0:0:0:
384,192,13765,1,0,0:0:0:0:
332,192,13992,1,0,0:0:0:0:
128,192,14447,1,0,0:0:0:0:
25,192,14674,1,0,0:0:0:0:
384,192,15129,1,0,0:0:0:0:
435,192,15242,1,0,0:0:0:0:
486,192,15356,1,0,0:0:0:0:
128,192,15697,1,0,0:0:0:0:
230,192,15810,1,0,0:0:0:0:
230,192,16038,1,0,0:0:0:0:
384,192,16265,1,0,0:0:0:0:
281,192,16492,1,0,0:0:0:0:
384,192,16720,1,0,0:0:0:0:
179,192,17174,1,0,0:0:0:0:
76,192,17401,1,0,0:0:0:0:
332,192,18083,1,0,0:0:0:0:
128,192,18424,1,0,0:0:0:0:
230,192,18538,1,0,0:0:0:0:
230,192,18765,1,0,0:0:0:0:
486,192,18992,1,0,0:0:0:0:
384,192,19220,1,0,0:0:0:0:
281,192,19447,1,0,0:0:0:0:
128,192,19901,1,0,0:0:0:0:
25,192,20129,1,0,0:0:0:0:
281,192,20810,128,0,21492:0:0:0:0:
332,192,21492,128,0,22174:0:0:0:0:
128,192,21720,1,0,0:0:0:0:
76,192,21947,1,0,0:0:0:0:
384,192,22174,128,0,22856:0:0:0:0:
25,192,22174,1,0,0:0:0:0:
435,192,22856,128,0,23538:0:0:0:0:
230,192,22856,1,0,0:0:0:0:
179,192,23538,1,0,0:0:0:0:
25,192,24220,1,0,0:0:0:0:
76,192,24447,1,0,0:0:0:0:
128,192,24674,1,0,0:0:0:0:
179,192,24901,1,0,0:0:0:0:
486,192,25356,1,0,0:0:0:0:
435,192,25470,1,0,0:0:0:0:
384,192,25583,1,0,0:0:0:0:
230,192,26265,1,0,0:0:0:0:
384,192,26720,1,0,0:0:0:0:
332,192,26833,1,0,0:0:0:0:
281,192,26947,1,0,0:0:0:0:
486,192,27629,1,0,0:0:0:0:
128,192,28083,1,0,0:0:0:0:
76,192,28197,1,0,0:0:0:0:
25,192,28310,1,0,0:0:0:0:
281,192,29674,1,0,0:0:0:0:
332,192,29901,1,0,0:0:0:0:
384,192,30129,1,0,0:0:0:0:
435,192,30356,1,0,0:0:0:0:
128,192,30810,1,0,0:0:0:0:
179,192,30924,1,0,0:0:0:0:
230,192,31038,1,0,0:0:0:0:
486,192,31492,1,0,0:0:0:0:
435,192,31606,1,0,0:0:0:0:
384,192,31720,1,0,0:0:0:0:
128,192,32401,1,0,0:0:0:0:
25,192,32629,1,0,0:0:0:0:
179,192,32856,1,0,0:0:0:0:
230,192,33083,1,0,0:0:0:0:
384,192,33538,1,0,0:0:0:0:
281,192,33765,1,0,0:0:0:0:
25,192,34447,1,0,0:0:0:0:
230,192,34447,1,0,0:0:0:0:
332,192,35129,1,0,0:0:0:0:
384,192,35356,1,0,0:0:0:0:
435,192,35583,1,0,0:0:0:0:
486,192,35810,1,0,0:0:0:0:
230,192,36265,1,0,0:0:0:0:
179,192,36379,1,0,0:0:0:0:
128,192,36492,1,0,0:0:0:0:
435,192,37174,1,0,0:0:0:0:
128,192,37629,1,0,0:0:0:0:
76,192,37742,1,0,0:0:0:0:
25,192,37856,1,0,0:0:0:0:
486,192,38538,1,0,0:0:0:0:
281,192,38879,1,0,0:0:0:0:
230,192,39220,1,0,0:0:0:0:
25,192,39560,1,0,0:0:0:0:
384,192,39674,1,0,0:0:0:0:
435,192,39788,1,0,0:0:0:0:
486,192,39901,1,0,0:0:0:0:
179,192,40356,1,0,0:0:0:0:
230,192,40583,1,0,0:0:0:0:
281,192,41720,1,0,0:0:0:0:
332,192,41833,1,0,0:0:0:0:
384,192,41947,1,0,0:0:0:0:
230,192,42174,1,0,0:0:0:0:
128,192,42401,1,0,0:0:0:0:
25,192,42629,1,0,0:0:0:0:
435,192,43083,1,0,0:0:0:0:
384,192,43197,1,0,0:0:0:0:
332,192,43310,1,0,0:0:0:0:
128,192,43538,1,0,0:0:0:0:
230,192,43765,1,0,0:0:0:0:
384,192,43992,1,0,0:0:0:0:
384,192,44333,1,0,0:0:0:0:
435,192,44447,1,0,0:0:0:0:
230,192,44674,1,0,0:0:0:0:
128,192,44901,1,0,0:0:0:0:
179,192,45129,1,0,0:0:0:0:
281,192,45356,1,0,0:0:0:0:
486,192,45356,1,0,0:0:0:0:
128,192,45810,1,0,0:0:0:0:
76,192,45924,1,0,0:0:0:0:
25,192,46038,1,0,0:0:0:0:
25,192,48083,128,0,48765:0:0:0:0:
230,192,48765,128,0,49447:0:0:0:0:
435,192,49447,128,0,49901:0:0:0:0:
384,192,49901,128,0,50356:0:0:0:0:
332,192,50356,128,0,50810:0:0:0:0:
281,192,50810,128,0,51265:0:0:0:0:
179,192,51265,128,0,51720:0:0:0:0:
128,192,51720,128,0,52174:0:0:0:0:
230,192,52174,128,0,52629:0:0:0:0:
384,192,53310,1,0,0:0:0:0:
435,192,53424,1,0,0:0:0:0:
486,192,53538,1,0,0:0:0:0:
128,192,54674,1,0,0:0:0:0:
179,192,54788,1,0,0:0:0:0:
230,192,54901,1,0,0:0:0:0:
332,192,55583,1,0,0:0:0:0:
332,192,55810,1,0,0:0:0:0:
384,192,56038,1,0,0:0:0:0:
486,192,56265,128,0,58083:0:0:0:0:
25,192,58310,128,0,58538:0:0:0:0:
128,192,58538,128,0,58765:0:0:0:0:
230,192,58765,1,0,0:0:0:0:
281,192,58992,1,0,0:0:0:0:
486,192,58992,1,0,0:0:0:0:
332,192,59447,1,0,0:0:0:0:
384,192,59560,1,0,0:0:0:0:
435,192,59674,1,0,0:0:0:0:
230,192,59901,1,0,0:0:0:0:
128,192,60129,1,0,0:0:0:0:
486,192,60356,128,0,60810:0:0:0:0:
128,192,60810,1,0,0:0:0:0:
76,192,60924,1,0,0:0:0:0:
25,192,61038,1,0,0:0:0:0:
384,192,61947,128,0,62401:0:0:0:0:
435,192,62401,1,0,0:0:0:0:
486,192,62629,1,0,0:0:0:0:
179,192,62856,1,0,0:0:0:0:
128,192,63083,1,0,0:0:0:0:
76,192,63310,1,0,0:0:0:0:
230,192,63538,1,0,0:0:0:0:
25,192,63765,1,0,0:0:0:0:
281,192,64447,128,0,64901:0:0:0:0:
76,192,64901,1,0,0:0:0:0:
128,192,65015,1,0,0:0:0:0:
179,192,65129,1,0,0:0:0:0:
486,192,65356,1,0,0:0:0:0:
281,192,65583,1,0,0:0:0:0:
25,192,65810,128,0,66265:0:0:0:0:
486,192,66265,1,0,0:0:0:0:
435,192,66379,1,0,0:0:0:0:
384,192,66492,1,0,0:0:0:0:
76,192,66947,1,0,0:0:0:0:
230,192,67174,128,0,67629:0:0:0:0:
435,192,67629,1,0,0:0:0:0:
384,192,67742,1,0,0:0:0:0:
332,192,67856,1,0,0:0:0:0:
25,192,68310,1,0,0:0:0:0:
179,192,68538,128,0,69220:0:0:0:0:
486,192,69220,1,0,0:0:0:0:
384,192,69447,1,0,0:0:0:0:
281,192,69674,1,0,0:0:0:0:
25,192,69901,128,0,70356:0:0:0:0:
332,192,70356,128,0,72174:0:0:0:0:
25,192,72629,1,0,0:0:0:0:
76,192,72856,1,0,0:0:0:0:
128,192,73083,1,0,0:0:0:0:
179,192,73310,1,0,0:0:0:0:
486,192,73538,1,0,0:0:0:0:
281,192,73992,1,0,0:0:0:0:
76,192,74220,1,0,0:0:0:0:
128,192,74447,1,0,0:0:0:0:
486,192,74674,1,0,0:0:0:0:
435,192,74901,1,0,0:0:0:0:
384,192,75129,1,0,0:0:0:0:
179,192,75356,1,0,0:0:0:0:
230,192,75507,1,0,0:0:0:0:
281,192,75962,1,0,0:0:0:0:
332,192,76038,1,0,0:0:0:0:
128,192,76265,1,0,0:0:0:0:
76,192,76492,1,0,0:0:0:0:
486,192,76720,1,0,0:0:0:0:
435,192,76947,1,0,0:0:0:0:
384,192,77174,1,0,0:0:0:0:
25,192,77401,1,0,0:0:0:0:
76,192,77629,1,0,0:0:0:0:
128,192,77856,1,0,0:0:0:0:
281,192,78083,1,0,0:0:0:0:
486,192,78235,1,0,0:0:0:0:
230,192,78538,1,0,0:0:0:0:
179,192,78765,1,0,0:0:0:0:
128,192,78992,1,0,0:0:0:0:
76,192,79220,1,0,0:0:0:0:
435,192,79447,1,0,0:0:0:0:
384,192,79674,1,0,0:0:0:0:
332,192,79901,1,0,0:0:0:0:
281,192,80129,1,0,0:0:0:0:
384,192,80356,1,0,0:0:0:0:
486,192,80583,1,0,0:0:0:0:
25,192,80810,1,0,0:0:0:0:
25,192,80924,1,0,0:0:0:0:
230,192,81151,1,0,0:0:0:0:
486,192,81492,1,0,0:0:0:0:
486,192,81606,1,0,0:0:0:0:
281,192,81833,1,0,0:0:0:0:
25,192,82174,1,0,0:0:0:0:
76,192,82401,1,0,0:0:0:0:
128,192,82629,1,0,0:0:0:0:
179,192,82856,128,0,83083:0:0:0:0:
230,192,83083,128,0,83310:0:0:0:0:
486,192,83310,1,0,0:0:0:0:
486,192,83538,128,0,83992:0:0:0:0:
435,192,83992,1,0,0:0:0:0:
384,192,84106,1,0,0:0:0:0:
332,192,84220,1,0,0:0:0:0:
230,192,84447,1,0,0:0:0:0:
179,192,84674,1,0,0:0:0:0:
281,192,84901,1,0,0:0:0:0:
128,192,85356,1,0,0:0:0:0:
76,192,85470,1,0,0:0:0:0:
25,192,85583,1,0,0:0:0:0:
384,192,86492,128,0,86947:0:0:0:0:
435,192,86947,1,0,0:0:0:0:
486,192,87174,1,0,0:0:0:0:
230,192,87401,1,0,0:0:0:0:
179,192,87629,1,0,0:0:0:0:
128,192,87856,1,0,0:0:0:0:
76,192,88083,1,0,0:0:0:0:
25,192,88310,1,0,0:0:0:0:
281,192,88992,1,0,0:0:0:0:
486,192,88992,1,0,0:0:0:0:
128,192,89447,1,0,0:0:0:0:
179,192,89560,1,0,0:0:0:0:
230,192,89674,1,0,0:0:0:0:
486,192,89901,1,0,0:0:0:0:
384,192,90129,1,0,0:0:0:0:
76,192,90356,128,0,90810:0:0:0:0:
435,192,90810,1,0,0:0:0:0:
384,192,90924,1,0,0:0:0:0:
332,192,91038,1,0,0:0:0:0:
25,192,91492,1,0,0:0:0:0:
179,192,91720,128,0,92174:0:0:0:0:
384,192,92174,1,0,0:0:0:0:
332,192,92288,1,0,0:0:0:0:
281,192,92401,1,0,0:0:0:0:
76,192,92856,1,0,0:0:0:0:
435,192,93083,128,0,93538:0:0:0:0:
384,192,93765,1,0,0:0:0:0:
332,192,93992,1,0,0:0:0:0:
281,192,94220,1,0,0:0:0:0:
179,192,94447,1,0,0:0:0:0:
179,192,94788,1,0,0:0:0:0:
230,192,94901,1,0,0:0:0:0:
76,192,95129,1,0,0:0:0:0:
435,192,95356,1,0,0:0:0:0:
384,192,95583,1,0,0:0:0:0:
332,192,95810,1,0,0:0:0:0:
486,192,96038,1,0,0:0:0:0:
384,192,96265,1,0,0:0:0:0:
281,192,96492,1,0,0:0:0:0:
128,192,96720,1,0,0:0:0:0:
179,192,96947,1,0,0:0:0:0:
230,192,97174,1,0,0:0:0:0:
384,192,98083,1,0,0:0:0:0:
332,192,98310,1,0,0:0:0:0:
281,192,98538,1,0,0:0:0:0:
230,192,99220,128,0,99901:0:0:0:0:
25,192,99901,1,0,0:0:0:0:
384,192,100356,1,0,0:0:0:0:
486,192,100583,1,0,0:0:0:0:
486,192,100810,1,0,0:0:0:0:
384,192,101038,1,0,0:0:0:0:
281,192,101265,1,0,0:0:0:0:
179,192,101720,1,0,0:0:0:0:
76,192,101947,1,0,0:0:0:0:
384,192,102401,1,0,0:0:0:0:
435,192,102515,1,0,0:0:0:0:
486,192,102629,128,0,102970:0:0:0:0:
25,192,102970,128,0,103310:0:0:0:0:
230,192,103310,128,0,103538:0:0:0:0:
384,192,103538,1,0,0:0:0:0:
332,192,103765,1,0,0:0:0:0:
281,192,103992,1,0,0:0:0:0:
435,192,104447,1,0,0:0:0:0:
486,192,104674,1,0,0:0:0:0:
332,192,105356,5,0,0:0:0:0:
25,192,105697,1,0,0:0:0:0:
128,192,105810,1,0,0:0:0:0:
128,192,106038,1,0,0:0:0:0:
486,192,106265,1,0,0:0:0:0:
384,192,106492,1,0,0:0:0:0:
281,192,106720,1,0,0:0:0:0:
179,192,107174,1,0,0:0:0:0:
76,192,107401,1,0,0:0:0:0:
384,192,107856,1,0,0:0:0:0:
435,192,107970,1,0,0:0:0:0:
486,192,108083,128,0,108765:0:0:0:0:
25,192,108765,128,0,109447:0:0:0:0:
435,192,109447,128,0,110810:0:0:0:0:
76,192,110810,128,0,112174:0:0:0:0:
230,192,110810,128,0,112174:0:0:0:0:
281,192,112174,128,0,113538:0:0:0:0:
486,192,113538,128,0,116265:0:0:0:0:
25,192,113538,128,0,116265:0:0:0:0:
