osu file format v14

[General]
AudioFilename: 10. XROSS DIMENSION.mp3
AudioLeadIn: 0
PreviewTime: -1
Countdown: 0
SampleSet: None
StackLeniency: 0.7
Mode: 3
LetterboxInBreaks: 0
SpecialStyle: 0
WidescreenStoryboard: 0

[Editor]
DistanceSpacing: 0.8
BeatDivisor: 1
GridSize: 32
TimelineZoom: 1

[Metadata]
Title:Fish A La Carte
TitleUnicode:Fish A La Carte
Artist:Various Artists
ArtistUnicode:Various Artists
Creator:Yellyfish
Version:Xross Dimension
Source:
Tags:Stepmania
BeatmapID:1117104
BeatmapSetID:526427

[Difficulty]
HPDrainRate:7
CircleSize:4
OverallDifficulty:8
ApproachRate:5
SliderMultiplier:1.4
SliderTickRate:1

[Events]
//Background and Video events
0,0,"10. XROSS DIMENSION.jpg",0,0
//Break Periods
//Storyboard Layer 0 (Background)
//Storyboard Layer 1 (Fail)
//Storyboard Layer 2 (Pass)
//Storyboard Layer 3 (Foreground)
//Storyboard Sound Samples

[TimingPoints]
680,166.667,4,1,0,0,1,0

[HitObjects]
64,192,2680,5,0,0:0:0:0:
192,192,2680,1,0,0:0:0:0:
320,192,2680,1,0,0:0:0:0:
448,192,2680,1,0,0:0:0:0:
64,192,2763,1,0,0:0:0:0:
320,192,2763,1,0,0:0:0:0:
192,192,2846,1,0,0:0:0:0:
448,192,2846,1,0,0:0:0:0:
320,192,2930,1,0,0:0:0:0:
192,192,3013,1,0,0:0:0:0:
448,192,3013,1,0,0:0:0:0:
64,192,3096,1,0,0:0:0:0:
320,192,3096,1,0,0:0:0:0:
192,192,3180,1,0,0:0:0:0:
448,192,3180,1,0,0:0:0:0:
320,192,3263,1,0,0:0:0:0:
64,192,3346,1,0,0:0:0:0:
192,192,3346,1,0,0:0:0:0:
64,192,3430,1,0,0:0:0:0:
320,192,3430,1,0,0:0:0:0:
192,192,3513,1,0,0:0:0:0:
448,192,3513,1,0,0:0:0:0:
320,192,3596,1,0,0:0:0:0:
192,192,3680,1,0,0:0:0:0:
448,192,3680,1,0,0:0:0:0:
64,192,3763,1,0,0:0:0:0:
320,192,3763,1,0,0:0:0:0:
192,192,3846,1,0,0:0:0:0:
448,192,3846,1,0,0:0:0:0:
320,192,3930,1,0,0:0:0:0:
64,192,4013,1,0,0:0:0:0:
192,192,4013,1,0,0:0:0:0:
448,192,4013,1,0,0:0:0:0:
64,192,4096,1,0,0:0:0:0:
192,192,4096,1,0,0:0:0:0:
320,192,4180,1,0,0:0:0:0:
448,192,4180,1,0,0:0:0:0:
320,192,4263,1,0,0:0:0:0:
64,192,4346,1,0,0:0:0:0:
192,192,4346,1,0,0:0:0:0:
64,192,4430,1,0,0:0:0:0:
320,192,4430,1,0,0:0:0:0:
192,192,4513,1,0,0:0:0:0:
448,192,4513,1,0,0:0:0:0:
320,192,4596,1,0,0:0:0:0:
192,192,4680,1,0,0:0:0:0:
448,192,4680,1,0,0:0:0:0:
64,192,4763,1,0,0:0:0:0:
320,192,4763,1,0,0:0:0:0:
192,192,4846,1,0,0:0:0:0:
448,192,4846,1,0,0:0:0:0:
320,192,4930,1,0,0:0:0:0:
64,192,5013,1,0,0:0:0:0:
448,0,5013,128,0,5263:1:0:0:0:
64,192,5346,1,0,0:0:0:0:
192,192,5346,1,0,0:0:0:0:
320,192,5346,1,0,0:0:0:0:
448,192,5346,1,0,0:0:0:0:
64,192,5430,1,0,0:0:0:0:
320,192,5430,1,0,0:0:0:0:
192,192,5513,1,0,0:0:0:0:
448,192,5513,1,0,0:0:0:0:
320,192,5596,1,0,0:0:0:0:
192,192,5680,1,0,0:0:0:0:
448,192,5680,1,0,0:0:0:0:
64,192,5763,1,0,0:0:0:0:
320,192,5763,1,0,0:0:0:0:
192,192,5846,1,0,0:0:0:0:
448,192,5846,1,0,0:0:0:0:
320,192,5930,1,0,0:0:0:0:
64,192,6013,1,0,0:0:0:0:
192,192,6013,1,0,0:0:0:0:
64,192,6096,1,0,0:0:0:0:
320,192,6096,1,0,0:0:0:0:
192,192,6180,1,0,0:0:0:0:
448,192,6180,1,0,0:0:0:0:
320,192,6263,1,0,0:0:0:0:
192,192,6346,1,0,0:0:0:0:
448,192,6346,1,0,0:0:0:0:
64,192,6430,1,0,0:0:0:0:
320,192,6430,1,0,0:0:0:0:
320,192,6513,1,0,0:0:0:0:
448,192,6513,1,0,0:0:0:0:
192,192,6596,1,0,0:0:0:0:
64,192,6680,1,0,0:0:0:0:
320,192,6680,1,0,0:0:0:0:
448,192,6680,1,0,0:0:0:0:
64,192,6763,1,0,0:0:0:0:
192,192,6763,1,0,0:0:0:0:
192,192,6846,1,0,0:0:0:0:
448,192,6846,1,0,0:0:0:0:
320,192,6930,1,0,0:0:0:0:
64,192,7013,1,0,0:0:0:0:
192,192,7013,1,0,0:0:0:0:
64,192,7096,1,0,0:0:0:0:
320,192,7096,1,0,0:0:0:0:
192,192,7180,1,0,0:0:0:0:
448,192,7180,1,0,0:0:0:0:
320,192,7263,1,0,0:0:0:0:
192,192,7346,1,0,0:0:0:0:
448,192,7346,1,0,0:0:0:0:
64,192,7430,1,0,0:0:0:0:
320,192,7430,1,0,0:0:0:0:
192,192,7513,1,0,0:0:0:0:
448,192,7513,1,0,0:0:0:0:
320,192,7596,1,0,0:0:0:0:
64,192,7680,1,0,0:0:0:0:
192,192,7680,1,0,0:0:0:0:
448,0,7680,128,0,7930:1:0:0:0:
64,192,8013,1,0,0:0:0:0:
192,192,8013,1,0,0:0:0:0:
320,192,8013,1,0,0:0:0:0:
448,192,8013,1,0,0:0:0:0:
64,192,8096,1,0,0:0:0:0:
320,192,8096,1,0,0:0:0:0:
192,192,8180,1,0,0:0:0:0:
448,192,8180,1,0,0:0:0:0:
320,192,8263,1,0,0:0:0:0:
192,192,8346,1,0,0:0:0:0:
448,192,8346,1,0,0:0:0:0:
64,192,8430,1,0,0:0:0:0:
320,192,8430,1,0,0:0:0:0:
192,192,8513,1,0,0:0:0:0:
448,192,8513,1,0,0:0:0:0:
320,192,8596,1,0,0:0:0:0:
64,192,8680,1,0,0:0:0:0:
192,192,8680,1,0,0:0:0:0:
64,192,8763,1,0,0:0:0:0:
320,192,8763,1,0,0:0:0:0:
192,192,8846,1,0,0:0:0:0:
448,192,8846,1,0,0:0:0:0:
320,192,8930,1,0,0:0:0:0:
192,192,9013,1,0,0:0:0:0:
448,192,9013,1,0,0:0:0:0:
64,192,9096,1,0,0:0:0:0:
320,192,9096,1,0,0:0:0:0:
192,192,9180,1,0,0:0:0:0:
448,192,9180,1,0,0:0:0:0:
320,192,9263,1,0,0:0:0:0:
64,192,9346,1,0,0:0:0:0:
192,192,9346,1,0,0:0:0:0:
448,192,9346,1,0,0:0:0:0:
64,192,9430,1,0,0:0:0:0:
320,192,9430,1,0,0:0:0:0:
192,192,9513,1,0,0:0:0:0:
448,192,9513,1,0,0:0:0:0:
320,192,9596,1,0,0:0:0:0:
64,192,9680,1,0,0:0:0:0:
192,192,9680,1,0,0:0:0:0:
64,192,9763,1,0,0:0:0:0:
320,192,9763,1,0,0:0:0:0:
192,192,9846,1,0,0:0:0:0:
448,192,9846,1,0,0:0:0:0:
320,192,9930,1,0,0:0:0:0:
192,192,10013,1,0,0:0:0:0:
448,192,10013,1,0,0:0:0:0:
64,192,10096,1,0,0:0:0:0:
320,192,10096,1,0,0:0:0:0:
192,192,10180,1,0,0:0:0:0:
448,192,10180,1,0,0:0:0:0:
320,192,10263,1,0,0:0:0:0:
64,192,10346,1,0,0:0:0:0:
448,0,10346,128,0,10596:1:0:0:0:
64,192,10680,1,0,0:0:0:0:
192,192,10680,1,0,0:0:0:0:
320,192,10680,1,0,0:0:0:0:
448,192,10680,1,0,0:0:0:0:
64,192,10763,1,0,0:0:0:0:
320,192,10763,1,0,0:0:0:0:
192,192,10846,1,0,0:0:0:0:
448,192,10846,1,0,0:0:0:0:
320,192,10930,1,0,0:0:0:0:
192,192,11013,1,0,0:0:0:0:
448,192,11013,1,0,0:0:0:0:
64,192,11096,1,0,0:0:0:0:
320,192,11096,1,0,0:0:0:0:
192,192,11180,1,0,0:0:0:0:
448,192,11180,1,0,0:0:0:0:
320,192,11263,1,0,0:0:0:0:
64,192,11346,1,0,0:0:0:0:
192,192,11346,1,0,0:0:0:0:
64,192,11430,1,0,0:0:0:0:
320,192,11430,1,0,0:0:0:0:
192,192,11513,1,0,0:0:0:0:
448,192,11513,1,0,0:0:0:0:
320,192,11596,1,0,0:0:0:0:
192,192,11680,1,0,0:0:0:0:
448,192,11680,1,0,0:0:0:0:
64,192,11763,1,0,0:0:0:0:
320,192,11763,1,0,0:0:0:0:
192,192,11846,1,0,0:0:0:0:
448,192,11846,1,0,0:0:0:0:
320,192,11930,1,0,0:0:0:0:
64,192,12013,1,0,0:0:0:0:
192,192,12013,1,0,0:0:0:0:
448,192,12013,1,0,0:0:0:0:
64,192,12096,1,0,0:0:0:0:
320,192,12096,1,0,0:0:0:0:
192,192,12180,1,0,0:0:0:0:
448,192,12180,1,0,0:0:0:0:
320,192,12263,1,0,0:0:0:0:
64,192,12346,1,0,0:0:0:0:
192,192,12346,1,0,0:0:0:0:
64,192,12430,1,0,0:0:0:0:
320,192,12430,1,0,0:0:0:0:
192,192,12513,1,0,0:0:0:0:
448,192,12513,1,0,0:0:0:0:
320,192,12596,1,0,0:0:0:0:
192,192,12680,1,0,0:0:0:0:
448,192,12680,1,0,0:0:0:0:
64,192,12763,1,0,0:0:0:0:
320,192,12763,1,0,0:0:0:0:
192,192,12846,1,0,0:0:0:0:
448,192,12846,1,0,0:0:0:0:
320,192,12930,1,0,0:0:0:0:
448,0,13013,128,0,13263:1:0:0:0:
64,192,13346,1,0,0:0:0:0:
192,192,13346,1,0,0:0:0:0:
320,192,13346,1,0,0:0:0:0:
448,192,13346,1,0,0:0:0:0:
192,192,13430,1,0,0:0:0:0:
320,192,13430,1,0,0:0:0:0:
64,192,13513,1,0,0:0:0:0:
448,192,13513,1,0,0:0:0:0:
320,192,13596,1,0,0:0:0:0:
192,192,13680,1,0,0:0:0:0:
448,192,13680,1,0,0:0:0:0:
64,192,13763,1,0,0:0:0:0:
320,192,13763,1,0,0:0:0:0:
192,192,13846,1,0,0:0:0:0:
448,192,13846,1,0,0:0:0:0:
320,192,13930,1,0,0:0:0:0:
64,192,14013,1,0,0:0:0:0:
192,192,14013,1,0,0:0:0:0:
192,192,14096,1,0,0:0:0:0:
320,192,14096,1,0,0:0:0:0:
64,192,14180,1,0,0:0:0:0:
448,192,14180,1,0,0:0:0:0:
320,192,14263,1,0,0:0:0:0:
192,192,14346,1,0,0:0:0:0:
448,192,14346,1,0,0:0:0:0:
64,192,14430,1,0,0:0:0:0:
320,192,14430,1,0,0:0:0:0:
192,192,14513,1,0,0:0:0:0:
448,192,14513,1,0,0:0:0:0:
320,192,14596,1,0,0:0:0:0:
64,192,14680,1,0,0:0:0:0:
192,192,14680,1,0,0:0:0:0:
448,192,14680,1,0,0:0:0:0:
64,192,14763,1,0,0:0:0:0:
320,192,14763,1,0,0:0:0:0:
192,192,14846,1,0,0:0:0:0:
448,192,14846,1,0,0:0:0:0:
320,192,14930,1,0,0:0:0:0:
64,192,15013,1,0,0:0:0:0:
192,192,15013,1,0,0:0:0:0:
192,192,15096,1,0,0:0:0:0:
320,192,15096,1,0,0:0:0:0:
64,192,15180,1,0,0:0:0:0:
448,192,15180,1,0,0:0:0:0:
320,192,15263,1,0,0:0:0:0:
192,192,15346,1,0,0:0:0:0:
448,192,15346,1,0,0:0:0:0:
64,192,15430,1,0,0:0:0:0:
320,192,15430,1,0,0:0:0:0:
192,192,15513,1,0,0:0:0:0:
448,192,15513,1,0,0:0:0:0:
320,192,15596,1,0,0:0:0:0:
64,192,15680,1,0,0:0:0:0:
448,0,15680,128,0,15930:1:0:0:0:
64,192,16013,1,0,0:0:0:0:
192,192,16013,1,0,0:0:0:0:
320,192,16013,1,0,0:0:0:0:
448,192,16013,1,0,0:0:0:0:
192,192,16096,1,0,0:0:0:0:
448,192,16096,1,0,0:0:0:0:
64,192,16180,1,0,0:0:0:0:
320,192,16180,1,0,0:0:0:0:
192,192,16263,1,0,0:0:0:0:
320,192,16346,1,0,0:0:0:0:
448,192,16346,1,0,0:0:0:0:
192,192,16430,1,0,0:0:0:0:
320,192,16430,1,0,0:0:0:0:
64,192,16513,1,0,0:0:0:0:
448,192,16513,1,0,0:0:0:0:
320,192,16596,1,0,0:0:0:0:
192,192,16680,1,0,0:0:0:0:
448,192,16680,1,0,0:0:0:0:
64,192,16763,1,0,0:0:0:0:
320,192,16763,1,0,0:0:0:0:
192,192,16846,1,0,0:0:0:0:
448,192,16846,1,0,0:0:0:0:
320,192,16930,1,0,0:0:0:0:
64,192,17013,1,0,0:0:0:0:
192,192,17013,1,0,0:0:0:0:
320,192,17096,1,0,0:0:0:0:
448,192,17096,1,0,0:0:0:0:
64,192,17180,1,0,0:0:0:0:
192,192,17180,1,0,0:0:0:0:
320,192,17263,1,0,0:0:0:0:
64,192,17346,1,0,0:0:0:0:
192,192,17346,1,0,0:0:0:0:
448,192,17346,1,0,0:0:0:0:
192,192,17430,1,0,0:0:0:0:
320,192,17430,1,0,0:0:0:0:
64,192,17513,1,0,0:0:0:0:
448,192,17513,1,0,0:0:0:0:
320,192,17596,1,0,0:0:0:0:
192,192,17680,1,0,0:0:0:0:
448,192,17680,1,0,0:0:0:0:
64,192,17763,1,0,0:0:0:0:
320,192,17763,1,0,0:0:0:0:
192,192,17846,1,0,0:0:0:0:
448,192,17846,1,0,0:0:0:0:
320,192,17930,1,0,0:0:0:0:
192,192,18013,1,0,0:0:0:0:
448,192,18013,1,0,0:0:0:0:
64,192,18096,1,0,0:0:0:0:
320,192,18096,1,0,0:0:0:0:
192,192,18180,1,0,0:0:0:0:
448,192,18180,1,0,0:0:0:0:
64,192,18263,1,0,0:0:0:0:
192,192,18346,1,0,0:0:0:0:
448,0,18346,128,0,18596:1:0:0:0:
64,192,18513,1,0,0:0:0:0:
64,192,18680,1,0,0:0:0:0:
192,192,18680,1,0,0:0:0:0:
320,192,18680,1,0,0:0:0:0:
448,192,18680,1,0,0:0:0:0:
192,192,18763,1,0,0:0:0:0:
448,192,18763,1,0,0:0:0:0:
64,192,18846,1,0,0:0:0:0:
320,192,18846,1,0,0:0:0:0:
192,192,18930,1,0,0:0:0:0:
320,192,19013,1,0,0:0:0:0:
448,192,19013,1,0,0:0:0:0:
192,192,19096,1,0,0:0:0:0:
320,192,19096,1,0,0:0:0:0:
64,192,19180,1,0,0:0:0:0:
192,192,19180,1,0,0:0:0:0:
448,192,19263,1,0,0:0:0:0:
192,192,19346,1,0,0:0:0:0:
320,192,19346,1,0,0:0:0:0:
64,192,19430,1,0,0:0:0:0:
192,192,19430,1,0,0:0:0:0:
64,192,19513,1,0,0:0:0:0:
448,192,19513,1,0,0:0:0:0:
320,192,19596,1,0,0:0:0:0:
192,192,19680,1,0,0:0:0:0:
448,192,19680,1,0,0:0:0:0:
64,192,19763,1,0,0:0:0:0:
320,192,19763,1,0,0:0:0:0:
192,192,19846,1,0,0:0:0:0:
448,192,19846,1,0,0:0:0:0:
320,192,19930,1,0,0:0:0:0:
64,192,20013,1,0,0:0:0:0:
192,192,20013,1,0,0:0:0:0:
448,192,20013,1,0,0:0:0:0:
64,192,20096,1,0,0:0:0:0:
448,192,20096,1,0,0:0:0:0:
192,192,20180,1,0,0:0:0:0:
320,192,20180,1,0,0:0:0:0:
448,192,20263,1,0,0:0:0:0:
64,192,20346,1,0,0:0:0:0:
320,192,20346,1,0,0:0:0:0:
192,192,20430,1,0,0:0:0:0:
448,192,20430,1,0,0:0:0:0:
64,192,20513,1,0,0:0:0:0:
320,192,20513,1,0,0:0:0:0:
192,192,20596,1,0,0:0:0:0:
64,192,20680,1,0,0:0:0:0:
320,192,20680,1,0,0:0:0:0:
192,192,20763,1,0,0:0:0:0:
448,192,20763,1,0,0:0:0:0:
64,192,20846,1,0,0:0:0:0:
320,192,20846,1,0,0:0:0:0:
192,192,20930,1,0,0:0:0:0:
64,192,21013,1,0,0:0:0:0:
448,0,21013,128,0,21263:1:0:0:0:
64,192,21346,1,0,0:0:0:0:
192,192,21346,1,0,0:0:0:0:
320,192,21346,1,0,0:0:0:0:
448,192,21346,1,0,0:0:0:0:
64,192,21430,1,0,0:0:0:0:
320,192,21430,1,0,0:0:0:0:
192,192,21513,1,0,0:0:0:0:
448,192,21513,1,0,0:0:0:0:
320,192,21596,1,0,0:0:0:0:
192,192,21680,1,0,0:0:0:0:
448,192,21680,1,0,0:0:0:0:
64,192,21763,1,0,0:0:0:0:
320,192,21763,1,0,0:0:0:0:
192,192,21846,1,0,0:0:0:0:
448,192,21846,1,0,0:0:0:0:
320,192,21930,1,0,0:0:0:0:
64,192,22013,1,0,0:0:0:0:
192,192,22013,1,0,0:0:0:0:
448,192,22013,1,0,0:0:0:0:
64,192,22096,1,0,0:0:0:0:
192,192,22096,1,0,0:0:0:0:
320,192,22180,1,0,0:0:0:0:
448,192,22180,1,0,0:0:0:0:
192,192,22263,1,0,0:0:0:0:
64,192,22346,1,0,0:0:0:0:
320,192,22346,1,0,0:0:0:0:
192,192,22430,1,0,0:0:0:0:
448,192,22430,1,0,0:0:0:0:
64,192,22513,1,0,0:0:0:0:
320,192,22513,1,0,0:0:0:0:
192,192,22596,1,0,0:0:0:0:
64,192,22680,1,0,0:0:0:0:
320,192,22680,1,0,0:0:0:0:
448,192,22680,1,0,0:0:0:0:
192,192,22763,1,0,0:0:0:0:
320,192,22763,1,0,0:0:0:0:
64,192,22846,1,0,0:0:0:0:
448,192,22846,1,0,0:0:0:0:
320,192,22930,1,0,0:0:0:0:
64,192,23013,1,0,0:0:0:0:
192,192,23013,1,0,0:0:0:0:
448,192,23013,1,0,0:0:0:0:
320,192,23096,1,0,0:0:0:0:
448,192,23096,1,0,0:0:0:0:
64,192,23180,1,0,0:0:0:0:
192,192,23180,1,0,0:0:0:0:
320,192,23263,1,0,0:0:0:0:
64,192,23346,1,0,0:0:0:0:
192,192,23346,1,0,0:0:0:0:
448,192,23346,1,0,0:0:0:0:
64,192,23430,1,0,0:0:0:0:
320,192,23430,1,0,0:0:0:0:
192,192,23513,1,0,0:0:0:0:
448,192,23513,1,0,0:0:0:0:
320,192,23596,1,0,0:0:0:0:
64,192,23680,1,0,0:0:0:0:
192,192,23680,1,0,0:0:0:0:
448,192,23680,1,0,0:0:0:0:
192,192,23763,1,0,0:0:0:0:
448,192,23763,1,0,0:0:0:0:
64,192,23846,1,0,0:0:0:0:
320,192,23846,1,0,0:0:0:0:
64,192,24013,1,0,0:0:0:0:
320,192,24013,1,0,0:0:0:0:
448,192,24013,1,0,0:0:0:0:
192,192,24096,1,0,0:0:0:0:
320,192,24096,1,0,0:0:0:0:
64,192,24180,1,0,0:0:0:0:
448,192,24180,1,0,0:0:0:0:
192,192,24263,1,0,0:0:0:0:
64,192,24346,1,0,0:0:0:0:
320,192,24346,1,0,0:0:0:0:
448,192,24346,1,0,0:0:0:0:
320,192,24430,1,0,0:0:0:0:
448,192,24430,1,0,0:0:0:0:
64,192,24513,1,0,0:0:0:0:
192,192,24513,1,0,0:0:0:0:
320,192,24596,1,0,0:0:0:0:
64,192,24680,1,0,0:0:0:0:
192,192,24680,1,0,0:0:0:0:
448,192,24680,1,0,0:0:0:0:
192,192,24763,1,0,0:0:0:0:
320,192,24763,1,0,0:0:0:0:
64,192,24846,1,0,0:0:0:0:
448,192,24846,1,0,0:0:0:0:
320,192,24930,1,0,0:0:0:0:
64,192,25013,1,0,0:0:0:0:
192,192,25013,1,0,0:0:0:0:
448,192,25013,1,0,0:0:0:0:
192,192,25096,1,0,0:0:0:0:
320,192,25096,1,0,0:0:0:0:
64,192,25180,1,0,0:0:0:0:
448,192,25180,1,0,0:0:0:0:
192,192,25263,1,0,0:0:0:0:
64,192,25346,1,0,0:0:0:0:
320,192,25346,1,0,0:0:0:0:
448,192,25346,1,0,0:0:0:0:
320,192,25430,1,0,0:0:0:0:
448,192,25430,1,0,0:0:0:0:
64,192,25513,1,0,0:0:0:0:
192,192,25513,1,0,0:0:0:0:
320,192,25596,1,0,0:0:0:0:
64,192,25680,1,0,0:0:0:0:
192,192,25680,1,0,0:0:0:0:
448,192,25680,1,0,0:0:0:0:
192,192,25763,1,0,0:0:0:0:
320,192,25763,1,0,0:0:0:0:
64,192,25846,1,0,0:0:0:0:
448,192,25846,1,0,0:0:0:0:
320,192,25930,1,0,0:0:0:0:
64,192,26013,1,0,0:0:0:0:
192,192,26013,1,0,0:0:0:0:
448,192,26013,1,0,0:0:0:0:
192,192,26096,1,0,0:0:0:0:
320,192,26096,1,0,0:0:0:0:
64,192,26180,1,0,0:0:0:0:
448,192,26180,1,0,0:0:0:0:
192,192,26263,1,0,0:0:0:0:
64,192,26346,1,0,0:0:0:0:
320,192,26346,1,0,0:0:0:0:
448,0,26346,128,0,26596:1:0:0:0:
64,192,26680,1,0,0:0:0:0:
192,192,26680,1,0,0:0:0:0:
320,192,26680,1,0,0:0:0:0:
192,192,26763,1,0,0:0:0:0:
448,192,26763,1,0,0:0:0:0:
64,192,26846,1,0,0:0:0:0:
320,192,26846,1,0,0:0:0:0:
192,192,26930,1,0,0:0:0:0:
64,192,27013,1,0,0:0:0:0:
320,192,27013,1,0,0:0:0:0:
448,192,27013,1,0,0:0:0:0:
320,192,27096,1,0,0:0:0:0:
448,192,27096,1,0,0:0:0:0:
64,192,27180,1,0,0:0:0:0:
192,192,27180,1,0,0:0:0:0:
448,192,27263,1,0,0:0:0:0:
64,192,27346,1,0,0:0:0:0:
192,192,27346,1,0,0:0:0:0:
320,192,27346,1,0,0:0:0:0:
192,192,27430,1,0,0:0:0:0:
320,192,27430,1,0,0:0:0:0:
64,192,27513,1,0,0:0:0:0:
448,192,27513,1,0,0:0:0:0:
320,192,27596,1,0,0:0:0:0:
64,192,27680,1,0,0:0:0:0:
192,192,27680,1,0,0:0:0:0:
448,192,27680,1,0,0:0:0:0:
64,192,27763,1,0,0:0:0:0:
320,192,27763,1,0,0:0:0:0:
192,192,27846,1,0,0:0:0:0:
448,192,27846,1,0,0:0:0:0:
320,192,27930,1,0,0:0:0:0:
64,192,28013,1,0,0:0:0:0:
192,192,28013,1,0,0:0:0:0:
448,192,28013,1,0,0:0:0:0:
320,192,28096,1,0,0:0:0:0:
448,192,28096,1,0,0:0:0:0:
64,192,28180,1,0,0:0:0:0:
192,192,28180,1,0,0:0:0:0:
448,192,28263,1,0,0:0:0:0:
64,192,28346,1,0,0:0:0:0:
192,192,28346,1,0,0:0:0:0:
320,192,28346,1,0,0:0:0:0:
192,192,28430,1,0,0:0:0:0:
320,192,28430,1,0,0:0:0:0:
64,192,28513,1,0,0:0:0:0:
448,192,28513,1,0,0:0:0:0:
320,192,28596,1,0,0:0:0:0:
64,192,28680,1,0,0:0:0:0:
192,192,28680,1,0,0:0:0:0:
448,192,28680,1,0,0:0:0:0:
64,192,28763,1,0,0:0:0:0:
320,192,28763,1,0,0:0:0:0:
192,192,28846,1,0,0:0:0:0:
448,192,28846,1,0,0:0:0:0:
320,192,28930,1,0,0:0:0:0:
64,192,29013,1,0,0:0:0:0:
192,192,29013,1,0,0:0:0:0:
448,0,29013,128,0,29263:1:0:0:0:
64,192,29346,1,0,0:0:0:0:
192,192,29346,1,0,0:0:0:0:
320,192,29346,1,0,0:0:0:0:
192,192,29430,1,0,0:0:0:0:
448,192,29430,1,0,0:0:0:0:
64,192,29513,1,0,0:0:0:0:
320,192,29513,1,0,0:0:0:0:
192,192,29596,1,0,0:0:0:0:
64,192,29680,1,0,0:0:0:0:
320,192,29680,1,0,0:0:0:0:
448,192,29680,1,0,0:0:0:0:
192,192,29763,1,0,0:0:0:0:
448,192,29763,1,0,0:0:0:0:
64,192,29846,1,0,0:0:0:0:
320,192,29846,1,0,0:0:0:0:
448,192,29930,1,0,0:0:0:0:
64,192,30013,1,0,0:0:0:0:
192,192,30013,1,0,0:0:0:0:
320,192,30013,1,0,0:0:0:0:
192,192,30096,1,0,0:0:0:0:
320,192,30096,1,0,0:0:0:0:
64,192,30180,1,0,0:0:0:0:
448,192,30180,1,0,0:0:0:0:
320,192,30263,1,0,0:0:0:0:
64,192,30346,1,0,0:0:0:0:
192,192,30346,1,0,0:0:0:0:
448,192,30346,1,0,0:0:0:0:
64,192,30430,1,0,0:0:0:0:
320,192,30430,1,0,0:0:0:0:
192,192,30513,1,0,0:0:0:0:
448,192,30513,1,0,0:0:0:0:
320,192,30596,1,0,0:0:0:0:
64,192,30680,1,0,0:0:0:0:
192,192,30680,1,0,0:0:0:0:
448,192,30680,1,0,0:0:0:0:
192,192,30763,1,0,0:0:0:0:
320,192,30763,1,0,0:0:0:0:
64,192,30846,1,0,0:0:0:0:
320,192,30846,1,0,0:0:0:0:
448,192,30930,1,0,0:0:0:0:
64,192,31013,1,0,0:0:0:0:
192,192,31013,1,0,0:0:0:0:
320,192,31013,1,0,0:0:0:0:
192,192,31096,1,0,0:0:0:0:
320,192,31096,1,0,0:0:0:0:
64,192,31180,1,0,0:0:0:0:
448,192,31180,1,0,0:0:0:0:
320,192,31263,1,0,0:0:0:0:
64,192,31346,1,0,0:0:0:0:
192,192,31346,1,0,0:0:0:0:
448,192,31346,1,0,0:0:0:0:
64,192,31430,1,0,0:0:0:0:
320,192,31430,1,0,0:0:0:0:
192,192,31513,1,0,0:0:0:0:
448,192,31513,1,0,0:0:0:0:
320,192,31596,1,0,0:0:0:0:
64,192,31680,1,0,0:0:0:0:
192,192,31680,1,0,0:0:0:0:
448,0,31680,128,0,31930:1:0:0:0:
64,192,32013,1,0,0:0:0:0:
192,192,32013,1,0,0:0:0:0:
320,192,32013,1,0,0:0:0:0:
192,192,32096,1,0,0:0:0:0:
448,192,32096,1,0,0:0:0:0:
64,192,32180,1,0,0:0:0:0:
320,192,32180,1,0,0:0:0:0:
192,192,32263,1,0,0:0:0:0:
64,192,32346,1,0,0:0:0:0:
320,192,32346,1,0,0:0:0:0:
448,192,32346,1,0,0:0:0:0:
320,192,32430,1,0,0:0:0:0:
448,192,32430,1,0,0:0:0:0:
64,192,32513,1,0,0:0:0:0:
192,192,32513,1,0,0:0:0:0:
448,192,32596,1,0,0:0:0:0:
64,192,32680,1,0,0:0:0:0:
192,192,32680,1,0,0:0:0:0:
320,192,32680,1,0,0:0:0:0:
192,192,32763,1,0,0:0:0:0:
320,192,32763,1,0,0:0:0:0:
64,192,32846,1,0,0:0:0:0:
448,192,32846,1,0,0:0:0:0:
320,192,32930,1,0,0:0:0:0:
64,192,33013,1,0,0:0:0:0:
192,192,33013,1,0,0:0:0:0:
448,192,33013,1,0,0:0:0:0:
192,192,33096,1,0,0:0:0:0:
320,192,33096,1,0,0:0:0:0:
64,192,33180,1,0,0:0:0:0:
448,192,33180,1,0,0:0:0:0:
192,192,33263,1,0,0:0:0:0:
64,192,33346,1,0,0:0:0:0:
320,192,33346,1,0,0:0:0:0:
448,192,33346,1,0,0:0:0:0:
192,192,33430,1,0,0:0:0:0:
448,192,33430,1,0,0:0:0:0:
64,192,33513,1,0,0:0:0:0:
320,192,33513,1,0,0:0:0:0:
448,192,33596,1,0,0:0:0:0:
64,192,33680,1,0,0:0:0:0:
192,192,33680,1,0,0:0:0:0:
320,192,33680,1,0,0:0:0:0:
192,192,33763,1,0,0:0:0:0:
320,192,33763,1,0,0:0:0:0:
64,192,33846,1,0,0:0:0:0:
448,192,33846,1,0,0:0:0:0:
320,192,33930,1,0,0:0:0:0:
64,192,34013,1,0,0:0:0:0:
192,192,34013,1,0,0:0:0:0:
448,192,34013,1,0,0:0:0:0:
320,192,34096,1,0,0:0:0:0:
448,192,34096,1,0,0:0:0:0:
64,192,34180,1,0,0:0:0:0:
320,192,34180,1,0,0:0:0:0:
192,192,34263,1,0,0:0:0:0:
64,192,34346,1,0,0:0:0:0:
448,192,34346,1,0,0:0:0:0:
320,0,34346,128,0,34596:1:0:0:0:
64,192,34680,1,0,0:0:0:0:
192,192,34680,1,0,0:0:0:0:
320,192,34680,1,0,0:0:0:0:
448,192,34680,1,0,0:0:0:0:
64,192,34763,1,0,0:0:0:0:
192,192,34763,1,0,0:0:0:0:
320,192,34846,1,0,0:0:0:0:
448,192,34846,1,0,0:0:0:0:
192,192,34930,1,0,0:0:0:0:
64,192,35013,1,0,0:0:0:0:
320,192,35013,1,0,0:0:0:0:
448,192,35013,1,0,0:0:0:0:
320,192,35096,1,0,0:0:0:0:
448,192,35096,1,0,0:0:0:0:
64,192,35180,1,0,0:0:0:0:
192,192,35180,1,0,0:0:0:0:
320,192,35263,1,0,0:0:0:0:
64,192,35346,1,0,0:0:0:0:
192,192,35346,1,0,0:0:0:0:
448,192,35346,1,0,0:0:0:0:
64,192,35430,1,0,0:0:0:0:
192,192,35430,1,0,0:0:0:0:
320,192,35513,1,0,0:0:0:0:
448,192,35513,1,0,0:0:0:0:
192,192,35596,1,0,0:0:0:0:
64,192,35680,1,0,0:0:0:0:
320,192,35680,1,0,0:0:0:0:
448,192,35680,1,0,0:0:0:0:
192,192,35763,1,0,0:0:0:0:
320,192,35763,1,0,0:0:0:0:
64,192,35846,1,0,0:0:0:0:
448,192,35846,1,0,0:0:0:0:
192,192,35930,1,0,0:0:0:0:
64,192,36013,1,0,0:0:0:0:
320,192,36013,1,0,0:0:0:0:
448,192,36013,1,0,0:0:0:0:
320,192,36096,1,0,0:0:0:0:
448,192,36096,1,0,0:0:0:0:
64,192,36180,1,0,0:0:0:0:
192,192,36180,1,0,0:0:0:0:
320,192,36263,1,0,0:0:0:0:
64,192,36346,1,0,0:0:0:0:
192,192,36346,1,0,0:0:0:0:
448,192,36346,1,0,0:0:0:0:
64,192,36430,1,0,0:0:0:0:
320,192,36430,1,0,0:0:0:0:
192,192,36513,1,0,0:0:0:0:
448,192,36513,1,0,0:0:0:0:
320,192,36596,1,0,0:0:0:0:
64,192,36680,1,0,0:0:0:0:
192,192,36680,1,0,0:0:0:0:
448,0,36680,128,0,37096:1:0:0:0:
64,192,37013,1,0,0:0:0:0:
64,192,37346,1,0,0:0:0:0:
192,192,37346,1,0,0:0:0:0:
448,192,37346,1,0,0:0:0:0:
64,192,37430,1,0,0:0:0:0:
320,192,37430,1,0,0:0:0:0:
192,192,37513,1,0,0:0:0:0:
448,192,37513,1,0,0:0:0:0:
64,192,37596,1,0,0:0:0:0:
192,192,37680,1,0,0:0:0:0:
320,192,37680,1,0,0:0:0:0:
448,192,37680,1,0,0:0:0:0:
320,192,37763,1,0,0:0:0:0:
448,192,37763,1,0,0:0:0:0:
64,192,37846,1,0,0:0:0:0:
192,192,37846,1,0,0:0:0:0:
320,192,37930,1,0,0:0:0:0:
64,192,38013,1,0,0:0:0:0:
192,192,38013,1,0,0:0:0:0:
448,192,38013,1,0,0:0:0:0:
64,192,38096,1,0,0:0:0:0:
320,192,38096,1,0,0:0:0:0:
192,192,38180,1,0,0:0:0:0:
448,192,38180,1,0,0:0:0:0:
320,192,38263,1,0,0:0:0:0:
64,192,38346,1,0,0:0:0:0:
192,192,38346,1,0,0:0:0:0:
448,192,38346,1,0,0:0:0:0:
64,192,38430,1,0,0:0:0:0:
192,192,38430,1,0,0:0:0:0:
320,192,38513,1,0,0:0:0:0:
448,192,38513,1,0,0:0:0:0:
192,192,38596,1,0,0:0:0:0:
64,192,38680,1,0,0:0:0:0:
320,192,38680,1,0,0:0:0:0:
448,192,38680,1,0,0:0:0:0:
192,192,38763,1,0,0:0:0:0:
320,192,38763,1,0,0:0:0:0:
64,192,38846,1,0,0:0:0:0:
448,192,38846,1,0,0:0:0:0:
320,192,38930,1,0,0:0:0:0:
64,192,39013,1,0,0:0:0:0:
192,192,39013,1,0,0:0:0:0:
448,192,39013,1,0,0:0:0:0:
64,192,39096,1,0,0:0:0:0:
320,192,39096,1,0,0:0:0:0:
192,192,39180,1,0,0:0:0:0:
448,192,39180,1,0,0:0:0:0:
320,192,39263,1,0,0:0:0:0:
64,192,39346,1,0,0:0:0:0:
192,192,39346,1,0,0:0:0:0:
448,0,39346,128,0,39763:1:0:0:0:
64,192,39680,1,0,0:0:0:0:
64,192,40013,1,0,0:0:0:0:
192,192,40013,1,0,0:0:0:0:
448,192,40013,1,0,0:0:0:0:
64,192,40096,1,0,0:0:0:0:
320,192,40096,1,0,0:0:0:0:
192,192,40180,1,0,0:0:0:0:
448,192,40180,1,0,0:0:0:0:
320,192,40263,1,0,0:0:0:0:
64,192,40346,1,0,0:0:0:0:
192,192,40346,1,0,0:0:0:0:
448,192,40346,1,0,0:0:0:0:
320,192,40430,1,0,0:0:0:0:
448,192,40430,1,0,0:0:0:0:
64,192,40513,1,0,0:0:0:0:
192,192,40513,1,0,0:0:0:0:
320,192,40596,1,0,0:0:0:0:
64,192,40680,1,0,0:0:0:0:
192,192,40680,1,0,0:0:0:0:
448,192,40680,1,0,0:0:0:0:
64,192,40763,1,0,0:0:0:0:
192,192,40763,1,0,0:0:0:0:
192,192,40846,1,0,0:0:0:0:
448,192,40846,1,0,0:0:0:0:
320,192,40930,1,0,0:0:0:0:
64,192,41013,1,0,0:0:0:0:
192,192,41013,1,0,0:0:0:0:
448,192,41013,1,0,0:0:0:0:
64,192,41096,1,0,0:0:0:0:
448,192,41096,1,0,0:0:0:0:
192,192,41180,1,0,0:0:0:0:
320,192,41180,1,0,0:0:0:0:
64,192,41263,1,0,0:0:0:0:
192,192,41346,1,0,0:0:0:0:
320,192,41346,1,0,0:0:0:0:
448,192,41346,1,0,0:0:0:0:
192,192,41430,1,0,0:0:0:0:
320,192,41430,1,0,0:0:0:0:
64,192,41513,1,0,0:0:0:0:
448,192,41513,1,0,0:0:0:0:
320,192,41596,1,0,0:0:0:0:
64,192,41680,1,0,0:0:0:0:
192,192,41680,1,0,0:0:0:0:
448,192,41680,1,0,0:0:0:0:
64,192,41763,1,0,0:0:0:0:
448,192,41763,1,0,0:0:0:0:
192,192,41846,1,0,0:0:0:0:
320,192,41846,1,0,0:0:0:0:
320,192,41930,1,0,0:0:0:0:
64,192,42013,1,0,0:0:0:0:
192,192,42013,1,0,0:0:0:0:
448,0,42013,128,0,42596:1:0:0:0:
64,192,42346,1,0,0:0:0:0:
64,192,42680,1,0,0:0:0:0:
192,192,42680,1,0,0:0:0:0:
448,192,42680,1,0,0:0:0:0:
64,192,42763,1,0,0:0:0:0:
192,192,42763,1,0,0:0:0:0:
320,192,42846,1,0,0:0:0:0:
448,192,42846,1,0,0:0:0:0:
192,192,42930,1,0,0:0:0:0:
64,192,43013,1,0,0:0:0:0:
320,192,43013,1,0,0:0:0:0:
448,192,43013,1,0,0:0:0:0:
320,192,43096,1,0,0:0:0:0:
448,192,43096,1,0,0:0:0:0:
64,192,43180,1,0,0:0:0:0:
192,192,43180,1,0,0:0:0:0:
320,192,43263,1,0,0:0:0:0:
64,192,43346,1,0,0:0:0:0:
192,192,43346,1,0,0:0:0:0:
448,192,43346,1,0,0:0:0:0:
64,192,43430,1,0,0:0:0:0:
192,192,43430,1,0,0:0:0:0:
320,192,43513,1,0,0:0:0:0:
448,192,43513,1,0,0:0:0:0:
192,192,43596,1,0,0:0:0:0:
64,192,43680,1,0,0:0:0:0:
320,192,43680,1,0,0:0:0:0:
448,192,43680,1,0,0:0:0:0:
64,192,43763,1,0,0:0:0:0:
192,192,43763,1,0,0:0:0:0:
320,192,43846,1,0,0:0:0:0:
448,192,43846,1,0,0:0:0:0:
192,192,43930,1,0,0:0:0:0:
64,192,44013,1,0,0:0:0:0:
320,192,44013,1,0,0:0:0:0:
448,192,44013,1,0,0:0:0:0:
192,192,44096,1,0,0:0:0:0:
320,192,44096,1,0,0:0:0:0:
64,192,44180,1,0,0:0:0:0:
448,192,44180,1,0,0:0:0:0:
320,192,44263,1,0,0:0:0:0:
64,192,44346,1,0,0:0:0:0:
192,192,44346,1,0,0:0:0:0:
448,192,44346,1,0,0:0:0:0:
64,192,44430,1,0,0:0:0:0:
448,192,44430,1,0,0:0:0:0:
192,192,44513,1,0,0:0:0:0:
320,192,44513,1,0,0:0:0:0:
192,192,44596,1,0,0:0:0:0:
64,192,44680,1,0,0:0:0:0:
448,192,44680,1,0,0:0:0:0:
320,0,44680,128,0,45263:1:0:0:0:
64,192,45013,1,0,0:0:0:0:
64,192,45180,1,0,0:0:0:0:
64,192,45346,1,0,0:0:0:0:
192,192,45346,1,0,0:0:0:0:
320,192,45346,1,0,0:0:0:0:
448,192,45346,1,0,0:0:0:0:
320,192,45430,1,0,0:0:0:0:
64,192,45513,1,0,0:0:0:0:
192,192,45513,1,0,0:0:0:0:
448,192,45513,1,0,0:0:0:0:
192,192,45596,1,0,0:0:0:0:
64,192,45680,1,0,0:0:0:0:
320,192,45680,1,0,0:0:0:0:
448,192,45680,1,0,0:0:0:0:
320,192,45763,1,0,0:0:0:0:
64,192,45846,1,0,0:0:0:0:
192,192,45846,1,0,0:0:0:0:
320,192,45930,1,0,0:0:0:0:
64,192,46013,1,0,0:0:0:0:
192,192,46013,1,0,0:0:0:0:
448,192,46013,1,0,0:0:0:0:
192,192,46096,1,0,0:0:0:0:
320,192,46096,1,0,0:0:0:0:
64,192,46180,1,0,0:0:0:0:
448,192,46180,1,0,0:0:0:0:
320,192,46263,1,0,0:0:0:0:
64,192,46346,1,0,0:0:0:0:
192,192,46346,1,0,0:0:0:0:
448,192,46346,1,0,0:0:0:0:
320,192,46430,1,0,0:0:0:0:
64,192,46513,1,0,0:0:0:0:
192,192,46513,1,0,0:0:0:0:
448,192,46513,1,0,0:0:0:0:
192,192,46596,1,0,0:0:0:0:
64,192,46680,1,0,0:0:0:0:
448,192,46680,1,0,0:0:0:0:
320,192,46763,1,0,0:0:0:0:
64,192,46846,1,0,0:0:0:0:
192,192,46846,1,0,0:0:0:0:
448,192,46846,1,0,0:0:0:0:
320,192,46930,1,0,0:0:0:0:
64,192,47013,1,0,0:0:0:0:
192,192,47013,1,0,0:0:0:0:
448,192,47013,1,0,0:0:0:0:
192,192,47096,1,0,0:0:0:0:
64,192,47180,1,0,0:0:0:0:
320,192,47180,1,0,0:0:0:0:
448,192,47180,1,0,0:0:0:0:
192,192,47263,1,0,0:0:0:0:
64,192,47346,1,0,0:0:0:0:
320,192,47346,1,0,0:0:0:0:
448,192,47346,1,0,0:0:0:0:
448,192,47430,1,0,0:0:0:0:
64,192,47513,1,0,0:0:0:0:
192,192,47513,1,0,0:0:0:0:
320,192,47513,1,0,0:0:0:0:
192,192,47596,1,0,0:0:0:0:
64,192,47680,1,0,0:0:0:0:
320,192,47680,1,0,0:0:0:0:
448,192,47680,1,0,0:0:0:0:
320,192,47763,1,0,0:0:0:0:
64,192,47846,1,0,0:0:0:0:
192,192,47846,1,0,0:0:0:0:
448,192,47846,1,0,0:0:0:0:
64,192,48013,1,0,0:0:0:0:
192,192,48013,1,0,0:0:0:0:
448,192,48013,1,0,0:0:0:0:
320,192,48096,1,0,0:0:0:0:
64,192,48180,1,0,0:0:0:0:
192,192,48180,1,0,0:0:0:0:
448,192,48180,1,0,0:0:0:0:
192,192,48263,1,0,0:0:0:0:
64,192,48346,1,0,0:0:0:0:
320,192,48346,1,0,0:0:0:0:
448,192,48346,1,0,0:0:0:0:
192,192,48430,1,0,0:0:0:0:
64,192,48513,1,0,0:0:0:0:
448,192,48513,1,0,0:0:0:0:
320,192,48596,1,0,0:0:0:0:
64,192,48680,1,0,0:0:0:0:
192,192,48680,1,0,0:0:0:0:
448,192,48680,1,0,0:0:0:0:
320,192,48763,1,0,0:0:0:0:
64,192,48846,1,0,0:0:0:0:
448,192,48846,1,0,0:0:0:0:
320,192,48930,1,0,0:0:0:0:
64,192,49013,1,0,0:0:0:0:
192,192,49013,1,0,0:0:0:0:
64,192,49096,1,0,0:0:0:0:
320,192,49096,1,0,0:0:0:0:
192,192,49180,1,0,0:0:0:0:
448,192,49180,1,0,0:0:0:0:
320,192,49263,1,0,0:0:0:0:
64,192,49346,1,0,0:0:0:0:
448,192,49346,1,0,0:0:0:0:
320,192,49430,1,0,0:0:0:0:
64,192,49513,1,0,0:0:0:0:
192,192,49513,1,0,0:0:0:0:
448,192,49513,1,0,0:0:0:0:
320,192,49596,1,0,0:0:0:0:
64,192,49680,1,0,0:0:0:0:
192,192,49680,1,0,0:0:0:0:
448,192,49680,1,0,0:0:0:0:
192,192,49763,1,0,0:0:0:0:
320,192,49763,1,0,0:0:0:0:
64,192,49846,1,0,0:0:0:0:
448,192,49846,1,0,0:0:0:0:
320,192,49930,1,0,0:0:0:0:
64,192,50013,1,0,0:0:0:0:
192,192,50013,1,0,0:0:0:0:
192,192,50096,1,0,0:0:0:0:
320,192,50096,1,0,0:0:0:0:
64,192,50180,1,0,0:0:0:0:
448,192,50180,1,0,0:0:0:0:
192,192,50263,1,0,0:0:0:0:
64,192,50346,1,0,0:0:0:0:
320,192,50346,1,0,0:0:0:0:
448,192,50346,1,0,0:0:0:0:
192,192,50430,1,0,0:0:0:0:
64,192,50513,1,0,0:0:0:0:
320,192,50513,1,0,0:0:0:0:
448,192,50513,1,0,0:0:0:0:
64,192,50680,1,0,0:0:0:0:
448,192,50680,1,0,0:0:0:0:
320,192,50763,1,0,0:0:0:0:
64,192,50846,1,0,0:0:0:0:
192,192,50846,1,0,0:0:0:0:
448,192,50846,1,0,0:0:0:0:
192,192,50930,1,0,0:0:0:0:
64,192,51013,1,0,0:0:0:0:
320,192,51013,1,0,0:0:0:0:
448,192,51013,1,0,0:0:0:0:
192,192,51096,1,0,0:0:0:0:
64,192,51180,1,0,0:0:0:0:
320,192,51180,1,0,0:0:0:0:
448,192,51263,1,0,0:0:0:0:
64,192,51346,1,0,0:0:0:0:
192,192,51346,1,0,0:0:0:0:
320,192,51346,1,0,0:0:0:0:
448,192,51430,1,0,0:0:0:0:
64,192,51513,1,0,0:0:0:0:
320,192,51513,1,0,0:0:0:0:
320,192,51596,1,0,0:0:0:0:
64,192,51680,1,0,0:0:0:0:
192,192,51680,1,0,0:0:0:0:
320,192,51763,1,0,0:0:0:0:
64,192,51846,1,0,0:0:0:0:
192,192,51846,1,0,0:0:0:0:
448,192,51846,1,0,0:0:0:0:
192,192,51930,1,0,0:0:0:0:
64,192,52013,1,0,0:0:0:0:
448,192,52013,1,0,0:0:0:0:
192,192,52096,1,0,0:0:0:0:
320,192,52096,1,0,0:0:0:0:
64,192,52180,1,0,0:0:0:0:
320,192,52180,1,0,0:0:0:0:
448,192,52180,1,0,0:0:0:0:
192,192,52263,1,0,0:0:0:0:
64,192,52346,1,0,0:0:0:0:
320,192,52346,1,0,0:0:0:0:
448,192,52346,1,0,0:0:0:0:
192,192,52430,1,0,0:0:0:0:
64,192,52513,1,0,0:0:0:0:
320,192,52513,1,0,0:0:0:0:
448,192,52513,1,0,0:0:0:0:
320,192,52596,1,0,0:0:0:0:
64,192,52680,1,0,0:0:0:0:
192,192,52680,1,0,0:0:0:0:
320,192,52763,1,0,0:0:0:0:
64,192,52846,1,0,0:0:0:0:
192,192,52846,1,0,0:0:0:0:
448,192,52846,1,0,0:0:0:0:
192,192,52930,1,0,0:0:0:0:
64,192,53013,1,0,0:0:0:0:
320,192,53013,1,0,0:0:0:0:
448,192,53013,1,0,0:0:0:0:
192,192,53096,1,0,0:0:0:0:
64,192,53180,1,0,0:0:0:0:
320,192,53180,1,0,0:0:0:0:
448,192,53180,1,0,0:0:0:0:
64,192,53346,1,0,0:0:0:0:
320,192,53346,1,0,0:0:0:0:
192,192,53430,1,0,0:0:0:0:
448,192,53430,1,0,0:0:0:0:
64,192,53513,1,0,0:0:0:0:
320,192,53513,1,0,0:0:0:0:
192,192,53596,1,0,0:0:0:0:
64,192,53680,1,0,0:0:0:0:
320,192,53680,1,0,0:0:0:0:
448,192,53680,1,0,0:0:0:0:
192,192,53763,1,0,0:0:0:0:
320,192,53763,1,0,0:0:0:0:
64,192,53846,1,0,0:0:0:0:
320,192,53846,1,0,0:0:0:0:
448,192,53930,1,0,0:0:0:0:
64,192,54013,1,0,0:0:0:0:
192,192,54013,1,0,0:0:0:0:
320,192,54013,1,0,0:0:0:0:
448,192,54096,1,0,0:0:0:0:
64,192,54180,1,0,0:0:0:0:
320,192,54180,1,0,0:0:0:0:
192,192,54263,1,0,0:0:0:0:
64,192,54346,1,0,0:0:0:0:
320,192,54346,1,0,0:0:0:0:
448,192,54430,1,0,0:0:0:0:
64,192,54513,1,0,0:0:0:0:
192,192,54513,1,0,0:0:0:0:
320,192,54513,1,0,0:0:0:0:
192,192,54596,1,0,0:0:0:0:
64,192,54680,1,0,0:0:0:0:
320,192,54680,1,0,0:0:0:0:
192,192,54763,1,0,0:0:0:0:
448,192,54763,1,0,0:0:0:0:
64,192,54846,1,0,0:0:0:0:
320,192,54846,1,0,0:0:0:0:
192,192,54930,1,0,0:0:0:0:
64,192,55013,1,0,0:0:0:0:
320,192,55013,1,0,0:0:0:0:
448,192,55013,1,0,0:0:0:0:
192,192,55096,1,0,0:0:0:0:
320,192,55096,1,0,0:0:0:0:
64,192,55180,1,0,0:0:0:0:
448,192,55180,1,0,0:0:0:0:
320,192,55263,1,0,0:0:0:0:
64,192,55346,1,0,0:0:0:0:
192,192,55346,1,0,0:0:0:0:
192,192,55430,1,0,0:0:0:0:
320,192,55430,1,0,0:0:0:0:
64,192,55513,1,0,0:0:0:0:
320,192,55513,1,0,0:0:0:0:
448,192,55513,1,0,0:0:0:0:
192,192,55596,1,0,0:0:0:0:
64,192,55680,1,0,0:0:0:0:
320,192,55680,1,0,0:0:0:0:
448,192,55680,1,0,0:0:0:0:
192,192,55763,1,0,0:0:0:0:
448,192,55763,1,0,0:0:0:0:
64,192,55846,1,0,0:0:0:0:
320,192,55846,1,0,0:0:0:0:
192,192,55930,1,0,0:0:0:0:
64,192,56013,1,0,0:0:0:0:
320,192,56013,1,0,0:0:0:0:
448,192,56013,1,0,0:0:0:0:
448,192,56096,1,0,0:0:0:0:
64,192,56180,1,0,0:0:0:0:
192,192,56180,1,0,0:0:0:0:
320,192,56180,1,0,0:0:0:0:
192,192,56263,1,0,0:0:0:0:
64,192,56346,1,0,0:0:0:0:
320,192,56346,1,0,0:0:0:0:
448,192,56346,1,0,0:0:0:0:
192,192,56430,1,0,0:0:0:0:
320,192,56430,1,0,0:0:0:0:
64,192,56513,1,0,0:0:0:0:
448,192,56513,1,0,0:0:0:0:
320,192,56596,1,0,0:0:0:0:
64,192,56680,1,0,0:0:0:0:
192,192,56680,1,0,0:0:0:0:
448,192,56680,1,0,0:0:0:0:
320,192,56763,1,0,0:0:0:0:
64,192,56846,1,0,0:0:0:0:
192,192,56846,1,0,0:0:0:0:
448,192,56846,1,0,0:0:0:0:
320,192,56930,1,0,0:0:0:0:
64,192,57013,1,0,0:0:0:0:
192,192,57013,1,0,0:0:0:0:
320,192,57096,1,0,0:0:0:0:
64,192,57180,1,0,0:0:0:0:
192,192,57180,1,0,0:0:0:0:
448,192,57180,1,0,0:0:0:0:
192,192,57263,1,0,0:0:0:0:
64,192,57346,1,0,0:0:0:0:
448,192,57346,1,0,0:0:0:0:
320,192,57430,1,0,0:0:0:0:
64,192,57513,1,0,0:0:0:0:
192,192,57513,1,0,0:0:0:0:
320,192,57596,1,0,0:0:0:0:
64,192,57680,1,0,0:0:0:0:
192,192,57680,1,0,0:0:0:0:
448,192,57680,1,0,0:0:0:0:
320,192,57763,1,0,0:0:0:0:
64,192,57846,1,0,0:0:0:0:
192,192,57846,1,0,0:0:0:0:
448,192,57846,1,0,0:0:0:0:
320,192,57930,1,0,0:0:0:0:
64,192,58013,1,0,0:0:0:0:
192,192,58013,1,0,0:0:0:0:
320,192,58096,1,0,0:0:0:0:
64,192,58180,1,0,0:0:0:0:
192,192,58180,1,0,0:0:0:0:
448,192,58180,1,0,0:0:0:0:
192,192,58263,1,0,0:0:0:0:
64,192,58346,1,0,0:0:0:0:
320,192,58346,1,0,0:0:0:0:
448,192,58346,1,0,0:0:0:0:
192,192,58430,1,0,0:0:0:0:
64,192,58513,1,0,0:0:0:0:
320,192,58513,1,0,0:0:0:0:
448,192,58513,1,0,0:0:0:0:
192,192,58596,1,0,0:0:0:0:
64,192,58680,1,0,0:0:0:0:
320,192,58680,1,0,0:0:0:0:
320,192,58763,1,0,0:0:0:0:
64,192,58846,1,0,0:0:0:0:
192,192,58846,1,0,0:0:0:0:
448,192,58846,1,0,0:0:0:0:
192,192,58930,1,0,0:0:0:0:
64,192,59013,1,0,0:0:0:0:
320,192,59013,1,0,0:0:0:0:
448,192,59013,1,0,0:0:0:0:
192,192,59096,1,0,0:0:0:0:
64,192,59180,1,0,0:0:0:0:
320,192,59180,1,0,0:0:0:0:
192,192,59263,1,0,0:0:0:0:
448,192,59263,1,0,0:0:0:0:
64,192,59346,1,0,0:0:0:0:
320,192,59346,1,0,0:0:0:0:
192,192,59430,1,0,0:0:0:0:
64,192,59513,1,0,0:0:0:0:
320,192,59513,1,0,0:0:0:0:
448,192,59513,1,0,0:0:0:0:
192,192,59596,1,0,0:0:0:0:
64,192,59680,1,0,0:0:0:0:
448,192,59680,1,0,0:0:0:0:
192,192,59763,1,0,0:0:0:0:
320,192,59763,1,0,0:0:0:0:
64,192,59846,1,0,0:0:0:0:
192,192,59846,1,0,0:0:0:0:
448,192,59846,1,0,0:0:0:0:
320,192,59930,1,0,0:0:0:0:
64,192,60013,1,0,0:0:0:0:
192,192,60013,1,0,0:0:0:0:
448,192,60013,1,0,0:0:0:0:
320,192,60096,1,0,0:0:0:0:
64,192,60180,1,0,0:0:0:0:
192,192,60180,1,0,0:0:0:0:
448,192,60180,1,0,0:0:0:0:
320,192,60263,1,0,0:0:0:0:
64,192,60346,1,0,0:0:0:0:
192,192,60346,1,0,0:0:0:0:
448,192,60346,1,0,0:0:0:0:
192,192,60430,1,0,0:0:0:0:
320,192,60430,1,0,0:0:0:0:
64,192,60513,1,0,0:0:0:0:
448,192,60513,1,0,0:0:0:0:
192,192,60596,1,0,0:0:0:0:
64,192,60680,1,0,0:0:0:0:
320,192,60680,1,0,0:0:0:0:
448,192,60680,1,0,0:0:0:0:
448,192,60763,1,0,0:0:0:0:
64,192,60846,1,0,0:0:0:0:
320,192,60846,1,0,0:0:0:0:
448,192,60846,1,0,0:0:0:0:
192,192,60930,1,0,0:0:0:0:
64,192,61013,1,0,0:0:0:0:
320,192,61013,1,0,0:0:0:0:
448,192,61013,1,0,0:0:0:0:
192,192,61096,1,0,0:0:0:0:
64,192,61180,1,0,0:0:0:0:
448,192,61180,1,0,0:0:0:0:
192,192,61263,1,0,0:0:0:0:
320,192,61263,1,0,0:0:0:0:
64,192,61346,1,0,0:0:0:0:
320,192,61346,1,0,0:0:0:0:
448,192,61346,1,0,0:0:0:0:
192,192,61430,1,0,0:0:0:0:
64,192,61513,1,0,0:0:0:0:
320,192,61513,1,0,0:0:0:0:
192,192,61596,1,0,0:0:0:0:
64,192,61680,1,0,0:0:0:0:
320,192,61680,1,0,0:0:0:0:
448,192,61680,1,0,0:0:0:0:
320,192,61763,1,0,0:0:0:0:
448,192,61763,1,0,0:0:0:0:
64,192,61846,1,0,0:0:0:0:
192,192,61846,1,0,0:0:0:0:
448,192,61930,1,0,0:0:0:0:
64,192,62013,1,0,0:0:0:0:
192,192,62013,1,0,0:0:0:0:
320,192,62013,1,0,0:0:0:0:
320,192,62096,1,0,0:0:0:0:
64,192,62180,1,0,0:0:0:0:
192,192,62180,1,0,0:0:0:0:
448,192,62180,1,0,0:0:0:0:
320,192,62263,1,0,0:0:0:0:
192,192,62346,1,0,0:0:0:0:
448,192,62346,1,0,0:0:0:0:
64,192,62430,1,0,0:0:0:0:
320,192,62430,1,0,0:0:0:0:
192,192,62513,1,0,0:0:0:0:
448,192,62513,1,0,0:0:0:0:
192,192,62596,1,0,0:0:0:0:
320,192,62596,1,0,0:0:0:0:
64,192,62680,1,0,0:0:0:0:
448,192,62680,1,0,0:0:0:0:
320,192,62763,1,0,0:0:0:0:
64,192,62846,1,0,0:0:0:0:
192,192,62846,1,0,0:0:0:0:
448,192,62846,1,0,0:0:0:0:
320,192,62930,1,0,0:0:0:0:
64,192,63013,1,0,0:0:0:0:
192,192,63013,1,0,0:0:0:0:
448,192,63013,1,0,0:0:0:0:
192,192,63096,1,0,0:0:0:0:
320,192,63096,1,0,0:0:0:0:
64,192,63180,1,0,0:0:0:0:
448,192,63180,1,0,0:0:0:0:
320,192,63263,1,0,0:0:0:0:
448,192,63263,1,0,0:0:0:0:
64,192,63346,1,0,0:0:0:0:
192,192,63346,1,0,0:0:0:0:
320,192,63430,1,0,0:0:0:0:
64,192,63513,1,0,0:0:0:0:
192,192,63513,1,0,0:0:0:0:
448,192,63513,1,0,0:0:0:0:
192,192,63596,1,0,0:0:0:0:
64,192,63680,1,0,0:0:0:0:
320,192,63680,1,0,0:0:0:0:
448,192,63680,1,0,0:0:0:0:
192,192,63763,1,0,0:0:0:0:
64,192,63846,1,0,0:0:0:0:
320,192,63846,1,0,0:0:0:0:
448,192,63846,1,0,0:0:0:0:
192,192,63930,1,0,0:0:0:0:
320,192,63930,1,0,0:0:0:0:
64,192,64013,1,0,0:0:0:0:
192,192,64013,1,0,0:0:0:0:
448,192,64013,1,0,0:0:0:0:
448,192,64096,1,0,0:0:0:0:
64,192,64180,1,0,0:0:0:0:
192,192,64180,1,0,0:0:0:0:
320,192,64180,1,0,0:0:0:0:
192,192,64263,1,0,0:0:0:0:
64,192,64346,1,0,0:0:0:0:
320,192,64346,1,0,0:0:0:0:
448,192,64346,1,0,0:0:0:0:
192,192,64430,1,0,0:0:0:0:
64,192,64513,1,0,0:0:0:0:
320,192,64513,1,0,0:0:0:0:
448,192,64513,1,0,0:0:0:0:
320,192,64596,1,0,0:0:0:0:
448,192,64596,1,0,0:0:0:0:
64,192,64680,1,0,0:0:0:0:
192,192,64680,1,0,0:0:0:0:
448,192,64680,1,0,0:0:0:0:
320,192,64763,1,0,0:0:0:0:
64,192,64846,1,0,0:0:0:0:
192,192,64846,1,0,0:0:0:0:
448,192,64846,1,0,0:0:0:0:
448,192,64930,1,0,0:0:0:0:
64,192,65013,1,0,0:0:0:0:
320,192,65013,1,0,0:0:0:0:
192,192,65096,1,0,0:0:0:0:
448,192,65096,1,0,0:0:0:0:
64,192,65180,1,0,0:0:0:0:
448,192,65180,1,0,0:0:0:0:
192,192,65263,1,0,0:0:0:0:
320,192,65263,1,0,0:0:0:0:
64,192,65346,1,0,0:0:0:0:
192,192,65346,1,0,0:0:0:0:
448,192,65346,1,0,0:0:0:0:
320,192,65430,1,0,0:0:0:0:
64,192,65513,1,0,0:0:0:0:
192,192,65513,1,0,0:0:0:0:
448,192,65513,1,0,0:0:0:0:
64,192,65596,1,0,0:0:0:0:
64,192,65680,1,0,0:0:0:0:
320,192,65680,1,0,0:0:0:0:
448,192,65680,1,0,0:0:0:0:
192,192,65763,1,0,0:0:0:0:
320,192,65763,1,0,0:0:0:0:
64,192,65846,1,0,0:0:0:0:
448,192,65846,1,0,0:0:0:0:
192,192,65930,1,0,0:0:0:0:
320,192,65930,1,0,0:0:0:0:
64,192,66013,1,0,0:0:0:0:
320,192,66013,1,0,0:0:0:0:
448,192,66013,1,0,0:0:0:0:
192,192,66096,1,0,0:0:0:0:
64,192,66180,1,0,0:0:0:0:
320,192,66180,1,0,0:0:0:0:
448,192,66180,1,0,0:0:0:0:
192,192,66263,1,0,0:0:0:0:
320,192,66263,1,0,0:0:0:0:
64,192,66346,1,0,0:0:0:0:
448,192,66346,1,0,0:0:0:0:
192,192,66430,1,0,0:0:0:0:
320,192,66430,1,0,0:0:0:0:
448,192,66430,1,0,0:0:0:0:
64,192,66513,1,0,0:0:0:0:
192,192,66513,1,0,0:0:0:0:
320,192,66513,1,0,0:0:0:0:
448,192,66513,1,0,0:0:0:0:
192,192,66596,1,0,0:0:0:0:
320,192,66596,1,0,0:0:0:0:
448,192,66596,1,0,0:0:0:0:
64,192,66680,1,0,0:0:0:0:
448,192,66680,1,0,0:0:0:0:
64,192,68013,1,0,0:0:0:0:
320,192,68013,1,0,0:0:0:0:
192,192,68096,1,0,0:0:0:0:
320,192,68180,1,0,0:0:0:0:
448,192,68180,1,0,0:0:0:0:
64,192,68263,1,0,0:0:0:0:
192,192,68346,1,0,0:0:0:0:
320,192,68430,1,0,0:0:0:0:
64,192,68513,1,0,0:0:0:0:
448,192,68513,1,0,0:0:0:0:
192,192,68596,1,0,0:0:0:0:
320,192,68680,1,0,0:0:0:0:
64,192,68763,1,0,0:0:0:0:
192,192,68846,1,0,0:0:0:0:
448,192,68846,1,0,0:0:0:0:
320,192,68930,1,0,0:0:0:0:
64,192,69013,1,0,0:0:0:0:
192,192,69096,1,0,0:0:0:0:
320,192,69180,1,0,0:0:0:0:
448,192,69180,1,0,0:0:0:0:
64,192,69263,1,0,0:0:0:0:
192,192,69346,1,0,0:0:0:0:
320,192,69346,1,0,0:0:0:0:
448,192,69346,1,0,0:0:0:0:
320,192,69430,1,0,0:0:0:0:
64,192,69513,1,0,0:0:0:0:
448,192,69513,1,0,0:0:0:0:
320,192,69596,1,0,0:0:0:0:
192,192,69680,1,0,0:0:0:0:
448,192,69680,1,0,0:0:0:0:
64,192,69763,1,0,0:0:0:0:
320,192,69763,1,0,0:0:0:0:
192,192,69846,1,0,0:0:0:0:
448,192,69846,1,0,0:0:0:0:
320,192,69930,1,0,0:0:0:0:
64,192,70013,1,0,0:0:0:0:
192,192,70013,1,0,0:0:0:0:
448,192,70013,1,0,0:0:0:0:
320,192,70096,1,0,0:0:0:0:
64,192,70180,1,0,0:0:0:0:
448,192,70180,1,0,0:0:0:0:
320,192,70263,1,0,0:0:0:0:
64,192,70346,1,0,0:0:0:0:
448,192,70346,1,0,0:0:0:0:
192,192,70430,1,0,0:0:0:0:
320,192,70430,1,0,0:0:0:0:
64,192,70513,1,0,0:0:0:0:
448,192,70513,1,0,0:0:0:0:
448,192,70596,1,0,0:0:0:0:
64,192,70680,1,0,0:0:0:0:
192,192,70680,1,0,0:0:0:0:
320,192,70680,1,0,0:0:0:0:
192,192,70763,1,0,0:0:0:0:
320,192,70846,1,0,0:0:0:0:
448,192,70846,1,0,0:0:0:0:
64,192,70930,1,0,0:0:0:0:
192,192,71013,1,0,0:0:0:0:
448,192,71096,1,0,0:0:0:0:
64,192,71180,1,0,0:0:0:0:
320,192,71180,1,0,0:0:0:0:
192,192,71263,1,0,0:0:0:0:
320,192,71346,1,0,0:0:0:0:
448,192,71346,1,0,0:0:0:0:
64,192,71430,1,0,0:0:0:0:
192,192,71513,1,0,0:0:0:0:
320,192,71513,1,0,0:0:0:0:
448,192,71596,1,0,0:0:0:0:
64,192,71680,1,0,0:0:0:0:
192,192,71763,1,0,0:0:0:0:
320,192,71846,1,0,0:0:0:0:
448,192,71846,1,0,0:0:0:0:
64,192,71930,1,0,0:0:0:0:
192,192,72013,1,0,0:0:0:0:
320,192,72013,1,0,0:0:0:0:
448,192,72013,1,0,0:0:0:0:
320,192,72096,1,0,0:0:0:0:
64,192,72180,1,0,0:0:0:0:
448,192,72180,1,0,0:0:0:0:
320,192,72263,1,0,0:0:0:0:
64,192,72346,1,0,0:0:0:0:
448,192,72346,1,0,0:0:0:0:
192,192,72430,1,0,0:0:0:0:
320,192,72430,1,0,0:0:0:0:
64,192,72513,1,0,0:0:0:0:
448,192,72513,1,0,0:0:0:0:
320,192,72596,1,0,0:0:0:0:
64,192,72680,1,0,0:0:0:0:
192,192,72680,1,0,0:0:0:0:
448,192,72680,1,0,0:0:0:0:
320,192,72763,1,0,0:0:0:0:
64,192,72846,1,0,0:0:0:0:
448,192,72846,1,0,0:0:0:0:
320,192,72930,1,0,0:0:0:0:
192,192,73013,1,0,0:0:0:0:
448,192,73013,1,0,0:0:0:0:
64,192,73096,1,0,0:0:0:0:
320,192,73096,1,0,0:0:0:0:
192,192,73180,1,0,0:0:0:0:
448,192,73180,1,0,0:0:0:0:
64,192,73263,1,0,0:0:0:0:
192,192,73346,1,0,0:0:0:0:
320,192,73346,1,0,0:0:0:0:
448,192,73346,1,0,0:0:0:0:
320,192,73430,1,0,0:0:0:0:
64,192,73513,1,0,0:0:0:0:
448,192,73513,1,0,0:0:0:0:
192,192,73596,1,0,0:0:0:0:
64,192,73680,1,0,0:0:0:0:
320,192,73680,1,0,0:0:0:0:
192,192,73763,1,0,0:0:0:0:
448,192,73763,1,0,0:0:0:0:
64,192,73846,1,0,0:0:0:0:
320,192,73846,1,0,0:0:0:0:
320,192,73930,1,0,0:0:0:0:
64,192,74013,1,0,0:0:0:0:
448,192,74013,1,0,0:0:0:0:
192,192,74096,1,0,0:0:0:0:
64,192,74180,1,0,0:0:0:0:
320,192,74180,1,0,0:0:0:0:
448,192,74263,1,0,0:0:0:0:
64,192,74346,1,0,0:0:0:0:
192,192,74346,1,0,0:0:0:0:
64,192,74430,1,0,0:0:0:0:
320,192,74430,1,0,0:0:0:0:
320,192,74513,1,0,0:0:0:0:
448,192,74513,1,0,0:0:0:0:
192,192,74596,1,0,0:0:0:0:
64,192,74680,1,0,0:0:0:0:
320,192,74680,1,0,0:0:0:0:
448,192,74680,1,0,0:0:0:0:
192,192,74763,1,0,0:0:0:0:
64,192,74846,1,0,0:0:0:0:
448,192,74846,1,0,0:0:0:0:
320,192,74930,1,0,0:0:0:0:
64,192,75013,1,0,0:0:0:0:
448,192,75013,1,0,0:0:0:0:
192,192,75096,1,0,0:0:0:0:
320,192,75096,1,0,0:0:0:0:
64,192,75180,1,0,0:0:0:0:
320,192,75180,1,0,0:0:0:0:
192,192,75263,1,0,0:0:0:0:
64,192,75346,1,0,0:0:0:0:
320,192,75346,1,0,0:0:0:0:
448,192,75346,1,0,0:0:0:0:
320,192,75430,1,0,0:0:0:0:
192,192,75513,1,0,0:0:0:0:
448,192,75513,1,0,0:0:0:0:
320,192,75596,1,0,0:0:0:0:
64,192,75680,1,0,0:0:0:0:
448,192,75680,1,0,0:0:0:0:
192,192,75763,1,0,0:0:0:0:
320,192,75763,1,0,0:0:0:0:
64,192,75846,1,0,0:0:0:0:
448,192,75846,1,0,0:0:0:0:
192,192,75930,1,0,0:0:0:0:
64,192,76013,1,0,0:0:0:0:
320,192,76013,1,0,0:0:0:0:
448,192,76013,1,0,0:0:0:0:
320,192,76096,1,0,0:0:0:0:
64,192,76180,1,0,0:0:0:0:
448,192,76180,1,0,0:0:0:0:
64,192,76263,1,0,0:0:0:0:
192,192,76346,1,0,0:0:0:0:
320,192,76346,1,0,0:0:0:0:
64,192,76430,1,0,0:0:0:0:
448,192,76430,1,0,0:0:0:0:
192,192,76513,1,0,0:0:0:0:
320,192,76513,1,0,0:0:0:0:
320,192,76596,1,0,0:0:0:0:
64,192,76680,1,0,0:0:0:0:
448,192,76680,1,0,0:0:0:0:
64,192,76763,1,0,0:0:0:0:
192,192,76846,1,0,0:0:0:0:
320,192,76846,1,0,0:0:0:0:
448,192,76930,1,0,0:0:0:0:
64,192,77013,1,0,0:0:0:0:
192,192,77013,1,0,0:0:0:0:
192,192,77096,1,0,0:0:0:0:
320,192,77096,1,0,0:0:0:0:
64,192,77180,1,0,0:0:0:0:
448,192,77180,1,0,0:0:0:0:
192,192,77263,1,0,0:0:0:0:
64,192,77346,1,0,0:0:0:0:
320,192,77346,1,0,0:0:0:0:
448,192,77346,1,0,0:0:0:0:
320,192,77430,1,0,0:0:0:0:
192,192,77513,1,0,0:0:0:0:
448,192,77513,1,0,0:0:0:0:
320,192,77596,1,0,0:0:0:0:
192,192,77680,1,0,0:0:0:0:
448,192,77680,1,0,0:0:0:0:
64,192,77763,1,0,0:0:0:0:
320,192,77763,1,0,0:0:0:0:
192,192,77846,1,0,0:0:0:0:
448,192,77846,1,0,0:0:0:0:
192,192,77930,1,0,0:0:0:0:
64,192,78013,1,0,0:0:0:0:
320,192,78013,1,0,0:0:0:0:
448,192,78013,1,0,0:0:0:0:
192,192,78096,1,0,0:0:0:0:
64,192,78180,1,0,0:0:0:0:
320,192,78180,1,0,0:0:0:0:
192,192,78263,1,0,0:0:0:0:
64,192,78346,1,0,0:0:0:0:
448,192,78346,1,0,0:0:0:0:
192,192,78430,1,0,0:0:0:0:
320,192,78430,1,0,0:0:0:0:
64,192,78513,1,0,0:0:0:0:
320,192,78513,1,0,0:0:0:0:
192,192,78596,1,0,0:0:0:0:
64,192,78680,1,0,0:0:0:0:
320,192,78680,1,0,0:0:0:0:
448,192,78680,1,0,0:0:0:0:
192,192,78763,1,0,0:0:0:0:
64,192,78846,1,0,0:0:0:0:
320,192,78846,1,0,0:0:0:0:
192,192,78930,1,0,0:0:0:0:
448,192,78930,1,0,0:0:0:0:
64,192,79013,1,0,0:0:0:0:
320,192,79013,1,0,0:0:0:0:
192,192,79096,1,0,0:0:0:0:
448,192,79096,1,0,0:0:0:0:
64,192,79180,1,0,0:0:0:0:
320,192,79180,1,0,0:0:0:0:
192,192,79263,1,0,0:0:0:0:
64,192,79346,1,0,0:0:0:0:
320,192,79346,1,0,0:0:0:0:
192,192,79430,1,0,0:0:0:0:
448,192,79430,1,0,0:0:0:0:
64,192,79513,1,0,0:0:0:0:
320,192,79513,1,0,0:0:0:0:
192,192,79596,1,0,0:0:0:0:
448,192,79596,1,0,0:0:0:0:
64,192,79680,1,0,0:0:0:0:
320,192,79680,1,0,0:0:0:0:
192,192,79763,1,0,0:0:0:0:
448,192,79763,1,0,0:0:0:0:
64,192,79846,1,0,0:0:0:0:
320,192,79846,1,0,0:0:0:0:
192,192,79930,1,0,0:0:0:0:
64,192,80013,1,0,0:0:0:0:
320,192,80013,1,0,0:0:0:0:
448,192,80013,1,0,0:0:0:0:
64,192,80096,1,0,0:0:0:0:
192,192,80180,1,0,0:0:0:0:
320,192,80180,1,0,0:0:0:0:
64,192,80263,1,0,0:0:0:0:
192,192,80263,1,0,0:0:0:0:
448,192,80263,1,0,0:0:0:0:
320,192,80346,1,0,0:0:0:0:
192,192,80430,1,0,0:0:0:0:
64,192,80513,1,0,0:0:0:0:
320,192,80513,1,0,0:0:0:0:
448,192,80513,1,0,0:0:0:0:
192,192,80596,1,0,0:0:0:0:
320,192,80680,1,0,0:0:0:0:
448,192,80680,1,0,0:0:0:0:
64,192,80763,1,0,0:0:0:0:
192,192,80763,1,0,0:0:0:0:
448,192,80763,1,0,0:0:0:0:
192,192,80846,1,0,0:0:0:0:
320,192,80846,1,0,0:0:0:0:
64,192,80930,1,0,0:0:0:0:
448,192,80930,1,0,0:0:0:0:
64,192,81013,1,0,0:0:0:0:
320,192,81013,1,0,0:0:0:0:
448,192,81013,1,0,0:0:0:0:
192,192,81096,1,0,0:0:0:0:
320,192,81180,1,0,0:0:0:0:
448,192,81180,1,0,0:0:0:0:
192,192,81263,1,0,0:0:0:0:
64,192,81346,1,0,0:0:0:0:
320,192,81346,1,0,0:0:0:0:
448,192,81346,1,0,0:0:0:0:
192,192,81430,1,0,0:0:0:0:
64,192,81513,1,0,0:0:0:0:
320,192,81513,1,0,0:0:0:0:
64,192,81596,1,0,0:0:0:0:
192,192,81596,1,0,0:0:0:0:
448,192,81596,1,0,0:0:0:0:
320,192,81680,1,0,0:0:0:0:
192,192,81763,1,0,0:0:0:0:
448,192,81763,1,0,0:0:0:0:
64,192,81846,1,0,0:0:0:0:
192,192,81846,1,0,0:0:0:0:
320,192,81846,1,0,0:0:0:0:
320,192,81930,1,0,0:0:0:0:
192,192,82013,1,0,0:0:0:0:
448,192,82013,1,0,0:0:0:0:
64,192,82096,1,0,0:0:0:0:
320,192,82096,1,0,0:0:0:0:
192,192,82180,1,0,0:0:0:0:
320,192,82180,1,0,0:0:0:0:
64,192,82263,1,0,0:0:0:0:
448,192,82263,1,0,0:0:0:0:
64,192,82346,1,0,0:0:0:0:
320,192,82346,1,0,0:0:0:0:
448,192,82346,1,0,0:0:0:0:
192,192,82430,1,0,0:0:0:0:
64,192,82513,1,0,0:0:0:0:
320,192,82513,1,0,0:0:0:0:
448,192,82513,1,0,0:0:0:0:
192,192,82596,1,0,0:0:0:0:
64,192,82680,1,0,0:0:0:0:
320,192,82680,1,0,0:0:0:0:
448,192,82680,1,0,0:0:0:0:
192,192,82763,1,0,0:0:0:0:
64,192,82846,1,0,0:0:0:0:
320,192,82846,1,0,0:0:0:0:
64,192,82930,1,0,0:0:0:0:
192,192,82930,1,0,0:0:0:0:
448,192,82930,1,0,0:0:0:0:
320,192,83013,1,0,0:0:0:0:
64,192,83096,1,0,0:0:0:0:
192,192,83096,1,0,0:0:0:0:
448,192,83096,1,0,0:0:0:0:
64,192,83180,1,0,0:0:0:0:
320,192,83180,1,0,0:0:0:0:
448,192,83180,1,0,0:0:0:0:
192,192,83263,1,0,0:0:0:0:
320,192,83346,1,0,0:0:0:0:
448,192,83346,1,0,0:0:0:0:
64,192,83430,1,0,0:0:0:0:
192,192,83430,1,0,0:0:0:0:
448,192,83430,1,0,0:0:0:0:
320,192,83513,1,0,0:0:0:0:
64,192,83596,1,0,0:0:0:0:
192,192,83596,1,0,0:0:0:0:
64,192,83680,1,0,0:0:0:0:
192,192,83680,1,0,0:0:0:0:
448,192,83680,1,0,0:0:0:0:
320,192,83763,1,0,0:0:0:0:
448,192,83763,1,0,0:0:0:0:
64,192,83846,1,0,0:0:0:0:
192,192,83846,1,0,0:0:0:0:
320,192,83930,1,0,0:0:0:0:
64,192,84013,1,0,0:0:0:0:
192,192,84013,1,0,0:0:0:0:
448,192,84013,1,0,0:0:0:0:
320,192,84096,1,0,0:0:0:0:
192,192,84180,1,0,0:0:0:0:
448,192,84180,1,0,0:0:0:0:
64,192,84263,1,0,0:0:0:0:
320,192,84263,1,0,0:0:0:0:
448,192,84263,1,0,0:0:0:0:
192,192,84346,1,0,0:0:0:0:
64,192,84430,1,0,0:0:0:0:
320,192,84430,1,0,0:0:0:0:
64,192,84513,1,0,0:0:0:0:
192,192,84513,1,0,0:0:0:0:
448,192,84513,1,0,0:0:0:0:
320,192,84596,1,0,0:0:0:0:
192,192,84680,1,0,0:0:0:0:
448,192,84680,1,0,0:0:0:0:
64,192,84763,1,0,0:0:0:0:
320,192,84763,1,0,0:0:0:0:
448,192,84763,1,0,0:0:0:0:
192,192,84846,1,0,0:0:0:0:
64,192,84930,1,0,0:0:0:0:
320,192,84930,1,0,0:0:0:0:
64,192,85013,1,0,0:0:0:0:
192,192,85013,1,0,0:0:0:0:
448,192,85013,1,0,0:0:0:0:
320,192,85096,1,0,0:0:0:0:
64,192,85180,1,0,0:0:0:0:
192,192,85180,1,0,0:0:0:0:
448,192,85180,1,0,0:0:0:0:
192,192,85263,1,0,0:0:0:0:
64,192,85346,1,0,0:0:0:0:
320,192,85346,1,0,0:0:0:0:
448,192,85346,1,0,0:0:0:0:
192,192,85430,1,0,0:0:0:0:
320,192,85513,1,0,0:0:0:0:
448,192,85513,1,0,0:0:0:0:
64,192,85596,1,0,0:0:0:0:
192,192,85596,1,0,0:0:0:0:
448,192,85596,1,0,0:0:0:0:
320,192,85680,1,0,0:0:0:0:
192,192,85763,1,0,0:0:0:0:
448,192,85763,1,0,0:0:0:0:
64,192,85846,1,0,0:0:0:0:
320,192,85846,1,0,0:0:0:0:
448,192,85846,1,0,0:0:0:0:
64,192,85930,1,0,0:0:0:0:
192,192,86013,1,0,0:0:0:0:
320,192,86013,1,0,0:0:0:0:
64,192,86096,1,0,0:0:0:0:
192,192,86096,1,0,0:0:0:0:
448,192,86096,1,0,0:0:0:0:
320,192,86180,1,0,0:0:0:0:
64,192,86263,1,0,0:0:0:0:
192,192,86263,1,0,0:0:0:0:
64,192,86346,1,0,0:0:0:0:
320,192,86346,1,0,0:0:0:0:
448,192,86346,1,0,0:0:0:0:
192,192,86430,1,0,0:0:0:0:
320,192,86430,1,0,0:0:0:0:
64,192,86513,1,0,0:0:0:0:
448,192,86513,1,0,0:0:0:0:
192,192,86596,1,0,0:0:0:0:
64,192,86680,1,0,0:0:0:0:
320,192,86680,1,0,0:0:0:0:
448,192,86680,1,0,0:0:0:0:
192,192,86763,1,0,0:0:0:0:
64,192,86846,1,0,0:0:0:0:
320,192,86846,1,0,0:0:0:0:
448,192,86846,1,0,0:0:0:0:
64,192,86930,1,0,0:0:0:0:
192,192,86930,1,0,0:0:0:0:
448,192,86930,1,0,0:0:0:0:
320,192,87013,1,0,0:0:0:0:
192,192,87096,1,0,0:0:0:0:
448,192,87096,1,0,0:0:0:0:
64,192,87180,1,0,0:0:0:0:
320,192,87180,1,0,0:0:0:0:
192,192,87263,1,0,0:0:0:0:
64,192,87346,1,0,0:0:0:0:
320,192,87346,1,0,0:0:0:0:
192,192,87430,1,0,0:0:0:0:
448,192,87430,1,0,0:0:0:0:
64,192,87513,1,0,0:0:0:0:
320,192,87513,1,0,0:0:0:0:
192,192,87596,1,0,0:0:0:0:
320,192,87596,1,0,0:0:0:0:
64,192,87680,1,0,0:0:0:0:
192,192,87680,1,0,0:0:0:0:
448,192,87680,1,0,0:0:0:0:
320,192,87763,1,0,0:0:0:0:
64,192,87846,1,0,0:0:0:0:
192,192,87846,1,0,0:0:0:0:
448,192,87846,1,0,0:0:0:0:
320,192,87930,1,0,0:0:0:0:
64,192,88013,1,0,0:0:0:0:
192,192,88055,1,0,0:0:0:0:
448,192,88096,1,0,0:0:0:0:
320,192,88138,1,0,0:0:0:0:
64,192,88180,1,0,0:0:0:0:
192,192,88180,1,0,0:0:0:0:
320,192,88263,1,0,0:0:0:0:
448,192,88263,1,0,0:0:0:0:
64,192,88346,1,0,0:0:0:0:
192,192,88388,1,0,0:0:0:0:
320,192,88430,1,0,0:0:0:0:
448,192,88471,1,0,0:0:0:0:
64,192,88513,1,0,0:0:0:0:
192,192,88513,1,0,0:0:0:0:
320,192,88596,1,0,0:0:0:0:
64,192,88680,1,0,0:0:0:0:
448,192,88680,1,0,0:0:0:0:
320,192,88763,1,0,0:0:0:0:
64,192,88791,1,0,0:0:0:0:
192,192,88846,1,0,0:0:0:0:
64,192,88902,1,0,0:0:0:0:
320,192,88930,1,0,0:0:0:0:
64,192,89013,1,0,0:0:0:0:
192,192,89013,1,0,0:0:0:0:
448,192,89013,1,0,0:0:0:0:
320,192,89096,1,0,0:0:0:0:
64,192,89124,1,0,0:0:0:0:
192,192,89180,1,0,0:0:0:0:
448,192,89180,1,0,0:0:0:0:
64,192,89235,1,0,0:0:0:0:
320,192,89235,1,0,0:0:0:0:
448,192,89346,1,0,0:0:0:0:
448,192,90013,1,0,0:0:0:0:
64,192,90680,1,0,0:0:0:0:
320,192,90721,1,0,0:0:0:0:
192,192,90763,1,0,0:0:0:0:
448,192,90805,1,0,0:0:0:0:
64,192,90846,1,0,0:0:0:0:
448,192,91013,1,0,0:0:0:0:
192,192,91055,1,0,0:0:0:0:
320,192,91096,1,0,0:0:0:0:
64,192,91138,1,0,0:0:0:0:
448,192,91180,1,0,0:0:0:0:
64,192,91346,1,0,0:0:0:0:
320,192,91388,1,0,0:0:0:0:
192,192,91430,1,0,0:0:0:0:
448,192,91471,1,0,0:0:0:0:
64,192,91513,1,0,0:0:0:0:
64,192,91680,1,0,0:0:0:0:
448,192,91680,1,0,0:0:0:0:
320,192,91721,1,0,0:0:0:0:
192,192,91763,1,0,0:0:0:0:
448,192,91805,1,0,0:0:0:0:
64,192,91846,1,0,0:0:0:0:
192,192,91888,1,0,0:0:0:0:
320,192,91930,1,0,0:0:0:0:
448,192,91971,1,0,0:0:0:0:
64,192,92013,1,0,0:0:0:0:
192,192,92013,1,0,0:0:0:0:
64,192,92096,1,0,0:0:0:0:
192,192,92180,1,0,0:0:0:0:
320,192,92180,1,0,0:0:0:0:
448,192,92263,1,0,0:0:0:0:
64,192,92346,1,0,0:0:0:0:
192,192,92346,1,0,0:0:0:0:
64,192,92430,1,0,0:0:0:0:
320,192,92430,1,0,0:0:0:0:
192,192,92513,1,0,0:0:0:0:
448,192,92513,1,0,0:0:0:0:
320,192,92596,1,0,0:0:0:0:
64,192,92680,1,0,0:0:0:0:
192,192,92680,1,0,0:0:0:0:
448,192,92680,1,0,0:0:0:0:
64,192,92763,1,0,0:0:0:0:
192,192,92846,1,0,0:0:0:0:
320,192,92846,1,0,0:0:0:0:
448,192,92930,1,0,0:0:0:0:
64,192,93013,1,0,0:0:0:0:
192,192,93013,1,0,0:0:0:0:
192,192,93096,1,0,0:0:0:0:
448,192,93096,1,0,0:0:0:0:
320,192,93180,1,0,0:0:0:0:
448,192,93180,1,0,0:0:0:0:
192,192,93263,1,0,0:0:0:0:
64,192,93346,1,0,0:0:0:0:
320,192,93346,1,0,0:0:0:0:
448,192,93346,1,0,0:0:0:0:
64,192,93430,1,0,0:0:0:0:
192,192,93513,1,0,0:0:0:0:
320,192,93513,1,0,0:0:0:0:
448,192,93596,1,0,0:0:0:0:
64,192,93680,1,0,0:0:0:0:
192,192,93680,1,0,0:0:0:0:
64,192,93763,1,0,0:0:0:0:
320,192,93763,1,0,0:0:0:0:
192,192,93846,1,0,0:0:0:0:
448,192,93846,1,0,0:0:0:0:
320,192,93930,1,0,0:0:0:0:
64,192,94013,1,0,0:0:0:0:
192,192,94013,1,0,0:0:0:0:
448,192,94013,1,0,0:0:0:0:
64,192,94096,1,0,0:0:0:0:
192,192,94180,1,0,0:0:0:0:
320,192,94180,1,0,0:0:0:0:
448,192,94263,1,0,0:0:0:0:
64,192,94346,1,0,0:0:0:0:
192,192,94346,1,0,0:0:0:0:
320,192,94430,1,0,0:0:0:0:
448,192,94430,1,0,0:0:0:0:
64,192,94513,1,0,0:0:0:0:
192,192,94513,1,0,0:0:0:0:
320,192,94596,1,0,0:0:0:0:
64,192,94680,1,0,0:0:0:0:
192,192,94680,1,0,0:0:0:0:
448,192,94680,1,0,0:0:0:0:
64,192,94763,1,0,0:0:0:0:
320,192,94763,1,0,0:0:0:0:
192,192,94846,1,0,0:0:0:0:
448,192,94846,1,0,0:0:0:0:
320,192,94930,1,0,0:0:0:0:
64,192,95013,1,0,0:0:0:0:
192,192,95013,1,0,0:0:0:0:
448,192,95013,1,0,0:0:0:0:
64,192,95096,1,0,0:0:0:0:
192,192,95096,1,0,0:0:0:0:
320,192,95180,1,0,0:0:0:0:
448,192,95180,1,0,0:0:0:0:
192,192,95263,1,0,0:0:0:0:
64,192,95346,1,0,0:0:0:0:
320,192,95346,1,0,0:0:0:0:
448,192,95346,1,0,0:0:0:0:
192,192,95430,1,0,0:0:0:0:
448,192,95430,1,0,0:0:0:0:
64,192,95513,1,0,0:0:0:0:
320,192,95513,1,0,0:0:0:0:
192,192,95596,1,0,0:0:0:0:
64,192,95680,1,0,0:0:0:0:
320,192,95680,1,0,0:0:0:0:
192,192,95763,1,0,0:0:0:0:
448,192,95763,1,0,0:0:0:0:
64,192,95846,1,0,0:0:0:0:
320,192,95846,1,0,0:0:0:0:
192,192,95930,1,0,0:0:0:0:
64,192,96013,1,0,0:0:0:0:
320,192,96013,1,0,0:0:0:0:
448,192,96013,1,0,0:0:0:0:
64,192,96096,1,0,0:0:0:0:
192,192,96180,1,0,0:0:0:0:
320,192,96180,1,0,0:0:0:0:
448,192,96263,1,0,0:0:0:0:
64,192,96346,1,0,0:0:0:0:
192,192,96346,1,0,0:0:0:0:
192,192,96430,1,0,0:0:0:0:
320,192,96430,1,0,0:0:0:0:
320,192,96513,1,0,0:0:0:0:
448,192,96513,1,0,0:0:0:0:
192,192,96596,1,0,0:0:0:0:
64,192,96680,1,0,0:0:0:0:
320,192,96680,1,0,0:0:0:0:
448,192,96680,1,0,0:0:0:0:
64,192,96763,1,0,0:0:0:0:
192,192,96846,1,0,0:0:0:0:
320,192,96846,1,0,0:0:0:0:
448,192,96930,1,0,0:0:0:0:
64,192,97013,1,0,0:0:0:0:
192,192,97013,1,0,0:0:0:0:
64,192,97096,1,0,0:0:0:0:
448,192,97096,1,0,0:0:0:0:
320,192,97180,1,0,0:0:0:0:
448,192,97180,1,0,0:0:0:0:
192,192,97263,1,0,0:0:0:0:
64,192,97346,1,0,0:0:0:0:
320,192,97346,1,0,0:0:0:0:
448,192,97346,1,0,0:0:0:0:
64,192,97430,1,0,0:0:0:0:
192,192,97513,1,0,0:0:0:0:
320,192,97513,1,0,0:0:0:0:
448,192,97596,1,0,0:0:0:0:
64,192,97680,1,0,0:0:0:0:
192,192,97680,1,0,0:0:0:0:
320,192,97763,1,0,0:0:0:0:
448,192,97763,1,0,0:0:0:0:
64,192,97846,1,0,0:0:0:0:
192,192,97846,1,0,0:0:0:0:
320,192,97930,1,0,0:0:0:0:
64,192,98013,1,0,0:0:0:0:
192,192,98013,1,0,0:0:0:0:
448,192,98013,1,0,0:0:0:0:
64,192,98096,1,0,0:0:0:0:
192,192,98180,1,0,0:0:0:0:
320,192,98180,1,0,0:0:0:0:
448,192,98263,1,0,0:0:0:0:
64,192,98346,1,0,0:0:0:0:
192,192,98346,1,0,0:0:0:0:
64,192,98430,1,0,0:0:0:0:
448,192,98430,1,0,0:0:0:0:
320,192,98513,1,0,0:0:0:0:
448,192,98513,1,0,0:0:0:0:
192,192,98596,1,0,0:0:0:0:
64,192,98680,1,0,0:0:0:0:
320,192,98680,1,0,0:0:0:0:
448,192,98680,1,0,0:0:0:0:
64,192,98763,1,0,0:0:0:0:
192,192,98846,1,0,0:0:0:0:
320,192,98846,1,0,0:0:0:0:
448,192,98930,1,0,0:0:0:0:
64,192,99013,1,0,0:0:0:0:
192,192,99013,1,0,0:0:0:0:
64,192,99096,1,0,0:0:0:0:
320,192,99096,1,0,0:0:0:0:
192,192,99180,1,0,0:0:0:0:
448,192,99180,1,0,0:0:0:0:
320,192,99263,1,0,0:0:0:0:
64,192,99346,1,0,0:0:0:0:
192,192,99346,1,0,0:0:0:0:
448,192,99346,1,0,0:0:0:0:
64,192,99430,1,0,0:0:0:0:
192,192,99513,1,0,0:0:0:0:
320,192,99513,1,0,0:0:0:0:
448,192,99596,1,0,0:0:0:0:
64,192,99680,1,0,0:0:0:0:
192,192,99680,1,0,0:0:0:0:
192,192,99763,1,0,0:0:0:0:
320,192,99763,1,0,0:0:0:0:
320,192,99846,1,0,0:0:0:0:
448,192,99846,1,0,0:0:0:0:
192,192,99930,1,0,0:0:0:0:
64,192,100013,1,0,0:0:0:0:
320,192,100013,1,0,0:0:0:0:
448,192,100013,1,0,0:0:0:0:
192,192,100096,1,0,0:0:0:0:
320,192,100096,1,0,0:0:0:0:
64,192,100180,1,0,0:0:0:0:
448,192,100180,1,0,0:0:0:0:
320,192,100263,1,0,0:0:0:0:
64,192,100346,1,0,0:0:0:0:
192,192,100346,1,0,0:0:0:0:
448,192,100346,1,0,0:0:0:0:
320,192,100430,1,0,0:0:0:0:
448,192,100430,1,0,0:0:0:0:
64,192,100513,1,0,0:0:0:0:
192,192,100513,1,0,0:0:0:0:
320,192,100596,1,0,0:0:0:0:
64,192,100680,1,0,0:0:0:0:
192,192,100680,1,0,0:0:0:0:
448,192,100680,1,0,0:0:0:0:
64,192,100763,1,0,0:0:0:0:
320,192,100763,1,0,0:0:0:0:
192,192,100846,1,0,0:0:0:0:
448,192,100846,1,0,0:0:0:0:
320,192,100930,1,0,0:0:0:0:
64,192,101013,1,0,0:0:0:0:
192,192,101013,1,0,0:0:0:0:
320,192,101096,1,0,0:0:0:0:
448,192,101096,1,0,0:0:0:0:
64,192,101180,1,0,0:0:0:0:
192,192,101180,1,0,0:0:0:0:
320,192,101263,1,0,0:0:0:0:
64,192,101346,1,0,0:0:0:0:
192,192,101346,1,0,0:0:0:0:
448,192,101346,1,0,0:0:0:0:
64,192,101430,1,0,0:0:0:0:
192,192,101513,1,0,0:0:0:0:
320,192,101513,1,0,0:0:0:0:
448,192,101596,1,0,0:0:0:0:
64,192,101680,1,0,0:0:0:0:
192,192,101680,1,0,0:0:0:0:
192,192,101763,1,0,0:0:0:0:
320,192,101763,1,0,0:0:0:0:
320,192,101846,1,0,0:0:0:0:
448,192,101846,1,0,0:0:0:0:
192,192,101930,1,0,0:0:0:0:
64,192,102013,1,0,0:0:0:0:
320,192,102013,1,0,0:0:0:0:
448,192,102013,1,0,0:0:0:0:
64,192,102096,1,0,0:0:0:0:
192,192,102180,1,0,0:0:0:0:
320,192,102180,1,0,0:0:0:0:
448,192,102263,1,0,0:0:0:0:
64,192,102346,1,0,0:0:0:0:
192,192,102346,1,0,0:0:0:0:
64,192,102430,1,0,0:0:0:0:
448,192,102430,1,0,0:0:0:0:
192,192,102513,1,0,0:0:0:0:
448,192,102513,1,0,0:0:0:0:
320,192,102596,1,0,0:0:0:0:
64,192,102680,1,0,0:0:0:0:
192,192,102680,1,0,0:0:0:0:
448,192,102680,1,0,0:0:0:0:
320,192,102763,1,0,0:0:0:0:
64,192,102846,1,0,0:0:0:0:
192,192,102846,1,0,0:0:0:0:
448,192,102846,1,0,0:0:0:0:
192,192,102930,1,0,0:0:0:0:
320,192,102930,1,0,0:0:0:0:
64,192,103013,1,0,0:0:0:0:
448,192,103013,1,0,0:0:0:0:
192,192,103096,1,0,0:0:0:0:
320,192,103096,1,0,0:0:0:0:
64,192,103180,1,0,0:0:0:0:
448,192,103180,1,0,0:0:0:0:
192,192,103263,1,0,0:0:0:0:
64,192,103346,1,0,0:0:0:0:
320,192,103346,1,0,0:0:0:0:
448,192,103346,1,0,0:0:0:0:
192,192,103430,1,0,0:0:0:0:
320,192,103430,1,0,0:0:0:0:
64,192,103513,1,0,0:0:0:0:
448,192,103513,1,0,0:0:0:0:
320,192,103596,1,0,0:0:0:0:
448,192,103596,1,0,0:0:0:0:
64,192,103680,1,0,0:0:0:0:
192,192,103680,1,0,0:0:0:0:
320,192,103763,1,0,0:0:0:0:
64,192,103846,1,0,0:0:0:0:
192,192,103846,1,0,0:0:0:0:
448,192,103846,1,0,0:0:0:0:
320,192,103930,1,0,0:0:0:0:
64,192,104013,1,0,0:0:0:0:
192,192,104013,1,0,0:0:0:0:
448,192,104013,1,0,0:0:0:0:
320,192,104096,1,0,0:0:0:0:
64,192,104180,1,0,0:0:0:0:
192,192,104180,1,0,0:0:0:0:
448,192,104180,1,0,0:0:0:0:
192,192,104263,1,0,0:0:0:0:
320,192,104263,1,0,0:0:0:0:
64,192,104346,1,0,0:0:0:0:
448,192,104346,1,0,0:0:0:0:
192,192,104430,1,0,0:0:0:0:
320,192,104430,1,0,0:0:0:0:
64,192,104513,1,0,0:0:0:0:
320,192,104513,1,0,0:0:0:0:
448,192,104513,1,0,0:0:0:0:
192,192,104596,1,0,0:0:0:0:
64,192,104680,1,0,0:0:0:0:
320,192,104680,1,0,0:0:0:0:
448,192,104680,1,0,0:0:0:0:
192,192,104763,1,0,0:0:0:0:
448,192,104763,1,0,0:0:0:0:
64,192,104846,1,0,0:0:0:0:
320,192,104846,1,0,0:0:0:0:
192,192,104930,1,0,0:0:0:0:
448,192,104930,1,0,0:0:0:0:
64,192,105013,1,0,0:0:0:0:
320,192,105013,1,0,0:0:0:0:
192,192,105096,1,0,0:0:0:0:
64,192,105180,1,0,0:0:0:0:
320,192,105180,1,0,0:0:0:0:
448,192,105180,1,0,0:0:0:0:
192,192,105263,1,0,0:0:0:0:
64,192,105346,1,0,0:0:0:0:
320,192,105346,1,0,0:0:0:0:
448,192,105346,1,0,0:0:0:0:
192,192,105430,1,0,0:0:0:0:
64,192,105513,1,0,0:0:0:0:
320,192,105513,1,0,0:0:0:0:
448,192,105513,1,0,0:0:0:0:
320,192,105596,1,0,0:0:0:0:
448,192,105596,1,0,0:0:0:0:
64,192,105680,1,0,0:0:0:0:
192,192,105680,1,0,0:0:0:0:
192,192,105763,1,0,0:0:0:0:
320,192,105763,1,0,0:0:0:0:
64,192,105846,1,0,0:0:0:0:
448,192,105846,1,0,0:0:0:0:
192,192,105930,1,0,0:0:0:0:
320,192,105930,1,0,0:0:0:0:
64,192,106013,1,0,0:0:0:0:
320,192,106013,1,0,0:0:0:0:
448,192,106013,1,0,0:0:0:0:
192,192,106096,1,0,0:0:0:0:
64,192,106180,1,0,0:0:0:0:
320,192,106180,1,0,0:0:0:0:
192,192,106263,1,0,0:0:0:0:
448,192,106263,1,0,0:0:0:0:
64,192,106346,1,0,0:0:0:0:
320,192,106346,1,0,0:0:0:0:
192,192,106430,1,0,0:0:0:0:
64,192,106513,1,0,0:0:0:0:
320,192,106513,1,0,0:0:0:0:
448,192,106513,1,0,0:0:0:0:
192,192,106596,1,0,0:0:0:0:
64,192,106680,1,0,0:0:0:0:
320,192,106680,1,0,0:0:0:0:
448,192,106680,1,0,0:0:0:0:
192,192,106763,1,0,0:0:0:0:
64,192,106846,1,0,0:0:0:0:
320,192,106846,1,0,0:0:0:0:
448,192,106846,1,0,0:0:0:0:
192,192,106930,1,0,0:0:0:0:
320,192,106930,1,0,0:0:0:0:
64,192,107013,1,0,0:0:0:0:
448,192,107013,1,0,0:0:0:0:
192,192,107096,1,0,0:0:0:0:
320,192,107096,1,0,0:0:0:0:
64,192,107180,1,0,0:0:0:0:
320,192,107180,1,0,0:0:0:0:
448,192,107180,1,0,0:0:0:0:
192,192,107263,1,0,0:0:0:0:
64,192,107346,1,0,0:0:0:0:
320,192,107346,1,0,0:0:0:0:
448,192,107346,1,0,0:0:0:0:
192,192,107430,1,0,0:0:0:0:
448,192,107430,1,0,0:0:0:0:
64,192,107513,1,0,0:0:0:0:
320,192,107513,1,0,0:0:0:0:
192,192,107596,1,0,0:0:0:0:
64,192,107680,1,0,0:0:0:0:
320,192,107680,1,0,0:0:0:0:
448,192,107680,1,0,0:0:0:0:
192,192,107763,1,0,0:0:0:0:
64,192,107846,1,0,0:0:0:0:
320,192,107846,1,0,0:0:0:0:
192,192,107930,1,0,0:0:0:0:
64,192,108013,1,0,0:0:0:0:
320,192,108013,1,0,0:0:0:0:
448,192,108013,1,0,0:0:0:0:
320,192,108096,1,0,0:0:0:0:
64,192,108180,1,0,0:0:0:0:
192,192,108180,1,0,0:0:0:0:
448,192,108180,1,0,0:0:0:0:
192,192,108263,1,0,0:0:0:0:
320,192,108263,1,0,0:0:0:0:
64,192,108346,1,0,0:0:0:0:
448,192,108346,1,0,0:0:0:0:
320,192,108430,1,0,0:0:0:0:
448,192,108430,1,0,0:0:0:0:
64,192,108513,1,0,0:0:0:0:
192,192,108513,1,0,0:0:0:0:
320,192,108596,1,0,0:0:0:0:
64,192,108680,1,0,0:0:0:0:
192,192,108680,1,0,0:0:0:0:
448,192,108680,1,0,0:0:0:0:
192,192,108763,1,0,0:0:0:0:
320,192,108763,1,0,0:0:0:0:
64,192,108846,1,0,0:0:0:0:
448,192,108846,1,0,0:0:0:0:
320,192,108930,1,0,0:0:0:0:
64,192,109013,1,0,0:0:0:0:
192,192,109013,1,0,0:0:0:0:
448,192,109013,1,0,0:0:0:0:
320,192,109096,1,0,0:0:0:0:
64,192,109180,1,0,0:0:0:0:
192,192,109180,1,0,0:0:0:0:
448,192,109180,1,0,0:0:0:0:
192,192,109263,1,0,0:0:0:0:
64,192,109346,1,0,0:0:0:0:
320,192,109346,1,0,0:0:0:0:
448,192,109346,1,0,0:0:0:0:
192,192,109430,1,0,0:0:0:0:
64,192,109513,1,0,0:0:0:0:
320,192,109513,1,0,0:0:0:0:
448,192,109513,1,0,0:0:0:0:
192,192,109596,1,0,0:0:0:0:
448,192,109596,1,0,0:0:0:0:
64,192,109680,1,0,0:0:0:0:
320,192,109680,1,0,0:0:0:0:
192,192,109763,1,0,0:0:0:0:
448,192,109763,1,0,0:0:0:0:
64,192,109846,1,0,0:0:0:0:
320,192,109846,1,0,0:0:0:0:
192,192,109930,1,0,0:0:0:0:
64,192,110013,1,0,0:0:0:0:
320,192,110013,1,0,0:0:0:0:
448,192,110013,1,0,0:0:0:0:
192,192,110096,1,0,0:0:0:0:
64,192,110180,1,0,0:0:0:0:
320,192,110180,1,0,0:0:0:0:
192,192,110263,1,0,0:0:0:0:
448,192,110263,1,0,0:0:0:0:
64,192,110346,1,0,0:0:0:0:
320,192,110346,1,0,0:0:0:0:
448,192,110346,1,0,0:0:0:0:
192,192,110430,1,0,0:0:0:0:
64,192,110513,1,0,0:0:0:0:
320,192,110513,1,0,0:0:0:0:
448,192,110513,1,0,0:0:0:0:
192,192,110596,1,0,0:0:0:0:
64,192,110680,1,0,0:0:0:0:
320,192,110680,1,0,0:0:0:0:
448,192,110680,1,0,0:0:0:0:
192,192,110763,1,0,0:0:0:0:
64,192,110846,1,0,0:0:0:0:
320,192,110846,1,0,0:0:0:0:
448,192,110846,1,0,0:0:0:0:
192,192,110930,1,0,0:0:0:0:
448,192,110930,1,0,0:0:0:0:
64,192,111013,1,0,0:0:0:0:
320,192,111013,1,0,0:0:0:0:
192,192,111096,1,0,0:0:0:0:
448,192,111096,1,0,0:0:0:0:
64,192,111180,1,0,0:0:0:0:
320,192,111180,1,0,0:0:0:0:
192,192,111263,1,0,0:0:0:0:
64,192,111346,1,0,0:0:0:0:
320,192,111346,1,0,0:0:0:0:
448,192,111346,1,0,0:0:0:0:
192,192,111430,1,0,0:0:0:0:
448,192,111430,1,0,0:0:0:0:
64,192,111513,1,0,0:0:0:0:
320,192,111513,1,0,0:0:0:0:
448,192,111596,1,0,0:0:0:0:
64,192,111680,1,0,0:0:0:0:
192,192,111680,1,0,0:0:0:0:
320,192,111680,1,0,0:0:0:0:
320,192,111763,1,0,0:0:0:0:
64,192,111846,1,0,0:0:0:0:
192,192,111846,1,0,0:0:0:0:
448,192,111846,1,0,0:0:0:0:
320,192,111930,1,0,0:0:0:0:
448,192,111930,1,0,0:0:0:0:
64,192,112013,1,0,0:0:0:0:
192,192,112055,1,0,0:0:0:0:
320,192,112096,1,0,0:0:0:0:
448,192,112138,1,0,0:0:0:0:
64,192,112180,1,0,0:0:0:0:
192,192,112180,1,0,0:0:0:0:
320,192,112263,1,0,0:0:0:0:
64,192,112346,1,0,0:0:0:0:
448,192,112346,1,0,0:0:0:0:
192,192,112388,1,0,0:0:0:0:
320,192,112430,1,0,0:0:0:0:
448,192,112471,1,0,0:0:0:0:
64,192,112513,1,0,0:0:0:0:
192,192,112513,1,0,0:0:0:0:
320,192,112596,1,0,0:0:0:0:
64,192,112680,1,0,0:0:0:0:
448,192,112680,1,0,0:0:0:0:
320,192,112721,1,0,0:0:0:0:
192,192,112763,1,0,0:0:0:0:
64,192,112805,1,0,0:0:0:0:
320,192,112846,1,0,0:0:0:0:
448,192,112846,1,0,0:0:0:0:
64,192,112930,1,0,0:0:0:0:
192,192,112930,1,0,0:0:0:0:
448,192,113013,1,0,0:0:0:0:
320,192,113055,1,0,0:0:0:0:
64,192,113096,1,0,0:0:0:0:
192,192,113096,1,0,0:0:0:0:
448,192,113138,1,0,0:0:0:0:
64,192,113180,1,0,0:0:0:0:
320,192,113180,1,0,0:0:0:0:
192,192,113221,1,0,0:0:0:0:
448,192,113263,1,0,0:0:0:0:
320,192,113305,1,0,0:0:0:0:
64,192,113346,1,0,0:0:0:0:
192,192,113346,1,0,0:0:0:0:
320,192,113430,1,0,0:0:0:0:
192,192,113513,1,0,0:0:0:0:
448,192,113513,1,0,0:0:0:0:
64,192,113596,1,0,0:0:0:0:
320,192,113596,1,0,0:0:0:0:
448,192,113596,1,0,0:0:0:0:
192,192,113680,1,0,0:0:0:0:
320,192,113680,1,0,0:0:0:0:
64,192,113763,1,0,0:0:0:0:
448,192,113763,1,0,0:0:0:0:
64,192,113846,1,0,0:0:0:0:
320,192,113846,1,0,0:0:0:0:
448,192,113846,1,0,0:0:0:0:
192,192,113930,1,0,0:0:0:0:
320,192,114013,1,0,0:0:0:0:
448,192,114013,1,0,0:0:0:0:
64,192,114096,1,0,0:0:0:0:
192,192,114096,1,0,0:0:0:0:
192,192,114180,1,0,0:0:0:0:
448,192,114180,1,0,0:0:0:0:
320,192,114263,1,0,0:0:0:0:
64,192,114346,1,0,0:0:0:0:
192,192,114346,1,0,0:0:0:0:
448,192,114346,1,0,0:0:0:0:
192,192,114430,1,0,0:0:0:0:
320,192,114430,1,0,0:0:0:0:
320,192,114513,1,0,0:0:0:0:
448,192,114513,1,0,0:0:0:0:
64,192,114596,1,0,0:0:0:0:
192,192,114596,1,0,0:0:0:0:
64,192,114680,1,0,0:0:0:0:
320,192,114680,1,0,0:0:0:0:
448,192,114680,1,0,0:0:0:0:
192,192,114763,1,0,0:0:0:0:
320,192,114846,1,0,0:0:0:0:
448,192,114846,1,0,0:0:0:0:
64,192,114930,1,0,0:0:0:0:
320,192,114930,1,0,0:0:0:0:
448,192,114930,1,0,0:0:0:0:
64,192,115013,1,0,0:0:0:0:
192,192,115013,1,0,0:0:0:0:
320,192,115096,1,0,0:0:0:0:
448,192,115096,1,0,0:0:0:0:
64,192,115180,1,0,0:0:0:0:
192,192,115180,1,0,0:0:0:0:
448,192,115180,1,0,0:0:0:0:
64,192,115263,1,0,0:0:0:0:
320,192,115263,1,0,0:0:0:0:
192,192,115346,1,0,0:0:0:0:
320,192,115346,1,0,0:0:0:0:
64,192,115430,1,0,0:0:0:0:
448,192,115430,1,0,0:0:0:0:
192,192,115513,1,0,0:0:0:0:
320,192,115513,1,0,0:0:0:0:
320,192,115596,1,0,0:0:0:0:
64,192,115680,1,0,0:0:0:0:
192,192,115680,1,0,0:0:0:0:
448,192,115680,1,0,0:0:0:0:
192,192,115763,1,0,0:0:0:0:
320,192,115763,1,0,0:0:0:0:
64,192,115846,1,0,0:0:0:0:
448,192,115846,1,0,0:0:0:0:
192,192,115930,1,0,0:0:0:0:
320,192,115930,1,0,0:0:0:0:
64,192,116013,1,0,0:0:0:0:
192,192,116013,1,0,0:0:0:0:
448,192,116013,1,0,0:0:0:0:
320,192,116096,1,0,0:0:0:0:
192,192,116180,1,0,0:0:0:0:
448,192,116180,1,0,0:0:0:0:
64,192,116263,1,0,0:0:0:0:
320,192,116263,1,0,0:0:0:0:
448,192,116263,1,0,0:0:0:0:
192,192,116346,1,0,0:0:0:0:
64,192,116430,1,0,0:0:0:0:
320,192,116430,1,0,0:0:0:0:
448,192,116430,1,0,0:0:0:0:
64,192,116513,1,0,0:0:0:0:
192,192,116513,1,0,0:0:0:0:
448,192,116513,1,0,0:0:0:0:
320,192,116596,1,0,0:0:0:0:
192,192,116680,1,0,0:0:0:0:
448,192,116680,1,0,0:0:0:0:
64,192,116763,1,0,0:0:0:0:
320,192,116763,1,0,0:0:0:0:
192,192,116846,1,0,0:0:0:0:
448,192,116846,1,0,0:0:0:0:
320,192,116930,1,0,0:0:0:0:
64,192,117013,1,0,0:0:0:0:
192,192,117013,1,0,0:0:0:0:
448,192,117013,1,0,0:0:0:0:
320,192,117096,1,0,0:0:0:0:
448,192,117096,1,0,0:0:0:0:
192,192,117180,1,0,0:0:0:0:
64,192,117263,1,0,0:0:0:0:
320,192,117263,1,0,0:0:0:0:
64,192,117346,1,0,0:0:0:0:
192,192,117346,1,0,0:0:0:0:
448,192,117346,1,0,0:0:0:0:
320,192,117430,1,0,0:0:0:0:
64,192,117513,1,0,0:0:0:0:
192,192,117513,1,0,0:0:0:0:
64,192,117596,1,0,0:0:0:0:
320,192,117596,1,0,0:0:0:0:
448,192,117596,1,0,0:0:0:0:
192,192,117680,1,0,0:0:0:0:
448,192,117680,1,0,0:0:0:0:
192,192,117763,1,0,0:0:0:0:
320,192,117763,1,0,0:0:0:0:
64,192,117846,1,0,0:0:0:0:
320,192,117846,1,0,0:0:0:0:
448,192,117846,1,0,0:0:0:0:
192,192,117930,1,0,0:0:0:0:
64,192,118013,1,0,0:0:0:0:
320,192,118013,1,0,0:0:0:0:
192,192,118096,1,0,0:0:0:0:
448,192,118096,1,0,0:0:0:0:
64,192,118180,1,0,0:0:0:0:
320,192,118180,1,0,0:0:0:0:
192,192,118263,1,0,0:0:0:0:
64,192,118346,1,0,0:0:0:0:
320,192,118346,1,0,0:0:0:0:
448,192,118346,1,0,0:0:0:0:
192,192,118430,1,0,0:0:0:0:
448,192,118430,1,0,0:0:0:0:
64,192,118513,1,0,0:0:0:0:
320,192,118513,1,0,0:0:0:0:
192,192,118596,1,0,0:0:0:0:
448,192,118596,1,0,0:0:0:0:
64,192,118680,1,0,0:0:0:0:
320,192,118680,1,0,0:0:0:0:
448,192,118680,1,0,0:0:0:0:
192,192,118763,1,0,0:0:0:0:
64,192,118846,1,0,0:0:0:0:
320,192,118846,1,0,0:0:0:0:
448,192,118846,1,0,0:0:0:0:
192,192,118930,1,0,0:0:0:0:
448,192,118930,1,0,0:0:0:0:
64,192,119013,1,0,0:0:0:0:
192,192,119013,1,0,0:0:0:0:
320,192,119096,1,0,0:0:0:0:
448,192,119096,1,0,0:0:0:0:
64,192,119180,1,0,0:0:0:0:
192,192,119180,1,0,0:0:0:0:
448,192,119180,1,0,0:0:0:0:
320,192,119263,1,0,0:0:0:0:
64,192,119346,1,0,0:0:0:0:
192,192,119346,1,0,0:0:0:0:
448,192,119346,1,0,0:0:0:0:
320,192,119430,1,0,0:0:0:0:
448,192,119430,1,0,0:0:0:0:
64,192,119513,1,0,0:0:0:0:
192,192,119513,1,0,0:0:0:0:
320,192,119596,1,0,0:0:0:0:
448,192,119596,1,0,0:0:0:0:
64,192,119680,1,0,0:0:0:0:
192,192,119680,1,0,0:0:0:0:
320,192,119763,1,0,0:0:0:0:
64,192,119846,1,0,0:0:0:0:
448,192,119846,1,0,0:0:0:0:
192,192,119930,1,0,0:0:0:0:
320,192,119930,1,0,0:0:0:0:
64,192,120013,1,0,0:0:0:0:
320,192,120013,1,0,0:0:0:0:
448,192,120013,1,0,0:0:0:0:
192,192,120096,1,0,0:0:0:0:
64,192,120180,1,0,0:0:0:0:
320,192,120180,1,0,0:0:0:0:
448,192,120180,1,0,0:0:0:0:
192,192,120263,1,0,0:0:0:0:
320,192,120263,1,0,0:0:0:0:
64,192,120346,1,0,0:0:0:0:
448,192,120346,1,0,0:0:0:0:
192,192,120430,1,0,0:0:0:0:
320,192,120430,1,0,0:0:0:0:
64,192,120513,1,0,0:0:0:0:
448,192,120513,1,0,0:0:0:0:
192,192,120596,1,0,0:0:0:0:
320,192,120596,1,0,0:0:0:0:
64,192,120680,1,0,0:0:0:0:
192,192,120680,1,0,0:0:0:0:
448,192,120680,1,0,0:0:0:0:
320,192,120763,1,0,0:0:0:0:
64,192,120846,1,0,0:0:0:0:
448,192,120846,1,0,0:0:0:0:
320,192,120930,1,0,0:0:0:0:
64,192,121013,1,0,0:0:0:0:
192,192,121013,1,0,0:0:0:0:
448,192,121013,1,0,0:0:0:0:
192,192,121096,1,0,0:0:0:0:
64,192,121180,1,0,0:0:0:0:
320,192,121180,1,0,0:0:0:0:
448,192,121180,1,0,0:0:0:0:
320,192,121263,1,0,0:0:0:0:
64,192,121346,1,0,0:0:0:0:
192,192,121346,1,0,0:0:0:0:
448,192,121346,1,0,0:0:0:0:
192,192,121430,1,0,0:0:0:0:
320,192,121430,1,0,0:0:0:0:
64,192,121513,1,0,0:0:0:0:
448,192,121513,1,0,0:0:0:0:
192,192,121596,1,0,0:0:0:0:
320,192,121596,1,0,0:0:0:0:
64,192,121680,1,0,0:0:0:0:
320,192,121680,1,0,0:0:0:0:
192,192,121763,1,0,0:0:0:0:
448,192,121763,1,0,0:0:0:0:
64,192,121846,1,0,0:0:0:0:
320,192,121846,1,0,0:0:0:0:
192,192,121930,1,0,0:0:0:0:
448,192,121930,1,0,0:0:0:0:
64,192,122013,1,0,0:0:0:0:
320,192,122013,1,0,0:0:0:0:
448,192,122013,1,0,0:0:0:0:
192,192,122096,1,0,0:0:0:0:
64,192,122180,1,0,0:0:0:0:
320,192,122180,1,0,0:0:0:0:
192,192,122263,1,0,0:0:0:0:
448,192,122263,1,0,0:0:0:0:
64,192,122346,1,0,0:0:0:0:
320,192,122346,1,0,0:0:0:0:
192,192,122430,1,0,0:0:0:0:
448,192,122430,1,0,0:0:0:0:
64,192,122513,1,0,0:0:0:0:
448,192,122513,1,0,0:0:0:0:
192,192,122596,1,0,0:0:0:0:
320,192,122596,1,0,0:0:0:0:
64,192,122680,1,0,0:0:0:0:
448,192,122680,1,0,0:0:0:0:
320,192,122721,1,0,0:0:0:0:
192,192,122763,1,0,0:0:0:0:
64,192,122805,1,0,0:0:0:0:
320,192,122846,1,0,0:0:0:0:
448,192,122846,1,0,0:0:0:0:
192,192,122930,1,0,0:0:0:0:
64,192,123013,1,0,0:0:0:0:
448,192,123013,1,0,0:0:0:0:
320,192,123055,1,0,0:0:0:0:
192,192,123096,1,0,0:0:0:0:
64,192,123138,1,0,0:0:0:0:
320,192,123180,1,0,0:0:0:0:
448,192,123180,1,0,0:0:0:0:
192,192,123263,1,0,0:0:0:0:
64,192,123346,1,0,0:0:0:0:
320,192,123346,1,0,0:0:0:0:
448,192,123346,1,0,0:0:0:0:
192,192,123430,1,0,0:0:0:0:
64,192,123457,1,0,0:0:0:0:
448,192,123457,1,0,0:0:0:0:
320,192,123513,1,0,0:0:0:0:
64,192,123568,1,0,0:0:0:0:
192,192,123568,1,0,0:0:0:0:
448,192,123596,1,0,0:0:0:0:
64,192,123680,1,0,0:0:0:0:
192,192,123680,1,0,0:0:0:0:
320,192,123680,1,0,0:0:0:0:
448,192,123763,1,0,0:0:0:0:
64,192,123791,1,0,0:0:0:0:
320,192,123791,1,0,0:0:0:0:
192,192,123846,1,0,0:0:0:0:
64,192,123902,1,0,0:0:0:0:
320,192,123902,1,0,0:0:0:0:
448,192,123902,1,0,0:0:0:0:
192,192,123971,1,0,0:0:0:0:
64,192,124013,1,0,0:0:0:0:
320,192,124013,1,0,0:0:0:0:
448,192,124013,1,0,0:0:0:0:
448,192,126680,1,0,0:0:0:0:
