osu file format v14

[General]
AudioFilename: 9. Scarlet Desire.mp3
AudioLeadIn: 2
PreviewTime: 84380
Countdown: 0
SampleSet: None
StackLeniency: 0.7
Mode: 3
LetterboxInBreaks: 0
SpecialStyle: 0
WidescreenStoryboard: 0

[Editor]
DistanceSpacing: 0.8
BeatDivisor: 4
GridSize: 8
TimelineZoom: 1

[Metadata]
Title:Fish A La Carte
TitleUnicode:Fish A La Carte
Artist:Various Artists
ArtistUnicode:Various Artists
Creator:Yellyfish
Version:Scarlet Desire
Source:
Tags:
BeatmapID:1117100
BeatmapSetID:526427

[Difficulty]
HPDrainRate:7
CircleSize:4
OverallDifficulty:8
ApproachRate:10
SliderMultiplier:1.4
SliderTickRate:1

[Events]
//Background and Video events
0,0,"9. Scarlet Desire.jpg",0,0
//Break Periods
//Storyboard Layer 0 (Background)
//Storyboard Layer 1 (Fail)
//Storyboard Layer 2 (Pass)
//Storyboard Layer 3 (Foreground)
//Storyboard Sound Samples

[TimingPoints]
60,375,4,1,0,0,1,0

[HitObjects]
64,192,435,5,0,0:0:0:0:
320,192,435,1,0,0:0:0:0:
448,192,435,1,0,0:0:0:0:
192,192,528,1,0,0:0:0:0:
320,192,528,1,0,0:0:0:0:
64,192,622,1,0,0:0:0:0:
192,192,622,1,0,0:0:0:0:
64,192,810,1,0,0:0:0:0:
320,192,810,1,0,0:0:0:0:
64,192,903,1,0,0:0:0:0:
192,192,903,1,0,0:0:0:0:
320,192,997,1,0,0:0:0:0:
448,192,997,1,0,0:0:0:0:
192,192,1091,1,0,0:0:0:0:
320,192,1091,1,0,0:0:0:0:
64,192,1185,1,0,0:0:0:0:
448,192,1185,1,0,0:0:0:0:
192,192,1372,1,0,0:0:0:0:
320,192,1372,1,0,0:0:0:0:
192,192,1560,1,0,0:0:0:0:
448,192,1560,1,0,0:0:0:0:
320,192,1653,1,0,0:0:0:0:
448,192,1747,1,0,0:0:0:0:
192,192,1841,1,0,0:0:0:0:
64,192,1935,1,0,0:0:0:0:
192,192,1935,1,0,0:0:0:0:
320,192,1935,1,0,0:0:0:0:
192,192,2122,1,0,0:0:0:0:
448,192,2122,1,0,0:0:0:0:
64,192,2216,1,0,0:0:0:0:
320,192,2216,1,0,0:0:0:0:
64,192,2310,1,0,0:0:0:0:
192,192,2310,1,0,0:0:0:0:
64,192,2497,1,0,0:0:0:0:
320,192,2497,1,0,0:0:0:0:
64,192,2685,1,0,0:0:0:0:
192,192,2685,1,0,0:0:0:0:
192,192,2778,1,0,0:0:0:0:
320,192,2778,1,0,0:0:0:0:
320,192,2872,1,0,0:0:0:0:
448,192,2872,1,0,0:0:0:0:
64,192,2966,1,0,0:0:0:0:
192,192,2966,1,0,0:0:0:0:
320,192,3060,1,0,0:0:0:0:
448,192,3060,1,0,0:0:0:0:
192,192,3247,1,0,0:0:0:0:
448,192,3247,1,0,0:0:0:0:
64,192,3435,1,0,0:0:0:0:
192,192,3435,1,0,0:0:0:0:
320,192,3435,1,0,0:0:0:0:
64,192,3497,1,0,0:0:0:0:
320,192,3497,1,0,0:0:0:0:
192,192,3560,1,0,0:0:0:0:
448,192,3560,1,0,0:0:0:0:
64,192,3622,1,0,0:0:0:0:
320,192,3622,1,0,0:0:0:0:
64,192,3810,1,0,0:0:0:0:
320,192,3810,1,0,0:0:0:0:
192,192,3997,1,0,0:0:0:0:
448,192,3997,1,0,0:0:0:0:
320,192,4185,1,0,0:0:0:0:
448,192,4185,1,0,0:0:0:0:
64,192,4278,1,0,0:0:0:0:
192,192,4278,1,0,0:0:0:0:
192,192,4372,1,0,0:0:0:0:
320,192,4372,1,0,0:0:0:0:
64,192,4560,1,0,0:0:0:0:
192,192,4560,1,0,0:0:0:0:
64,192,4653,1,0,0:0:0:0:
320,192,4653,1,0,0:0:0:0:
192,192,4747,1,0,0:0:0:0:
448,192,4747,1,0,0:0:0:0:
64,192,4935,1,0,0:0:0:0:
192,192,4935,1,0,0:0:0:0:
448,192,4935,1,0,0:0:0:0:
64,192,5028,1,0,0:0:0:0:
320,192,5028,1,0,0:0:0:0:
192,192,5122,1,0,0:0:0:0:
448,192,5122,1,0,0:0:0:0:
320,192,5216,1,0,0:0:0:0:
448,192,5216,1,0,0:0:0:0:
192,192,5310,1,0,0:0:0:0:
320,192,5310,1,0,0:0:0:0:
64,192,5403,1,0,0:0:0:0:
192,192,5403,1,0,0:0:0:0:
64,192,5497,1,0,0:0:0:0:
320,192,5497,1,0,0:0:0:0:
192,192,5591,1,0,0:0:0:0:
448,192,5591,1,0,0:0:0:0:
64,192,5685,1,0,0:0:0:0:
448,192,5685,1,0,0:0:0:0:
192,192,5872,1,0,0:0:0:0:
320,192,5872,1,0,0:0:0:0:
320,192,5966,1,0,0:0:0:0:
448,192,5966,1,0,0:0:0:0:
64,192,6153,1,0,0:0:0:0:
192,192,6153,1,0,0:0:0:0:
64,192,6247,1,0,0:0:0:0:
448,192,6247,1,0,0:0:0:0:
192,192,6435,1,0,0:0:0:0:
320,192,6435,1,0,0:0:0:0:
448,192,6435,1,0,0:0:0:0:
192,192,6622,1,0,0:0:0:0:
320,192,6622,1,0,0:0:0:0:
192,192,6810,1,0,0:0:0:0:
448,192,6810,1,0,0:0:0:0:
64,192,6903,1,0,0:0:0:0:
192,192,6903,1,0,0:0:0:0:
320,192,6997,1,0,0:0:0:0:
448,192,6997,1,0,0:0:0:0:
64,192,7185,1,0,0:0:0:0:
192,192,7185,1,0,0:0:0:0:
320,192,7278,1,0,0:0:0:0:
448,192,7278,1,0,0:0:0:0:
192,192,7372,1,0,0:0:0:0:
320,192,7372,1,0,0:0:0:0:
320,192,7560,1,0,0:0:0:0:
448,192,7560,1,0,0:0:0:0:
64,192,7747,1,0,0:0:0:0:
192,192,7747,1,0,0:0:0:0:
192,192,7935,1,0,0:0:0:0:
320,192,7935,1,0,0:0:0:0:
448,192,7935,1,0,0:0:0:0:
64,192,7997,1,0,0:0:0:0:
192,192,7997,1,0,0:0:0:0:
320,192,8060,1,0,0:0:0:0:
448,192,8060,1,0,0:0:0:0:
64,192,8122,1,0,0:0:0:0:
192,192,8122,1,0,0:0:0:0:
320,192,8122,1,0,0:0:0:0:
192,192,8310,1,0,0:0:0:0:
448,192,8310,1,0,0:0:0:0:
320,192,8497,1,0,0:0:0:0:
448,192,8497,1,0,0:0:0:0:
64,192,8685,1,0,0:0:0:0:
192,192,8685,1,0,0:0:0:0:
320,192,8778,1,0,0:0:0:0:
192,192,8872,1,0,0:0:0:0:
448,192,8966,1,0,0:0:0:0:
64,192,9060,1,0,0:0:0:0:
192,192,9060,1,0,0:0:0:0:
320,192,9153,1,0,0:0:0:0:
64,192,9247,1,0,0:0:0:0:
448,192,9247,1,0,0:0:0:0:
192,192,9341,1,0,0:0:0:0:
192,192,9435,1,0,0:0:0:0:
320,192,9435,1,0,0:0:0:0:
448,192,9435,1,0,0:0:0:0:
64,192,9528,1,0,0:0:0:0:
448,192,9528,1,0,0:0:0:0:
64,192,9622,1,0,0:0:0:0:
192,192,9622,1,0,0:0:0:0:
320,192,9716,1,0,0:0:0:0:
448,192,9716,1,0,0:0:0:0:
192,192,9810,1,0,0:0:0:0:
320,192,9810,1,0,0:0:0:0:
320,192,9997,1,0,0:0:0:0:
448,192,9997,1,0,0:0:0:0:
192,192,10091,1,0,0:0:0:0:
320,192,10091,1,0,0:0:0:0:
64,192,10185,1,0,0:0:0:0:
448,192,10185,1,0,0:0:0:0:
320,192,10372,1,0,0:0:0:0:
448,192,10372,1,0,0:0:0:0:
192,192,10466,1,0,0:0:0:0:
448,192,10466,1,0,0:0:0:0:
64,192,10653,1,0,0:0:0:0:
192,192,10653,1,0,0:0:0:0:
64,192,10747,1,0,0:0:0:0:
320,192,10747,1,0,0:0:0:0:
64,192,10935,1,0,0:0:0:0:
192,192,10935,1,0,0:0:0:0:
448,192,10935,1,0,0:0:0:0:
192,192,11122,1,0,0:0:0:0:
320,192,11122,1,0,0:0:0:0:
64,192,11216,1,0,0:0:0:0:
320,192,11216,1,0,0:0:0:0:
192,192,11310,1,0,0:0:0:0:
448,192,11310,1,0,0:0:0:0:
320,192,11497,1,0,0:0:0:0:
448,192,11497,1,0,0:0:0:0:
192,192,11591,1,0,0:0:0:0:
320,192,11591,1,0,0:0:0:0:
64,192,11685,1,0,0:0:0:0:
192,192,11685,1,0,0:0:0:0:
448,192,11685,1,0,0:0:0:0:
192,192,11872,1,0,0:0:0:0:
320,192,11872,1,0,0:0:0:0:
64,192,11966,1,0,0:0:0:0:
192,192,11966,1,0,0:0:0:0:
320,192,12060,1,0,0:0:0:0:
448,192,12060,1,0,0:0:0:0:
448,192,12153,1,0,0:0:0:0:
320,192,12247,1,0,0:0:0:0:
192,192,12341,1,0,0:0:0:0:
64,192,12435,1,0,0:0:0:0:
320,192,12435,1,0,0:0:0:0:
448,192,12435,1,0,0:0:0:0:
192,192,12528,1,0,0:0:0:0:
320,192,12528,1,0,0:0:0:0:
320,192,12622,1,0,0:0:0:0:
192,192,12716,1,0,0:0:0:0:
64,192,12810,1,0,0:0:0:0:
320,192,12810,1,0,0:0:0:0:
64,192,12903,1,0,0:0:0:0:
192,192,12903,1,0,0:0:0:0:
320,192,12997,1,0,0:0:0:0:
192,192,13091,1,0,0:0:0:0:
320,192,13185,1,0,0:0:0:0:
448,192,13185,1,0,0:0:0:0:
192,192,13278,1,0,0:0:0:0:
320,192,13278,1,0,0:0:0:0:
64,192,13372,1,0,0:0:0:0:
448,192,13466,1,0,0:0:0:0:
192,192,13560,1,0,0:0:0:0:
320,192,13560,1,0,0:0:0:0:
192,192,13653,1,0,0:0:0:0:
448,192,13653,1,0,0:0:0:0:
64,192,13747,1,0,0:0:0:0:
320,192,13841,1,0,0:0:0:0:
192,192,13935,1,0,0:0:0:0:
320,192,13935,1,0,0:0:0:0:
64,192,14028,1,0,0:0:0:0:
192,192,14028,1,0,0:0:0:0:
448,192,14122,1,0,0:0:0:0:
320,192,14216,1,0,0:0:0:0:
64,192,14310,1,0,0:0:0:0:
192,192,14310,1,0,0:0:0:0:
192,192,14403,1,0,0:0:0:0:
320,192,14403,1,0,0:0:0:0:
64,192,14497,1,0,0:0:0:0:
320,192,14591,1,0,0:0:0:0:
192,192,14685,1,0,0:0:0:0:
448,192,14685,1,0,0:0:0:0:
320,192,14778,1,0,0:0:0:0:
448,192,14778,1,0,0:0:0:0:
192,192,14872,1,0,0:0:0:0:
320,192,14966,1,0,0:0:0:0:
64,192,15060,1,0,0:0:0:0:
192,192,15060,1,0,0:0:0:0:
192,192,15153,1,0,0:0:0:0:
320,192,15153,1,0,0:0:0:0:
448,192,15247,1,0,0:0:0:0:
320,192,15341,1,0,0:0:0:0:
64,192,15435,1,0,0:0:0:0:
192,192,15435,1,0,0:0:0:0:
448,192,15435,1,0,0:0:0:0:
192,192,15528,1,0,0:0:0:0:
320,192,15528,1,0,0:0:0:0:
64,192,15622,1,0,0:0:0:0:
192,192,15716,1,0,0:0:0:0:
320,192,15810,1,0,0:0:0:0:
448,192,15810,1,0,0:0:0:0:
192,192,15903,1,0,0:0:0:0:
320,192,15903,1,0,0:0:0:0:
448,192,15997,1,0,0:0:0:0:
320,192,16091,1,0,0:0:0:0:
64,192,16185,1,0,0:0:0:0:
192,192,16185,1,0,0:0:0:0:
192,192,16278,1,0,0:0:0:0:
320,192,16278,1,0,0:0:0:0:
64,192,16372,1,0,0:0:0:0:
448,192,16466,1,0,0:0:0:0:
192,192,16560,1,0,0:0:0:0:
320,192,16560,1,0,0:0:0:0:
64,192,16653,1,0,0:0:0:0:
320,192,16653,1,0,0:0:0:0:
448,192,16747,1,0,0:0:0:0:
320,192,16841,1,0,0:0:0:0:
64,192,16935,1,0,0:0:0:0:
192,192,16935,1,0,0:0:0:0:
192,192,17028,1,0,0:0:0:0:
320,192,17028,1,0,0:0:0:0:
448,192,17122,1,0,0:0:0:0:
64,192,17216,1,0,0:0:0:0:
320,192,17310,1,0,0:0:0:0:
448,192,17310,1,0,0:0:0:0:
192,192,17403,1,0,0:0:0:0:
320,192,17403,1,0,0:0:0:0:
64,192,17497,1,0,0:0:0:0:
192,192,17591,1,0,0:0:0:0:
64,192,17685,1,0,0:0:0:0:
448,192,17685,1,0,0:0:0:0:
192,192,17778,1,0,0:0:0:0:
320,192,17778,1,0,0:0:0:0:
192,192,17872,1,0,0:0:0:0:
320,192,17966,1,0,0:0:0:0:
64,192,18060,1,0,0:0:0:0:
448,192,18060,1,0,0:0:0:0:
64,192,18153,1,0,0:0:0:0:
320,192,18153,1,0,0:0:0:0:
192,192,18247,1,0,0:0:0:0:
448,192,18341,1,0,0:0:0:0:
192,192,18435,1,0,0:0:0:0:
320,192,18435,1,0,0:0:0:0:
448,192,18435,1,0,0:0:0:0:
64,192,18481,1,0,0:0:0:0:
192,192,18528,1,0,0:0:0:0:
320,192,18622,1,0,0:0:0:0:
448,192,18622,1,0,0:0:0:0:
192,192,18669,1,0,0:0:0:0:
64,192,18716,1,0,0:0:0:0:
448,192,18810,1,0,0:0:0:0:
320,192,18856,1,0,0:0:0:0:
192,192,18903,1,0,0:0:0:0:
64,192,18997,1,0,0:0:0:0:
320,192,18997,1,0,0:0:0:0:
448,192,18997,1,0,0:0:0:0:
192,192,19044,1,0,0:0:0:0:
320,192,19091,1,0,0:0:0:0:
64,192,19185,1,0,0:0:0:0:
192,192,19185,1,0,0:0:0:0:
320,192,19231,1,0,0:0:0:0:
448,192,19278,1,0,0:0:0:0:
64,192,19372,1,0,0:0:0:0:
320,192,19419,1,0,0:0:0:0:
192,192,19466,1,0,0:0:0:0:
64,192,19560,1,0,0:0:0:0:
320,192,19560,1,0,0:0:0:0:
448,192,19560,1,0,0:0:0:0:
192,192,19606,1,0,0:0:0:0:
320,192,19653,1,0,0:0:0:0:
64,192,19747,1,0,0:0:0:0:
192,192,19747,1,0,0:0:0:0:
320,192,19794,1,0,0:0:0:0:
448,192,19841,1,0,0:0:0:0:
64,192,19935,1,0,0:0:0:0:
192,192,19935,1,0,0:0:0:0:
320,192,19935,1,0,0:0:0:0:
448,192,19981,1,0,0:0:0:0:
192,192,20028,1,0,0:0:0:0:
64,192,20122,1,0,0:0:0:0:
320,192,20122,1,0,0:0:0:0:
192,192,20216,1,0,0:0:0:0:
448,192,20216,1,0,0:0:0:0:
64,192,20310,1,0,0:0:0:0:
192,192,20310,1,0,0:0:0:0:
320,192,20310,1,0,0:0:0:0:
448,192,20356,1,0,0:0:0:0:
64,192,20403,1,0,0:0:0:0:
320,192,20403,1,0,0:0:0:0:
192,192,20497,1,0,0:0:0:0:
448,192,20497,1,0,0:0:0:0:
64,192,20591,1,0,0:0:0:0:
320,192,20591,1,0,0:0:0:0:
192,192,20685,1,0,0:0:0:0:
320,192,20685,1,0,0:0:0:0:
448,192,20685,1,0,0:0:0:0:
64,192,20731,1,0,0:0:0:0:
192,192,20778,1,0,0:0:0:0:
64,192,20872,1,0,0:0:0:0:
192,192,20872,1,0,0:0:0:0:
448,192,20872,1,0,0:0:0:0:
64,192,20966,1,0,0:0:0:0:
320,192,20966,1,0,0:0:0:0:
64,192,21060,1,0,0:0:0:0:
192,192,21060,1,0,0:0:0:0:
320,192,21106,1,0,0:0:0:0:
192,192,21153,1,0,0:0:0:0:
448,192,21153,1,0,0:0:0:0:
64,192,21247,1,0,0:0:0:0:
320,192,21247,1,0,0:0:0:0:
192,192,21341,1,0,0:0:0:0:
448,192,21341,1,0,0:0:0:0:
64,192,21435,1,0,0:0:0:0:
320,192,21435,1,0,0:0:0:0:
448,192,21435,1,0,0:0:0:0:
192,192,21481,1,0,0:0:0:0:
64,192,21528,1,0,0:0:0:0:
320,192,21622,1,0,0:0:0:0:
448,192,21622,1,0,0:0:0:0:
192,192,21669,1,0,0:0:0:0:
320,192,21716,1,0,0:0:0:0:
64,192,21810,1,0,0:0:0:0:
448,192,21810,1,0,0:0:0:0:
192,192,21903,1,0,0:0:0:0:
192,192,21997,1,0,0:0:0:0:
320,192,21997,1,0,0:0:0:0:
448,192,21997,1,0,0:0:0:0:
64,192,22091,1,0,0:0:0:0:
320,192,22091,1,0,0:0:0:0:
64,192,22185,1,0,0:0:0:0:
192,192,22185,1,0,0:0:0:0:
448,192,22185,1,0,0:0:0:0:
320,192,22372,1,0,0:0:0:0:
448,192,22372,1,0,0:0:0:0:
64,192,22466,1,0,0:0:0:0:
192,192,22466,1,0,0:0:0:0:
320,192,22466,1,0,0:0:0:0:
64,192,22653,1,0,0:0:0:0:
192,192,22653,1,0,0:0:0:0:
192,192,22747,1,0,0:0:0:0:
320,192,22747,1,0,0:0:0:0:
448,192,22747,1,0,0:0:0:0:
64,192,22935,1,0,0:0:0:0:
320,192,22935,1,0,0:0:0:0:
448,192,22935,1,0,0:0:0:0:
64,192,23122,1,0,0:0:0:0:
320,192,23122,1,0,0:0:0:0:
192,192,23216,1,0,0:0:0:0:
320,192,23216,1,0,0:0:0:0:
448,192,23216,1,0,0:0:0:0:
64,192,23403,1,0,0:0:0:0:
448,192,23403,1,0,0:0:0:0:
64,192,23497,1,0,0:0:0:0:
192,192,23497,1,0,0:0:0:0:
320,192,23497,1,0,0:0:0:0:
64,192,23685,1,0,0:0:0:0:
320,192,23685,1,0,0:0:0:0:
448,192,23685,1,0,0:0:0:0:
192,192,23872,1,0,0:0:0:0:
320,192,23872,1,0,0:0:0:0:
192,192,23966,1,0,0:0:0:0:
448,192,23966,1,0,0:0:0:0:
64,192,24060,1,0,0:0:0:0:
320,192,24060,1,0,0:0:0:0:
64,192,24247,1,0,0:0:0:0:
448,192,24247,1,0,0:0:0:0:
64,192,24435,1,0,0:0:0:0:
320,192,24435,1,0,0:0:0:0:
448,192,24435,1,0,0:0:0:0:
192,192,24528,1,0,0:0:0:0:
448,192,24528,1,0,0:0:0:0:
320,192,24622,1,0,0:0:0:0:
64,192,24716,1,0,0:0:0:0:
320,192,24810,1,0,0:0:0:0:
448,192,24810,1,0,0:0:0:0:
192,192,24903,1,0,0:0:0:0:
320,192,24903,1,0,0:0:0:0:
64,192,24997,1,0,0:0:0:0:
448,192,25091,1,0,0:0:0:0:
192,192,25185,1,0,0:0:0:0:
320,192,25185,1,0,0:0:0:0:
64,192,25278,1,0,0:0:0:0:
192,192,25278,1,0,0:0:0:0:
448,192,25372,1,0,0:0:0:0:
320,192,25466,1,0,0:0:0:0:
64,192,25560,1,0,0:0:0:0:
192,192,25560,1,0,0:0:0:0:
192,192,25653,1,0,0:0:0:0:
320,192,25653,1,0,0:0:0:0:
64,192,25747,1,0,0:0:0:0:
192,192,25841,1,0,0:0:0:0:
320,192,25935,1,0,0:0:0:0:
448,192,25935,1,0,0:0:0:0:
192,192,26028,1,0,0:0:0:0:
448,192,26028,1,0,0:0:0:0:
320,192,26122,1,0,0:0:0:0:
64,192,26216,1,0,0:0:0:0:
192,192,26310,1,0,0:0:0:0:
320,192,26310,1,0,0:0:0:0:
64,192,26403,1,0,0:0:0:0:
192,192,26403,1,0,0:0:0:0:
448,192,26497,1,0,0:0:0:0:
320,192,26591,1,0,0:0:0:0:
64,192,26685,1,0,0:0:0:0:
192,192,26685,1,0,0:0:0:0:
64,192,26778,1,0,0:0:0:0:
320,192,26778,1,0,0:0:0:0:
448,192,26872,1,0,0:0:0:0:
320,192,26966,1,0,0:0:0:0:
64,192,27060,1,0,0:0:0:0:
192,192,27060,1,0,0:0:0:0:
192,192,27153,1,0,0:0:0:0:
320,192,27153,1,0,0:0:0:0:
64,192,27247,1,0,0:0:0:0:
192,192,27341,1,0,0:0:0:0:
192,192,27435,1,0,0:0:0:0:
320,192,27435,1,0,0:0:0:0:
448,192,27435,1,0,0:0:0:0:
64,192,27528,1,0,0:0:0:0:
320,192,27528,1,0,0:0:0:0:
192,192,27622,1,0,0:0:0:0:
320,192,27622,1,0,0:0:0:0:
320,192,27716,1,0,0:0:0:0:
448,192,27716,1,0,0:0:0:0:
64,192,27810,1,0,0:0:0:0:
448,192,27810,1,0,0:0:0:0:
192,192,27903,1,0,0:0:0:0:
320,192,27903,1,0,0:0:0:0:
192,192,27997,1,0,0:0:0:0:
320,192,27997,1,0,0:0:0:0:
448,192,27997,1,0,0:0:0:0:
64,192,28044,1,0,0:0:0:0:
192,192,28091,1,0,0:0:0:0:
320,192,28138,1,0,0:0:0:0:
448,192,28185,1,0,0:0:0:0:
192,192,28231,1,0,0:0:0:0:
320,192,28278,1,0,0:0:0:0:
64,192,28325,1,0,0:0:0:0:
192,192,28372,1,0,0:0:0:0:
320,192,28372,1,0,0:0:0:0:
448,192,28372,1,0,0:0:0:0:
64,192,28419,1,0,0:0:0:0:
320,192,28466,1,0,0:0:0:0:
192,192,28513,1,0,0:0:0:0:
320,192,28560,1,0,0:0:0:0:
64,192,28606,1,0,0:0:0:0:
448,192,28606,1,0,0:0:0:0:
192,192,28653,1,0,0:0:0:0:
448,192,28700,1,0,0:0:0:0:
64,192,28747,1,0,0:0:0:0:
192,192,28747,1,0,0:0:0:0:
320,192,28747,1,0,0:0:0:0:
64,192,28841,1,0,0:0:0:0:
320,192,28841,1,0,0:0:0:0:
192,192,28935,1,0,0:0:0:0:
320,192,28935,1,0,0:0:0:0:
448,192,28935,1,0,0:0:0:0:
192,192,29028,1,0,0:0:0:0:
320,192,29028,1,0,0:0:0:0:
64,192,29122,1,0,0:0:0:0:
448,192,29122,1,0,0:0:0:0:
64,192,29216,1,0,0:0:0:0:
320,192,29216,1,0,0:0:0:0:
64,192,29310,1,0,0:0:0:0:
192,192,29310,1,0,0:0:0:0:
64,192,29403,1,0,0:0:0:0:
448,192,29403,1,0,0:0:0:0:
192,192,29497,1,0,0:0:0:0:
320,192,29497,1,0,0:0:0:0:
448,192,29497,1,0,0:0:0:0:
64,192,29544,1,0,0:0:0:0:
192,192,29591,1,0,0:0:0:0:
320,192,29638,1,0,0:0:0:0:
64,192,29685,1,0,0:0:0:0:
448,192,29731,1,0,0:0:0:0:
192,192,29778,1,0,0:0:0:0:
448,192,29825,1,0,0:0:0:0:
64,192,29872,1,0,0:0:0:0:
192,192,29872,1,0,0:0:0:0:
320,192,29872,1,0,0:0:0:0:
448,192,29919,1,0,0:0:0:0:
64,192,29966,1,0,0:0:0:0:
192,192,30013,1,0,0:0:0:0:
448,192,30060,1,0,0:0:0:0:
320,192,30106,1,0,0:0:0:0:
64,192,30153,1,0,0:0:0:0:
192,192,30200,1,0,0:0:0:0:
64,192,30247,1,0,0:0:0:0:
320,192,30247,1,0,0:0:0:0:
448,192,30247,1,0,0:0:0:0:
64,192,30341,1,0,0:0:0:0:
192,192,30341,1,0,0:0:0:0:
192,192,30435,1,0,0:0:0:0:
320,192,30435,1,0,0:0:0:0:
448,192,30435,1,0,0:0:0:0:
64,192,30528,1,0,0:0:0:0:
320,192,30528,1,0,0:0:0:0:
192,192,30622,1,0,0:0:0:0:
448,192,30716,1,0,0:0:0:0:
192,192,30810,1,0,0:0:0:0:
320,192,30810,1,0,0:0:0:0:
64,192,30903,1,0,0:0:0:0:
192,192,30903,1,0,0:0:0:0:
320,192,30997,1,0,0:0:0:0:
64,192,31091,1,0,0:0:0:0:
192,192,31185,1,0,0:0:0:0:
448,192,31185,1,0,0:0:0:0:
320,192,31278,1,0,0:0:0:0:
448,192,31278,1,0,0:0:0:0:
192,192,31372,1,0,0:0:0:0:
64,192,31466,1,0,0:0:0:0:
320,192,31560,1,0,0:0:0:0:
448,192,31560,1,0,0:0:0:0:
192,192,31653,1,0,0:0:0:0:
320,192,31653,1,0,0:0:0:0:
64,192,31747,1,0,0:0:0:0:
320,192,31841,1,0,0:0:0:0:
192,192,31935,1,0,0:0:0:0:
448,192,31935,1,0,0:0:0:0:
64,192,32028,1,0,0:0:0:0:
320,192,32028,1,0,0:0:0:0:
192,192,32122,1,0,0:0:0:0:
448,192,32216,1,0,0:0:0:0:
192,192,32310,1,0,0:0:0:0:
320,192,32310,1,0,0:0:0:0:
64,192,32403,1,0,0:0:0:0:
192,192,32403,1,0,0:0:0:0:
448,192,32497,1,0,0:0:0:0:
320,192,32591,1,0,0:0:0:0:
192,192,32685,1,0,0:0:0:0:
448,192,32685,1,0,0:0:0:0:
320,192,32778,1,0,0:0:0:0:
448,192,32778,1,0,0:0:0:0:
64,192,32872,1,0,0:0:0:0:
192,192,32966,1,0,0:0:0:0:
192,192,33060,1,0,0:0:0:0:
320,192,33060,1,0,0:0:0:0:
64,192,33153,1,0,0:0:0:0:
320,192,33153,1,0,0:0:0:0:
192,192,33247,1,0,0:0:0:0:
448,192,33341,1,0,0:0:0:0:
64,192,33435,1,0,0:0:0:0:
192,192,33435,1,0,0:0:0:0:
320,192,33435,1,0,0:0:0:0:
320,192,33528,1,0,0:0:0:0:
448,192,33528,1,0,0:0:0:0:
192,192,33622,1,0,0:0:0:0:
448,192,33622,1,0,0:0:0:0:
64,192,33716,1,0,0:0:0:0:
320,192,33716,1,0,0:0:0:0:
64,192,33810,1,0,0:0:0:0:
192,192,33810,1,0,0:0:0:0:
320,192,33903,1,0,0:0:0:0:
448,192,33903,1,0,0:0:0:0:
192,192,33997,1,0,0:0:0:0:
320,192,33997,1,0,0:0:0:0:
448,192,33997,1,0,0:0:0:0:
64,192,34044,1,0,0:0:0:0:
320,192,34091,1,0,0:0:0:0:
192,192,34138,1,0,0:0:0:0:
320,192,34185,1,0,0:0:0:0:
64,192,34231,1,0,0:0:0:0:
192,192,34278,1,0,0:0:0:0:
448,192,34325,1,0,0:0:0:0:
64,192,34372,1,0,0:0:0:0:
192,192,34372,1,0,0:0:0:0:
320,192,34372,1,0,0:0:0:0:
448,192,34419,1,0,0:0:0:0:
64,192,34466,1,0,0:0:0:0:
320,192,34513,1,0,0:0:0:0:
64,192,34560,1,0,0:0:0:0:
192,192,34606,1,0,0:0:0:0:
320,192,34653,1,0,0:0:0:0:
64,192,34700,1,0,0:0:0:0:
192,192,34747,1,0,0:0:0:0:
320,192,34747,1,0,0:0:0:0:
448,192,34747,1,0,0:0:0:0:
64,192,34841,1,0,0:0:0:0:
448,192,34841,1,0,0:0:0:0:
64,192,34935,1,0,0:0:0:0:
192,192,34935,1,0,0:0:0:0:
320,192,34935,1,0,0:0:0:0:
192,192,35028,1,0,0:0:0:0:
320,192,35028,1,0,0:0:0:0:
64,192,35122,1,0,0:0:0:0:
448,192,35122,1,0,0:0:0:0:
192,192,35216,1,0,0:0:0:0:
448,192,35216,1,0,0:0:0:0:
320,192,35310,1,0,0:0:0:0:
448,192,35310,1,0,0:0:0:0:
192,192,35403,1,0,0:0:0:0:
448,192,35403,1,0,0:0:0:0:
64,192,35497,1,0,0:0:0:0:
192,192,35497,1,0,0:0:0:0:
320,192,35497,1,0,0:0:0:0:
448,192,35544,1,0,0:0:0:0:
320,192,35591,1,0,0:0:0:0:
192,192,35638,1,0,0:0:0:0:
448,192,35685,1,0,0:0:0:0:
64,192,35731,1,0,0:0:0:0:
320,192,35778,1,0,0:0:0:0:
192,192,35825,1,0,0:0:0:0:
64,192,35872,1,0,0:0:0:0:
320,192,35872,1,0,0:0:0:0:
448,192,35872,1,0,0:0:0:0:
192,192,35919,1,0,0:0:0:0:
448,192,35966,1,0,0:0:0:0:
320,192,36013,1,0,0:0:0:0:
192,192,36060,1,0,0:0:0:0:
64,192,36106,1,0,0:0:0:0:
192,192,36153,1,0,0:0:0:0:
448,192,36153,1,0,0:0:0:0:
64,192,36247,1,0,0:0:0:0:
192,192,36247,1,0,0:0:0:0:
320,192,36247,1,0,0:0:0:0:
64,192,36341,1,0,0:0:0:0:
320,192,36341,1,0,0:0:0:0:
64,192,36435,1,0,0:0:0:0:
192,192,36435,1,0,0:0:0:0:
448,192,36435,1,0,0:0:0:0:
64,192,36622,1,0,0:0:0:0:
192,192,36622,1,0,0:0:0:0:
320,192,36622,1,0,0:0:0:0:
64,192,36810,1,0,0:0:0:0:
448,192,36810,1,0,0:0:0:0:
320,192,36903,1,0,0:0:0:0:
448,192,36903,1,0,0:0:0:0:
64,192,36997,1,0,0:0:0:0:
192,192,36997,1,0,0:0:0:0:
320,192,36997,1,0,0:0:0:0:
64,192,37185,1,0,0:0:0:0:
448,192,37185,1,0,0:0:0:0:
192,192,37372,1,0,0:0:0:0:
320,192,37372,1,0,0:0:0:0:
448,192,37372,1,0,0:0:0:0:
64,192,37560,1,0,0:0:0:0:
320,192,37560,1,0,0:0:0:0:
192,192,37653,1,0,0:0:0:0:
320,192,37653,1,0,0:0:0:0:
64,192,37747,1,0,0:0:0:0:
192,192,37747,1,0,0:0:0:0:
448,192,37747,1,0,0:0:0:0:
192,192,37935,1,0,0:0:0:0:
320,192,37935,1,0,0:0:0:0:
64,192,38122,1,0,0:0:0:0:
320,192,38122,1,0,0:0:0:0:
448,192,38122,1,0,0:0:0:0:
64,192,38310,1,0,0:0:0:0:
192,192,38310,1,0,0:0:0:0:
320,192,38403,1,0,0:0:0:0:
448,192,38403,1,0,0:0:0:0:
192,192,38497,1,0,0:0:0:0:
320,192,38497,1,0,0:0:0:0:
448,192,38497,1,0,0:0:0:0:
64,192,38685,1,0,0:0:0:0:
192,192,38685,1,0,0:0:0:0:
448,192,38685,1,0,0:0:0:0:
64,192,38778,1,0,0:0:0:0:
320,192,38778,1,0,0:0:0:0:
192,192,38872,1,0,0:0:0:0:
320,192,38872,1,0,0:0:0:0:
64,192,38966,1,0,0:0:0:0:
192,192,38966,1,0,0:0:0:0:
448,192,38966,1,0,0:0:0:0:
64,192,39060,1,0,0:0:0:0:
320,192,39060,1,0,0:0:0:0:
192,192,39153,1,0,0:0:0:0:
448,192,39153,1,0,0:0:0:0:
64,192,39247,1,0,0:0:0:0:
192,192,39247,1,0,0:0:0:0:
320,192,39247,1,0,0:0:0:0:
64,192,39341,1,0,0:0:0:0:
448,192,39341,1,0,0:0:0:0:
192,192,39435,1,0,0:0:0:0:
320,192,39435,1,0,0:0:0:0:
448,192,39435,1,0,0:0:0:0:
64,192,39622,1,0,0:0:0:0:
320,192,39622,1,0,0:0:0:0:
448,192,39622,1,0,0:0:0:0:
64,192,39810,1,0,0:0:0:0:
192,192,39810,1,0,0:0:0:0:
320,192,39903,1,0,0:0:0:0:
448,192,39903,1,0,0:0:0:0:
64,192,39997,1,0,0:0:0:0:
192,192,39997,1,0,0:0:0:0:
320,192,39997,1,0,0:0:0:0:
64,192,40185,1,0,0:0:0:0:
448,192,40185,1,0,0:0:0:0:
64,192,40372,1,0,0:0:0:0:
192,192,40372,1,0,0:0:0:0:
320,192,40372,1,0,0:0:0:0:
320,192,40560,1,0,0:0:0:0:
448,192,40560,1,0,0:0:0:0:
192,192,40653,1,0,0:0:0:0:
448,192,40653,1,0,0:0:0:0:
64,192,40747,1,0,0:0:0:0:
192,192,40747,1,0,0:0:0:0:
320,192,40747,1,0,0:0:0:0:
64,192,40935,1,0,0:0:0:0:
448,192,40935,1,0,0:0:0:0:
192,192,41122,1,0,0:0:0:0:
320,192,41122,1,0,0:0:0:0:
448,192,41122,1,0,0:0:0:0:
64,192,41310,1,0,0:0:0:0:
448,192,41310,1,0,0:0:0:0:
192,192,41403,1,0,0:0:0:0:
320,192,41403,1,0,0:0:0:0:
64,192,41497,1,0,0:0:0:0:
320,192,41497,1,0,0:0:0:0:
448,192,41497,1,0,0:0:0:0:
192,192,41685,1,0,0:0:0:0:
320,192,41685,1,0,0:0:0:0:
448,192,41685,1,0,0:0:0:0:
64,192,41778,1,0,0:0:0:0:
320,192,41778,1,0,0:0:0:0:
192,192,41872,1,0,0:0:0:0:
448,192,41872,1,0,0:0:0:0:
192,192,41966,1,0,0:0:0:0:
320,192,41966,1,0,0:0:0:0:
64,192,42060,1,0,0:0:0:0:
320,192,42060,1,0,0:0:0:0:
448,192,42060,1,0,0:0:0:0:
192,192,42153,1,0,0:0:0:0:
320,192,42153,1,0,0:0:0:0:
64,192,42247,1,0,0:0:0:0:
192,192,42247,1,0,0:0:0:0:
320,192,42341,1,0,0:0:0:0:
448,192,42341,1,0,0:0:0:0:
192,192,42435,1,0,0:0:0:0:
320,192,42435,1,0,0:0:0:0:
448,192,42435,1,0,0:0:0:0:
64,192,42622,1,0,0:0:0:0:
320,192,42622,1,0,0:0:0:0:
448,192,42622,1,0,0:0:0:0:
192,192,42810,1,0,0:0:0:0:
448,192,42810,1,0,0:0:0:0:
320,192,42903,1,0,0:0:0:0:
448,192,42903,1,0,0:0:0:0:
64,192,42997,1,0,0:0:0:0:
192,192,42997,1,0,0:0:0:0:
320,192,42997,1,0,0:0:0:0:
64,192,43185,1,0,0:0:0:0:
448,192,43185,1,0,0:0:0:0:
64,192,43372,1,0,0:0:0:0:
192,192,43372,1,0,0:0:0:0:
320,192,43372,1,0,0:0:0:0:
64,192,43560,1,0,0:0:0:0:
192,192,43560,1,0,0:0:0:0:
320,192,43653,1,0,0:0:0:0:
448,192,43653,1,0,0:0:0:0:
64,192,43747,1,0,0:0:0:0:
192,192,43747,1,0,0:0:0:0:
448,192,43747,1,0,0:0:0:0:
64,192,43935,1,0,0:0:0:0:
448,192,43935,1,0,0:0:0:0:
192,192,44122,1,0,0:0:0:0:
320,192,44122,1,0,0:0:0:0:
448,192,44122,1,0,0:0:0:0:
320,192,44310,1,0,0:0:0:0:
448,192,44310,1,0,0:0:0:0:
192,192,44403,1,0,0:0:0:0:
448,192,44403,1,0,0:0:0:0:
64,192,44497,1,0,0:0:0:0:
192,192,44497,1,0,0:0:0:0:
320,192,44497,1,0,0:0:0:0:
64,192,44685,1,0,0:0:0:0:
320,192,44685,1,0,0:0:0:0:
448,192,44685,1,0,0:0:0:0:
64,192,44778,1,0,0:0:0:0:
192,192,44778,1,0,0:0:0:0:
64,192,44872,1,0,0:0:0:0:
320,192,44872,1,0,0:0:0:0:
192,192,44966,1,0,0:0:0:0:
320,192,44966,1,0,0:0:0:0:
448,192,44966,1,0,0:0:0:0:
64,192,45060,1,0,0:0:0:0:
320,192,45060,1,0,0:0:0:0:
192,192,45153,1,0,0:0:0:0:
448,192,45153,1,0,0:0:0:0:
64,192,45247,1,0,0:0:0:0:
192,192,45247,1,0,0:0:0:0:
320,192,45247,1,0,0:0:0:0:
192,192,45341,1,0,0:0:0:0:
448,192,45341,1,0,0:0:0:0:
64,192,45435,1,0,0:0:0:0:
320,192,45435,1,0,0:0:0:0:
448,192,45435,1,0,0:0:0:0:
192,192,45622,1,0,0:0:0:0:
320,192,45622,1,0,0:0:0:0:
448,192,45622,1,0,0:0:0:0:
64,192,45810,1,0,0:0:0:0:
192,192,45810,1,0,0:0:0:0:
320,192,45903,1,0,0:0:0:0:
448,192,45903,1,0,0:0:0:0:
64,192,45997,1,0,0:0:0:0:
192,192,45997,1,0,0:0:0:0:
320,192,45997,1,0,0:0:0:0:
64,192,46185,1,0,0:0:0:0:
448,192,46185,1,0,0:0:0:0:
64,192,46372,1,0,0:0:0:0:
192,192,46372,1,0,0:0:0:0:
448,192,46372,1,0,0:0:0:0:
64,192,46560,1,0,0:0:0:0:
192,192,46560,1,0,0:0:0:0:
320,192,46560,1,0,0:0:0:0:
64,192,46653,1,0,0:0:0:0:
320,192,46653,1,0,0:0:0:0:
192,192,46747,1,0,0:0:0:0:
448,192,46747,1,0,0:0:0:0:
64,192,46935,1,0,0:0:0:0:
320,192,46935,1,0,0:0:0:0:
448,192,46935,1,0,0:0:0:0:
192,192,47028,1,0,0:0:0:0:
320,192,47122,1,0,0:0:0:0:
448,192,47122,1,0,0:0:0:0:
320,192,47216,1,0,0:0:0:0:
64,192,47310,1,0,0:0:0:0:
192,192,47310,1,0,0:0:0:0:
320,192,47403,1,0,0:0:0:0:
64,192,47497,1,0,0:0:0:0:
192,192,47497,1,0,0:0:0:0:
320,192,47544,1,0,0:0:0:0:
192,192,47591,1,0,0:0:0:0:
448,192,47638,1,0,0:0:0:0:
64,192,47685,1,0,0:0:0:0:
320,192,47685,1,0,0:0:0:0:
192,192,47731,1,0,0:0:0:0:
320,192,47778,1,0,0:0:0:0:
64,192,47825,1,0,0:0:0:0:
192,192,47872,1,0,0:0:0:0:
448,192,47919,1,0,0:0:0:0:
320,192,47966,1,0,0:0:0:0:
448,192,48013,1,0,0:0:0:0:
64,192,48060,1,0,0:0:0:0:
192,192,48060,1,0,0:0:0:0:
320,192,48060,1,0,0:0:0:0:
192,192,48153,1,0,0:0:0:0:
448,192,48153,1,0,0:0:0:0:
64,192,48247,1,0,0:0:0:0:
320,192,48247,1,0,0:0:0:0:
64,192,48341,1,0,0:0:0:0:
192,192,48341,1,0,0:0:0:0:
64,192,48435,1,0,0:0:0:0:
320,192,48435,1,0,0:0:0:0:
448,192,48435,1,0,0:0:0:0:
192,192,48481,1,0,0:0:0:0:
320,192,48528,1,0,0:0:0:0:
448,192,48575,1,0,0:0:0:0:
64,192,48622,1,0,0:0:0:0:
320,192,48669,1,0,0:0:0:0:
192,192,48716,1,0,0:0:0:0:
64,192,48763,1,0,0:0:0:0:
320,192,48810,1,0,0:0:0:0:
448,192,48810,1,0,0:0:0:0:
64,192,48903,1,0,0:0:0:0:
192,192,48903,1,0,0:0:0:0:
192,192,48997,1,0,0:0:0:0:
320,192,48997,1,0,0:0:0:0:
320,192,49091,1,0,0:0:0:0:
448,192,49091,1,0,0:0:0:0:
64,192,49185,1,0,0:0:0:0:
192,192,49185,1,0,0:0:0:0:
320,192,49231,1,0,0:0:0:0:
192,192,49278,1,0,0:0:0:0:
64,192,49325,1,0,0:0:0:0:
320,192,49372,1,0,0:0:0:0:
448,192,49372,1,0,0:0:0:0:
192,192,49466,1,0,0:0:0:0:
448,192,49466,1,0,0:0:0:0:
320,192,49513,1,0,0:0:0:0:
64,192,49560,1,0,0:0:0:0:
192,192,49606,1,0,0:0:0:0:
320,192,49653,1,0,0:0:0:0:
448,192,49653,1,0,0:0:0:0:
192,192,49747,1,0,0:0:0:0:
320,192,49747,1,0,0:0:0:0:
64,192,49794,1,0,0:0:0:0:
192,192,49841,1,0,0:0:0:0:
192,192,49935,1,0,0:0:0:0:
320,192,49935,1,0,0:0:0:0:
448,192,49935,1,0,0:0:0:0:
64,192,49981,1,0,0:0:0:0:
192,192,50028,1,0,0:0:0:0:
320,192,50075,1,0,0:0:0:0:
192,192,50122,1,0,0:0:0:0:
448,192,50122,1,0,0:0:0:0:
64,192,50216,1,0,0:0:0:0:
320,192,50310,1,0,0:0:0:0:
448,192,50310,1,0,0:0:0:0:
192,192,50356,1,0,0:0:0:0:
320,192,50403,1,0,0:0:0:0:
64,192,50497,1,0,0:0:0:0:
192,192,50497,1,0,0:0:0:0:
320,192,50544,1,0,0:0:0:0:
448,192,50591,1,0,0:0:0:0:
320,192,50638,1,0,0:0:0:0:
192,192,50685,1,0,0:0:0:0:
64,192,50731,1,0,0:0:0:0:
192,192,50778,1,0,0:0:0:0:
448,192,50825,1,0,0:0:0:0:
320,192,50872,1,0,0:0:0:0:
192,192,50919,1,0,0:0:0:0:
64,192,50966,1,0,0:0:0:0:
192,192,51013,1,0,0:0:0:0:
320,192,51060,1,0,0:0:0:0:
448,192,51060,1,0,0:0:0:0:
64,192,51106,1,0,0:0:0:0:
192,192,51153,1,0,0:0:0:0:
448,192,51153,1,0,0:0:0:0:
320,192,51200,1,0,0:0:0:0:
64,192,51247,1,0,0:0:0:0:
192,192,51247,1,0,0:0:0:0:
64,192,51341,1,0,0:0:0:0:
448,192,51341,1,0,0:0:0:0:
192,192,51435,1,0,0:0:0:0:
320,192,51435,1,0,0:0:0:0:
448,192,51435,1,0,0:0:0:0:
64,192,51481,1,0,0:0:0:0:
192,192,51528,1,0,0:0:0:0:
320,192,51622,1,0,0:0:0:0:
448,192,51622,1,0,0:0:0:0:
192,192,51669,1,0,0:0:0:0:
64,192,51716,1,0,0:0:0:0:
320,192,51763,1,0,0:0:0:0:
64,192,51810,1,0,0:0:0:0:
192,192,51810,1,0,0:0:0:0:
448,192,51903,1,0,0:0:0:0:
192,192,51997,1,0,0:0:0:0:
320,192,51997,1,0,0:0:0:0:
64,192,52044,1,0,0:0:0:0:
320,192,52091,1,0,0:0:0:0:
448,192,52091,1,0,0:0:0:0:
192,192,52185,1,0,0:0:0:0:
448,192,52185,1,0,0:0:0:0:
320,192,52231,1,0,0:0:0:0:
192,192,52278,1,0,0:0:0:0:
320,192,52325,1,0,0:0:0:0:
64,192,52372,1,0,0:0:0:0:
192,192,52372,1,0,0:0:0:0:
64,192,52466,1,0,0:0:0:0:
320,192,52466,1,0,0:0:0:0:
192,192,52513,1,0,0:0:0:0:
320,192,52560,1,0,0:0:0:0:
448,192,52606,1,0,0:0:0:0:
192,192,52653,1,0,0:0:0:0:
320,192,52653,1,0,0:0:0:0:
192,192,52747,1,0,0:0:0:0:
448,192,52747,1,0,0:0:0:0:
320,192,52794,1,0,0:0:0:0:
64,192,52841,1,0,0:0:0:0:
192,192,52841,1,0,0:0:0:0:
192,192,52935,1,0,0:0:0:0:
320,192,52935,1,0,0:0:0:0:
448,192,52935,1,0,0:0:0:0:
64,192,52981,1,0,0:0:0:0:
320,192,53028,1,0,0:0:0:0:
192,192,53075,1,0,0:0:0:0:
448,192,53122,1,0,0:0:0:0:
320,192,53169,1,0,0:0:0:0:
192,192,53216,1,0,0:0:0:0:
64,192,53263,1,0,0:0:0:0:
320,192,53310,1,0,0:0:0:0:
192,192,53356,1,0,0:0:0:0:
64,192,53403,1,0,0:0:0:0:
192,192,53450,1,0,0:0:0:0:
320,192,53497,1,0,0:0:0:0:
448,192,53497,1,0,0:0:0:0:
64,192,53544,1,0,0:0:0:0:
192,192,53591,1,0,0:0:0:0:
320,192,53638,1,0,0:0:0:0:
448,192,53685,1,0,0:0:0:0:
192,192,53731,1,0,0:0:0:0:
320,192,53778,1,0,0:0:0:0:
448,192,53825,1,0,0:0:0:0:
64,192,53872,1,0,0:0:0:0:
320,192,53872,1,0,0:0:0:0:
192,192,53919,1,0,0:0:0:0:
320,192,53966,1,0,0:0:0:0:
448,192,53966,1,0,0:0:0:0:
64,192,54013,1,0,0:0:0:0:
192,192,54060,1,0,0:0:0:0:
320,192,54060,1,0,0:0:0:0:
64,192,54153,1,0,0:0:0:0:
192,192,54247,1,0,0:0:0:0:
320,192,54247,1,0,0:0:0:0:
448,192,54247,1,0,0:0:0:0:
64,192,54341,1,0,0:0:0:0:
320,192,54341,1,0,0:0:0:0:
64,192,54435,1,0,0:0:0:0:
192,192,54435,1,0,0:0:0:0:
448,192,54435,1,0,0:0:0:0:
320,192,54481,1,0,0:0:0:0:
64,192,54528,1,0,0:0:0:0:
192,192,54575,1,0,0:0:0:0:
320,192,54622,1,0,0:0:0:0:
64,192,54669,1,0,0:0:0:0:
192,192,54716,1,0,0:0:0:0:
448,192,54763,1,0,0:0:0:0:
320,192,54810,1,0,0:0:0:0:
64,192,54856,1,0,0:0:0:0:
192,192,54903,1,0,0:0:0:0:
320,192,54950,1,0,0:0:0:0:
64,192,54997,1,0,0:0:0:0:
448,192,55044,1,0,0:0:0:0:
192,192,55091,1,0,0:0:0:0:
320,192,55138,1,0,0:0:0:0:
64,192,55185,1,0,0:0:0:0:
192,192,55185,1,0,0:0:0:0:
448,192,55185,1,0,0:0:0:0:
64,192,55247,1,0,0:0:0:0:
320,192,55247,1,0,0:0:0:0:
192,192,55310,1,0,0:0:0:0:
448,192,55310,1,0,0:0:0:0:
64,192,55435,1,0,0:0:0:0:
320,192,55435,1,0,0:0:0:0:
64,192,55560,1,0,0:0:0:0:
192,192,55560,1,0,0:0:0:0:
320,192,55622,1,0,0:0:0:0:
448,192,55622,1,0,0:0:0:0:
192,192,55685,1,0,0:0:0:0:
320,192,55685,1,0,0:0:0:0:
320,192,55810,1,0,0:0:0:0:
448,192,55810,1,0,0:0:0:0:
64,192,55935,1,0,0:0:0:0:
192,192,55935,1,0,0:0:0:0:
320,192,55935,1,0,0:0:0:0:
192,192,55997,1,0,0:0:0:0:
320,192,55997,1,0,0:0:0:0:
64,192,56060,1,0,0:0:0:0:
448,192,56060,1,0,0:0:0:0:
192,192,56185,1,0,0:0:0:0:
320,192,56185,1,0,0:0:0:0:
64,192,56310,1,0,0:0:0:0:
192,192,56310,1,0,0:0:0:0:
320,192,56372,1,0,0:0:0:0:
448,192,56372,1,0,0:0:0:0:
192,192,56435,1,0,0:0:0:0:
320,192,56435,1,0,0:0:0:0:
320,192,56560,1,0,0:0:0:0:
448,192,56560,1,0,0:0:0:0:
64,192,56685,1,0,0:0:0:0:
192,192,56685,1,0,0:0:0:0:
320,192,56685,1,0,0:0:0:0:
448,192,56731,1,0,0:0:0:0:
320,192,56778,1,0,0:0:0:0:
192,192,56825,1,0,0:0:0:0:
320,192,56872,1,0,0:0:0:0:
448,192,56872,1,0,0:0:0:0:
64,192,56919,1,0,0:0:0:0:
192,192,56966,1,0,0:0:0:0:
448,192,57013,1,0,0:0:0:0:
192,192,57060,1,0,0:0:0:0:
320,192,57060,1,0,0:0:0:0:
64,192,57106,1,0,0:0:0:0:
320,192,57153,1,0,0:0:0:0:
448,192,57200,1,0,0:0:0:0:
64,192,57247,1,0,0:0:0:0:
320,192,57247,1,0,0:0:0:0:
192,192,57294,1,0,0:0:0:0:
64,192,57341,1,0,0:0:0:0:
192,192,57388,1,0,0:0:0:0:
64,192,57435,1,0,0:0:0:0:
320,192,57435,1,0,0:0:0:0:
448,192,57435,1,0,0:0:0:0:
192,192,57481,1,0,0:0:0:0:
320,192,57528,1,0,0:0:0:0:
448,192,57575,1,0,0:0:0:0:
192,192,57622,1,0,0:0:0:0:
320,192,57622,1,0,0:0:0:0:
320,192,57716,1,0,0:0:0:0:
64,192,57810,1,0,0:0:0:0:
192,192,57810,1,0,0:0:0:0:
320,192,57903,1,0,0:0:0:0:
64,192,57997,1,0,0:0:0:0:
192,192,57997,1,0,0:0:0:0:
320,192,57997,1,0,0:0:0:0:
448,192,58044,1,0,0:0:0:0:
320,192,58091,1,0,0:0:0:0:
192,192,58138,1,0,0:0:0:0:
320,192,58185,1,0,0:0:0:0:
448,192,58185,1,0,0:0:0:0:
64,192,58278,1,0,0:0:0:0:
192,192,58372,1,0,0:0:0:0:
448,192,58372,1,0,0:0:0:0:
64,192,58466,1,0,0:0:0:0:
64,192,58560,1,0,0:0:0:0:
320,192,58560,1,0,0:0:0:0:
448,192,58560,1,0,0:0:0:0:
192,192,58606,1,0,0:0:0:0:
320,192,58653,1,0,0:0:0:0:
448,192,58700,1,0,0:0:0:0:
64,192,58747,1,0,0:0:0:0:
192,192,58747,1,0,0:0:0:0:
320,192,58841,1,0,0:0:0:0:
320,192,58935,1,0,0:0:0:0:
448,192,58935,1,0,0:0:0:0:
192,192,59028,1,0,0:0:0:0:
64,192,59122,1,0,0:0:0:0:
192,192,59122,1,0,0:0:0:0:
448,192,59122,1,0,0:0:0:0:
320,192,59169,1,0,0:0:0:0:
64,192,59216,1,0,0:0:0:0:
192,192,59263,1,0,0:0:0:0:
320,192,59310,1,0,0:0:0:0:
448,192,59310,1,0,0:0:0:0:
64,192,59403,1,0,0:0:0:0:
192,192,59497,1,0,0:0:0:0:
448,192,59497,1,0,0:0:0:0:
320,192,59591,1,0,0:0:0:0:
64,192,59685,1,0,0:0:0:0:
192,192,59685,1,0,0:0:0:0:
320,192,59685,1,0,0:0:0:0:
448,192,59731,1,0,0:0:0:0:
192,192,59778,1,0,0:0:0:0:
64,192,59825,1,0,0:0:0:0:
448,192,59872,1,0,0:0:0:0:
320,192,59919,1,0,0:0:0:0:
448,192,59966,1,0,0:0:0:0:
192,192,60013,1,0,0:0:0:0:
320,192,60060,1,0,0:0:0:0:
448,192,60106,1,0,0:0:0:0:
64,192,60153,1,0,0:0:0:0:
192,192,60200,1,0,0:0:0:0:
320,192,60247,1,0,0:0:0:0:
192,192,60294,1,0,0:0:0:0:
320,192,60341,1,0,0:0:0:0:
64,192,60388,1,0,0:0:0:0:
192,192,60435,1,0,0:0:0:0:
320,192,60435,1,0,0:0:0:0:
448,192,60435,1,0,0:0:0:0:
64,192,60528,1,0,0:0:0:0:
320,192,60528,1,0,0:0:0:0:
192,192,60622,1,0,0:0:0:0:
64,192,60716,1,0,0:0:0:0:
320,192,60810,1,0,0:0:0:0:
448,192,60810,1,0,0:0:0:0:
192,192,60903,1,0,0:0:0:0:
320,192,60903,1,0,0:0:0:0:
320,192,60997,1,0,0:0:0:0:
64,192,61091,1,0,0:0:0:0:
192,192,61185,1,0,0:0:0:0:
448,192,61185,1,0,0:0:0:0:
192,192,61278,1,0,0:0:0:0:
320,192,61278,1,0,0:0:0:0:
64,192,61372,1,0,0:0:0:0:
448,192,61466,1,0,0:0:0:0:
192,192,61560,1,0,0:0:0:0:
320,192,61560,1,0,0:0:0:0:
64,192,61653,1,0,0:0:0:0:
192,192,61653,1,0,0:0:0:0:
320,192,61747,1,0,0:0:0:0:
192,192,61841,1,0,0:0:0:0:
64,192,61935,1,0,0:0:0:0:
448,192,61935,1,0,0:0:0:0:
192,192,62028,1,0,0:0:0:0:
320,192,62028,1,0,0:0:0:0:
448,192,62122,1,0,0:0:0:0:
320,192,62216,1,0,0:0:0:0:
64,192,62310,1,0,0:0:0:0:
192,192,62310,1,0,0:0:0:0:
192,192,62403,1,0,0:0:0:0:
320,192,62403,1,0,0:0:0:0:
448,192,62497,1,0,0:0:0:0:
64,192,62591,1,0,0:0:0:0:
192,192,62685,1,0,0:0:0:0:
320,192,62685,1,0,0:0:0:0:
64,192,62778,1,0,0:0:0:0:
192,192,62778,1,0,0:0:0:0:
448,192,62872,1,0,0:0:0:0:
64,192,62966,1,0,0:0:0:0:
192,192,63060,1,0,0:0:0:0:
320,192,63060,1,0,0:0:0:0:
320,192,63153,1,0,0:0:0:0:
448,192,63153,1,0,0:0:0:0:
192,192,63247,1,0,0:0:0:0:
320,192,63341,1,0,0:0:0:0:
64,192,63435,1,0,0:0:0:0:
192,192,63435,1,0,0:0:0:0:
448,192,63435,1,0,0:0:0:0:
192,192,63528,1,0,0:0:0:0:
320,192,63528,1,0,0:0:0:0:
320,192,63622,1,0,0:0:0:0:
448,192,63622,1,0,0:0:0:0:
64,192,63716,1,0,0:0:0:0:
192,192,63716,1,0,0:0:0:0:
64,192,63810,1,0,0:0:0:0:
320,192,63810,1,0,0:0:0:0:
64,192,63903,1,0,0:0:0:0:
192,192,63903,1,0,0:0:0:0:
192,192,63997,1,0,0:0:0:0:
320,192,63997,1,0,0:0:0:0:
448,192,63997,1,0,0:0:0:0:
64,192,64044,1,0,0:0:0:0:
320,192,64091,1,0,0:0:0:0:
192,192,64138,1,0,0:0:0:0:
64,192,64185,1,0,0:0:0:0:
448,192,64231,1,0,0:0:0:0:
192,192,64278,1,0,0:0:0:0:
320,192,64325,1,0,0:0:0:0:
64,192,64372,1,0,0:0:0:0:
192,192,64372,1,0,0:0:0:0:
448,192,64372,1,0,0:0:0:0:
320,192,64419,1,0,0:0:0:0:
64,192,64466,1,0,0:0:0:0:
192,192,64513,1,0,0:0:0:0:
320,192,64560,1,0,0:0:0:0:
192,192,64606,1,0,0:0:0:0:
64,192,64653,1,0,0:0:0:0:
448,192,64700,1,0,0:0:0:0:
64,192,64747,1,0,0:0:0:0:
192,192,64747,1,0,0:0:0:0:
320,192,64747,1,0,0:0:0:0:
192,192,64841,1,0,0:0:0:0:
448,192,64841,1,0,0:0:0:0:
64,192,64935,1,0,0:0:0:0:
320,192,64935,1,0,0:0:0:0:
448,192,64935,1,0,0:0:0:0:
64,192,65028,1,0,0:0:0:0:
192,192,65028,1,0,0:0:0:0:
320,192,65122,1,0,0:0:0:0:
448,192,65122,1,0,0:0:0:0:
192,192,65216,1,0,0:0:0:0:
320,192,65216,1,0,0:0:0:0:
64,192,65310,1,0,0:0:0:0:
192,192,65310,1,0,0:0:0:0:
320,192,65403,1,0,0:0:0:0:
448,192,65403,1,0,0:0:0:0:
64,192,65497,1,0,0:0:0:0:
192,192,65497,1,0,0:0:0:0:
320,192,65497,1,0,0:0:0:0:
448,192,65544,1,0,0:0:0:0:
64,192,65591,1,0,0:0:0:0:
320,192,65638,1,0,0:0:0:0:
192,192,65685,1,0,0:0:0:0:
64,192,65731,1,0,0:0:0:0:
320,192,65778,1,0,0:0:0:0:
192,192,65825,1,0,0:0:0:0:
64,192,65872,1,0,0:0:0:0:
320,192,65872,1,0,0:0:0:0:
448,192,65872,1,0,0:0:0:0:
192,192,65919,1,0,0:0:0:0:
448,192,65966,1,0,0:0:0:0:
320,192,66013,1,0,0:0:0:0:
64,192,66060,1,0,0:0:0:0:
192,192,66106,1,0,0:0:0:0:
320,192,66153,1,0,0:0:0:0:
64,192,66200,1,0,0:0:0:0:
192,192,66247,1,0,0:0:0:0:
320,192,66247,1,0,0:0:0:0:
448,192,66247,1,0,0:0:0:0:
64,192,66341,1,0,0:0:0:0:
320,192,66341,1,0,0:0:0:0:
64,192,66435,1,0,0:0:0:0:
192,192,66435,1,0,0:0:0:0:
448,192,66435,1,0,0:0:0:0:
320,192,66528,1,0,0:0:0:0:
448,192,66528,1,0,0:0:0:0:
64,192,66622,1,0,0:0:0:0:
192,192,66716,1,0,0:0:0:0:
320,192,66810,1,0,0:0:0:0:
448,192,66810,1,0,0:0:0:0:
192,192,66903,1,0,0:0:0:0:
320,192,66903,1,0,0:0:0:0:
192,192,66997,1,0,0:0:0:0:
448,192,67091,1,0,0:0:0:0:
64,192,67185,1,0,0:0:0:0:
320,192,67185,1,0,0:0:0:0:
192,192,67278,1,0,0:0:0:0:
320,192,67278,1,0,0:0:0:0:
448,192,67372,1,0,0:0:0:0:
64,192,67466,1,0,0:0:0:0:
192,192,67560,1,0,0:0:0:0:
320,192,67560,1,0,0:0:0:0:
320,192,67653,1,0,0:0:0:0:
448,192,67653,1,0,0:0:0:0:
192,192,67747,1,0,0:0:0:0:
64,192,67841,1,0,0:0:0:0:
192,192,67935,1,0,0:0:0:0:
320,192,67935,1,0,0:0:0:0:
192,192,68028,1,0,0:0:0:0:
448,192,68028,1,0,0:0:0:0:
320,192,68122,1,0,0:0:0:0:
64,192,68216,1,0,0:0:0:0:
320,192,68310,1,0,0:0:0:0:
448,192,68310,1,0,0:0:0:0:
192,192,68403,1,0,0:0:0:0:
320,192,68403,1,0,0:0:0:0:
64,192,68497,1,0,0:0:0:0:
448,192,68591,1,0,0:0:0:0:
64,192,68685,1,0,0:0:0:0:
192,192,68685,1,0,0:0:0:0:
64,192,68778,1,0,0:0:0:0:
320,192,68778,1,0,0:0:0:0:
192,192,68872,1,0,0:0:0:0:
448,192,68966,1,0,0:0:0:0:
192,192,69060,1,0,0:0:0:0:
320,192,69060,1,0,0:0:0:0:
64,192,69153,1,0,0:0:0:0:
192,192,69153,1,0,0:0:0:0:
448,192,69247,1,0,0:0:0:0:
192,192,69341,1,0,0:0:0:0:
64,192,69435,1,0,0:0:0:0:
320,192,69435,1,0,0:0:0:0:
448,192,69435,1,0,0:0:0:0:
192,192,69528,1,0,0:0:0:0:
448,192,69528,1,0,0:0:0:0:
192,192,69622,1,0,0:0:0:0:
320,192,69622,1,0,0:0:0:0:
64,192,69716,1,0,0:0:0:0:
192,192,69716,1,0,0:0:0:0:
320,192,69810,1,0,0:0:0:0:
448,192,69810,1,0,0:0:0:0:
192,192,69903,1,0,0:0:0:0:
448,192,69903,1,0,0:0:0:0:
64,192,69997,1,0,0:0:0:0:
192,192,69997,1,0,0:0:0:0:
320,192,69997,1,0,0:0:0:0:
448,192,70044,1,0,0:0:0:0:
64,192,70091,1,0,0:0:0:0:
320,192,70138,1,0,0:0:0:0:
192,192,70185,1,0,0:0:0:0:
64,192,70231,1,0,0:0:0:0:
320,192,70278,1,0,0:0:0:0:
64,192,70325,1,0,0:0:0:0:
192,192,70372,1,0,0:0:0:0:
320,192,70372,1,0,0:0:0:0:
448,192,70372,1,0,0:0:0:0:
64,192,70419,1,0,0:0:0:0:
320,192,70466,1,0,0:0:0:0:
192,192,70513,1,0,0:0:0:0:
320,192,70560,1,0,0:0:0:0:
64,192,70606,1,0,0:0:0:0:
192,192,70653,1,0,0:0:0:0:
448,192,70700,1,0,0:0:0:0:
64,192,70747,1,0,0:0:0:0:
192,192,70747,1,0,0:0:0:0:
320,192,70747,1,0,0:0:0:0:
64,192,70841,1,0,0:0:0:0:
192,192,70841,1,0,0:0:0:0:
64,192,70935,1,0,0:0:0:0:
320,192,70935,1,0,0:0:0:0:
448,192,70935,1,0,0:0:0:0:
192,192,71028,1,0,0:0:0:0:
320,192,71028,1,0,0:0:0:0:
64,192,71122,1,0,0:0:0:0:
320,192,71122,1,0,0:0:0:0:
192,192,71216,1,0,0:0:0:0:
448,192,71216,1,0,0:0:0:0:
64,192,71310,1,0,0:0:0:0:
320,192,71310,1,0,0:0:0:0:
64,192,71403,1,0,0:0:0:0:
192,192,71403,1,0,0:0:0:0:
192,192,71497,1,0,0:0:0:0:
320,192,71497,1,0,0:0:0:0:
448,192,71497,1,0,0:0:0:0:
64,192,71544,1,0,0:0:0:0:
448,192,71591,1,0,0:0:0:0:
320,192,71638,1,0,0:0:0:0:
192,192,71685,1,0,0:0:0:0:
64,192,71731,1,0,0:0:0:0:
320,192,71778,1,0,0:0:0:0:
192,192,71825,1,0,0:0:0:0:
64,192,71872,1,0,0:0:0:0:
320,192,71872,1,0,0:0:0:0:
448,192,71872,1,0,0:0:0:0:
192,192,71919,1,0,0:0:0:0:
448,192,71966,1,0,0:0:0:0:
320,192,72013,1,0,0:0:0:0:
192,192,72060,1,0,0:0:0:0:
64,192,72106,1,0,0:0:0:0:
192,192,72153,1,0,0:0:0:0:
320,192,72153,1,0,0:0:0:0:
448,192,72153,1,0,0:0:0:0:
64,192,72247,1,0,0:0:0:0:
448,192,72247,1,0,0:0:0:0:
192,192,72341,1,0,0:0:0:0:
320,192,72341,1,0,0:0:0:0:
448,192,72341,1,0,0:0:0:0:
64,192,72435,1,0,0:0:0:0:
320,192,72435,1,0,0:0:0:0:
448,192,72435,1,0,0:0:0:0:
192,192,72622,1,0,0:0:0:0:
320,192,72622,1,0,0:0:0:0:
448,192,72622,1,0,0:0:0:0:
64,192,72810,1,0,0:0:0:0:
448,192,72810,1,0,0:0:0:0:
64,192,72903,1,0,0:0:0:0:
192,192,72903,1,0,0:0:0:0:
192,192,72997,1,0,0:0:0:0:
320,192,72997,1,0,0:0:0:0:
448,192,72997,1,0,0:0:0:0:
64,192,73185,1,0,0:0:0:0:
448,192,73185,1,0,0:0:0:0:
64,192,73372,1,0,0:0:0:0:
192,192,73372,1,0,0:0:0:0:
320,192,73372,1,0,0:0:0:0:
64,192,73560,1,0,0:0:0:0:
192,192,73560,1,0,0:0:0:0:
320,192,73653,1,0,0:0:0:0:
448,192,73653,1,0,0:0:0:0:
64,192,73747,1,0,0:0:0:0:
192,192,73747,1,0,0:0:0:0:
448,192,73747,1,0,0:0:0:0:
64,192,73935,1,0,0:0:0:0:
448,192,73935,1,0,0:0:0:0:
192,192,74122,1,0,0:0:0:0:
320,192,74122,1,0,0:0:0:0:
448,192,74122,1,0,0:0:0:0:
64,192,74310,1,0,0:0:0:0:
192,192,74310,1,0,0:0:0:0:
320,192,74403,1,0,0:0:0:0:
448,192,74403,1,0,0:0:0:0:
64,192,74497,1,0,0:0:0:0:
192,192,74497,1,0,0:0:0:0:
320,192,74497,1,0,0:0:0:0:
64,192,74685,1,0,0:0:0:0:
192,192,74685,1,0,0:0:0:0:
320,192,74685,1,0,0:0:0:0:
320,192,74778,1,0,0:0:0:0:
448,192,74778,1,0,0:0:0:0:
64,192,74872,1,0,0:0:0:0:
192,192,74872,1,0,0:0:0:0:
64,192,74966,1,0,0:0:0:0:
320,192,74966,1,0,0:0:0:0:
448,192,74966,1,0,0:0:0:0:
192,192,75060,1,0,0:0:0:0:
448,192,75060,1,0,0:0:0:0:
320,192,75153,1,0,0:0:0:0:
448,192,75153,1,0,0:0:0:0:
64,192,75247,1,0,0:0:0:0:
192,192,75247,1,0,0:0:0:0:
448,192,75247,1,0,0:0:0:0:
64,192,75341,1,0,0:0:0:0:
448,192,75341,1,0,0:0:0:0:
64,192,75435,1,0,0:0:0:0:
192,192,75435,1,0,0:0:0:0:
320,192,75435,1,0,0:0:0:0:
192,192,75622,1,0,0:0:0:0:
320,192,75622,1,0,0:0:0:0:
448,192,75622,1,0,0:0:0:0:
64,192,75810,1,0,0:0:0:0:
192,192,75810,1,0,0:0:0:0:
320,192,75903,1,0,0:0:0:0:
448,192,75903,1,0,0:0:0:0:
64,192,75997,1,0,0:0:0:0:
192,192,75997,1,0,0:0:0:0:
320,192,75997,1,0,0:0:0:0:
64,192,76185,1,0,0:0:0:0:
448,192,76185,1,0,0:0:0:0:
64,192,76372,1,0,0:0:0:0:
320,192,76372,1,0,0:0:0:0:
448,192,76372,1,0,0:0:0:0:
64,192,76560,1,0,0:0:0:0:
192,192,76560,1,0,0:0:0:0:
64,192,76653,1,0,0:0:0:0:
320,192,76653,1,0,0:0:0:0:
192,192,76747,1,0,0:0:0:0:
320,192,76747,1,0,0:0:0:0:
448,192,76747,1,0,0:0:0:0:
64,192,76935,1,0,0:0:0:0:
448,192,76935,1,0,0:0:0:0:
64,192,77122,1,0,0:0:0:0:
192,192,77122,1,0,0:0:0:0:
320,192,77122,1,0,0:0:0:0:
192,192,77310,1,0,0:0:0:0:
320,192,77310,1,0,0:0:0:0:
320,192,77403,1,0,0:0:0:0:
448,192,77403,1,0,0:0:0:0:
64,192,77497,1,0,0:0:0:0:
192,192,77497,1,0,0:0:0:0:
448,192,77497,1,0,0:0:0:0:
64,192,77685,1,0,0:0:0:0:
320,192,77685,1,0,0:0:0:0:
448,192,77685,1,0,0:0:0:0:
192,192,77778,1,0,0:0:0:0:
320,192,77778,1,0,0:0:0:0:
64,192,77872,1,0,0:0:0:0:
192,192,77872,1,0,0:0:0:0:
320,192,77966,1,0,0:0:0:0:
448,192,77966,1,0,0:0:0:0:
192,192,78060,1,0,0:0:0:0:
320,192,78060,1,0,0:0:0:0:
448,192,78060,1,0,0:0:0:0:
64,192,78153,1,0,0:0:0:0:
192,192,78153,1,0,0:0:0:0:
320,192,78247,1,0,0:0:0:0:
448,192,78247,1,0,0:0:0:0:
192,192,78341,1,0,0:0:0:0:
320,192,78341,1,0,0:0:0:0:
64,192,78435,1,0,0:0:0:0:
192,192,78435,1,0,0:0:0:0:
448,192,78435,1,0,0:0:0:0:
64,192,78622,1,0,0:0:0:0:
192,192,78622,1,0,0:0:0:0:
320,192,78622,1,0,0:0:0:0:
64,192,78810,1,0,0:0:0:0:
192,192,78810,1,0,0:0:0:0:
320,192,78903,1,0,0:0:0:0:
448,192,78903,1,0,0:0:0:0:
64,192,78997,1,0,0:0:0:0:
192,192,78997,1,0,0:0:0:0:
320,192,78997,1,0,0:0:0:0:
320,192,79185,1,0,0:0:0:0:
448,192,79185,1,0,0:0:0:0:
64,192,79372,1,0,0:0:0:0:
192,192,79372,1,0,0:0:0:0:
448,192,79372,1,0,0:0:0:0:
192,192,79560,1,0,0:0:0:0:
320,192,79560,1,0,0:0:0:0:
64,192,79653,1,0,0:0:0:0:
320,192,79653,1,0,0:0:0:0:
192,192,79747,1,0,0:0:0:0:
320,192,79747,1,0,0:0:0:0:
448,192,79747,1,0,0:0:0:0:
64,192,79935,1,0,0:0:0:0:
448,192,79935,1,0,0:0:0:0:
64,192,80122,1,0,0:0:0:0:
192,192,80122,1,0,0:0:0:0:
320,192,80122,1,0,0:0:0:0:
64,192,80310,1,0,0:0:0:0:
192,192,80310,1,0,0:0:0:0:
320,192,80403,1,0,0:0:0:0:
448,192,80403,1,0,0:0:0:0:
64,192,80497,1,0,0:0:0:0:
192,192,80497,1,0,0:0:0:0:
448,192,80497,1,0,0:0:0:0:
192,192,80685,1,0,0:0:0:0:
320,192,80685,1,0,0:0:0:0:
448,192,80685,1,0,0:0:0:0:
192,192,80778,1,0,0:0:0:0:
320,192,80778,1,0,0:0:0:0:
64,192,80872,1,0,0:0:0:0:
192,192,80872,1,0,0:0:0:0:
64,192,80966,1,0,0:0:0:0:
320,192,80966,1,0,0:0:0:0:
448,192,80966,1,0,0:0:0:0:
192,192,81060,1,0,0:0:0:0:
320,192,81060,1,0,0:0:0:0:
192,192,81153,1,0,0:0:0:0:
448,192,81153,1,0,0:0:0:0:
64,192,81247,1,0,0:0:0:0:
192,192,81247,1,0,0:0:0:0:
320,192,81247,1,0,0:0:0:0:
192,192,81341,1,0,0:0:0:0:
448,192,81341,1,0,0:0:0:0:
64,192,81435,1,0,0:0:0:0:
320,192,81435,1,0,0:0:0:0:
448,192,81435,1,0,0:0:0:0:
320,192,81528,1,0,0:0:0:0:
448,192,81528,1,0,0:0:0:0:
192,192,81622,1,0,0:0:0:0:
448,192,81622,1,0,0:0:0:0:
64,192,81716,1,0,0:0:0:0:
320,192,81716,1,0,0:0:0:0:
64,192,81810,1,0,0:0:0:0:
448,192,81810,1,0,0:0:0:0:
192,192,81903,1,0,0:0:0:0:
320,192,81903,1,0,0:0:0:0:
320,192,81997,1,0,0:0:0:0:
448,192,81997,1,0,0:0:0:0:
192,192,82091,1,0,0:0:0:0:
448,192,82091,1,0,0:0:0:0:
64,192,82185,1,0,0:0:0:0:
192,192,82185,1,0,0:0:0:0:
320,192,82185,1,0,0:0:0:0:
320,192,82278,1,0,0:0:0:0:
448,192,82278,1,0,0:0:0:0:
64,192,82372,1,0,0:0:0:0:
192,192,82372,1,0,0:0:0:0:
192,192,82466,1,0,0:0:0:0:
320,192,82466,1,0,0:0:0:0:
64,192,82560,1,0,0:0:0:0:
320,192,82560,1,0,0:0:0:0:
448,192,82560,1,0,0:0:0:0:
64,192,82653,1,0,0:0:0:0:
192,192,82653,1,0,0:0:0:0:
192,192,82747,1,0,0:0:0:0:
320,192,82747,1,0,0:0:0:0:
64,192,82841,1,0,0:0:0:0:
448,192,82841,1,0,0:0:0:0:
192,192,82935,1,0,0:0:0:0:
320,192,82935,1,0,0:0:0:0:
448,192,82935,1,0,0:0:0:0:
64,192,83028,1,0,0:0:0:0:
320,192,83028,1,0,0:0:0:0:
64,192,83122,1,0,0:0:0:0:
192,192,83122,1,0,0:0:0:0:
448,192,83122,1,0,0:0:0:0:
192,192,83216,1,0,0:0:0:0:
320,192,83216,1,0,0:0:0:0:
448,192,83216,1,0,0:0:0:0:
64,192,83310,1,0,0:0:0:0:
192,192,83310,1,0,0:0:0:0:
320,192,83310,1,0,0:0:0:0:
64,192,83403,1,0,0:0:0:0:
192,192,83403,1,0,0:0:0:0:
64,192,83497,1,0,0:0:0:0:
320,192,83497,1,0,0:0:0:0:
448,192,83497,1,0,0:0:0:0:
64,192,83591,1,0,0:0:0:0:
192,192,83591,1,0,0:0:0:0:
192,192,83685,1,0,0:0:0:0:
320,192,83685,1,0,0:0:0:0:
448,192,83685,1,0,0:0:0:0:
64,192,83778,1,0,0:0:0:0:
320,192,83778,1,0,0:0:0:0:
64,192,83872,1,0,0:0:0:0:
192,192,83872,1,0,0:0:0:0:
448,192,83872,1,0,0:0:0:0:
64,192,83966,1,0,0:0:0:0:
192,192,83966,1,0,0:0:0:0:
192,192,84060,1,0,0:0:0:0:
320,192,84060,1,0,0:0:0:0:
448,192,84060,1,0,0:0:0:0:
64,192,84153,1,0,0:0:0:0:
192,192,84153,1,0,0:0:0:0:
320,192,84153,1,0,0:0:0:0:
192,192,84247,1,0,0:0:0:0:
320,192,84247,1,0,0:0:0:0:
448,192,84247,1,0,0:0:0:0:
64,192,84341,1,0,0:0:0:0:
192,192,84341,1,0,0:0:0:0:
320,192,84341,1,0,0:0:0:0:
64,192,84435,1,0,0:0:0:0:
320,192,84435,1,0,0:0:0:0:
448,192,84435,1,0,0:0:0:0:
192,192,84528,1,0,0:0:0:0:
448,192,84528,1,0,0:0:0:0:
64,192,84622,1,0,0:0:0:0:
192,192,84622,1,0,0:0:0:0:
320,192,84622,1,0,0:0:0:0:
192,192,84810,1,0,0:0:0:0:
320,192,84810,1,0,0:0:0:0:
64,192,84997,1,0,0:0:0:0:
192,192,84997,1,0,0:0:0:0:
320,192,85091,1,0,0:0:0:0:
448,192,85091,1,0,0:0:0:0:
64,192,85185,1,0,0:0:0:0:
192,192,85185,1,0,0:0:0:0:
320,192,85185,1,0,0:0:0:0:
64,192,85372,1,0,0:0:0:0:
320,192,85372,1,0,0:0:0:0:
64,192,85560,1,0,0:0:0:0:
448,192,85560,1,0,0:0:0:0:
192,192,85653,1,0,0:0:0:0:
320,192,85653,1,0,0:0:0:0:
320,192,85747,1,0,0:0:0:0:
448,192,85747,1,0,0:0:0:0:
64,192,85935,1,0,0:0:0:0:
192,192,85935,1,0,0:0:0:0:
320,192,85935,1,0,0:0:0:0:
192,192,86028,1,0,0:0:0:0:
448,192,86028,1,0,0:0:0:0:
64,192,86122,1,0,0:0:0:0:
320,192,86122,1,0,0:0:0:0:
448,192,86122,1,0,0:0:0:0:
192,192,86310,1,0,0:0:0:0:
448,192,86310,1,0,0:0:0:0:
320,192,86497,1,0,0:0:0:0:
448,192,86497,1,0,0:0:0:0:
192,192,86591,1,0,0:0:0:0:
320,192,86591,1,0,0:0:0:0:
64,192,86685,1,0,0:0:0:0:
320,192,86685,1,0,0:0:0:0:
448,192,86685,1,0,0:0:0:0:
64,192,86872,1,0,0:0:0:0:
320,192,86872,1,0,0:0:0:0:
64,192,86966,1,0,0:0:0:0:
192,192,86966,1,0,0:0:0:0:
320,192,87060,1,0,0:0:0:0:
448,192,87060,1,0,0:0:0:0:
192,192,87153,1,0,0:0:0:0:
320,192,87153,1,0,0:0:0:0:
64,192,87247,1,0,0:0:0:0:
320,192,87247,1,0,0:0:0:0:
64,192,87435,1,0,0:0:0:0:
192,192,87435,1,0,0:0:0:0:
448,192,87435,1,0,0:0:0:0:
320,192,87528,1,0,0:0:0:0:
64,192,87622,1,0,0:0:0:0:
192,192,87716,1,0,0:0:0:0:
320,192,87716,1,0,0:0:0:0:
448,192,87716,1,0,0:0:0:0:
192,192,87810,1,0,0:0:0:0:
320,192,87903,1,0,0:0:0:0:
64,192,87997,1,0,0:0:0:0:
192,192,87997,1,0,0:0:0:0:
448,192,87997,1,0,0:0:0:0:
320,192,88091,1,0,0:0:0:0:
448,192,88091,1,0,0:0:0:0:
64,192,88185,1,0,0:0:0:0:
192,192,88185,1,0,0:0:0:0:
320,192,88185,1,0,0:0:0:0:
64,192,88278,1,0,0:0:0:0:
320,192,88372,1,0,0:0:0:0:
192,192,88466,1,0,0:0:0:0:
320,192,88466,1,0,0:0:0:0:
448,192,88466,1,0,0:0:0:0:
320,192,88560,1,0,0:0:0:0:
192,192,88653,1,0,0:0:0:0:
64,192,88747,1,0,0:0:0:0:
192,192,88747,1,0,0:0:0:0:
448,192,88747,1,0,0:0:0:0:
64,192,88841,1,0,0:0:0:0:
320,192,88841,1,0,0:0:0:0:
64,192,88935,1,0,0:0:0:0:
192,192,88935,1,0,0:0:0:0:
320,192,88935,1,0,0:0:0:0:
64,192,89028,1,0,0:0:0:0:
192,192,89122,1,0,0:0:0:0:
320,192,89122,1,0,0:0:0:0:
448,192,89122,1,0,0:0:0:0:
448,192,89216,1,0,0:0:0:0:
192,192,89310,1,0,0:0:0:0:
320,192,89310,1,0,0:0:0:0:
64,192,89403,1,0,0:0:0:0:
448,192,89403,1,0,0:0:0:0:
64,192,89497,1,0,0:0:0:0:
192,192,89497,1,0,0:0:0:0:
320,192,89497,1,0,0:0:0:0:
320,192,89591,1,0,0:0:0:0:
64,192,89685,1,0,0:0:0:0:
448,192,89685,1,0,0:0:0:0:
192,192,89778,1,0,0:0:0:0:
64,192,89872,1,0,0:0:0:0:
192,192,89872,1,0,0:0:0:0:
320,192,89872,1,0,0:0:0:0:
64,192,89966,1,0,0:0:0:0:
192,192,90060,1,0,0:0:0:0:
320,192,90060,1,0,0:0:0:0:
192,192,90153,1,0,0:0:0:0:
448,192,90153,1,0,0:0:0:0:
64,192,90247,1,0,0:0:0:0:
320,192,90247,1,0,0:0:0:0:
448,192,90247,1,0,0:0:0:0:
64,192,90341,1,0,0:0:0:0:
192,192,90341,1,0,0:0:0:0:
192,192,90435,1,0,0:0:0:0:
320,192,90435,1,0,0:0:0:0:
448,192,90435,1,0,0:0:0:0:
320,192,90528,1,0,0:0:0:0:
64,192,90622,1,0,0:0:0:0:
192,192,90622,1,0,0:0:0:0:
64,192,90810,1,0,0:0:0:0:
448,192,90810,1,0,0:0:0:0:
320,192,90997,1,0,0:0:0:0:
448,192,90997,1,0,0:0:0:0:
64,192,91091,1,0,0:0:0:0:
192,192,91091,1,0,0:0:0:0:
64,192,91185,1,0,0:0:0:0:
320,192,91185,1,0,0:0:0:0:
448,192,91185,1,0,0:0:0:0:
64,192,91372,1,0,0:0:0:0:
320,192,91372,1,0,0:0:0:0:
64,192,91560,1,0,0:0:0:0:
192,192,91560,1,0,0:0:0:0:
448,192,91560,1,0,0:0:0:0:
64,192,91653,1,0,0:0:0:0:
320,192,91653,1,0,0:0:0:0:
64,192,91747,1,0,0:0:0:0:
192,192,91747,1,0,0:0:0:0:
192,192,91935,1,0,0:0:0:0:
320,192,91935,1,0,0:0:0:0:
448,192,91935,1,0,0:0:0:0:
64,192,92028,1,0,0:0:0:0:
320,192,92028,1,0,0:0:0:0:
64,192,92122,1,0,0:0:0:0:
192,192,92122,1,0,0:0:0:0:
448,192,92122,1,0,0:0:0:0:
64,192,92310,1,0,0:0:0:0:
320,192,92310,1,0,0:0:0:0:
192,192,92497,1,0,0:0:0:0:
320,192,92497,1,0,0:0:0:0:
64,192,92591,1,0,0:0:0:0:
192,192,92591,1,0,0:0:0:0:
64,192,92685,1,0,0:0:0:0:
320,192,92685,1,0,0:0:0:0:
448,192,92685,1,0,0:0:0:0:
192,192,92872,1,0,0:0:0:0:
448,192,92872,1,0,0:0:0:0:
64,192,93060,1,0,0:0:0:0:
192,192,93060,1,0,0:0:0:0:
320,192,93153,1,0,0:0:0:0:
448,192,93153,1,0,0:0:0:0:
192,192,93247,1,0,0:0:0:0:
320,192,93247,1,0,0:0:0:0:
64,192,93435,1,0,0:0:0:0:
192,192,93435,1,0,0:0:0:0:
448,192,93435,1,0,0:0:0:0:
192,192,93528,1,0,0:0:0:0:
320,192,93528,1,0,0:0:0:0:
64,192,93622,1,0,0:0:0:0:
192,192,93622,1,0,0:0:0:0:
192,192,93716,1,0,0:0:0:0:
320,192,93716,1,0,0:0:0:0:
448,192,93716,1,0,0:0:0:0:
64,192,93810,1,0,0:0:0:0:
192,192,93810,1,0,0:0:0:0:
64,192,93903,1,0,0:0:0:0:
320,192,93903,1,0,0:0:0:0:
192,192,93997,1,0,0:0:0:0:
320,192,93997,1,0,0:0:0:0:
448,192,93997,1,0,0:0:0:0:
64,192,94091,1,0,0:0:0:0:
320,192,94091,1,0,0:0:0:0:
64,192,94185,1,0,0:0:0:0:
320,192,94185,1,0,0:0:0:0:
448,192,94185,1,0,0:0:0:0:
192,192,94278,1,0,0:0:0:0:
448,192,94278,1,0,0:0:0:0:
64,192,94372,1,0,0:0:0:0:
320,192,94372,1,0,0:0:0:0:
64,192,94466,1,0,0:0:0:0:
192,192,94466,1,0,0:0:0:0:
448,192,94466,1,0,0:0:0:0:
192,192,94560,1,0,0:0:0:0:
320,192,94560,1,0,0:0:0:0:
320,192,94653,1,0,0:0:0:0:
448,192,94653,1,0,0:0:0:0:
64,192,94747,1,0,0:0:0:0:
192,192,94747,1,0,0:0:0:0:
320,192,94747,1,0,0:0:0:0:
64,192,94841,1,0,0:0:0:0:
448,192,94841,1,0,0:0:0:0:
192,192,94935,1,0,0:0:0:0:
320,192,94935,1,0,0:0:0:0:
448,192,94935,1,0,0:0:0:0:
64,192,95122,1,0,0:0:0:0:
320,192,95122,1,0,0:0:0:0:
448,192,95122,1,0,0:0:0:0:
64,192,95310,1,0,0:0:0:0:
192,192,95310,1,0,0:0:0:0:
64,192,95403,1,0,0:0:0:0:
320,192,95403,1,0,0:0:0:0:
448,192,95403,1,0,0:0:0:0:
192,192,95591,1,0,0:0:0:0:
448,192,95591,1,0,0:0:0:0:
64,192,95685,1,0,0:0:0:0:
320,192,95685,1,0,0:0:0:0:
448,192,95685,1,0,0:0:0:0:
64,192,95872,1,0,0:0:0:0:
192,192,95872,1,0,0:0:0:0:
448,192,95872,1,0,0:0:0:0:
64,192,95966,1,0,0:0:0:0:
448,192,95966,1,0,0:0:0:0:
64,192,96060,1,0,0:0:0:0:
320,192,96060,1,0,0:0:0:0:
448,192,96060,1,0,0:0:0:0:
192,192,96153,1,0,0:0:0:0:
320,192,96153,1,0,0:0:0:0:
320,192,96247,1,0,0:0:0:0:
448,192,96247,1,0,0:0:0:0:
64,192,96341,1,0,0:0:0:0:
192,192,96341,1,0,0:0:0:0:
192,192,96435,1,0,0:0:0:0:
320,192,96435,1,0,0:0:0:0:
448,192,96435,1,0,0:0:0:0:
320,192,96528,1,0,0:0:0:0:
448,192,96528,1,0,0:0:0:0:
64,192,96622,1,0,0:0:0:0:
192,192,96622,1,0,0:0:0:0:
448,192,96622,1,0,0:0:0:0:
64,192,96810,1,0,0:0:0:0:
192,192,96810,1,0,0:0:0:0:
320,192,96810,1,0,0:0:0:0:
320,192,96997,1,0,0:0:0:0:
448,192,96997,1,0,0:0:0:0:
192,192,97091,1,0,0:0:0:0:
448,192,97091,1,0,0:0:0:0:
64,192,97185,1,0,0:0:0:0:
192,192,97185,1,0,0:0:0:0:
320,192,97185,1,0,0:0:0:0:
320,192,97278,1,0,0:0:0:0:
448,192,97278,1,0,0:0:0:0:
64,192,97372,1,0,0:0:0:0:
192,192,97372,1,0,0:0:0:0:
192,192,97560,1,0,0:0:0:0:
320,192,97560,1,0,0:0:0:0:
448,192,97560,1,0,0:0:0:0:
64,192,97653,1,0,0:0:0:0:
192,192,97653,1,0,0:0:0:0:
320,192,97747,1,0,0:0:0:0:
448,192,97747,1,0,0:0:0:0:
192,192,97935,1,0,0:0:0:0:
320,192,97935,1,0,0:0:0:0:
320,192,98028,1,0,0:0:0:0:
448,192,98028,1,0,0:0:0:0:
64,192,98122,1,0,0:0:0:0:
192,192,98122,1,0,0:0:0:0:
448,192,98122,1,0,0:0:0:0:
320,192,98310,1,0,0:0:0:0:
448,192,98310,1,0,0:0:0:0:
64,192,98497,1,0,0:0:0:0:
192,192,98497,1,0,0:0:0:0:
192,192,98591,1,0,0:0:0:0:
320,192,98591,1,0,0:0:0:0:
64,192,98685,1,0,0:0:0:0:
320,192,98685,1,0,0:0:0:0:
448,192,98685,1,0,0:0:0:0:
64,192,98872,1,0,0:0:0:0:
320,192,98872,1,0,0:0:0:0:
192,192,98966,1,0,0:0:0:0:
320,192,98966,1,0,0:0:0:0:
64,192,99060,1,0,0:0:0:0:
320,192,99060,1,0,0:0:0:0:
448,192,99060,1,0,0:0:0:0:
64,192,99153,1,0,0:0:0:0:
192,192,99153,1,0,0:0:0:0:
320,192,99247,1,0,0:0:0:0:
448,192,99247,1,0,0:0:0:0:
64,192,99435,1,0,0:0:0:0:
192,192,99435,1,0,0:0:0:0:
448,192,99435,1,0,0:0:0:0:
192,192,99528,1,0,0:0:0:0:
320,192,99528,1,0,0:0:0:0:
64,192,99622,1,0,0:0:0:0:
192,192,99622,1,0,0:0:0:0:
64,192,99716,1,0,0:0:0:0:
320,192,99716,1,0,0:0:0:0:
448,192,99716,1,0,0:0:0:0:
192,192,99810,1,0,0:0:0:0:
320,192,99810,1,0,0:0:0:0:
320,192,99903,1,0,0:0:0:0:
448,192,99903,1,0,0:0:0:0:
64,192,99997,1,0,0:0:0:0:
192,192,99997,1,0,0:0:0:0:
448,192,99997,1,0,0:0:0:0:
64,192,100091,1,0,0:0:0:0:
320,192,100091,1,0,0:0:0:0:
192,192,100185,1,0,0:0:0:0:
320,192,100185,1,0,0:0:0:0:
448,192,100185,1,0,0:0:0:0:
64,192,100278,1,0,0:0:0:0:
192,192,100278,1,0,0:0:0:0:
320,192,100372,1,0,0:0:0:0:
448,192,100372,1,0,0:0:0:0:
64,192,100466,1,0,0:0:0:0:
192,192,100466,1,0,0:0:0:0:
320,192,100466,1,0,0:0:0:0:
192,192,100560,1,0,0:0:0:0:
320,192,100560,1,0,0:0:0:0:
64,192,100653,1,0,0:0:0:0:
448,192,100653,1,0,0:0:0:0:
192,192,100747,1,0,0:0:0:0:
320,192,100747,1,0,0:0:0:0:
448,192,100747,1,0,0:0:0:0:
64,192,100841,1,0,0:0:0:0:
448,192,100841,1,0,0:0:0:0:
64,192,100935,1,0,0:0:0:0:
192,192,100935,1,0,0:0:0:0:
320,192,100935,1,0,0:0:0:0:
192,192,101028,1,0,0:0:0:0:
192,192,101122,1,0,0:0:0:0:
320,192,101122,1,0,0:0:0:0:
448,192,101122,1,0,0:0:0:0:
64,192,101216,1,0,0:0:0:0:
320,192,101310,1,0,0:0:0:0:
448,192,101310,1,0,0:0:0:0:
64,192,101403,1,0,0:0:0:0:
192,192,101403,1,0,0:0:0:0:
64,192,101497,1,0,0:0:0:0:
320,192,101497,1,0,0:0:0:0:
448,192,101497,1,0,0:0:0:0:
192,192,101591,1,0,0:0:0:0:
320,192,101685,1,0,0:0:0:0:
448,192,101685,1,0,0:0:0:0:
64,192,101778,1,0,0:0:0:0:
64,192,101872,1,0,0:0:0:0:
192,192,101872,1,0,0:0:0:0:
320,192,101872,1,0,0:0:0:0:
320,192,101966,1,0,0:0:0:0:
192,192,102060,1,0,0:0:0:0:
448,192,102060,1,0,0:0:0:0:
320,192,102153,1,0,0:0:0:0:
448,192,102153,1,0,0:0:0:0:
64,192,102247,1,0,0:0:0:0:
192,192,102247,1,0,0:0:0:0:
448,192,102247,1,0,0:0:0:0:
64,192,102341,1,0,0:0:0:0:
320,192,102341,1,0,0:0:0:0:
192,192,102435,1,0,0:0:0:0:
320,192,102435,1,0,0:0:0:0:
448,192,102435,1,0,0:0:0:0:
64,192,102622,1,0,0:0:0:0:
192,192,102622,1,0,0:0:0:0:
320,192,102622,1,0,0:0:0:0:
64,192,102716,1,0,0:0:0:0:
192,192,102810,1,0,0:0:0:0:
320,192,102810,1,0,0:0:0:0:
448,192,102810,1,0,0:0:0:0:
64,192,102997,1,0,0:0:0:0:
192,192,102997,1,0,0:0:0:0:
64,192,103091,1,0,0:0:0:0:
320,192,103091,1,0,0:0:0:0:
192,192,103185,1,0,0:0:0:0:
320,192,103185,1,0,0:0:0:0:
448,192,103185,1,0,0:0:0:0:
64,192,103278,1,0,0:0:0:0:
320,192,103278,1,0,0:0:0:0:
64,192,103372,1,0,0:0:0:0:
448,192,103372,1,0,0:0:0:0:
192,192,103560,1,0,0:0:0:0:
320,192,103560,1,0,0:0:0:0:
448,192,103560,1,0,0:0:0:0:
320,192,103653,1,0,0:0:0:0:
448,192,103653,1,0,0:0:0:0:
64,192,103747,1,0,0:0:0:0:
192,192,103747,1,0,0:0:0:0:
64,192,103935,1,0,0:0:0:0:
320,192,103935,1,0,0:0:0:0:
192,192,104028,1,0,0:0:0:0:
448,192,104028,1,0,0:0:0:0:
192,192,104122,1,0,0:0:0:0:
320,192,104122,1,0,0:0:0:0:
448,192,104122,1,0,0:0:0:0:
192,192,104310,1,0,0:0:0:0:
448,192,104310,1,0,0:0:0:0:
64,192,104497,1,0,0:0:0:0:
192,192,104497,1,0,0:0:0:0:
320,192,104591,1,0,0:0:0:0:
448,192,104591,1,0,0:0:0:0:
64,192,104685,1,0,0:0:0:0:
192,192,104685,1,0,0:0:0:0:
320,192,104685,1,0,0:0:0:0:
320,192,104872,1,0,0:0:0:0:
448,192,104872,1,0,0:0:0:0:
64,192,104966,1,0,0:0:0:0:
192,192,104966,1,0,0:0:0:0:
192,192,105060,1,0,0:0:0:0:
320,192,105060,1,0,0:0:0:0:
192,192,105153,1,0,0:0:0:0:
448,192,105153,1,0,0:0:0:0:
320,192,105247,1,0,0:0:0:0:
448,192,105247,1,0,0:0:0:0:
64,192,105435,1,0,0:0:0:0:
192,192,105435,1,0,0:0:0:0:
448,192,105435,1,0,0:0:0:0:
192,192,105528,1,0,0:0:0:0:
320,192,105528,1,0,0:0:0:0:
64,192,105622,1,0,0:0:0:0:
448,192,105622,1,0,0:0:0:0:
64,192,105716,1,0,0:0:0:0:
192,192,105716,1,0,0:0:0:0:
320,192,105716,1,0,0:0:0:0:
192,192,105810,1,0,0:0:0:0:
448,192,105810,1,0,0:0:0:0:
320,192,105903,1,0,0:0:0:0:
448,192,105903,1,0,0:0:0:0:
64,192,105997,1,0,0:0:0:0:
192,192,105997,1,0,0:0:0:0:
448,192,105997,1,0,0:0:0:0:
64,192,106091,1,0,0:0:0:0:
320,192,106091,1,0,0:0:0:0:
192,192,106185,1,0,0:0:0:0:
320,192,106185,1,0,0:0:0:0:
448,192,106185,1,0,0:0:0:0:
64,192,106278,1,0,0:0:0:0:
448,192,106278,1,0,0:0:0:0:
192,192,106372,1,0,0:0:0:0:
320,192,106372,1,0,0:0:0:0:
64,192,106466,1,0,0:0:0:0:
320,192,106466,1,0,0:0:0:0:
448,192,106466,1,0,0:0:0:0:
192,192,106560,1,0,0:0:0:0:
320,192,106560,1,0,0:0:0:0:
64,192,106653,1,0,0:0:0:0:
192,192,106653,1,0,0:0:0:0:
192,192,106747,1,0,0:0:0:0:
320,192,106747,1,0,0:0:0:0:
448,192,106747,1,0,0:0:0:0:
64,192,106841,1,0,0:0:0:0:
320,192,106841,1,0,0:0:0:0:
64,192,106935,1,0,0:0:0:0:
192,192,106935,1,0,0:0:0:0:
448,192,106935,1,0,0:0:0:0:
64,192,107122,1,0,0:0:0:0:
320,192,107122,1,0,0:0:0:0:
448,192,107122,1,0,0:0:0:0:
64,192,107310,1,0,0:0:0:0:
192,192,107310,1,0,0:0:0:0:
192,192,107403,1,0,0:0:0:0:
320,192,107403,1,0,0:0:0:0:
448,192,107403,1,0,0:0:0:0:
192,192,107591,1,0,0:0:0:0:
448,192,107591,1,0,0:0:0:0:
64,192,107685,1,0,0:0:0:0:
192,192,107685,1,0,0:0:0:0:
320,192,107685,1,0,0:0:0:0:
320,192,107872,1,0,0:0:0:0:
448,192,107872,1,0,0:0:0:0:
64,192,107966,1,0,0:0:0:0:
192,192,107966,1,0,0:0:0:0:
192,192,108060,1,0,0:0:0:0:
320,192,108060,1,0,0:0:0:0:
64,192,108153,1,0,0:0:0:0:
320,192,108153,1,0,0:0:0:0:
192,192,108247,1,0,0:0:0:0:
448,192,108247,1,0,0:0:0:0:
320,192,108341,1,0,0:0:0:0:
448,192,108341,1,0,0:0:0:0:
64,192,108435,1,0,0:0:0:0:
192,192,108435,1,0,0:0:0:0:
320,192,108435,1,0,0:0:0:0:
