osu file format v14

[General]
AudioFilename: 8. Rain Storm.mp3
AudioLeadIn: 2
PreviewTime: 69700
Countdown: 0
SampleSet: None
StackLeniency: 0.7
Mode: 3
LetterboxInBreaks: 0
SpecialStyle: 0
WidescreenStoryboard: 0

[Editor]
DistanceSpacing: 0.8
BeatDivisor: 4
GridSize: 8
TimelineZoom: 1

[Metadata]
Title:Fish A La Carte
TitleUnicode:Fish A La Carte
Artist:Various Artists
ArtistUnicode:Various Artists
Creator:Yellyfish
Version:Rain Storm
Source:
Tags:
BeatmapID:1117099
BeatmapSetID:526427

[Difficulty]
HPDrainRate:7
CircleSize:4
OverallDifficulty:8
ApproachRate:10
SliderMultiplier:1.4
SliderTickRate:1

[Events]
//Background and Video events
0,0,"8. Rain Storm.jpg",0,0
//Break Periods
//Storyboard Layer 0 (Background)
//Storyboard Layer 1 (Fail)
//Storyboard Layer 2 (Pass)
//Storyboard Layer 3 (Foreground)
//Storyboard Sound Samples

[TimingPoints]
4780,394.7368,4,1,0,0,1,0

[HitObjects]
192,192,5569,5,0,0:0:0:0:
192,192,5668,1,0,0:0:0:0:
192,192,5766,1,0,0:0:0:0:
192,192,5865,1,0,0:0:0:0:
192,192,5964,1,0,0:0:0:0:
192,192,6062,1,0,0:0:0:0:
192,192,6161,1,0,0:0:0:0:
192,192,6260,1,0,0:0:0:0:
64,192,6358,1,0,0:0:0:0:
320,192,6358,1,0,0:0:0:0:
448,192,6358,1,0,0:0:0:0:
192,192,6654,1,0,0:0:0:0:
320,192,6654,1,0,0:0:0:0:
64,192,6951,1,0,0:0:0:0:
192,192,6951,1,0,0:0:0:0:
448,192,6951,1,0,0:0:0:0:
320,192,7543,1,0,0:0:0:0:
320,192,7641,1,0,0:0:0:0:
320,192,7740,1,0,0:0:0:0:
320,192,7839,1,0,0:0:0:0:
64,192,7937,1,0,0:0:0:0:
192,192,7937,1,0,0:0:0:0:
448,192,7937,1,0,0:0:0:0:
64,192,8233,1,0,0:0:0:0:
320,192,8233,1,0,0:0:0:0:
64,192,8529,1,0,0:0:0:0:
192,192,8529,1,0,0:0:0:0:
448,192,8529,1,0,0:0:0:0:
320,192,9122,1,0,0:0:0:0:
320,192,9220,1,0,0:0:0:0:
320,192,9319,1,0,0:0:0:0:
320,192,9418,1,0,0:0:0:0:
64,192,9516,1,0,0:0:0:0:
192,192,9516,1,0,0:0:0:0:
448,192,9516,1,0,0:0:0:0:
64,192,9812,1,0,0:0:0:0:
320,192,9812,1,0,0:0:0:0:
192,192,10108,1,0,0:0:0:0:
320,192,10108,1,0,0:0:0:0:
448,192,10108,1,0,0:0:0:0:
448,192,10701,1,0,0:0:0:0:
448,192,10799,1,0,0:0:0:0:
448,192,10898,1,0,0:0:0:0:
448,192,10997,1,0,0:0:0:0:
64,192,11095,1,0,0:0:0:0:
192,192,11095,1,0,0:0:0:0:
320,192,11095,1,0,0:0:0:0:
64,192,11391,1,0,0:0:0:0:
192,192,11391,1,0,0:0:0:0:
192,192,11687,1,0,0:0:0:0:
320,192,11687,1,0,0:0:0:0:
448,192,11687,1,0,0:0:0:0:
64,192,12280,1,0,0:0:0:0:
64,192,12378,1,0,0:0:0:0:
64,192,12477,1,0,0:0:0:0:
64,192,12576,1,0,0:0:0:0:
192,192,12674,1,0,0:0:0:0:
320,192,12674,1,0,0:0:0:0:
448,192,12674,1,0,0:0:0:0:
192,192,12970,1,0,0:0:0:0:
320,192,12970,1,0,0:0:0:0:
64,192,13069,1,0,0:0:0:0:
320,192,13266,1,0,0:0:0:0:
448,192,13266,1,0,0:0:0:0:
64,192,13858,1,0,0:0:0:0:
320,192,14253,1,0,0:0:0:0:
448,192,14253,1,0,0:0:0:0:
192,192,14549,1,0,0:0:0:0:
320,192,14549,1,0,0:0:0:0:
64,192,14648,1,0,0:0:0:0:
192,192,14845,1,0,0:0:0:0:
448,192,14845,1,0,0:0:0:0:
64,192,15141,1,0,0:0:0:0:
64,192,15437,1,0,0:0:0:0:
192,192,15832,1,0,0:0:0:0:
448,192,15832,1,0,0:0:0:0:
192,192,16128,1,0,0:0:0:0:
320,192,16128,1,0,0:0:0:0:
64,192,16227,1,0,0:0:0:0:
320,192,16424,1,0,0:0:0:0:
448,192,16424,1,0,0:0:0:0:
64,192,17016,1,0,0:0:0:0:
64,192,17411,1,0,0:0:0:0:
192,192,17411,1,0,0:0:0:0:
320,192,17411,1,0,0:0:0:0:
64,192,17608,1,0,0:0:0:0:
192,192,17608,1,0,0:0:0:0:
448,192,17707,1,0,0:0:0:0:
64,192,17806,1,0,0:0:0:0:
192,192,17806,1,0,0:0:0:0:
64,192,18003,1,0,0:0:0:0:
192,192,18003,1,0,0:0:0:0:
320,192,18003,1,0,0:0:0:0:
64,192,18201,1,0,0:0:0:0:
192,192,18201,1,0,0:0:0:0:
320,192,18201,1,0,0:0:0:0:
64,192,18398,1,0,0:0:0:0:
192,192,18398,1,0,0:0:0:0:
64,192,18595,1,0,0:0:0:0:
192,192,18595,1,0,0:0:0:0:
64,192,18793,1,0,0:0:0:0:
192,192,18793,1,0,0:0:0:0:
64,192,18990,1,0,0:0:0:0:
192,192,18990,1,0,0:0:0:0:
320,192,18990,1,0,0:0:0:0:
448,192,18990,1,0,0:0:0:0:
448,192,19385,1,0,0:0:0:0:
64,192,19780,1,0,0:0:0:0:
192,192,19780,1,0,0:0:0:0:
192,192,19878,1,0,0:0:0:0:
192,192,19977,1,0,0:0:0:0:
192,192,20076,1,0,0:0:0:0:
192,192,20174,1,0,0:0:0:0:
448,192,20174,1,0,0:0:0:0:
320,192,20372,1,0,0:0:0:0:
192,192,20470,1,0,0:0:0:0:
64,192,20569,1,0,0:0:0:0:
320,192,20569,1,0,0:0:0:0:
448,192,20569,1,0,0:0:0:0:
192,192,20668,1,0,0:0:0:0:
320,192,20766,1,0,0:0:0:0:
64,192,20865,1,0,0:0:0:0:
448,192,20865,1,0,0:0:0:0:
192,192,20964,1,0,0:0:0:0:
320,192,20964,1,0,0:0:0:0:
448,192,20964,1,0,0:0:0:0:
64,192,21062,1,0,0:0:0:0:
320,192,21161,1,0,0:0:0:0:
448,192,21161,1,0,0:0:0:0:
192,192,21260,1,0,0:0:0:0:
320,192,21260,1,0,0:0:0:0:
64,192,21358,1,0,0:0:0:0:
192,192,21358,1,0,0:0:0:0:
448,192,21358,1,0,0:0:0:0:
192,192,21457,1,0,0:0:0:0:
320,192,21457,1,0,0:0:0:0:
64,192,21556,1,0,0:0:0:0:
320,192,21654,1,0,0:0:0:0:
64,192,21753,1,0,0:0:0:0:
192,192,21753,1,0,0:0:0:0:
320,192,21753,1,0,0:0:0:0:
448,192,21753,1,0,0:0:0:0:
192,192,21852,1,0,0:0:0:0:
64,192,21951,1,0,0:0:0:0:
320,192,21951,1,0,0:0:0:0:
448,192,22049,1,0,0:0:0:0:
64,192,22148,1,0,0:0:0:0:
192,192,22148,1,0,0:0:0:0:
448,192,22148,1,0,0:0:0:0:
192,192,22247,1,0,0:0:0:0:
320,192,22345,1,0,0:0:0:0:
64,192,22444,1,0,0:0:0:0:
448,192,22444,1,0,0:0:0:0:
64,192,22543,1,0,0:0:0:0:
192,192,22543,1,0,0:0:0:0:
320,192,22543,1,0,0:0:0:0:
192,192,22641,1,0,0:0:0:0:
64,192,22740,1,0,0:0:0:0:
448,192,22740,1,0,0:0:0:0:
192,192,22839,1,0,0:0:0:0:
320,192,22839,1,0,0:0:0:0:
64,192,22937,1,0,0:0:0:0:
192,192,22937,1,0,0:0:0:0:
448,192,22937,1,0,0:0:0:0:
320,192,23036,1,0,0:0:0:0:
448,192,23036,1,0,0:0:0:0:
64,192,23135,1,0,0:0:0:0:
320,192,23233,1,0,0:0:0:0:
64,192,23332,1,0,0:0:0:0:
192,192,23332,1,0,0:0:0:0:
320,192,23332,1,0,0:0:0:0:
448,192,23332,1,0,0:0:0:0:
192,192,23431,1,0,0:0:0:0:
64,192,23529,1,0,0:0:0:0:
448,192,23529,1,0,0:0:0:0:
192,192,23628,1,0,0:0:0:0:
64,192,23727,1,0,0:0:0:0:
320,192,23727,1,0,0:0:0:0:
448,192,23727,1,0,0:0:0:0:
320,192,23826,1,0,0:0:0:0:
448,192,23924,1,0,0:0:0:0:
192,192,24023,1,0,0:0:0:0:
320,192,24023,1,0,0:0:0:0:
64,192,24122,1,0,0:0:0:0:
192,192,24122,1,0,0:0:0:0:
320,192,24122,1,0,0:0:0:0:
64,192,24220,1,0,0:0:0:0:
192,192,24319,1,0,0:0:0:0:
448,192,24319,1,0,0:0:0:0:
64,192,24418,1,0,0:0:0:0:
320,192,24418,1,0,0:0:0:0:
192,192,24516,1,0,0:0:0:0:
320,192,24516,1,0,0:0:0:0:
448,192,24516,1,0,0:0:0:0:
64,192,24615,1,0,0:0:0:0:
192,192,24615,1,0,0:0:0:0:
448,192,24714,1,0,0:0:0:0:
320,192,24812,1,0,0:0:0:0:
64,192,24911,1,0,0:0:0:0:
192,192,24911,1,0,0:0:0:0:
320,192,24911,1,0,0:0:0:0:
448,192,24911,1,0,0:0:0:0:
64,192,25010,1,0,0:0:0:0:
192,192,25108,1,0,0:0:0:0:
448,192,25207,1,0,0:0:0:0:
64,192,25306,1,0,0:0:0:0:
192,192,25306,1,0,0:0:0:0:
320,192,25306,1,0,0:0:0:0:
448,192,25404,1,0,0:0:0:0:
64,192,25503,1,0,0:0:0:0:
192,192,25602,1,0,0:0:0:0:
320,192,25602,1,0,0:0:0:0:
64,192,25701,1,0,0:0:0:0:
192,192,25701,1,0,0:0:0:0:
448,192,25701,1,0,0:0:0:0:
64,192,25799,1,0,0:0:0:0:
192,192,25898,1,0,0:0:0:0:
320,192,25898,1,0,0:0:0:0:
64,192,25997,1,0,0:0:0:0:
448,192,25997,1,0,0:0:0:0:
64,192,26095,1,0,0:0:0:0:
192,192,26095,1,0,0:0:0:0:
320,192,26095,1,0,0:0:0:0:
192,192,26194,1,0,0:0:0:0:
448,192,26194,1,0,0:0:0:0:
320,192,26293,1,0,0:0:0:0:
448,192,26391,1,0,0:0:0:0:
64,192,26490,1,0,0:0:0:0:
192,192,26490,1,0,0:0:0:0:
320,192,26490,1,0,0:0:0:0:
448,192,26490,1,0,0:0:0:0:
192,192,26589,1,0,0:0:0:0:
64,192,26687,1,0,0:0:0:0:
320,192,26687,1,0,0:0:0:0:
448,192,26786,1,0,0:0:0:0:
64,192,26885,1,0,0:0:0:0:
192,192,26885,1,0,0:0:0:0:
448,192,26885,1,0,0:0:0:0:
192,192,26983,1,0,0:0:0:0:
320,192,27082,1,0,0:0:0:0:
64,192,27181,1,0,0:0:0:0:
448,192,27181,1,0,0:0:0:0:
64,192,27279,1,0,0:0:0:0:
192,192,27279,1,0,0:0:0:0:
320,192,27279,1,0,0:0:0:0:
192,192,27378,1,0,0:0:0:0:
320,192,27477,1,0,0:0:0:0:
448,192,27477,1,0,0:0:0:0:
64,192,27576,1,0,0:0:0:0:
320,192,27576,1,0,0:0:0:0:
64,192,27674,1,0,0:0:0:0:
192,192,27674,1,0,0:0:0:0:
448,192,27674,1,0,0:0:0:0:
192,192,27773,1,0,0:0:0:0:
320,192,27773,1,0,0:0:0:0:
320,192,27872,1,0,0:0:0:0:
448,192,27970,1,0,0:0:0:0:
64,192,28069,1,0,0:0:0:0:
192,192,28069,1,0,0:0:0:0:
320,192,28069,1,0,0:0:0:0:
448,192,28069,1,0,0:0:0:0:
64,192,28168,1,0,0:0:0:0:
320,192,28266,1,0,0:0:0:0:
448,192,28266,1,0,0:0:0:0:
192,192,28365,1,0,0:0:0:0:
64,192,28464,1,0,0:0:0:0:
320,192,28464,1,0,0:0:0:0:
448,192,28464,1,0,0:0:0:0:
192,192,28562,1,0,0:0:0:0:
64,192,28661,1,0,0:0:0:0:
320,192,28760,1,0,0:0:0:0:
448,192,28760,1,0,0:0:0:0:
64,192,28858,1,0,0:0:0:0:
192,192,28858,1,0,0:0:0:0:
320,192,28858,1,0,0:0:0:0:
64,192,28957,1,0,0:0:0:0:
320,192,29056,1,0,0:0:0:0:
448,192,29056,1,0,0:0:0:0:
192,192,29154,1,0,0:0:0:0:
448,192,29154,1,0,0:0:0:0:
64,192,29253,1,0,0:0:0:0:
192,192,29253,1,0,0:0:0:0:
320,192,29253,1,0,0:0:0:0:
192,192,29352,1,0,0:0:0:0:
448,192,29352,1,0,0:0:0:0:
320,192,29450,1,0,0:0:0:0:
64,192,29549,1,0,0:0:0:0:
64,192,29648,1,0,0:0:0:0:
192,192,29648,1,0,0:0:0:0:
320,192,29648,1,0,0:0:0:0:
448,192,29648,1,0,0:0:0:0:
448,192,29747,1,0,0:0:0:0:
64,192,29845,1,0,0:0:0:0:
320,192,29845,1,0,0:0:0:0:
192,192,29944,1,0,0:0:0:0:
64,192,30043,1,0,0:0:0:0:
320,192,30043,1,0,0:0:0:0:
448,192,30043,1,0,0:0:0:0:
192,192,30141,1,0,0:0:0:0:
448,192,30240,1,0,0:0:0:0:
192,192,30339,1,0,0:0:0:0:
320,192,30339,1,0,0:0:0:0:
64,192,30437,1,0,0:0:0:0:
192,192,30437,1,0,0:0:0:0:
448,192,30437,1,0,0:0:0:0:
320,192,30536,1,0,0:0:0:0:
192,192,30635,1,0,0:0:0:0:
320,192,30635,1,0,0:0:0:0:
64,192,30733,1,0,0:0:0:0:
448,192,30733,1,0,0:0:0:0:
192,192,30832,1,0,0:0:0:0:
320,192,30832,1,0,0:0:0:0:
448,192,30832,1,0,0:0:0:0:
64,192,30931,1,0,0:0:0:0:
192,192,30931,1,0,0:0:0:0:
448,192,31029,1,0,0:0:0:0:
64,192,31128,1,0,0:0:0:0:
64,192,31227,1,0,0:0:0:0:
192,192,31227,1,0,0:0:0:0:
320,192,31227,1,0,0:0:0:0:
448,192,31227,1,0,0:0:0:0:
320,192,31325,1,0,0:0:0:0:
192,192,31424,1,0,0:0:0:0:
448,192,31523,1,0,0:0:0:0:
64,192,31622,1,0,0:0:0:0:
320,192,31622,1,0,0:0:0:0:
192,0,31622,128,0,32411:1:0:0:0:
448,192,31720,1,0,0:0:0:0:
64,192,31819,1,0,0:0:0:0:
320,192,31918,1,0,0:0:0:0:
64,192,32016,1,0,0:0:0:0:
320,192,32016,1,0,0:0:0:0:
448,192,32016,1,0,0:0:0:0:
64,192,32115,1,0,0:0:0:0:
320,192,32214,1,0,0:0:0:0:
64,192,32312,1,0,0:0:0:0:
448,192,32312,1,0,0:0:0:0:
64,192,32411,1,0,0:0:0:0:
320,192,32411,1,0,0:0:0:0:
448,0,32411,128,0,32806:1:0:0:0:
192,192,32510,1,0,0:0:0:0:
320,192,32510,1,0,0:0:0:0:
64,192,32608,1,0,0:0:0:0:
192,192,32707,1,0,0:0:0:0:
64,192,32806,1,0,0:0:0:0:
192,192,32806,1,0,0:0:0:0:
320,192,32806,1,0,0:0:0:0:
64,192,32904,1,0,0:0:0:0:
192,192,33003,1,0,0:0:0:0:
448,192,33102,1,0,0:0:0:0:
64,192,33200,1,0,0:0:0:0:
192,192,33200,1,0,0:0:0:0:
320,192,33200,1,0,0:0:0:0:
64,192,33299,1,0,0:0:0:0:
192,192,33398,1,0,0:0:0:0:
320,192,33398,1,0,0:0:0:0:
64,192,33497,1,0,0:0:0:0:
448,192,33497,1,0,0:0:0:0:
64,192,33595,1,0,0:0:0:0:
192,192,33595,1,0,0:0:0:0:
320,192,33595,1,0,0:0:0:0:
448,192,33694,1,0,0:0:0:0:
64,192,33793,1,0,0:0:0:0:
192,192,33793,1,0,0:0:0:0:
320,192,33793,1,0,0:0:0:0:
64,192,33891,1,0,0:0:0:0:
448,192,33891,1,0,0:0:0:0:
192,192,33990,1,0,0:0:0:0:
320,192,33990,1,0,0:0:0:0:
448,192,33990,1,0,0:0:0:0:
64,192,34089,1,0,0:0:0:0:
192,192,34089,1,0,0:0:0:0:
320,192,34187,1,0,0:0:0:0:
448,192,34187,1,0,0:0:0:0:
64,192,34286,1,0,0:0:0:0:
64,192,34385,1,0,0:0:0:0:
192,192,34385,1,0,0:0:0:0:
320,192,34385,1,0,0:0:0:0:
448,192,34385,1,0,0:0:0:0:
320,192,34483,1,0,0:0:0:0:
64,192,34582,1,0,0:0:0:0:
192,192,34582,1,0,0:0:0:0:
448,192,34582,1,0,0:0:0:0:
448,192,34681,1,0,0:0:0:0:
64,192,34779,1,0,0:0:0:0:
192,192,34779,1,0,0:0:0:0:
320,192,34779,1,0,0:0:0:0:
320,192,34878,1,0,0:0:0:0:
192,192,34977,1,0,0:0:0:0:
448,192,34977,1,0,0:0:0:0:
64,192,35075,1,0,0:0:0:0:
320,192,35075,1,0,0:0:0:0:
64,192,35174,1,0,0:0:0:0:
192,192,35174,1,0,0:0:0:0:
448,192,35174,1,0,0:0:0:0:
320,192,35273,1,0,0:0:0:0:
64,192,35372,1,0,0:0:0:0:
192,192,35372,1,0,0:0:0:0:
320,192,35372,1,0,0:0:0:0:
192,192,35470,1,0,0:0:0:0:
448,192,35470,1,0,0:0:0:0:
64,192,35569,1,0,0:0:0:0:
192,192,35569,1,0,0:0:0:0:
320,192,35569,1,0,0:0:0:0:
64,192,35668,1,0,0:0:0:0:
448,192,35668,1,0,0:0:0:0:
192,192,35766,1,0,0:0:0:0:
320,192,35766,1,0,0:0:0:0:
448,192,35865,1,0,0:0:0:0:
64,192,35964,1,0,0:0:0:0:
192,192,35964,1,0,0:0:0:0:
320,192,35964,1,0,0:0:0:0:
448,192,35964,1,0,0:0:0:0:
320,192,36062,1,0,0:0:0:0:
64,192,36161,1,0,0:0:0:0:
192,192,36161,1,0,0:0:0:0:
448,192,36161,1,0,0:0:0:0:
320,192,36260,1,0,0:0:0:0:
192,192,36358,1,0,0:0:0:0:
320,192,36358,1,0,0:0:0:0:
448,192,36358,1,0,0:0:0:0:
64,192,36457,1,0,0:0:0:0:
320,192,36556,1,0,0:0:0:0:
448,192,36556,1,0,0:0:0:0:
64,192,36654,1,0,0:0:0:0:
192,192,36654,1,0,0:0:0:0:
192,192,36753,1,0,0:0:0:0:
320,192,36753,1,0,0:0:0:0:
448,192,36753,1,0,0:0:0:0:
320,192,36852,1,0,0:0:0:0:
64,192,36950,1,0,0:0:0:0:
192,192,36950,1,0,0:0:0:0:
448,192,36950,1,0,0:0:0:0:
64,192,37049,1,0,0:0:0:0:
320,192,37049,1,0,0:0:0:0:
192,192,37148,1,0,0:0:0:0:
320,192,37148,1,0,0:0:0:0:
448,192,37148,1,0,0:0:0:0:
192,192,37247,1,0,0:0:0:0:
64,192,37345,1,0,0:0:0:0:
320,192,37345,1,0,0:0:0:0:
448,192,37345,1,0,0:0:0:0:
192,192,37444,1,0,0:0:0:0:
64,192,37543,1,0,0:0:0:0:
192,192,37543,1,0,0:0:0:0:
320,192,37543,1,0,0:0:0:0:
448,192,37543,1,0,0:0:0:0:
448,192,37641,1,0,0:0:0:0:
64,192,37740,1,0,0:0:0:0:
192,192,37740,1,0,0:0:0:0:
320,192,37839,1,0,0:0:0:0:
64,192,37937,1,0,0:0:0:0:
192,192,37937,1,0,0:0:0:0:
448,192,37937,1,0,0:0:0:0:
320,192,38036,1,0,0:0:0:0:
64,192,38135,1,0,0:0:0:0:
448,192,38135,1,0,0:0:0:0:
192,192,38233,1,0,0:0:0:0:
448,192,38233,1,0,0:0:0:0:
64,192,38332,1,0,0:0:0:0:
192,192,38332,1,0,0:0:0:0:
320,192,38332,1,0,0:0:0:0:
448,192,38431,1,0,0:0:0:0:
64,192,38529,1,0,0:0:0:0:
192,192,38529,1,0,0:0:0:0:
320,192,38529,1,0,0:0:0:0:
192,192,38628,1,0,0:0:0:0:
448,192,38628,1,0,0:0:0:0:
64,192,38727,1,0,0:0:0:0:
320,192,38727,1,0,0:0:0:0:
448,192,38727,1,0,0:0:0:0:
192,192,38825,1,0,0:0:0:0:
320,192,38825,1,0,0:0:0:0:
64,192,38924,1,0,0:0:0:0:
448,192,38924,1,0,0:0:0:0:
192,192,39023,1,0,0:0:0:0:
64,192,39122,1,0,0:0:0:0:
192,192,39122,1,0,0:0:0:0:
320,192,39122,1,0,0:0:0:0:
448,192,39122,1,0,0:0:0:0:
448,192,39220,1,0,0:0:0:0:
64,192,39319,1,0,0:0:0:0:
192,192,39319,1,0,0:0:0:0:
320,192,39319,1,0,0:0:0:0:
320,192,39418,1,0,0:0:0:0:
64,192,39516,1,0,0:0:0:0:
192,192,39516,1,0,0:0:0:0:
448,192,39516,1,0,0:0:0:0:
320,192,39615,1,0,0:0:0:0:
192,192,39714,1,0,0:0:0:0:
448,192,39714,1,0,0:0:0:0:
64,192,39812,1,0,0:0:0:0:
320,192,39812,1,0,0:0:0:0:
64,192,39911,1,0,0:0:0:0:
192,192,39911,1,0,0:0:0:0:
448,192,39911,1,0,0:0:0:0:
320,192,40010,1,0,0:0:0:0:
64,192,40108,1,0,0:0:0:0:
192,192,40108,1,0,0:0:0:0:
320,192,40108,1,0,0:0:0:0:
320,192,40207,1,0,0:0:0:0:
448,192,40207,1,0,0:0:0:0:
64,192,40306,1,0,0:0:0:0:
192,192,40306,1,0,0:0:0:0:
448,192,40306,1,0,0:0:0:0:
320,192,40404,1,0,0:0:0:0:
448,192,40404,1,0,0:0:0:0:
64,192,40503,1,0,0:0:0:0:
192,192,40503,1,0,0:0:0:0:
448,192,40602,1,0,0:0:0:0:
64,192,40700,1,0,0:0:0:0:
192,192,40700,1,0,0:0:0:0:
320,192,40700,1,0,0:0:0:0:
448,192,40700,1,0,0:0:0:0:
320,192,40799,1,0,0:0:0:0:
64,192,40898,1,0,0:0:0:0:
192,192,40898,1,0,0:0:0:0:
448,192,40898,1,0,0:0:0:0:
192,192,40996,1,0,0:0:0:0:
64,192,41095,1,0,0:0:0:0:
320,192,41095,1,0,0:0:0:0:
448,192,41095,1,0,0:0:0:0:
192,192,41194,1,0,0:0:0:0:
64,192,41293,1,0,0:0:0:0:
320,192,41293,1,0,0:0:0:0:
192,192,41391,1,0,0:0:0:0:
448,192,41391,1,0,0:0:0:0:
64,192,41490,1,0,0:0:0:0:
192,192,41490,1,0,0:0:0:0:
320,192,41490,1,0,0:0:0:0:
448,192,41589,1,0,0:0:0:0:
64,192,41687,1,0,0:0:0:0:
320,192,41687,1,0,0:0:0:0:
448,192,41687,1,0,0:0:0:0:
64,192,41786,1,0,0:0:0:0:
192,192,41786,1,0,0:0:0:0:
192,192,41885,1,0,0:0:0:0:
320,192,41885,1,0,0:0:0:0:
448,192,41885,1,0,0:0:0:0:
64,192,41983,1,0,0:0:0:0:
192,192,41983,1,0,0:0:0:0:
320,192,42082,1,0,0:0:0:0:
448,192,42082,1,0,0:0:0:0:
192,192,42181,1,0,0:0:0:0:
64,192,42279,1,0,0:0:0:0:
192,192,42279,1,0,0:0:0:0:
320,192,42279,1,0,0:0:0:0:
448,192,42279,1,0,0:0:0:0:
320,192,42378,1,0,0:0:0:0:
64,192,42477,1,0,0:0:0:0:
192,192,42477,1,0,0:0:0:0:
448,192,42477,1,0,0:0:0:0:
448,192,42575,1,0,0:0:0:0:
64,192,42674,1,0,0:0:0:0:
192,192,42674,1,0,0:0:0:0:
320,192,42674,1,0,0:0:0:0:
320,192,42773,1,0,0:0:0:0:
192,192,42871,1,0,0:0:0:0:
448,192,42871,1,0,0:0:0:0:
64,192,42970,1,0,0:0:0:0:
320,192,42970,1,0,0:0:0:0:
192,192,43069,1,0,0:0:0:0:
320,192,43069,1,0,0:0:0:0:
448,192,43069,1,0,0:0:0:0:
64,192,43168,1,0,0:0:0:0:
64,192,43266,1,0,0:0:0:0:
192,192,43266,1,0,0:0:0:0:
320,192,43266,1,0,0:0:0:0:
192,192,43365,1,0,0:0:0:0:
448,192,43365,1,0,0:0:0:0:
64,192,43464,1,0,0:0:0:0:
192,192,43464,1,0,0:0:0:0:
320,192,43464,1,0,0:0:0:0:
320,192,43562,1,0,0:0:0:0:
448,192,43562,1,0,0:0:0:0:
64,192,43661,1,0,0:0:0:0:
192,192,43661,1,0,0:0:0:0:
320,192,43760,1,0,0:0:0:0:
64,192,43858,1,0,0:0:0:0:
192,192,43858,1,0,0:0:0:0:
320,192,43858,1,0,0:0:0:0:
448,192,43858,1,0,0:0:0:0:
448,192,43957,1,0,0:0:0:0:
192,192,44056,1,0,0:0:0:0:
320,192,44056,1,0,0:0:0:0:
64,192,44154,1,0,0:0:0:0:
64,192,44253,1,0,0:0:0:0:
192,192,44253,1,0,0:0:0:0:
320,192,44253,1,0,0:0:0:0:
448,192,44253,1,0,0:0:0:0:
192,192,44352,1,0,0:0:0:0:
64,192,44450,1,0,0:0:0:0:
320,192,44450,1,0,0:0:0:0:
448,192,44450,1,0,0:0:0:0:
192,192,44549,1,0,0:0:0:0:
448,192,44549,1,0,0:0:0:0:
64,192,44648,1,0,0:0:0:0:
320,192,44648,1,0,0:0:0:0:
448,192,44648,1,0,0:0:0:0:
192,192,44746,1,0,0:0:0:0:
64,192,44845,1,0,0:0:0:0:
320,192,44845,1,0,0:0:0:0:
448,192,44845,1,0,0:0:0:0:
64,192,44944,1,0,0:0:0:0:
192,192,44944,1,0,0:0:0:0:
192,192,45043,1,0,0:0:0:0:
320,192,45043,1,0,0:0:0:0:
448,192,45043,1,0,0:0:0:0:
64,192,45141,1,0,0:0:0:0:
320,192,45141,1,0,0:0:0:0:
192,192,45240,1,0,0:0:0:0:
448,192,45240,1,0,0:0:0:0:
320,192,45339,1,0,0:0:0:0:
64,192,45437,1,0,0:0:0:0:
192,192,45437,1,0,0:0:0:0:
448,192,45437,1,0,0:0:0:0:
320,192,45536,1,0,0:0:0:0:
64,192,45635,1,0,0:0:0:0:
192,192,45635,1,0,0:0:0:0:
448,192,45635,1,0,0:0:0:0:
192,192,45733,1,0,0:0:0:0:
320,192,45733,1,0,0:0:0:0:
64,192,45832,1,0,0:0:0:0:
192,192,45832,1,0,0:0:0:0:
320,0,45832,128,0,47214:1:0:0:0:
448,0,45832,128,0,47362:1:0:0:0:
192,192,46029,1,0,0:0:0:0:
64,192,46128,1,0,0:0:0:0:
64,192,46424,1,0,0:0:0:0:
192,192,46424,1,0,0:0:0:0:
64,192,46720,1,0,0:0:0:0:
192,192,46819,1,0,0:0:0:0:
64,192,47016,1,0,0:0:0:0:
64,192,47214,1,0,0:0:0:0:
192,192,47214,1,0,0:0:0:0:
320,192,47312,1,0,0:0:0:0:
64,192,47411,1,0,0:0:0:0:
320,0,47411,128,0,48003:1:0:0:0:
192,0,47411,128,0,48941:1:0:0:0:
448,192,47608,1,0,0:0:0:0:
64,192,47707,1,0,0:0:0:0:
448,192,48003,1,0,0:0:0:0:
64,0,48003,128,0,48595:1:0:0:0:
320,192,48299,1,0,0:0:0:0:
448,192,48398,1,0,0:0:0:0:
448,192,48595,1,0,0:0:0:0:
320,0,48595,128,0,48990:1:0:0:0:
448,192,48793,1,0,0:0:0:0:
192,192,48990,1,0,0:0:0:0:
64,0,48990,128,0,49582:1:0:0:0:
448,0,48990,128,0,50520:1:0:0:0:
320,192,49187,1,0,0:0:0:0:
192,192,49286,1,0,0:0:0:0:
320,192,49582,1,0,0:0:0:0:
192,0,49582,128,0,50174:1:0:0:0:
64,192,49878,1,0,0:0:0:0:
320,192,49977,1,0,0:0:0:0:
320,192,50174,1,0,0:0:0:0:
64,0,50174,128,0,52148:1:0:0:0:
192,192,50372,1,0,0:0:0:0:
320,192,50372,1,0,0:0:0:0:
448,192,50569,1,0,0:0:0:0:
320,0,50569,128,0,52099:1:0:0:0:
192,192,50766,1,0,0:0:0:0:
448,192,50865,1,0,0:0:0:0:
192,192,51161,1,0,0:0:0:0:
448,192,51161,1,0,0:0:0:0:
448,192,51457,1,0,0:0:0:0:
192,192,51556,1,0,0:0:0:0:
448,192,51753,1,0,0:0:0:0:
192,192,51951,1,0,0:0:0:0:
448,192,51951,1,0,0:0:0:0:
320,192,52148,1,0,0:0:0:0:
192,0,52148,128,0,53530:1:0:0:0:
448,0,52148,128,0,53678:1:0:0:0:
64,192,52345,1,0,0:0:0:0:
320,192,52444,1,0,0:0:0:0:
64,192,52740,1,0,0:0:0:0:
320,192,52740,1,0,0:0:0:0:
320,192,53036,1,0,0:0:0:0:
64,192,53135,1,0,0:0:0:0:
320,192,53332,1,0,0:0:0:0:
64,192,53530,1,0,0:0:0:0:
320,192,53530,1,0,0:0:0:0:
64,192,53628,1,0,0:0:0:0:
192,192,53727,1,0,0:0:0:0:
320,0,53727,128,0,54319:1:0:0:0:
64,0,53727,128,0,55257:1:0:0:0:
448,192,53924,1,0,0:0:0:0:
192,192,54023,1,0,0:0:0:0:
448,192,54319,1,0,0:0:0:0:
192,0,54319,128,0,54911:1:0:0:0:
448,192,54615,1,0,0:0:0:0:
320,192,54714,1,0,0:0:0:0:
448,192,54911,1,0,0:0:0:0:
320,0,54911,128,0,55306:1:0:0:0:
192,192,55109,1,0,0:0:0:0:
448,192,55109,1,0,0:0:0:0:
192,192,55306,1,0,0:0:0:0:
64,0,55306,128,0,55898:1:0:0:0:
448,0,55306,128,0,56819:1:0:0:0:
320,192,55503,1,0,0:0:0:0:
192,192,55602,1,0,0:0:0:0:
320,192,55898,1,0,0:0:0:0:
192,0,55898,128,0,56490:1:0:0:0:
320,192,56194,1,0,0:0:0:0:
64,192,56293,1,0,0:0:0:0:
64,192,56490,1,0,0:0:0:0:
320,0,56490,128,0,58464:1:0:0:0:
64,192,56687,1,0,0:0:0:0:
192,192,56687,1,0,0:0:0:0:
192,192,56885,1,0,0:0:0:0:
64,0,56885,128,0,58398:1:0:0:0:
448,192,57082,1,0,0:0:0:0:
192,192,57181,1,0,0:0:0:0:
192,192,57477,1,0,0:0:0:0:
448,192,57477,1,0,0:0:0:0:
192,192,57773,1,0,0:0:0:0:
448,192,57872,1,0,0:0:0:0:
192,192,58069,1,0,0:0:0:0:
448,192,58069,1,0,0:0:0:0:
192,192,58266,1,0,0:0:0:0:
448,192,58266,1,0,0:0:0:0:
64,192,58464,1,0,0:0:0:0:
448,192,58464,1,0,0:0:0:0:
192,0,58464,128,0,59747:1:0:0:0:
448,192,58760,1,0,0:0:0:0:
64,192,58858,1,0,0:0:0:0:
320,192,58858,1,0,0:0:0:0:
448,192,59056,1,0,0:0:0:0:
64,192,59253,1,0,0:0:0:0:
448,192,59451,1,0,0:0:0:0:
64,192,59648,1,0,0:0:0:0:
320,192,59648,1,0,0:0:0:0:
448,192,59648,1,0,0:0:0:0:
192,192,59845,1,0,0:0:0:0:
448,192,59845,1,0,0:0:0:0:
320,192,59944,1,0,0:0:0:0:
64,192,60043,1,0,0:0:0:0:
192,192,60043,1,0,0:0:0:0:
448,192,60043,1,0,0:0:0:0:
320,192,60174,1,0,0:0:0:0:
64,192,60306,1,0,0:0:0:0:
320,192,60339,1,0,0:0:0:0:
64,192,60437,1,0,0:0:0:0:
192,192,60437,1,0,0:0:0:0:
448,192,60437,1,0,0:0:0:0:
320,192,60569,1,0,0:0:0:0:
64,192,60635,1,0,0:0:0:0:
192,192,60701,1,0,0:0:0:0:
320,192,60832,1,0,0:0:0:0:
448,192,60832,1,0,0:0:0:0:
192,192,60964,1,0,0:0:0:0:
64,192,61030,1,0,0:0:0:0:
448,192,61095,1,0,0:0:0:0:
64,192,61227,1,0,0:0:0:0:
192,192,61227,1,0,0:0:0:0:
320,192,61227,1,0,0:0:0:0:
448,192,61227,1,0,0:0:0:0:
448,192,61358,1,0,0:0:0:0:
192,192,61424,1,0,0:0:0:0:
320,192,61490,1,0,0:0:0:0:
64,192,61622,1,0,0:0:0:0:
448,192,61622,1,0,0:0:0:0:
192,0,61622,128,0,62115:1:0:0:0:
448,192,61918,1,0,0:0:0:0:
64,192,62016,1,0,0:0:0:0:
320,192,62016,1,0,0:0:0:0:
192,192,62214,1,0,0:0:0:0:
448,192,62214,1,0,0:0:0:0:
320,192,62312,1,0,0:0:0:0:
64,192,62411,1,0,0:0:0:0:
448,0,62411,128,0,64335:1:0:0:0:
192,192,62608,1,0,0:0:0:0:
64,192,62806,1,0,0:0:0:0:
192,192,62806,1,0,0:0:0:0:
320,192,62806,1,0,0:0:0:0:
192,192,63003,1,0,0:0:0:0:
64,192,63201,1,0,0:0:0:0:
320,192,63201,1,0,0:0:0:0:
320,192,63497,1,0,0:0:0:0:
64,192,63595,1,0,0:0:0:0:
192,192,63595,1,0,0:0:0:0:
320,192,63793,1,0,0:0:0:0:
64,192,63990,1,0,0:0:0:0:
320,192,64187,1,0,0:0:0:0:
64,192,64385,1,0,0:0:0:0:
192,192,64385,1,0,0:0:0:0:
320,192,64385,1,0,0:0:0:0:
448,192,64385,1,0,0:0:0:0:
320,192,64582,1,0,0:0:0:0:
192,192,64780,1,0,0:0:0:0:
448,192,64780,1,0,0:0:0:0:
64,0,64780,128,0,65076:1:0:0:0:
192,192,65076,1,0,0:0:0:0:
192,192,65174,1,0,0:0:0:0:
448,192,65174,1,0,0:0:0:0:
320,0,65174,128,0,65470:1:0:0:0:
192,192,65372,1,0,0:0:0:0:
320,192,65569,1,0,0:0:0:0:
448,0,65569,128,0,65865:1:0:0:0:
192,192,65766,1,0,0:0:0:0:
64,192,65964,1,0,0:0:0:0:
192,192,65964,1,0,0:0:0:0:
448,192,65964,1,0,0:0:0:0:
320,0,65964,128,0,66260:1:0:0:0:
192,192,66161,1,0,0:0:0:0:
64,192,66359,1,0,0:0:0:0:
448,192,66359,1,0,0:0:0:0:
192,0,66359,128,0,67641:1:0:0:0:
64,192,66655,1,0,0:0:0:0:
320,192,66753,1,0,0:0:0:0:
448,192,66753,1,0,0:0:0:0:
64,192,66951,1,0,0:0:0:0:
448,192,67148,1,0,0:0:0:0:
64,192,67345,1,0,0:0:0:0:
64,192,67543,1,0,0:0:0:0:
320,192,67543,1,0,0:0:0:0:
448,192,67543,1,0,0:0:0:0:
64,192,67740,1,0,0:0:0:0:
192,192,67740,1,0,0:0:0:0:
320,192,67839,1,0,0:0:0:0:
64,192,67938,1,0,0:0:0:0:
192,192,67938,1,0,0:0:0:0:
448,192,67938,1,0,0:0:0:0:
192,192,68135,1,0,0:0:0:0:
320,192,68135,1,0,0:0:0:0:
64,192,68234,1,0,0:0:0:0:
192,192,68234,1,0,0:0:0:0:
448,192,68234,1,0,0:0:0:0:
64,192,68332,1,0,0:0:0:0:
320,192,68332,1,0,0:0:0:0:
64,192,68530,1,0,0:0:0:0:
192,192,68530,1,0,0:0:0:0:
448,192,68530,1,0,0:0:0:0:
192,192,68628,1,0,0:0:0:0:
320,192,68628,1,0,0:0:0:0:
64,192,68727,1,0,0:0:0:0:
448,192,68727,1,0,0:0:0:0:
64,192,68924,1,0,0:0:0:0:
192,192,68924,1,0,0:0:0:0:
320,192,68924,1,0,0:0:0:0:
320,192,69023,1,0,0:0:0:0:
448,192,69023,1,0,0:0:0:0:
64,192,69122,1,0,0:0:0:0:
192,192,69122,1,0,0:0:0:0:
448,192,69122,1,0,0:0:0:0:
192,192,69319,1,0,0:0:0:0:
320,192,69319,1,0,0:0:0:0:
448,192,69319,1,0,0:0:0:0:
64,192,69418,1,0,0:0:0:0:
192,192,69418,1,0,0:0:0:0:
64,192,69517,1,0,0:0:0:0:
320,192,69517,1,0,0:0:0:0:
448,192,69517,1,0,0:0:0:0:
192,192,69615,1,0,0:0:0:0:
448,192,69615,1,0,0:0:0:0:
64,192,69714,1,0,0:0:0:0:
320,192,69714,1,0,0:0:0:0:
192,192,69813,1,0,0:0:0:0:
320,192,69813,1,0,0:0:0:0:
448,192,69813,1,0,0:0:0:0:
64,192,69911,1,0,0:0:0:0:
320,192,69911,1,0,0:0:0:0:
192,192,70010,1,0,0:0:0:0:
448,192,70010,1,0,0:0:0:0:
64,192,70109,1,0,0:0:0:0:
320,192,70109,1,0,0:0:0:0:
448,192,70109,1,0,0:0:0:0:
192,192,70207,1,0,0:0:0:0:
448,192,70207,1,0,0:0:0:0:
64,192,70306,1,0,0:0:0:0:
320,192,70306,1,0,0:0:0:0:
192,192,70405,1,0,0:0:0:0:
448,192,70405,1,0,0:0:0:0:
64,192,70503,1,0,0:0:0:0:
192,192,70503,1,0,0:0:0:0:
320,192,70503,1,0,0:0:0:0:
192,192,70602,1,0,0:0:0:0:
448,192,70602,1,0,0:0:0:0:
64,192,70701,1,0,0:0:0:0:
320,192,70701,1,0,0:0:0:0:
448,192,70701,1,0,0:0:0:0:
192,192,70799,1,0,0:0:0:0:
448,192,70799,1,0,0:0:0:0:
64,192,70898,1,0,0:0:0:0:
192,192,70898,1,0,0:0:0:0:
320,192,70898,1,0,0:0:0:0:
192,192,70997,1,0,0:0:0:0:
448,192,70997,1,0,0:0:0:0:
64,192,71096,1,0,0:0:0:0:
320,192,71096,1,0,0:0:0:0:
448,192,71096,1,0,0:0:0:0:
64,192,71194,1,0,0:0:0:0:
192,192,71194,1,0,0:0:0:0:
192,192,71293,1,0,0:0:0:0:
320,192,71293,1,0,0:0:0:0:
64,192,71392,1,0,0:0:0:0:
320,192,71392,1,0,0:0:0:0:
192,192,71490,1,0,0:0:0:0:
448,192,71490,1,0,0:0:0:0:
320,192,71589,1,0,0:0:0:0:
448,192,71589,1,0,0:0:0:0:
192,192,71688,1,0,0:0:0:0:
320,192,71688,1,0,0:0:0:0:
64,192,71786,1,0,0:0:0:0:
448,192,71786,1,0,0:0:0:0:
192,192,71885,1,0,0:0:0:0:
320,192,71885,1,0,0:0:0:0:
64,192,71984,1,0,0:0:0:0:
192,192,71984,1,0,0:0:0:0:
320,192,72082,1,0,0:0:0:0:
448,192,72082,1,0,0:0:0:0:
64,192,72181,1,0,0:0:0:0:
192,192,72181,1,0,0:0:0:0:
192,192,72280,1,0,0:0:0:0:
448,192,72280,1,0,0:0:0:0:
64,192,72378,1,0,0:0:0:0:
320,192,72378,1,0,0:0:0:0:
64,192,72477,1,0,0:0:0:0:
192,192,72477,1,0,0:0:0:0:
320,192,72576,1,0,0:0:0:0:
448,192,72576,1,0,0:0:0:0:
192,192,72675,1,0,0:0:0:0:
320,192,72675,1,0,0:0:0:0:
64,192,72773,1,0,0:0:0:0:
448,192,72773,1,0,0:0:0:0:
192,192,72872,1,0,0:0:0:0:
448,192,72872,1,0,0:0:0:0:
64,192,72971,1,0,0:0:0:0:
320,192,72971,1,0,0:0:0:0:
192,192,73069,1,0,0:0:0:0:
448,192,73069,1,0,0:0:0:0:
64,192,73168,1,0,0:0:0:0:
320,192,73168,1,0,0:0:0:0:
192,192,73267,1,0,0:0:0:0:
448,192,73267,1,0,0:0:0:0:
64,192,73365,1,0,0:0:0:0:
320,192,73365,1,0,0:0:0:0:
192,192,73464,1,0,0:0:0:0:
448,192,73464,1,0,0:0:0:0:
64,192,73563,1,0,0:0:0:0:
192,192,73563,1,0,0:0:0:0:
320,192,73661,1,0,0:0:0:0:
448,192,73661,1,0,0:0:0:0:
64,192,73760,1,0,0:0:0:0:
192,192,73760,1,0,0:0:0:0:
192,192,73859,1,0,0:0:0:0:
320,192,73859,1,0,0:0:0:0:
64,192,73957,1,0,0:0:0:0:
448,192,73957,1,0,0:0:0:0:
192,192,74056,1,0,0:0:0:0:
320,192,74056,1,0,0:0:0:0:
64,192,74155,1,0,0:0:0:0:
448,192,74155,1,0,0:0:0:0:
192,192,74254,1,0,0:0:0:0:
448,192,74254,1,0,0:0:0:0:
192,192,74352,1,0,0:0:0:0:
320,192,74352,1,0,0:0:0:0:
64,192,74451,1,0,0:0:0:0:
320,192,74451,1,0,0:0:0:0:
192,192,74550,1,0,0:0:0:0:
448,192,74550,1,0,0:0:0:0:
64,192,74648,1,0,0:0:0:0:
192,192,74648,1,0,0:0:0:0:
320,192,74747,1,0,0:0:0:0:
448,192,74747,1,0,0:0:0:0:
64,192,74846,1,0,0:0:0:0:
192,192,74846,1,0,0:0:0:0:
320,192,74944,1,0,0:0:0:0:
448,192,74944,1,0,0:0:0:0:
192,192,75043,1,0,0:0:0:0:
320,192,75043,1,0,0:0:0:0:
64,192,75142,1,0,0:0:0:0:
192,192,75142,1,0,0:0:0:0:
320,192,75240,1,0,0:0:0:0:
448,192,75240,1,0,0:0:0:0:
64,192,75339,1,0,0:0:0:0:
192,192,75339,1,0,0:0:0:0:
192,192,75438,1,0,0:0:0:0:
320,192,75438,1,0,0:0:0:0:
320,192,75536,1,0,0:0:0:0:
448,192,75536,1,0,0:0:0:0:
192,192,75635,1,0,0:0:0:0:
320,192,75635,1,0,0:0:0:0:
64,192,75734,1,0,0:0:0:0:
192,192,75734,1,0,0:0:0:0:
320,192,75833,1,0,0:0:0:0:
448,192,75833,1,0,0:0:0:0:
64,192,75931,1,0,0:0:0:0:
192,192,75931,1,0,0:0:0:0:
192,192,76030,1,0,0:0:0:0:
448,192,76030,1,0,0:0:0:0:
64,192,76129,1,0,0:0:0:0:
320,192,76129,1,0,0:0:0:0:
64,192,76227,1,0,0:0:0:0:
192,192,76227,1,0,0:0:0:0:
448,192,76227,1,0,0:0:0:0:
192,192,76326,1,0,0:0:0:0:
320,192,76326,1,0,0:0:0:0:
64,192,76425,1,0,0:0:0:0:
320,192,76425,1,0,0:0:0:0:
192,192,76523,1,0,0:0:0:0:
448,192,76523,1,0,0:0:0:0:
64,192,76622,1,0,0:0:0:0:
448,192,76622,1,0,0:0:0:0:
192,192,76721,1,0,0:0:0:0:
320,192,76721,1,0,0:0:0:0:
192,192,76819,1,0,0:0:0:0:
448,192,76819,1,0,0:0:0:0:
64,192,76918,1,0,0:0:0:0:
448,192,76918,1,0,0:0:0:0:
64,192,77017,1,0,0:0:0:0:
192,192,77017,1,0,0:0:0:0:
320,192,77115,1,0,0:0:0:0:
448,192,77115,1,0,0:0:0:0:
192,192,77214,1,0,0:0:0:0:
320,192,77214,1,0,0:0:0:0:
64,192,77313,1,0,0:0:0:0:
448,192,77313,1,0,0:0:0:0:
64,192,77412,1,0,0:0:0:0:
320,192,77412,1,0,0:0:0:0:
192,192,77510,1,0,0:0:0:0:
448,192,77510,1,0,0:0:0:0:
192,192,77609,1,0,0:0:0:0:
320,192,77609,1,0,0:0:0:0:
64,192,77708,1,0,0:0:0:0:
320,192,77708,1,0,0:0:0:0:
64,192,77806,1,0,0:0:0:0:
448,192,77806,1,0,0:0:0:0:
192,192,77905,1,0,0:0:0:0:
320,192,77905,1,0,0:0:0:0:
320,192,78004,1,0,0:0:0:0:
448,192,78004,1,0,0:0:0:0:
64,192,78102,1,0,0:0:0:0:
192,192,78102,1,0,0:0:0:0:
64,192,78201,1,0,0:0:0:0:
320,192,78201,1,0,0:0:0:0:
192,192,78300,1,0,0:0:0:0:
448,192,78300,1,0,0:0:0:0:
64,192,78398,1,0,0:0:0:0:
320,192,78398,1,0,0:0:0:0:
192,192,78497,1,0,0:0:0:0:
448,192,78497,1,0,0:0:0:0:
64,192,78596,1,0,0:0:0:0:
192,192,78596,1,0,0:0:0:0:
448,192,78596,1,0,0:0:0:0:
64,192,78694,1,0,0:0:0:0:
320,192,78694,1,0,0:0:0:0:
192,192,78793,1,0,0:0:0:0:
448,192,78793,1,0,0:0:0:0:
320,192,78892,1,0,0:0:0:0:
448,192,78892,1,0,0:0:0:0:
64,192,78991,1,0,0:0:0:0:
320,192,78991,1,0,0:0:0:0:
192,192,79089,1,0,0:0:0:0:
448,192,79089,1,0,0:0:0:0:
64,192,79188,1,0,0:0:0:0:
320,192,79188,1,0,0:0:0:0:
192,192,79287,1,0,0:0:0:0:
448,192,79287,1,0,0:0:0:0:
64,192,79385,1,0,0:0:0:0:
192,192,79385,1,0,0:0:0:0:
320,192,79484,1,0,0:0:0:0:
448,192,79484,1,0,0:0:0:0:
64,192,79583,1,0,0:0:0:0:
192,192,79583,1,0,0:0:0:0:
192,192,79681,1,0,0:0:0:0:
320,192,79681,1,0,0:0:0:0:
64,192,79780,1,0,0:0:0:0:
448,192,79780,1,0,0:0:0:0:
192,192,79879,1,0,0:0:0:0:
320,192,79879,1,0,0:0:0:0:
320,192,79977,1,0,0:0:0:0:
448,192,79977,1,0,0:0:0:0:
64,192,80076,1,0,0:0:0:0:
192,192,80076,1,0,0:0:0:0:
192,192,80175,1,0,0:0:0:0:
448,192,80175,1,0,0:0:0:0:
64,192,80273,1,0,0:0:0:0:
320,192,80273,1,0,0:0:0:0:
192,192,80372,1,0,0:0:0:0:
320,192,80372,1,0,0:0:0:0:
64,192,80471,1,0,0:0:0:0:
192,192,80471,1,0,0:0:0:0:
320,192,80570,1,0,0:0:0:0:
448,192,80570,1,0,0:0:0:0:
64,192,80668,1,0,0:0:0:0:
192,192,80668,1,0,0:0:0:0:
192,192,80767,1,0,0:0:0:0:
320,192,80767,1,0,0:0:0:0:
64,192,80866,1,0,0:0:0:0:
448,192,80866,1,0,0:0:0:0:
192,192,80964,1,0,0:0:0:0:
320,192,80964,1,0,0:0:0:0:
64,192,81063,1,0,0:0:0:0:
320,192,81063,1,0,0:0:0:0:
192,192,81162,1,0,0:0:0:0:
448,192,81162,1,0,0:0:0:0:
64,192,81260,1,0,0:0:0:0:
448,192,81260,1,0,0:0:0:0:
192,192,81359,1,0,0:0:0:0:
320,192,81359,1,0,0:0:0:0:
192,192,81458,1,0,0:0:0:0:
448,192,81458,1,0,0:0:0:0:
64,192,81556,1,0,0:0:0:0:
320,192,81556,1,0,0:0:0:0:
192,192,81655,1,0,0:0:0:0:
448,192,81655,1,0,0:0:0:0:
192,192,81754,1,0,0:0:0:0:
320,192,81754,1,0,0:0:0:0:
320,192,81852,1,0,0:0:0:0:
448,192,81852,1,0,0:0:0:0:
64,192,81951,1,0,0:0:0:0:
192,192,81951,1,0,0:0:0:0:
64,192,82050,1,0,0:0:0:0:
448,192,82050,1,0,0:0:0:0:
192,192,82149,1,0,0:0:0:0:
320,192,82149,1,0,0:0:0:0:
64,192,82247,1,0,0:0:0:0:
448,192,82247,1,0,0:0:0:0:
192,192,82346,1,0,0:0:0:0:
320,192,82346,1,0,0:0:0:0:
64,192,82445,1,0,0:0:0:0:
320,192,82445,1,0,0:0:0:0:
192,192,82543,1,0,0:0:0:0:
448,192,82543,1,0,0:0:0:0:
64,192,82642,1,0,0:0:0:0:
192,192,82642,1,0,0:0:0:0:
320,192,82741,1,0,0:0:0:0:
448,192,82741,1,0,0:0:0:0:
64,192,82839,1,0,0:0:0:0:
192,192,82839,1,0,0:0:0:0:
192,192,82938,1,0,0:0:0:0:
320,192,82938,1,0,0:0:0:0:
64,192,83037,1,0,0:0:0:0:
448,192,83037,1,0,0:0:0:0:
64,192,83135,1,0,0:0:0:0:
192,192,83135,1,0,0:0:0:0:
320,192,83234,1,0,0:0:0:0:
448,192,83234,1,0,0:0:0:0:
64,192,83333,1,0,0:0:0:0:
192,192,83333,1,0,0:0:0:0:
192,192,83431,1,0,0:0:0:0:
320,192,83431,1,0,0:0:0:0:
320,192,83530,1,0,0:0:0:0:
448,192,83530,1,0,0:0:0:0:
64,192,83629,1,0,0:0:0:0:
192,192,83629,1,0,0:0:0:0:
320,192,83728,1,0,0:0:0:0:
448,192,83728,1,0,0:0:0:0:
64,192,83826,1,0,0:0:0:0:
192,192,83826,1,0,0:0:0:0:
320,192,83925,1,0,0:0:0:0:
448,192,83925,1,0,0:0:0:0:
64,192,84024,1,0,0:0:0:0:
192,192,84024,1,0,0:0:0:0:
192,192,84122,1,0,0:0:0:0:
320,192,84122,1,0,0:0:0:0:
64,192,84221,1,0,0:0:0:0:
448,192,84221,1,0,0:0:0:0:
192,192,84320,1,0,0:0:0:0:
320,192,84320,1,0,0:0:0:0:
64,192,84418,1,0,0:0:0:0:
448,192,84418,1,0,0:0:0:0:
192,192,84517,1,0,0:0:0:0:
320,192,84517,1,0,0:0:0:0:
192,192,84616,1,0,0:0:0:0:
448,192,84616,1,0,0:0:0:0:
320,192,84714,1,0,0:0:0:0:
448,192,84714,1,0,0:0:0:0:
64,192,84813,1,0,0:0:0:0:
192,192,84813,1,0,0:0:0:0:
320,192,84912,1,0,0:0:0:0:
448,192,84912,1,0,0:0:0:0:
192,192,85010,1,0,0:0:0:0:
320,192,85010,1,0,0:0:0:0:
64,192,85109,1,0,0:0:0:0:
192,192,85109,1,0,0:0:0:0:
64,192,85208,1,0,0:0:0:0:
448,192,85208,1,0,0:0:0:0:
192,192,85307,1,0,0:0:0:0:
320,192,85307,1,0,0:0:0:0:
64,192,85405,1,0,0:0:0:0:
320,192,85405,1,0,0:0:0:0:
192,192,85504,1,0,0:0:0:0:
448,192,85504,1,0,0:0:0:0:
64,192,85603,1,0,0:0:0:0:
320,192,85603,1,0,0:0:0:0:
192,192,85701,1,0,0:0:0:0:
448,192,85701,1,0,0:0:0:0:
64,192,85800,1,0,0:0:0:0:
192,192,85800,1,0,0:0:0:0:
320,192,85899,1,0,0:0:0:0:
448,192,85899,1,0,0:0:0:0:
192,192,85997,1,0,0:0:0:0:
448,192,85997,1,0,0:0:0:0:
64,192,86096,1,0,0:0:0:0:
192,192,86096,1,0,0:0:0:0:
320,192,86195,1,0,0:0:0:0:
448,192,86195,1,0,0:0:0:0:
64,192,86293,1,0,0:0:0:0:
192,192,86293,1,0,0:0:0:0:
64,192,86392,1,0,0:0:0:0:
448,192,86392,1,0,0:0:0:0:
192,192,86491,1,0,0:0:0:0:
320,192,86491,1,0,0:0:0:0:
64,192,86589,1,0,0:0:0:0:
448,192,86589,1,0,0:0:0:0:
192,192,86688,1,0,0:0:0:0:
320,192,86688,1,0,0:0:0:0:
64,192,86787,1,0,0:0:0:0:
320,192,86787,1,0,0:0:0:0:
192,192,86886,1,0,0:0:0:0:
448,192,86886,1,0,0:0:0:0:
64,192,86984,1,0,0:0:0:0:
320,192,86984,1,0,0:0:0:0:
320,192,87083,1,0,0:0:0:0:
448,192,87083,1,0,0:0:0:0:
64,192,87182,1,0,0:0:0:0:
192,192,87182,1,0,0:0:0:0:
320,192,87280,1,0,0:0:0:0:
448,192,87280,1,0,0:0:0:0:
64,192,87379,1,0,0:0:0:0:
192,192,87379,1,0,0:0:0:0:
192,192,87478,1,0,0:0:0:0:
320,192,87478,1,0,0:0:0:0:
320,192,87576,1,0,0:0:0:0:
448,192,87576,1,0,0:0:0:0:
64,192,87675,1,0,0:0:0:0:
192,192,87675,1,0,0:0:0:0:
320,192,87774,1,0,0:0:0:0:
448,192,87774,1,0,0:0:0:0:
192,192,87872,1,0,0:0:0:0:
320,192,87872,1,0,0:0:0:0:
64,192,87971,1,0,0:0:0:0:
448,192,87971,1,0,0:0:0:0:
192,192,88070,1,0,0:0:0:0:
320,192,88070,1,0,0:0:0:0:
64,192,88168,1,0,0:0:0:0:
192,192,88168,1,0,0:0:0:0:
320,192,88267,1,0,0:0:0:0:
448,192,88267,1,0,0:0:0:0:
192,192,88366,1,0,0:0:0:0:
448,192,88366,1,0,0:0:0:0:
64,192,88465,1,0,0:0:0:0:
320,192,88465,1,0,0:0:0:0:
192,192,88563,1,0,0:0:0:0:
448,192,88563,1,0,0:0:0:0:
64,192,88662,1,0,0:0:0:0:
320,192,88662,1,0,0:0:0:0:
64,192,88761,1,0,0:0:0:0:
192,192,88761,1,0,0:0:0:0:
192,192,88859,1,0,0:0:0:0:
448,192,88859,1,0,0:0:0:0:
64,192,88958,1,0,0:0:0:0:
448,192,88958,1,0,0:0:0:0:
192,192,89057,1,0,0:0:0:0:
320,192,89057,1,0,0:0:0:0:
64,192,89155,1,0,0:0:0:0:
448,192,89155,1,0,0:0:0:0:
192,192,89254,1,0,0:0:0:0:
320,192,89254,1,0,0:0:0:0:
64,192,89353,1,0,0:0:0:0:
320,192,89353,1,0,0:0:0:0:
192,192,89451,1,0,0:0:0:0:
448,192,89451,1,0,0:0:0:0:
64,192,89550,1,0,0:0:0:0:
320,192,89550,1,0,0:0:0:0:
192,192,89649,1,0,0:0:0:0:
320,192,89649,1,0,0:0:0:0:
64,192,89747,1,0,0:0:0:0:
448,192,89747,1,0,0:0:0:0:
192,192,89846,1,0,0:0:0:0:
320,192,89846,1,0,0:0:0:0:
192,192,89945,1,0,0:0:0:0:
448,192,89945,1,0,0:0:0:0:
64,192,90044,1,0,0:0:0:0:
448,192,90044,1,0,0:0:0:0:
192,192,90142,1,0,0:0:0:0:
320,192,90142,1,0,0:0:0:0:
64,192,90241,1,0,0:0:0:0:
192,192,90241,1,0,0:0:0:0:
320,192,90340,1,0,0:0:0:0:
448,192,90340,1,0,0:0:0:0:
64,192,90438,1,0,0:0:0:0:
192,192,90438,1,0,0:0:0:0:
192,192,90537,1,0,0:0:0:0:
320,192,90537,1,0,0:0:0:0:
320,192,90636,1,0,0:0:0:0:
448,192,90636,1,0,0:0:0:0:
192,192,90734,1,0,0:0:0:0:
320,192,90734,1,0,0:0:0:0:
64,192,90833,1,0,0:0:0:0:
192,192,90833,1,0,0:0:0:0:
320,192,90932,1,0,0:0:0:0:
448,192,90932,1,0,0:0:0:0:
64,192,91030,1,0,0:0:0:0:
192,192,91030,1,0,0:0:0:0:
320,192,91129,1,0,0:0:0:0:
448,192,91129,1,0,0:0:0:0:
64,192,91228,1,0,0:0:0:0:
192,192,91228,1,0,0:0:0:0:
320,192,91326,1,0,0:0:0:0:
448,192,91326,1,0,0:0:0:0:
192,192,91425,1,0,0:0:0:0:
320,192,91425,1,0,0:0:0:0:
64,192,91524,1,0,0:0:0:0:
192,192,91524,1,0,0:0:0:0:
192,192,91623,1,0,0:0:0:0:
448,192,91623,1,0,0:0:0:0:
64,192,91721,1,0,0:0:0:0:
320,192,91721,1,0,0:0:0:0:
64,192,91820,1,0,0:0:0:0:
192,192,91820,1,0,0:0:0:0:
320,192,91919,1,0,0:0:0:0:
448,192,91919,1,0,0:0:0:0:
192,192,92017,1,0,0:0:0:0:
448,192,92017,1,0,0:0:0:0:
192,192,92116,1,0,0:0:0:0:
320,192,92116,1,0,0:0:0:0:
64,192,92215,1,0,0:0:0:0:
192,192,92215,1,0,0:0:0:0:
64,192,92313,1,0,0:0:0:0:
448,192,92313,1,0,0:0:0:0:
192,192,92412,1,0,0:0:0:0:
320,192,92412,1,0,0:0:0:0:
64,192,92511,1,0,0:0:0:0:
320,192,92511,1,0,0:0:0:0:
192,192,92609,1,0,0:0:0:0:
448,192,92609,1,0,0:0:0:0:
64,192,92708,1,0,0:0:0:0:
320,192,92708,1,0,0:0:0:0:
192,192,92807,1,0,0:0:0:0:
320,192,92807,1,0,0:0:0:0:
64,192,92905,1,0,0:0:0:0:
448,192,92905,1,0,0:0:0:0:
192,192,93004,1,0,0:0:0:0:
320,192,93004,1,0,0:0:0:0:
320,192,93103,1,0,0:0:0:0:
448,192,93103,1,0,0:0:0:0:
64,192,93202,1,0,0:0:0:0:
192,192,93202,1,0,0:0:0:0:
320,192,93300,1,0,0:0:0:0:
448,192,93300,1,0,0:0:0:0:
64,192,93399,1,0,0:0:0:0:
448,192,93399,1,0,0:0:0:0:
192,192,93498,1,0,0:0:0:0:
320,192,93498,1,0,0:0:0:0:
64,192,93596,1,0,0:0:0:0:
320,192,93596,1,0,0:0:0:0:
192,192,93695,1,0,0:0:0:0:
448,192,93695,1,0,0:0:0:0:
320,192,93794,1,0,0:0:0:0:
448,192,93794,1,0,0:0:0:0:
64,192,93892,1,0,0:0:0:0:
192,192,93892,1,0,0:0:0:0:
320,192,93991,1,0,0:0:0:0:
448,192,93991,1,0,0:0:0:0:
192,192,94090,1,0,0:0:0:0:
320,192,94090,1,0,0:0:0:0:
192,192,94188,1,0,0:0:0:0:
448,192,94188,1,0,0:0:0:0:
64,192,94287,1,0,0:0:0:0:
320,192,94287,1,0,0:0:0:0:
192,192,94386,1,0,0:0:0:0:
320,192,94386,1,0,0:0:0:0:
192,192,94484,1,0,0:0:0:0:
448,192,94484,1,0,0:0:0:0:
64,192,94583,1,0,0:0:0:0:
320,192,94583,1,0,0:0:0:0:
192,192,94682,1,0,0:0:0:0:
448,192,94682,1,0,0:0:0:0:
64,192,94781,1,0,0:0:0:0:
320,192,94781,1,0,0:0:0:0:
192,192,94879,1,0,0:0:0:0:
448,192,94879,1,0,0:0:0:0:
64,192,94978,1,0,0:0:0:0:
192,192,94978,1,0,0:0:0:0:
320,192,95077,1,0,0:0:0:0:
448,192,95077,1,0,0:0:0:0:
64,192,95175,1,0,0:0:0:0:
192,192,95175,1,0,0:0:0:0:
192,192,95274,1,0,0:0:0:0:
448,192,95274,1,0,0:0:0:0:
64,192,95373,1,0,0:0:0:0:
320,192,95373,1,0,0:0:0:0:
192,192,95471,1,0,0:0:0:0:
320,192,95471,1,0,0:0:0:0:
64,192,95570,1,0,0:0:0:0:
448,192,95570,1,0,0:0:0:0:
192,192,95669,1,0,0:0:0:0:
320,192,95669,1,0,0:0:0:0:
64,192,95767,1,0,0:0:0:0:
448,192,95767,1,0,0:0:0:0:
192,192,95866,1,0,0:0:0:0:
320,192,95866,1,0,0:0:0:0:
192,192,95965,1,0,0:0:0:0:
448,192,95965,1,0,0:0:0:0:
64,192,96063,1,0,0:0:0:0:
320,192,96063,1,0,0:0:0:0:
320,192,96162,1,0,0:0:0:0:
448,192,96162,1,0,0:0:0:0:
64,192,96261,1,0,0:0:0:0:
192,192,96261,1,0,0:0:0:0:
64,192,96360,1,0,0:0:0:0:
448,0,96360,128,0,97889:1:0:0:0:
192,192,96458,1,0,0:0:0:0:
320,192,96557,1,0,0:0:0:0:
192,192,96656,1,0,0:0:0:0:
64,192,96754,1,0,0:0:0:0:
320,192,96754,1,0,0:0:0:0:
192,192,96853,1,0,0:0:0:0:
64,192,96952,1,0,0:0:0:0:
192,192,97050,1,0,0:0:0:0:
320,192,97149,1,0,0:0:0:0:
192,192,97248,1,0,0:0:0:0:
64,192,97346,1,0,0:0:0:0:
320,192,97445,1,0,0:0:0:0:
64,192,97544,1,0,0:0:0:0:
192,192,97544,1,0,0:0:0:0:
320,192,97642,1,0,0:0:0:0:
64,192,97741,1,0,0:0:0:0:
192,192,97840,1,0,0:0:0:0:
64,192,97939,1,0,0:0:0:0:
320,0,97939,128,0,98679:1:0:0:0:
192,192,98037,1,0,0:0:0:0:
448,192,98136,1,0,0:0:0:0:
64,192,98235,1,0,0:0:0:0:
192,192,98333,1,0,0:0:0:0:
448,192,98333,1,0,0:0:0:0:
64,192,98432,1,0,0:0:0:0:
192,192,98531,1,0,0:0:0:0:
448,192,98629,1,0,0:0:0:0:
192,192,98728,1,0,0:0:0:0:
64,0,98728,128,0,99073:1:0:0:0:
448,192,98827,1,0,0:0:0:0:
192,192,98925,1,0,0:0:0:0:
448,192,99024,1,0,0:0:0:0:
320,192,99123,1,0,0:0:0:0:
448,192,99123,1,0,0:0:0:0:
192,0,99123,128,0,99468:1:0:0:0:
320,192,99221,1,0,0:0:0:0:
448,192,99320,1,0,0:0:0:0:
64,192,99419,1,0,0:0:0:0:
448,192,99518,1,0,0:0:0:0:
320,0,99518,128,0,101047:1:0:0:0:
64,192,99616,1,0,0:0:0:0:
192,192,99715,1,0,0:0:0:0:
448,192,99814,1,0,0:0:0:0:
64,192,99912,1,0,0:0:0:0:
192,192,99912,1,0,0:0:0:0:
448,192,100011,1,0,0:0:0:0:
64,192,100110,1,0,0:0:0:0:
192,192,100208,1,0,0:0:0:0:
64,192,100307,1,0,0:0:0:0:
448,192,100406,1,0,0:0:0:0:
192,192,100504,1,0,0:0:0:0:
64,192,100603,1,0,0:0:0:0:
192,192,100702,1,0,0:0:0:0:
448,192,100702,1,0,0:0:0:0:
64,192,100800,1,0,0:0:0:0:
192,192,100899,1,0,0:0:0:0:
448,192,100998,1,0,0:0:0:0:
64,192,101097,1,0,0:0:0:0:
192,0,101097,128,0,101442:1:0:0:0:
448,192,101195,1,0,0:0:0:0:
320,192,101294,1,0,0:0:0:0:
64,192,101393,1,0,0:0:0:0:
64,192,101491,1,0,0:0:0:0:
320,192,101491,1,0,0:0:0:0:
448,0,101491,128,0,101837:1:0:0:0:
320,192,101590,1,0,0:0:0:0:
192,192,101689,1,0,0:0:0:0:
320,192,101787,1,0,0:0:0:0:
64,192,101886,1,0,0:0:0:0:
448,0,101886,128,0,102231:1:0:0:0:
320,192,101985,1,0,0:0:0:0:
192,192,102083,1,0,0:0:0:0:
64,192,102182,1,0,0:0:0:0:
64,192,102281,1,0,0:0:0:0:
192,192,102281,1,0,0:0:0:0:
320,0,102281,128,0,102626:1:0:0:0:
192,192,102379,1,0,0:0:0:0:
448,192,102478,1,0,0:0:0:0:
64,192,102577,1,0,0:0:0:0:
448,192,102676,1,0,0:0:0:0:
192,0,102676,128,0,103810:1:0:0:0:
64,192,102774,1,0,0:0:0:0:
320,192,102873,1,0,0:0:0:0:
448,192,102972,1,0,0:0:0:0:
64,192,103070,1,0,0:0:0:0:
320,192,103070,1,0,0:0:0:0:
448,192,103169,1,0,0:0:0:0:
320,192,103268,1,0,0:0:0:0:
64,192,103366,1,0,0:0:0:0:
448,192,103465,1,0,0:0:0:0:
320,192,103564,1,0,0:0:0:0:
64,192,103662,1,0,0:0:0:0:
448,192,103761,1,0,0:0:0:0:
320,192,103860,1,0,0:0:0:0:
448,192,103860,1,0,0:0:0:0:
64,0,103860,128,0,104205:1:0:0:0:
320,192,103958,1,0,0:0:0:0:
192,192,104057,1,0,0:0:0:0:
320,192,104156,1,0,0:0:0:0:
448,192,104255,1,0,0:0:0:0:
192,0,104255,128,0,104600:1:0:0:0:
320,192,104353,1,0,0:0:0:0:
448,192,104452,1,0,0:0:0:0:
64,192,104551,1,0,0:0:0:0:
64,192,104649,1,0,0:0:0:0:
448,192,104649,1,0,0:0:0:0:
320,0,104649,128,0,104995:1:0:0:0:
448,192,104748,1,0,0:0:0:0:
192,192,104847,1,0,0:0:0:0:
64,192,104945,1,0,0:0:0:0:
192,192,105044,1,0,0:0:0:0:
448,0,105044,128,0,105389:1:0:0:0:
64,192,105143,1,0,0:0:0:0:
320,192,105241,1,0,0:0:0:0:
192,192,105340,1,0,0:0:0:0:
64,192,105439,1,0,0:0:0:0:
192,192,105439,1,0,0:0:0:0:
320,0,105439,128,0,105784:1:0:0:0:
64,192,105537,1,0,0:0:0:0:
448,192,105636,1,0,0:0:0:0:
64,192,105735,1,0,0:0:0:0:
448,192,105834,1,0,0:0:0:0:
192,0,105834,128,0,107363:1:0:0:0:
64,192,105932,1,0,0:0:0:0:
320,192,106031,1,0,0:0:0:0:
64,192,106130,1,0,0:0:0:0:
320,192,106228,1,0,0:0:0:0:
448,192,106228,1,0,0:0:0:0:
64,192,106327,1,0,0:0:0:0:
320,192,106426,1,0,0:0:0:0:
64,192,106524,1,0,0:0:0:0:
320,192,106623,1,0,0:0:0:0:
448,192,106722,1,0,0:0:0:0:
64,192,106820,1,0,0:0:0:0:
448,192,106919,1,0,0:0:0:0:
64,192,107018,1,0,0:0:0:0:
320,192,107018,1,0,0:0:0:0:
448,192,107116,1,0,0:0:0:0:
320,192,107215,1,0,0:0:0:0:
64,192,107314,1,0,0:0:0:0:
448,192,107413,1,0,0:0:0:0:
320,0,107413,128,0,107758:1:0:0:0:
64,192,107511,1,0,0:0:0:0:
192,192,107610,1,0,0:0:0:0:
448,192,107709,1,0,0:0:0:0:
192,192,107807,1,0,0:0:0:0:
448,192,107807,1,0,0:0:0:0:
64,0,107807,128,0,108153:1:0:0:0:
192,192,107906,1,0,0:0:0:0:
448,192,108005,1,0,0:0:0:0:
320,192,108103,1,0,0:0:0:0:
448,192,108202,1,0,0:0:0:0:
192,0,108202,128,0,108547:1:0:0:0:
320,192,108301,1,0,0:0:0:0:
64,192,108399,1,0,0:0:0:0:
320,192,108498,1,0,0:0:0:0:
64,192,108597,1,0,0:0:0:0:
320,192,108597,1,0,0:0:0:0:
448,0,108597,128,0,108942:1:0:0:0:
64,192,108695,1,0,0:0:0:0:
192,192,108794,1,0,0:0:0:0:
64,192,108893,1,0,0:0:0:0:
192,192,108992,1,0,0:0:0:0:
320,192,108992,1,0,0:0:0:0:
448,0,108992,128,0,110521:1:0:0:0:
320,192,109090,1,0,0:0:0:0:
64,192,109189,1,0,0:0:0:0:
320,192,109288,1,0,0:0:0:0:
64,192,109386,1,0,0:0:0:0:
192,192,109386,1,0,0:0:0:0:
320,192,109485,1,0,0:0:0:0:
192,192,109584,1,0,0:0:0:0:
64,192,109682,1,0,0:0:0:0:
192,192,109781,1,0,0:0:0:0:
320,192,109781,1,0,0:0:0:0:
320,192,109880,1,0,0:0:0:0:
64,192,109978,1,0,0:0:0:0:
192,192,110077,1,0,0:0:0:0:
64,192,110176,1,0,0:0:0:0:
320,192,110176,1,0,0:0:0:0:
192,192,110274,1,0,0:0:0:0:
192,192,110373,1,0,0:0:0:0:
64,192,110472,1,0,0:0:0:0:
64,192,110571,1,0,0:0:0:0:
192,192,110571,1,0,0:0:0:0:
320,0,110571,128,0,111311:1:0:0:0:
64,192,110669,1,0,0:0:0:0:
448,192,110768,1,0,0:0:0:0:
192,192,110867,1,0,0:0:0:0:
64,192,110965,1,0,0:0:0:0:
192,192,110965,1,0,0:0:0:0:
448,192,111064,1,0,0:0:0:0:
64,192,111163,1,0,0:0:0:0:
192,192,111261,1,0,0:0:0:0:
64,192,111360,1,0,0:0:0:0:
192,192,111360,1,0,0:0:0:0:
448,0,111360,128,0,111705:1:0:0:0:
64,192,111459,1,0,0:0:0:0:
320,192,111557,1,0,0:0:0:0:
192,192,111656,1,0,0:0:0:0:
64,192,111755,1,0,0:0:0:0:
192,192,111755,1,0,0:0:0:0:
320,0,111755,128,0,112100:1:0:0:0:
64,192,111853,1,0,0:0:0:0:
448,192,111952,1,0,0:0:0:0:
64,192,112051,1,0,0:0:0:0:
64,192,112150,1,0,0:0:0:0:
448,192,112150,1,0,0:0:0:0:
192,0,112150,128,0,112692:1:0:0:0:
448,192,112248,1,0,0:0:0:0:
320,192,112347,1,0,0:0:0:0:
64,192,112446,1,0,0:0:0:0:
320,192,112544,1,0,0:0:0:0:
448,192,112544,1,0,0:0:0:0:
320,192,112643,1,0,0:0:0:0:
448,192,112742,1,0,0:0:0:0:
64,0,112742,128,0,113284:1:0:0:0:
320,192,112840,1,0,0:0:0:0:
192,192,112939,1,0,0:0:0:0:
448,192,112939,1,0,0:0:0:0:
320,192,113038,1,0,0:0:0:0:
448,192,113136,1,0,0:0:0:0:
192,192,113235,1,0,0:0:0:0:
192,192,113334,1,0,0:0:0:0:
320,192,113334,1,0,0:0:0:0:
448,0,113334,128,0,113679:1:0:0:0:
320,192,113432,1,0,0:0:0:0:
64,192,113531,1,0,0:0:0:0:
192,192,113630,1,0,0:0:0:0:
64,192,113729,1,0,0:0:0:0:
192,192,113729,1,0,0:0:0:0:
320,0,113729,128,0,114074:1:0:0:0:
192,192,113827,1,0,0:0:0:0:
64,192,113926,1,0,0:0:0:0:
448,192,114025,1,0,0:0:0:0:
64,192,114123,1,0,0:0:0:0:
448,192,114123,1,0,0:0:0:0:
192,0,114123,128,0,114469:1:0:0:0:
448,192,114222,1,0,0:0:0:0:
320,192,114321,1,0,0:0:0:0:
64,192,114419,1,0,0:0:0:0:
320,192,114518,1,0,0:0:0:0:
448,192,114518,1,0,0:0:0:0:
64,0,114518,128,0,114863:1:0:0:0:
448,192,114617,1,0,0:0:0:0:
192,192,114715,1,0,0:0:0:0:
320,192,114814,1,0,0:0:0:0:
320,192,114913,1,0,0:0:0:0:
448,192,114913,1,0,0:0:0:0:
192,0,114913,128,0,115258:1:0:0:0:
320,192,115011,1,0,0:0:0:0:
64,192,115110,1,0,0:0:0:0:
448,192,115209,1,0,0:0:0:0:
64,192,115308,1,0,0:0:0:0:
448,192,115308,1,0,0:0:0:0:
320,0,115308,128,0,116442:1:0:0:0:
448,192,115406,1,0,0:0:0:0:
192,192,115505,1,0,0:0:0:0:
64,192,115604,1,0,0:0:0:0:
192,192,115702,1,0,0:0:0:0:
448,192,115702,1,0,0:0:0:0:
192,192,115801,1,0,0:0:0:0:
448,192,115900,1,0,0:0:0:0:
64,192,115998,1,0,0:0:0:0:
192,192,116097,1,0,0:0:0:0:
448,192,116097,1,0,0:0:0:0:
448,192,116196,1,0,0:0:0:0:
64,192,116294,1,0,0:0:0:0:
192,192,116393,1,0,0:0:0:0:
64,192,116492,1,0,0:0:0:0:
192,192,116492,1,0,0:0:0:0:
448,0,116492,128,0,116837:1:0:0:0:
192,192,116590,1,0,0:0:0:0:
320,192,116689,1,0,0:0:0:0:
64,192,116788,1,0,0:0:0:0:
64,192,116887,1,0,0:0:0:0:
192,192,116887,1,0,0:0:0:0:
320,0,116887,128,0,117232:1:0:0:0:
192,192,116985,1,0,0:0:0:0:
448,192,117084,1,0,0:0:0:0:
64,192,117183,1,0,0:0:0:0:
64,192,117281,1,0,0:0:0:0:
448,192,117281,1,0,0:0:0:0:
192,0,117281,128,0,117627:1:0:0:0:
64,192,117380,1,0,0:0:0:0:
320,192,117479,1,0,0:0:0:0:
448,192,117577,1,0,0:0:0:0:
320,192,117676,1,0,0:0:0:0:
448,192,117676,1,0,0:0:0:0:
64,0,117676,128,0,118021:1:0:0:0:
320,192,117775,1,0,0:0:0:0:
192,192,117873,1,0,0:0:0:0:
448,192,117972,1,0,0:0:0:0:
320,192,118071,1,0,0:0:0:0:
448,192,118071,1,0,0:0:0:0:
192,0,118071,128,0,118416:1:0:0:0:
320,192,118169,1,0,0:0:0:0:
64,192,118268,1,0,0:0:0:0:
448,192,118367,1,0,0:0:0:0:
64,192,118466,1,0,0:0:0:0:
448,192,118466,1,0,0:0:0:0:
320,0,118466,128,0,119995:1:0:0:0:
448,192,118564,1,0,0:0:0:0:
192,192,118663,1,0,0:0:0:0:
64,192,118762,1,0,0:0:0:0:
64,192,118860,1,0,0:0:0:0:
192,192,118860,1,0,0:0:0:0:
448,192,118959,1,0,0:0:0:0:
192,192,119058,1,0,0:0:0:0:
64,192,119156,1,0,0:0:0:0:
192,192,119255,1,0,0:0:0:0:
448,192,119255,1,0,0:0:0:0:
64,192,119354,1,0,0:0:0:0:
448,192,119452,1,0,0:0:0:0:
192,192,119551,1,0,0:0:0:0:
64,192,119650,1,0,0:0:0:0:
448,192,119650,1,0,0:0:0:0:
448,192,119748,1,0,0:0:0:0:
64,192,119847,1,0,0:0:0:0:
448,192,119946,1,0,0:0:0:0:
64,192,120045,1,0,0:0:0:0:
192,192,120045,1,0,0:0:0:0:
320,192,120045,1,0,0:0:0:0:
192,192,120143,1,0,0:0:0:0:
320,192,120143,1,0,0:0:0:0:
448,192,120143,1,0,0:0:0:0:
64,192,120242,1,0,0:0:0:0:
320,192,120242,1,0,0:0:0:0:
448,192,120242,1,0,0:0:0:0:
64,192,120341,1,0,0:0:0:0:
192,192,120341,1,0,0:0:0:0:
448,192,120341,1,0,0:0:0:0:
64,192,120439,1,0,0:0:0:0:
192,192,120439,1,0,0:0:0:0:
320,192,120439,1,0,0:0:0:0:
192,192,120538,1,0,0:0:0:0:
320,192,120538,1,0,0:0:0:0:
448,192,120538,1,0,0:0:0:0:
64,192,120637,1,0,0:0:0:0:
192,192,120637,1,0,0:0:0:0:
320,192,120637,1,0,0:0:0:0:
64,192,120735,1,0,0:0:0:0:
192,192,120735,1,0,0:0:0:0:
448,192,120735,1,0,0:0:0:0:
64,192,120834,1,0,0:0:0:0:
320,192,120834,1,0,0:0:0:0:
448,192,120834,1,0,0:0:0:0:
192,192,120933,1,0,0:0:0:0:
320,192,120933,1,0,0:0:0:0:
448,192,120933,1,0,0:0:0:0:
64,192,121031,1,0,0:0:0:0:
192,192,121031,1,0,0:0:0:0:
320,192,121031,1,0,0:0:0:0:
192,192,121130,1,0,0:0:0:0:
320,192,121130,1,0,0:0:0:0:
448,192,121130,1,0,0:0:0:0:
64,192,121229,1,0,0:0:0:0:
320,192,121229,1,0,0:0:0:0:
448,192,121229,1,0,0:0:0:0:
64,192,121327,1,0,0:0:0:0:
192,192,121327,1,0,0:0:0:0:
448,192,121327,1,0,0:0:0:0:
64,192,121426,1,0,0:0:0:0:
192,192,121426,1,0,0:0:0:0:
320,192,121426,1,0,0:0:0:0:
192,192,121525,1,0,0:0:0:0:
320,192,121525,1,0,0:0:0:0:
448,192,121525,1,0,0:0:0:0:
64,192,121624,1,0,0:0:0:0:
320,192,121624,1,0,0:0:0:0:
448,192,121624,1,0,0:0:0:0:
