osu file format v14

[General]
AudioFilename: 6. PENETRATION128.mp3
AudioLeadIn: 0
PreviewTime: -1
Countdown: 0
SampleSet: None
StackLeniency: 0.7
Mode: 3
LetterboxInBreaks: 1
SpecialStyle: 0
WidescreenStoryboard: 0

[Editor]
DistanceSpacing: 1.2
BeatDivisor: 4
GridSize: 8
TimelineZoom: 1

[Metadata]
Title:Fish A La Carte
TitleUnicode:Fish A La Carte
Artist:Various Artists
ArtistUnicode:Various Artists
Creator:Yellyfish
Version:Penetration
Source:
Tags:
BeatmapID:1117098
BeatmapSetID:526427

[Difficulty]
HPDrainRate:7
CircleSize:4
OverallDifficulty:8
ApproachRate:5
SliderMultiplier:1.4
SliderTickRate:1

[Events]
//Background and Video events
0,0,"6. PENETRATION.jpg",0,0
//Break Periods
//Storyboard Layer 0 (Background)
//Storyboard Layer 1 (Fail)
//Storyboard Layer 2 (Pass)
//Storyboard Layer 3 (Foreground)
//Storyboard Sound Samples

[TimingPoints]
2754,338.983,4,1,0,0,1,0

[HitObjects]
64,192,2754,5,0,0:0:0:0:
192,192,2754,1,0,0:0:0:0:
320,192,2923,1,0,0:0:0:0:
448,192,3008,1,0,0:0:0:0:
320,192,3092,1,0,0:0:0:0:
192,192,3177,1,0,0:0:0:0:
448,192,3262,1,0,0:0:0:0:
320,192,3347,1,0,0:0:0:0:
448,192,3431,1,0,0:0:0:0:
320,192,3516,1,0,0:0:0:0:
64,192,3601,1,0,0:0:0:0:
192,192,3686,1,0,0:0:0:0:
64,192,3770,1,0,0:0:0:0:
192,192,3855,1,0,0:0:0:0:
448,192,3940,1,0,0:0:0:0:
320,192,4025,1,0,0:0:0:0:
448,192,4109,1,0,0:0:0:0:
320,192,4194,1,0,0:0:0:0:
192,192,4279,1,0,0:0:0:0:
64,192,4364,1,0,0:0:0:0:
192,192,4448,1,0,0:0:0:0:
320,192,4533,1,0,0:0:0:0:
448,192,4618,1,0,0:0:0:0:
320,192,4703,1,0,0:0:0:0:
448,192,4787,1,0,0:0:0:0:
192,192,4872,1,0,0:0:0:0:
64,192,4957,1,0,0:0:0:0:
192,192,5042,1,0,0:0:0:0:
64,192,5126,1,0,0:0:0:0:
192,192,5211,1,0,0:0:0:0:
448,192,5296,1,0,0:0:0:0:
320,192,5381,1,0,0:0:0:0:
448,192,5465,1,0,0:0:0:0:
192,192,5550,1,0,0:0:0:0:
320,192,5635,1,0,0:0:0:0:
448,192,5720,1,0,0:0:0:0:
320,192,5804,1,0,0:0:0:0:
448,192,5889,1,0,0:0:0:0:
64,192,5974,1,0,0:0:0:0:
192,192,6059,1,0,0:0:0:0:
64,192,6143,1,0,0:0:0:0:
192,192,6228,1,0,0:0:0:0:
448,192,6313,1,0,0:0:0:0:
320,192,6398,1,0,0:0:0:0:
448,192,6482,1,0,0:0:0:0:
192,192,6567,1,0,0:0:0:0:
64,192,6652,1,0,0:0:0:0:
192,192,6737,1,0,0:0:0:0:
64,192,6821,1,0,0:0:0:0:
320,192,6906,1,0,0:0:0:0:
192,192,6991,1,0,0:0:0:0:
448,192,6991,1,0,0:0:0:0:
320,192,7076,1,0,0:0:0:0:
448,192,7160,1,0,0:0:0:0:
192,192,7245,1,0,0:0:0:0:
64,192,7330,1,0,0:0:0:0:
320,192,7330,1,0,0:0:0:0:
192,192,7415,1,0,0:0:0:0:
320,192,7499,1,0,0:0:0:0:
192,192,7584,1,0,0:0:0:0:
448,192,7584,1,0,0:0:0:0:
320,192,7669,1,0,0:0:0:0:
64,192,7838,1,0,0:0:0:0:
192,192,7838,1,0,0:0:0:0:
320,192,7923,1,0,0:0:0:0:
64,192,8008,1,0,0:0:0:0:
192,192,8008,1,0,0:0:0:0:
448,192,8092,1,0,0:0:0:0:
64,192,8177,1,0,0:0:0:0:
192,192,8177,1,0,0:0:0:0:
320,192,8347,1,0,0:0:0:0:
448,192,8431,1,0,0:0:0:0:
320,192,8516,1,0,0:0:0:0:
192,192,8601,1,0,0:0:0:0:
448,192,8686,1,0,0:0:0:0:
320,192,8770,1,0,0:0:0:0:
448,192,8855,1,0,0:0:0:0:
320,192,8940,1,0,0:0:0:0:
64,192,9025,1,0,0:0:0:0:
192,192,9109,1,0,0:0:0:0:
64,192,9194,1,0,0:0:0:0:
192,192,9279,1,0,0:0:0:0:
448,192,9364,1,0,0:0:0:0:
320,192,9448,1,0,0:0:0:0:
448,192,9533,1,0,0:0:0:0:
320,192,9618,1,0,0:0:0:0:
192,192,9703,1,0,0:0:0:0:
320,192,9787,1,0,0:0:0:0:
192,192,9872,1,0,0:0:0:0:
448,192,9957,1,0,0:0:0:0:
64,192,10042,1,0,0:0:0:0:
192,192,10126,1,0,0:0:0:0:
64,192,10211,1,0,0:0:0:0:
192,192,10296,1,0,0:0:0:0:
448,192,10381,1,0,0:0:0:0:
320,192,10465,1,0,0:0:0:0:
448,192,10550,1,0,0:0:0:0:
320,192,10635,1,0,0:0:0:0:
64,192,10720,1,0,0:0:0:0:
192,192,10804,1,0,0:0:0:0:
64,192,10889,1,0,0:0:0:0:
192,192,10974,1,0,0:0:0:0:
448,192,11059,1,0,0:0:0:0:
320,192,11143,1,0,0:0:0:0:
448,192,11228,1,0,0:0:0:0:
320,192,11313,1,0,0:0:0:0:
192,192,11398,1,0,0:0:0:0:
320,192,11482,1,0,0:0:0:0:
192,192,11567,1,0,0:0:0:0:
64,192,11652,1,0,0:0:0:0:
448,192,11737,1,0,0:0:0:0:
320,192,11821,1,0,0:0:0:0:
448,192,11906,1,0,0:0:0:0:
320,192,11991,1,0,0:0:0:0:
64,192,12076,1,0,0:0:0:0:
192,192,12160,1,0,0:0:0:0:
64,192,12245,1,0,0:0:0:0:
320,192,12330,1,0,0:0:0:0:
192,192,12415,1,0,0:0:0:0:
448,192,12415,1,0,0:0:0:0:
320,192,12499,1,0,0:0:0:0:
64,192,12584,1,0,0:0:0:0:
192,192,12669,1,0,0:0:0:0:
64,192,12754,1,0,0:0:0:0:
320,192,12754,1,0,0:0:0:0:
192,192,12838,1,0,0:0:0:0:
320,192,12923,1,0,0:0:0:0:
192,192,13008,1,0,0:0:0:0:
448,192,13008,1,0,0:0:0:0:
320,192,13092,1,0,0:0:0:0:
448,192,13177,1,0,0:0:0:0:
320,192,13262,1,0,0:0:0:0:
192,192,13347,1,0,0:0:0:0:
64,192,13431,1,0,0:0:0:0:
320,192,13516,1,0,0:0:0:0:
64,192,13601,1,0,0:0:0:0:
192,192,13601,1,0,0:0:0:0:
448,192,13686,1,0,0:0:0:0:
320,192,13770,1,0,0:0:0:0:
448,192,13855,1,0,0:0:0:0:
320,192,13940,1,0,0:0:0:0:
192,192,14025,1,0,0:0:0:0:
448,192,14109,1,0,0:0:0:0:
320,192,14194,1,0,0:0:0:0:
448,192,14279,1,0,0:0:0:0:
320,192,14364,1,0,0:0:0:0:
64,192,14448,1,0,0:0:0:0:
192,192,14533,1,0,0:0:0:0:
64,192,14618,1,0,0:0:0:0:
192,192,14703,1,0,0:0:0:0:
320,192,14787,1,0,0:0:0:0:
448,192,14872,1,0,0:0:0:0:
320,192,14957,1,0,0:0:0:0:
448,192,15042,1,0,0:0:0:0:
192,192,15126,1,0,0:0:0:0:
320,192,15211,1,0,0:0:0:0:
192,192,15296,1,0,0:0:0:0:
64,192,15381,1,0,0:0:0:0:
448,192,15465,1,0,0:0:0:0:
320,192,15550,1,0,0:0:0:0:
448,192,15635,1,0,0:0:0:0:
320,192,15720,1,0,0:0:0:0:
192,192,15804,1,0,0:0:0:0:
320,192,15889,1,0,0:0:0:0:
192,192,15974,1,0,0:0:0:0:
64,192,16059,1,0,0:0:0:0:
320,192,16143,1,0,0:0:0:0:
192,192,16228,1,0,0:0:0:0:
64,192,16313,1,0,0:0:0:0:
448,192,16313,1,0,0:0:0:0:
320,192,16398,1,0,0:0:0:0:
64,192,16482,1,0,0:0:0:0:
448,192,16482,1,0,0:0:0:0:
192,192,16567,1,0,0:0:0:0:
320,192,16652,1,0,0:0:0:0:
448,192,16737,1,0,0:0:0:0:
192,192,16821,1,0,0:0:0:0:
320,192,16821,1,0,0:0:0:0:
448,192,16906,1,0,0:0:0:0:
192,192,16991,1,0,0:0:0:0:
320,192,16991,1,0,0:0:0:0:
64,192,17076,1,0,0:0:0:0:
192,192,17160,1,0,0:0:0:0:
320,192,17245,1,0,0:0:0:0:
64,192,17330,1,0,0:0:0:0:
448,192,17330,1,0,0:0:0:0:
192,192,17415,1,0,0:0:0:0:
64,192,17499,1,0,0:0:0:0:
448,192,17499,1,0,0:0:0:0:
192,192,17584,1,0,0:0:0:0:
320,192,17669,1,0,0:0:0:0:
448,192,17754,1,0,0:0:0:0:
192,192,17838,1,0,0:0:0:0:
320,192,17838,1,0,0:0:0:0:
64,192,17923,1,0,0:0:0:0:
192,192,18008,1,0,0:0:0:0:
320,192,18008,1,0,0:0:0:0:
448,192,18092,1,0,0:0:0:0:
320,192,18177,1,0,0:0:0:0:
448,192,18262,1,0,0:0:0:0:
192,192,18347,1,0,0:0:0:0:
320,192,18347,1,0,0:0:0:0:
64,192,18431,1,0,0:0:0:0:
192,192,18516,1,0,0:0:0:0:
64,192,18601,1,0,0:0:0:0:
320,192,18686,1,0,0:0:0:0:
448,192,19025,1,0,0:0:0:0:
64,0,19025,128,0,20042:1:0:0:0:
192,0,19025,128,0,20042:1:0:0:0:
320,192,19109,1,0,0:0:0:0:
448,192,19364,1,0,0:0:0:0:
320,192,19448,1,0,0:0:0:0:
448,192,19618,1,0,0:0:0:0:
320,192,19703,1,0,0:0:0:0:
448,192,19787,1,0,0:0:0:0:
320,192,19872,1,0,0:0:0:0:
448,192,19957,1,0,0:0:0:0:
320,192,20126,1,0,0:0:0:0:
448,192,20211,1,0,0:0:0:0:
320,192,20296,1,0,0:0:0:0:
64,0,20381,128,0,20720:1:0:0:0:
192,0,20381,128,0,20720:1:0:0:0:
448,192,20465,1,0,0:0:0:0:
320,192,20550,1,0,0:0:0:0:
448,192,20635,1,0,0:0:0:0:
320,192,20720,1,0,0:0:0:0:
448,192,20804,1,0,0:0:0:0:
320,192,20889,1,0,0:0:0:0:
448,192,20974,1,0,0:0:0:0:
64,0,21059,128,0,21228:1:0:0:0:
192,0,21059,128,0,21228:1:0:0:0:
320,192,21143,1,0,0:0:0:0:
448,192,21228,1,0,0:0:0:0:
320,192,21313,1,0,0:0:0:0:
448,192,21398,1,0,0:0:0:0:
64,0,21398,128,0,21567:1:0:0:0:
192,0,21398,128,0,21567:1:0:0:0:
320,192,21482,1,0,0:0:0:0:
448,192,21567,1,0,0:0:0:0:
320,192,21652,1,0,0:0:0:0:
64,192,21737,1,0,0:0:0:0:
192,192,21737,1,0,0:0:0:0:
448,192,21821,1,0,0:0:0:0:
320,192,21906,1,0,0:0:0:0:
448,192,21991,1,0,0:0:0:0:
64,192,22076,1,0,0:0:0:0:
192,192,22076,1,0,0:0:0:0:
320,192,22160,1,0,0:0:0:0:
320,192,22245,1,0,0:0:0:0:
320,192,22330,1,0,0:0:0:0:
64,192,22415,1,0,0:0:0:0:
192,192,22415,1,0,0:0:0:0:
448,192,22499,1,0,0:0:0:0:
320,192,22584,1,0,0:0:0:0:
448,192,22669,1,0,0:0:0:0:
64,192,22754,1,0,0:0:0:0:
192,192,22754,1,0,0:0:0:0:
320,192,22838,1,0,0:0:0:0:
320,192,22923,1,0,0:0:0:0:
320,192,23008,1,0,0:0:0:0:
64,192,23092,1,0,0:0:0:0:
192,192,23092,1,0,0:0:0:0:
448,192,23177,1,0,0:0:0:0:
448,192,23262,1,0,0:0:0:0:
448,192,23347,1,0,0:0:0:0:
64,192,23431,1,0,0:0:0:0:
192,192,23431,1,0,0:0:0:0:
320,192,23516,1,0,0:0:0:0:
448,192,23601,1,0,0:0:0:0:
320,192,23686,1,0,0:0:0:0:
64,192,23770,1,0,0:0:0:0:
192,192,23770,1,0,0:0:0:0:
320,192,23855,1,0,0:0:0:0:
320,192,23940,1,0,0:0:0:0:
320,192,24025,1,0,0:0:0:0:
64,0,24109,128,0,24279:1:0:0:0:
192,0,24109,128,0,24279:1:0:0:0:
320,192,24279,1,0,0:0:0:0:
64,192,24448,1,0,0:0:0:0:
192,192,24448,1,0,0:0:0:0:
448,192,24533,1,0,0:0:0:0:
320,192,24618,1,0,0:0:0:0:
448,192,24703,1,0,0:0:0:0:
64,192,24787,1,0,0:0:0:0:
192,192,24787,1,0,0:0:0:0:
320,192,24872,1,0,0:0:0:0:
320,192,24957,1,0,0:0:0:0:
320,192,25042,1,0,0:0:0:0:
64,192,25126,1,0,0:0:0:0:
192,192,25126,1,0,0:0:0:0:
448,192,25211,1,0,0:0:0:0:
448,192,25296,1,0,0:0:0:0:
448,192,25381,1,0,0:0:0:0:
64,192,25465,1,0,0:0:0:0:
192,192,25465,1,0,0:0:0:0:
320,192,25635,1,0,0:0:0:0:
64,192,25804,1,0,0:0:0:0:
192,192,25804,1,0,0:0:0:0:
192,192,25974,1,0,0:0:0:0:
320,192,25974,1,0,0:0:0:0:
320,192,26143,1,0,0:0:0:0:
448,192,26143,1,0,0:0:0:0:
192,192,26313,1,0,0:0:0:0:
320,192,26313,1,0,0:0:0:0:
64,192,26482,1,0,0:0:0:0:
448,192,26482,1,0,0:0:0:0:
448,192,26652,1,0,0:0:0:0:
192,192,26821,1,0,0:0:0:0:
320,192,26821,1,0,0:0:0:0:
64,192,26991,1,0,0:0:0:0:
192,192,26991,1,0,0:0:0:0:
320,192,27160,1,0,0:0:0:0:
448,192,27160,1,0,0:0:0:0:
64,192,27245,1,0,0:0:0:0:
192,192,27330,1,0,0:0:0:0:
64,192,27415,1,0,0:0:0:0:
320,192,27499,1,0,0:0:0:0:
448,192,27499,1,0,0:0:0:0:
192,192,27584,1,0,0:0:0:0:
192,192,27669,1,0,0:0:0:0:
192,192,27754,1,0,0:0:0:0:
320,192,27838,1,0,0:0:0:0:
448,192,27838,1,0,0:0:0:0:
64,192,27923,1,0,0:0:0:0:
192,192,28008,1,0,0:0:0:0:
64,192,28092,1,0,0:0:0:0:
320,192,28177,1,0,0:0:0:0:
448,192,28177,1,0,0:0:0:0:
192,192,28262,1,0,0:0:0:0:
192,192,28347,1,0,0:0:0:0:
192,192,28431,1,0,0:0:0:0:
320,192,28516,1,0,0:0:0:0:
448,192,28516,1,0,0:0:0:0:
64,192,28601,1,0,0:0:0:0:
64,192,28686,1,0,0:0:0:0:
64,192,28770,1,0,0:0:0:0:
320,192,28855,1,0,0:0:0:0:
448,192,28855,1,0,0:0:0:0:
64,192,28940,1,0,0:0:0:0:
192,192,29025,1,0,0:0:0:0:
64,192,29109,1,0,0:0:0:0:
320,192,29194,1,0,0:0:0:0:
448,192,29194,1,0,0:0:0:0:
192,192,29279,1,0,0:0:0:0:
192,192,29364,1,0,0:0:0:0:
192,192,29448,1,0,0:0:0:0:
320,0,29533,128,0,29703:1:0:0:0:
448,0,29533,128,0,29703:1:0:0:0:
64,192,29703,1,0,0:0:0:0:
320,192,29872,1,0,0:0:0:0:
448,192,29872,1,0,0:0:0:0:
192,192,29957,1,0,0:0:0:0:
192,192,30042,1,0,0:0:0:0:
192,192,30126,1,0,0:0:0:0:
320,192,30211,1,0,0:0:0:0:
448,192,30211,1,0,0:0:0:0:
64,192,30296,1,0,0:0:0:0:
192,192,30381,1,0,0:0:0:0:
64,192,30465,1,0,0:0:0:0:
320,192,30550,1,0,0:0:0:0:
448,192,30550,1,0,0:0:0:0:
192,192,30635,1,0,0:0:0:0:
192,192,30720,1,0,0:0:0:0:
192,192,30804,1,0,0:0:0:0:
320,192,30889,1,0,0:0:0:0:
448,192,30889,1,0,0:0:0:0:
192,192,31059,1,0,0:0:0:0:
320,192,31059,1,0,0:0:0:0:
64,192,31228,1,0,0:0:0:0:
320,192,31228,1,0,0:0:0:0:
448,192,31228,1,0,0:0:0:0:
64,192,31398,1,0,0:0:0:0:
192,192,31398,1,0,0:0:0:0:
320,192,31398,1,0,0:0:0:0:
64,192,31567,1,0,0:0:0:0:
192,192,31567,1,0,0:0:0:0:
448,192,31567,1,0,0:0:0:0:
192,192,31737,1,0,0:0:0:0:
320,192,31737,1,0,0:0:0:0:
448,192,31737,1,0,0:0:0:0:
320,192,31821,1,0,0:0:0:0:
64,192,31906,1,0,0:0:0:0:
320,192,31906,1,0,0:0:0:0:
448,192,31906,1,0,0:0:0:0:
64,192,32076,1,0,0:0:0:0:
192,192,32076,1,0,0:0:0:0:
320,192,32076,1,0,0:0:0:0:
192,192,32245,1,0,0:0:0:0:
320,192,32245,1,0,0:0:0:0:
448,192,32245,1,0,0:0:0:0:
192,192,32330,1,0,0:0:0:0:
64,192,32415,1,0,0:0:0:0:
192,192,32415,1,0,0:0:0:0:
448,192,32415,1,0,0:0:0:0:
64,192,32584,1,0,0:0:0:0:
192,192,32584,1,0,0:0:0:0:
320,192,32669,1,0,0:0:0:0:
448,192,32754,1,0,0:0:0:0:
320,192,32838,1,0,0:0:0:0:
64,192,32923,1,0,0:0:0:0:
192,192,32923,1,0,0:0:0:0:
448,192,32923,1,0,0:0:0:0:
320,192,33008,1,0,0:0:0:0:
320,192,33092,1,0,0:0:0:0:
320,192,33177,1,0,0:0:0:0:
64,192,33262,1,0,0:0:0:0:
192,192,33262,1,0,0:0:0:0:
320,192,33347,1,0,0:0:0:0:
448,192,33431,1,0,0:0:0:0:
320,192,33516,1,0,0:0:0:0:
64,192,33601,1,0,0:0:0:0:
192,192,33601,1,0,0:0:0:0:
448,192,33601,1,0,0:0:0:0:
320,192,33686,1,0,0:0:0:0:
320,192,33770,1,0,0:0:0:0:
320,192,33855,1,0,0:0:0:0:
64,192,33940,1,0,0:0:0:0:
192,192,33940,1,0,0:0:0:0:
448,192,34025,1,0,0:0:0:0:
448,192,34109,1,0,0:0:0:0:
448,192,34194,1,0,0:0:0:0:
64,192,34279,1,0,0:0:0:0:
192,192,34279,1,0,0:0:0:0:
320,192,34279,1,0,0:0:0:0:
64,192,34448,1,0,0:0:0:0:
192,192,34448,1,0,0:0:0:0:
64,192,34618,1,0,0:0:0:0:
320,192,34618,1,0,0:0:0:0:
448,192,34618,1,0,0:0:0:0:
64,192,34703,1,0,0:0:0:0:
192,192,34703,1,0,0:0:0:0:
320,192,34787,1,0,0:0:0:0:
448,192,34872,1,0,0:0:0:0:
64,192,34957,1,0,0:0:0:0:
192,192,34957,1,0,0:0:0:0:
320,192,35042,1,0,0:0:0:0:
448,192,35042,1,0,0:0:0:0:
64,192,35126,1,0,0:0:0:0:
320,192,35211,1,0,0:0:0:0:
64,192,35296,1,0,0:0:0:0:
192,192,35296,1,0,0:0:0:0:
320,192,35381,1,0,0:0:0:0:
320,192,35465,1,0,0:0:0:0:
320,192,35550,1,0,0:0:0:0:
64,192,35635,1,0,0:0:0:0:
192,192,35635,1,0,0:0:0:0:
448,192,35635,1,0,0:0:0:0:
320,192,35720,1,0,0:0:0:0:
448,192,35804,1,0,0:0:0:0:
320,192,35889,1,0,0:0:0:0:
64,192,35974,1,0,0:0:0:0:
192,192,35974,1,0,0:0:0:0:
448,192,36059,1,0,0:0:0:0:
448,192,36143,1,0,0:0:0:0:
448,192,36228,1,0,0:0:0:0:
64,192,36313,1,0,0:0:0:0:
192,192,36313,1,0,0:0:0:0:
320,192,36313,1,0,0:0:0:0:
192,192,36482,1,0,0:0:0:0:
320,192,36482,1,0,0:0:0:0:
64,192,36652,1,0,0:0:0:0:
320,192,36652,1,0,0:0:0:0:
448,192,36652,1,0,0:0:0:0:
64,192,36821,1,0,0:0:0:0:
192,192,36821,1,0,0:0:0:0:
320,192,36821,1,0,0:0:0:0:
64,192,36991,1,0,0:0:0:0:
192,192,36991,1,0,0:0:0:0:
448,192,36991,1,0,0:0:0:0:
192,192,37160,1,0,0:0:0:0:
320,192,37160,1,0,0:0:0:0:
448,192,37160,1,0,0:0:0:0:
320,192,37245,1,0,0:0:0:0:
64,192,37330,1,0,0:0:0:0:
320,192,37330,1,0,0:0:0:0:
448,192,37330,1,0,0:0:0:0:
64,192,37499,1,0,0:0:0:0:
192,192,37499,1,0,0:0:0:0:
320,192,37499,1,0,0:0:0:0:
192,192,37669,1,0,0:0:0:0:
320,192,37669,1,0,0:0:0:0:
448,192,37669,1,0,0:0:0:0:
192,192,37754,1,0,0:0:0:0:
64,192,37838,1,0,0:0:0:0:
192,192,37838,1,0,0:0:0:0:
448,192,37838,1,0,0:0:0:0:
320,192,38008,1,0,0:0:0:0:
448,192,38008,1,0,0:0:0:0:
192,192,38092,1,0,0:0:0:0:
64,192,38177,1,0,0:0:0:0:
192,192,38262,1,0,0:0:0:0:
64,192,38347,1,0,0:0:0:0:
320,192,38347,1,0,0:0:0:0:
448,192,38347,1,0,0:0:0:0:
192,192,38431,1,0,0:0:0:0:
192,192,38516,1,0,0:0:0:0:
192,192,38601,1,0,0:0:0:0:
320,192,38686,1,0,0:0:0:0:
448,192,38686,1,0,0:0:0:0:
192,192,38770,1,0,0:0:0:0:
64,192,38855,1,0,0:0:0:0:
192,192,38940,1,0,0:0:0:0:
64,192,39025,1,0,0:0:0:0:
320,192,39025,1,0,0:0:0:0:
448,192,39025,1,0,0:0:0:0:
192,192,39109,1,0,0:0:0:0:
192,192,39194,1,0,0:0:0:0:
192,192,39279,1,0,0:0:0:0:
320,192,39364,1,0,0:0:0:0:
448,192,39364,1,0,0:0:0:0:
64,192,39448,1,0,0:0:0:0:
64,192,39533,1,0,0:0:0:0:
64,192,39618,1,0,0:0:0:0:
192,192,39703,1,0,0:0:0:0:
320,192,39703,1,0,0:0:0:0:
448,192,39703,1,0,0:0:0:0:
320,192,39872,1,0,0:0:0:0:
448,192,39872,1,0,0:0:0:0:
64,192,40042,1,0,0:0:0:0:
192,192,40042,1,0,0:0:0:0:
448,192,40042,1,0,0:0:0:0:
320,192,40126,1,0,0:0:0:0:
448,192,40126,1,0,0:0:0:0:
192,192,40211,1,0,0:0:0:0:
64,192,40296,1,0,0:0:0:0:
320,192,40381,1,0,0:0:0:0:
448,192,40381,1,0,0:0:0:0:
64,192,40465,1,0,0:0:0:0:
192,192,40465,1,0,0:0:0:0:
448,192,40550,1,0,0:0:0:0:
192,192,40635,1,0,0:0:0:0:
320,192,40720,1,0,0:0:0:0:
448,192,40720,1,0,0:0:0:0:
192,192,40804,1,0,0:0:0:0:
192,192,40889,1,0,0:0:0:0:
192,192,40974,1,0,0:0:0:0:
64,192,41059,1,0,0:0:0:0:
320,192,41059,1,0,0:0:0:0:
448,192,41059,1,0,0:0:0:0:
192,192,41143,1,0,0:0:0:0:
64,192,41228,1,0,0:0:0:0:
192,192,41313,1,0,0:0:0:0:
320,192,41398,1,0,0:0:0:0:
448,192,41398,1,0,0:0:0:0:
64,192,41482,1,0,0:0:0:0:
64,192,41567,1,0,0:0:0:0:
64,192,41652,1,0,0:0:0:0:
192,192,41737,1,0,0:0:0:0:
320,192,41737,1,0,0:0:0:0:
448,192,41737,1,0,0:0:0:0:
192,192,41906,1,0,0:0:0:0:
320,192,41906,1,0,0:0:0:0:
64,192,42076,1,0,0:0:0:0:
192,192,42076,1,0,0:0:0:0:
448,192,42076,1,0,0:0:0:0:
64,192,42245,1,0,0:0:0:0:
192,192,42245,1,0,0:0:0:0:
320,192,42245,1,0,0:0:0:0:
192,192,42415,1,0,0:0:0:0:
320,192,42415,1,0,0:0:0:0:
448,192,42415,1,0,0:0:0:0:
64,192,42584,1,0,0:0:0:0:
192,192,42584,1,0,0:0:0:0:
448,192,42584,1,0,0:0:0:0:
192,192,42754,1,0,0:0:0:0:
320,192,42754,1,0,0:0:0:0:
448,192,42754,1,0,0:0:0:0:
64,192,42923,1,0,0:0:0:0:
192,192,42923,1,0,0:0:0:0:
320,192,42923,1,0,0:0:0:0:
64,192,43092,1,0,0:0:0:0:
192,192,43092,1,0,0:0:0:0:
320,192,43092,1,0,0:0:0:0:
448,192,43092,1,0,0:0:0:0:
64,192,43431,1,0,0:0:0:0:
192,192,43431,1,0,0:0:0:0:
448,192,43431,1,0,0:0:0:0:
320,192,43516,1,0,0:0:0:0:
448,192,43601,1,0,0:0:0:0:
320,192,43686,1,0,0:0:0:0:
64,192,43770,1,0,0:0:0:0:
192,192,43770,1,0,0:0:0:0:
448,192,43770,1,0,0:0:0:0:
192,192,43855,1,0,0:0:0:0:
320,192,43855,1,0,0:0:0:0:
64,192,43940,1,0,0:0:0:0:
448,192,43940,1,0,0:0:0:0:
192,192,44025,1,0,0:0:0:0:
64,192,44109,1,0,0:0:0:0:
320,192,44109,1,0,0:0:0:0:
320,192,44194,1,0,0:0:0:0:
448,192,44279,1,0,0:0:0:0:
192,192,44364,1,0,0:0:0:0:
64,192,44448,1,0,0:0:0:0:
320,192,44448,1,0,0:0:0:0:
448,192,44448,1,0,0:0:0:0:
192,192,44533,1,0,0:0:0:0:
320,192,44533,1,0,0:0:0:0:
64,192,44618,1,0,0:0:0:0:
448,192,44618,1,0,0:0:0:0:
192,192,44703,1,0,0:0:0:0:
320,192,44787,1,0,0:0:0:0:
448,192,44787,1,0,0:0:0:0:
192,192,44872,1,0,0:0:0:0:
320,192,44957,1,0,0:0:0:0:
448,192,45042,1,0,0:0:0:0:
64,192,45126,1,0,0:0:0:0:
192,192,45126,1,0,0:0:0:0:
320,192,45126,1,0,0:0:0:0:
320,192,45211,1,0,0:0:0:0:
448,192,45211,1,0,0:0:0:0:
64,192,45296,1,0,0:0:0:0:
192,192,45296,1,0,0:0:0:0:
320,192,45381,1,0,0:0:0:0:
192,192,45465,1,0,0:0:0:0:
448,192,45465,1,0,0:0:0:0:
64,192,45550,1,0,0:0:0:0:
192,192,45635,1,0,0:0:0:0:
320,192,45720,1,0,0:0:0:0:
64,192,45804,1,0,0:0:0:0:
192,192,45804,1,0,0:0:0:0:
448,192,45804,1,0,0:0:0:0:
192,192,45889,1,0,0:0:0:0:
320,192,45889,1,0,0:0:0:0:
64,192,45974,1,0,0:0:0:0:
448,192,45974,1,0,0:0:0:0:
320,192,46059,1,0,0:0:0:0:
64,192,46143,1,0,0:0:0:0:
192,192,46143,1,0,0:0:0:0:
320,192,46228,1,0,0:0:0:0:
448,192,46313,1,0,0:0:0:0:
320,192,46398,1,0,0:0:0:0:
64,192,46482,1,0,0:0:0:0:
192,192,46482,1,0,0:0:0:0:
448,192,46482,1,0,0:0:0:0:
64,192,46567,1,0,0:0:0:0:
320,192,46567,1,0,0:0:0:0:
192,192,46652,1,0,0:0:0:0:
448,192,46652,1,0,0:0:0:0:
320,192,46737,1,0,0:0:0:0:
192,192,46821,1,0,0:0:0:0:
448,192,46821,1,0,0:0:0:0:
320,192,46906,1,0,0:0:0:0:
64,192,46991,1,0,0:0:0:0:
192,192,46991,1,0,0:0:0:0:
320,192,47076,1,0,0:0:0:0:
64,192,47160,1,0,0:0:0:0:
192,192,47160,1,0,0:0:0:0:
448,192,47160,1,0,0:0:0:0:
448,192,47245,1,0,0:0:0:0:
320,192,47330,1,0,0:0:0:0:
192,192,47415,1,0,0:0:0:0:
64,192,47499,1,0,0:0:0:0:
320,192,47499,1,0,0:0:0:0:
192,192,47584,1,0,0:0:0:0:
64,192,47669,1,0,0:0:0:0:
192,192,47754,1,0,0:0:0:0:
64,192,47838,1,0,0:0:0:0:
320,192,47838,1,0,0:0:0:0:
448,192,47838,1,0,0:0:0:0:
192,192,47923,1,0,0:0:0:0:
320,192,47923,1,0,0:0:0:0:
64,192,48008,1,0,0:0:0:0:
448,192,48008,1,0,0:0:0:0:
320,192,48092,1,0,0:0:0:0:
64,192,48177,1,0,0:0:0:0:
192,192,48177,1,0,0:0:0:0:
320,192,48262,1,0,0:0:0:0:
448,192,48262,1,0,0:0:0:0:
64,192,48347,1,0,0:0:0:0:
192,192,48347,1,0,0:0:0:0:
320,192,48431,1,0,0:0:0:0:
64,192,48516,1,0,0:0:0:0:
192,192,48516,1,0,0:0:0:0:
448,192,48516,1,0,0:0:0:0:
192,192,48686,1,0,0:0:0:0:
320,192,48686,1,0,0:0:0:0:
64,192,48855,1,0,0:0:0:0:
192,192,48855,1,0,0:0:0:0:
192,192,48940,1,0,0:0:0:0:
320,192,49025,1,0,0:0:0:0:
448,192,49025,1,0,0:0:0:0:
192,192,49109,1,0,0:0:0:0:
64,192,49194,1,0,0:0:0:0:
192,192,49194,1,0,0:0:0:0:
320,192,49279,1,0,0:0:0:0:
448,192,49279,1,0,0:0:0:0:
320,192,49364,1,0,0:0:0:0:
64,192,49448,1,0,0:0:0:0:
192,192,49448,1,0,0:0:0:0:
320,192,49533,1,0,0:0:0:0:
320,192,49618,1,0,0:0:0:0:
448,192,49618,1,0,0:0:0:0:
64,192,49703,1,0,0:0:0:0:
192,192,49703,1,0,0:0:0:0:
192,192,49787,1,0,0:0:0:0:
320,192,49872,1,0,0:0:0:0:
448,192,49872,1,0,0:0:0:0:
192,192,49957,1,0,0:0:0:0:
64,192,50042,1,0,0:0:0:0:
192,192,50042,1,0,0:0:0:0:
320,192,50126,1,0,0:0:0:0:
448,192,50126,1,0,0:0:0:0:
320,192,50211,1,0,0:0:0:0:
64,192,50296,1,0,0:0:0:0:
192,192,50296,1,0,0:0:0:0:
320,192,50381,1,0,0:0:0:0:
320,192,50465,1,0,0:0:0:0:
448,192,50465,1,0,0:0:0:0:
64,192,50550,1,0,0:0:0:0:
192,192,50550,1,0,0:0:0:0:
192,192,50635,1,0,0:0:0:0:
320,192,50720,1,0,0:0:0:0:
448,192,50720,1,0,0:0:0:0:
192,192,50804,1,0,0:0:0:0:
64,192,50889,1,0,0:0:0:0:
192,192,50889,1,0,0:0:0:0:
320,192,50974,1,0,0:0:0:0:
448,192,50974,1,0,0:0:0:0:
320,192,51059,1,0,0:0:0:0:
64,192,51143,1,0,0:0:0:0:
192,192,51143,1,0,0:0:0:0:
320,192,51228,1,0,0:0:0:0:
320,192,51313,1,0,0:0:0:0:
448,192,51313,1,0,0:0:0:0:
64,192,51398,1,0,0:0:0:0:
192,192,51398,1,0,0:0:0:0:
192,192,51482,1,0,0:0:0:0:
320,192,51567,1,0,0:0:0:0:
448,192,51567,1,0,0:0:0:0:
192,192,51652,1,0,0:0:0:0:
64,192,51737,1,0,0:0:0:0:
192,192,51737,1,0,0:0:0:0:
320,192,51821,1,0,0:0:0:0:
448,192,51821,1,0,0:0:0:0:
320,192,51906,1,0,0:0:0:0:
64,192,51991,1,0,0:0:0:0:
192,192,51991,1,0,0:0:0:0:
320,192,52076,1,0,0:0:0:0:
320,192,52160,1,0,0:0:0:0:
448,192,52160,1,0,0:0:0:0:
64,192,52245,1,0,0:0:0:0:
192,192,52245,1,0,0:0:0:0:
192,192,52330,1,0,0:0:0:0:
320,192,52415,1,0,0:0:0:0:
448,192,52415,1,0,0:0:0:0:
192,192,52499,1,0,0:0:0:0:
64,192,52584,1,0,0:0:0:0:
192,192,52584,1,0,0:0:0:0:
320,192,52669,1,0,0:0:0:0:
448,192,52669,1,0,0:0:0:0:
320,192,52754,1,0,0:0:0:0:
64,192,52838,1,0,0:0:0:0:
192,192,52838,1,0,0:0:0:0:
320,192,52923,1,0,0:0:0:0:
320,192,53008,1,0,0:0:0:0:
448,192,53008,1,0,0:0:0:0:
64,192,53092,1,0,0:0:0:0:
192,192,53092,1,0,0:0:0:0:
64,192,53262,1,0,0:0:0:0:
192,192,53262,1,0,0:0:0:0:
320,192,53262,1,0,0:0:0:0:
64,192,53431,1,0,0:0:0:0:
192,192,53431,1,0,0:0:0:0:
448,192,53431,1,0,0:0:0:0:
64,192,53601,1,0,0:0:0:0:
192,192,53601,1,0,0:0:0:0:
320,192,53601,1,0,0:0:0:0:
64,192,53770,1,0,0:0:0:0:
192,192,53770,1,0,0:0:0:0:
448,192,53770,1,0,0:0:0:0:
64,192,53940,1,0,0:0:0:0:
192,192,53940,1,0,0:0:0:0:
320,192,53940,1,0,0:0:0:0:
192,192,54025,1,0,0:0:0:0:
448,192,54025,1,0,0:0:0:0:
320,192,54109,1,0,0:0:0:0:
64,192,54194,1,0,0:0:0:0:
192,192,54194,1,0,0:0:0:0:
64,192,54279,1,0,0:0:0:0:
320,192,54279,1,0,0:0:0:0:
448,192,54279,1,0,0:0:0:0:
320,192,54364,1,0,0:0:0:0:
192,192,54448,1,0,0:0:0:0:
448,192,54533,1,0,0:0:0:0:
64,192,54618,1,0,0:0:0:0:
192,192,54618,1,0,0:0:0:0:
320,192,54618,1,0,0:0:0:0:
192,192,54703,1,0,0:0:0:0:
448,192,54703,1,0,0:0:0:0:
64,192,54787,1,0,0:0:0:0:
320,192,54787,1,0,0:0:0:0:
192,192,54872,1,0,0:0:0:0:
448,192,54872,1,0,0:0:0:0:
192,192,54957,1,0,0:0:0:0:
320,192,54957,1,0,0:0:0:0:
320,192,55042,1,0,0:0:0:0:
448,192,55126,1,0,0:0:0:0:
192,192,55211,1,0,0:0:0:0:
64,192,55296,1,0,0:0:0:0:
320,192,55296,1,0,0:0:0:0:
448,192,55296,1,0,0:0:0:0:
192,192,55381,1,0,0:0:0:0:
320,192,55381,1,0,0:0:0:0:
64,192,55465,1,0,0:0:0:0:
448,192,55465,1,0,0:0:0:0:
192,192,55550,1,0,0:0:0:0:
320,192,55550,1,0,0:0:0:0:
320,192,55635,1,0,0:0:0:0:
448,192,55635,1,0,0:0:0:0:
448,192,55720,1,0,0:0:0:0:
192,192,55804,1,0,0:0:0:0:
320,192,55889,1,0,0:0:0:0:
64,192,55974,1,0,0:0:0:0:
192,192,55974,1,0,0:0:0:0:
448,192,55974,1,0,0:0:0:0:
64,192,56059,1,0,0:0:0:0:
192,192,56059,1,0,0:0:0:0:
320,192,56143,1,0,0:0:0:0:
448,192,56143,1,0,0:0:0:0:
64,192,56228,1,0,0:0:0:0:
192,192,56228,1,0,0:0:0:0:
64,192,56313,1,0,0:0:0:0:
448,192,56313,1,0,0:0:0:0:
448,192,56398,1,0,0:0:0:0:
192,192,56482,1,0,0:0:0:0:
320,192,56567,1,0,0:0:0:0:
64,192,56652,1,0,0:0:0:0:
192,192,56652,1,0,0:0:0:0:
448,192,56652,1,0,0:0:0:0:
320,192,56737,1,0,0:0:0:0:
448,192,56737,1,0,0:0:0:0:
64,192,56821,1,0,0:0:0:0:
192,192,56821,1,0,0:0:0:0:
320,192,56906,1,0,0:0:0:0:
448,192,56906,1,0,0:0:0:0:
192,192,56991,1,0,0:0:0:0:
448,192,56991,1,0,0:0:0:0:
192,192,57076,1,0,0:0:0:0:
320,192,57160,1,0,0:0:0:0:
192,192,57245,1,0,0:0:0:0:
64,192,57330,1,0,0:0:0:0:
320,192,57330,1,0,0:0:0:0:
448,192,57330,1,0,0:0:0:0:
64,192,57415,1,0,0:0:0:0:
320,192,57415,1,0,0:0:0:0:
192,192,57499,1,0,0:0:0:0:
448,192,57499,1,0,0:0:0:0:
64,192,57584,1,0,0:0:0:0:
320,192,57584,1,0,0:0:0:0:
64,192,57669,1,0,0:0:0:0:
448,192,57669,1,0,0:0:0:0:
448,192,57754,1,0,0:0:0:0:
320,192,57838,1,0,0:0:0:0:
192,192,57923,1,0,0:0:0:0:
64,192,58008,1,0,0:0:0:0:
320,192,58008,1,0,0:0:0:0:
448,192,58008,1,0,0:0:0:0:
192,192,58092,1,0,0:0:0:0:
320,192,58092,1,0,0:0:0:0:
64,192,58177,1,0,0:0:0:0:
448,192,58177,1,0,0:0:0:0:
192,192,58262,1,0,0:0:0:0:
320,192,58262,1,0,0:0:0:0:
192,192,58347,1,0,0:0:0:0:
448,192,58347,1,0,0:0:0:0:
320,192,58431,1,0,0:0:0:0:
448,192,58516,1,0,0:0:0:0:
320,192,58601,1,0,0:0:0:0:
64,192,58686,1,0,0:0:0:0:
192,192,58686,1,0,0:0:0:0:
448,192,58686,1,0,0:0:0:0:
64,192,58770,1,0,0:0:0:0:
448,192,58770,1,0,0:0:0:0:
192,192,58855,1,0,0:0:0:0:
320,192,58855,1,0,0:0:0:0:
64,192,58940,1,0,0:0:0:0:
448,192,58940,1,0,0:0:0:0:
320,192,59025,1,0,0:0:0:0:
448,192,59025,1,0,0:0:0:0:
64,192,59109,1,0,0:0:0:0:
320,192,59109,1,0,0:0:0:0:
192,192,59194,1,0,0:0:0:0:
448,192,59194,1,0,0:0:0:0:
320,192,59279,1,0,0:0:0:0:
64,192,59364,1,0,0:0:0:0:
192,192,59364,1,0,0:0:0:0:
448,192,59364,1,0,0:0:0:0:
192,192,59533,1,0,0:0:0:0:
320,192,59533,1,0,0:0:0:0:
64,192,59703,1,0,0:0:0:0:
192,192,59703,1,0,0:0:0:0:
320,192,59703,1,0,0:0:0:0:
448,192,59703,1,0,0:0:0:0:
192,192,59787,1,0,0:0:0:0:
320,192,59872,1,0,0:0:0:0:
448,192,59957,1,0,0:0:0:0:
64,192,60042,1,0,0:0:0:0:
192,192,60042,1,0,0:0:0:0:
320,192,60042,1,0,0:0:0:0:
192,192,60126,1,0,0:0:0:0:
448,192,60126,1,0,0:0:0:0:
64,192,60211,1,0,0:0:0:0:
320,192,60211,1,0,0:0:0:0:
448,192,60296,1,0,0:0:0:0:
192,192,60381,1,0,0:0:0:0:
320,192,60381,1,0,0:0:0:0:
64,192,60465,1,0,0:0:0:0:
192,192,60550,1,0,0:0:0:0:
320,192,60635,1,0,0:0:0:0:
64,192,60720,1,0,0:0:0:0:
192,192,60720,1,0,0:0:0:0:
448,192,60720,1,0,0:0:0:0:
192,192,60804,1,0,0:0:0:0:
448,192,60804,1,0,0:0:0:0:
64,192,60889,1,0,0:0:0:0:
320,192,60889,1,0,0:0:0:0:
192,192,60974,1,0,0:0:0:0:
64,192,61059,1,0,0:0:0:0:
192,192,61059,1,0,0:0:0:0:
320,192,61059,1,0,0:0:0:0:
448,192,61059,1,0,0:0:0:0:
64,192,61143,1,0,0:0:0:0:
320,192,61228,1,0,0:0:0:0:
192,192,61313,1,0,0:0:0:0:
64,192,61398,1,0,0:0:0:0:
320,192,61398,1,0,0:0:0:0:
448,192,61398,1,0,0:0:0:0:
192,192,61482,1,0,0:0:0:0:
320,192,61482,1,0,0:0:0:0:
64,192,61567,1,0,0:0:0:0:
448,192,61567,1,0,0:0:0:0:
320,192,61652,1,0,0:0:0:0:
64,192,61737,1,0,0:0:0:0:
192,192,61737,1,0,0:0:0:0:
448,192,61737,1,0,0:0:0:0:
192,192,61821,1,0,0:0:0:0:
448,192,61906,1,0,0:0:0:0:
320,192,61991,1,0,0:0:0:0:
64,192,62076,1,0,0:0:0:0:
192,192,62076,1,0,0:0:0:0:
448,192,62076,1,0,0:0:0:0:
192,192,62160,1,0,0:0:0:0:
320,192,62245,1,0,0:0:0:0:
448,192,62330,1,0,0:0:0:0:
64,192,62415,1,0,0:0:0:0:
192,192,62415,1,0,0:0:0:0:
320,192,62415,1,0,0:0:0:0:
448,192,62415,1,0,0:0:0:0:
64,192,62499,1,0,0:0:0:0:
192,192,62584,1,0,0:0:0:0:
320,192,62669,1,0,0:0:0:0:
64,192,62754,1,0,0:0:0:0:
192,192,62754,1,0,0:0:0:0:
448,192,62754,1,0,0:0:0:0:
320,192,62838,1,0,0:0:0:0:
192,192,62923,1,0,0:0:0:0:
320,192,63008,1,0,0:0:0:0:
64,192,63092,1,0,0:0:0:0:
192,192,63092,1,0,0:0:0:0:
320,192,63092,1,0,0:0:0:0:
448,192,63092,1,0,0:0:0:0:
64,192,63177,1,0,0:0:0:0:
192,192,63262,1,0,0:0:0:0:
320,192,63347,1,0,0:0:0:0:
192,192,63431,1,0,0:0:0:0:
448,192,63431,1,0,0:0:0:0:
320,192,63516,1,0,0:0:0:0:
192,192,63601,1,0,0:0:0:0:
64,192,63686,1,0,0:0:0:0:
320,192,63770,1,0,0:0:0:0:
448,192,63770,1,0,0:0:0:0:
64,192,63855,1,0,0:0:0:0:
192,192,63855,1,0,0:0:0:0:
320,192,63940,1,0,0:0:0:0:
448,192,63940,1,0,0:0:0:0:
192,192,64025,1,0,0:0:0:0:
320,192,64025,1,0,0:0:0:0:
64,192,64109,1,0,0:0:0:0:
448,192,64109,1,0,0:0:0:0:
64,192,64194,1,0,0:0:0:0:
192,192,64194,1,0,0:0:0:0:
320,192,64279,1,0,0:0:0:0:
448,192,64279,1,0,0:0:0:0:
64,192,64364,1,0,0:0:0:0:
192,192,64364,1,0,0:0:0:0:
192,192,64448,1,0,0:0:0:0:
320,192,64448,1,0,0:0:0:0:
320,192,64533,1,0,0:0:0:0:
448,192,64533,1,0,0:0:0:0:
64,192,64618,1,0,0:0:0:0:
192,192,64618,1,0,0:0:0:0:
320,192,64703,1,0,0:0:0:0:
448,192,64703,1,0,0:0:0:0:
192,192,64787,1,0,0:0:0:0:
320,192,64787,1,0,0:0:0:0:
64,192,64872,1,0,0:0:0:0:
192,192,64872,1,0,0:0:0:0:
320,192,64957,1,0,0:0:0:0:
448,192,64957,1,0,0:0:0:0:
320,192,65042,1,0,0:0:0:0:
448,192,65042,1,0,0:0:0:0:
64,192,65126,1,0,0:0:0:0:
192,192,65126,1,0,0:0:0:0:
64,192,65296,1,0,0:0:0:0:
192,192,65296,1,0,0:0:0:0:
192,192,65381,1,0,0:0:0:0:
64,192,65465,1,0,0:0:0:0:
320,192,65465,1,0,0:0:0:0:
448,192,65465,1,0,0:0:0:0:
64,192,65550,1,0,0:0:0:0:
192,192,65550,1,0,0:0:0:0:
320,192,65635,1,0,0:0:0:0:
448,192,65635,1,0,0:0:0:0:
448,192,65720,1,0,0:0:0:0:
64,192,65804,1,0,0:0:0:0:
192,192,65804,1,0,0:0:0:0:
320,192,65804,1,0,0:0:0:0:
192,192,65889,1,0,0:0:0:0:
448,192,65889,1,0,0:0:0:0:
64,192,65974,1,0,0:0:0:0:
320,192,65974,1,0,0:0:0:0:
192,192,66059,1,0,0:0:0:0:
64,192,66143,1,0,0:0:0:0:
320,192,66143,1,0,0:0:0:0:
448,192,66143,1,0,0:0:0:0:
192,192,66228,1,0,0:0:0:0:
448,192,66228,1,0,0:0:0:0:
320,192,66313,1,0,0:0:0:0:
448,192,66398,1,0,0:0:0:0:
64,192,66482,1,0,0:0:0:0:
192,192,66482,1,0,0:0:0:0:
320,192,66482,1,0,0:0:0:0:
64,192,66567,1,0,0:0:0:0:
192,192,66567,1,0,0:0:0:0:
320,192,66652,1,0,0:0:0:0:
448,192,66652,1,0,0:0:0:0:
192,192,66737,1,0,0:0:0:0:
64,192,66821,1,0,0:0:0:0:
192,192,66821,1,0,0:0:0:0:
320,192,66821,1,0,0:0:0:0:
448,192,66906,1,0,0:0:0:0:
64,192,66991,1,0,0:0:0:0:
192,192,66991,1,0,0:0:0:0:
320,192,66991,1,0,0:0:0:0:
192,192,67076,1,0,0:0:0:0:
448,192,67076,1,0,0:0:0:0:
64,192,67160,1,0,0:0:0:0:
320,192,67160,1,0,0:0:0:0:
192,192,67245,1,0,0:0:0:0:
320,192,67330,1,0,0:0:0:0:
448,192,67330,1,0,0:0:0:0:
64,192,67415,1,0,0:0:0:0:
192,192,67415,1,0,0:0:0:0:
320,192,67499,1,0,0:0:0:0:
448,192,67499,1,0,0:0:0:0:
320,192,67584,1,0,0:0:0:0:
64,192,67669,1,0,0:0:0:0:
192,192,67669,1,0,0:0:0:0:
64,192,67754,1,0,0:0:0:0:
448,192,67754,1,0,0:0:0:0:
192,192,67838,1,0,0:0:0:0:
320,192,67838,1,0,0:0:0:0:
192,192,68008,1,0,0:0:0:0:
320,192,68008,1,0,0:0:0:0:
320,192,68092,1,0,0:0:0:0:
64,192,68177,1,0,0:0:0:0:
192,192,68177,1,0,0:0:0:0:
448,192,68177,1,0,0:0:0:0:
64,192,68262,1,0,0:0:0:0:
320,192,68262,1,0,0:0:0:0:
192,192,68347,1,0,0:0:0:0:
448,192,68347,1,0,0:0:0:0:
448,192,68431,1,0,0:0:0:0:
64,192,68516,1,0,0:0:0:0:
192,192,68516,1,0,0:0:0:0:
320,192,68516,1,0,0:0:0:0:
192,192,68601,1,0,0:0:0:0:
320,192,68601,1,0,0:0:0:0:
64,192,68686,1,0,0:0:0:0:
448,192,68686,1,0,0:0:0:0:
320,192,68770,1,0,0:0:0:0:
64,192,68855,1,0,0:0:0:0:
192,192,68855,1,0,0:0:0:0:
448,192,68855,1,0,0:0:0:0:
192,192,68940,1,0,0:0:0:0:
448,192,68940,1,0,0:0:0:0:
320,192,69025,1,0,0:0:0:0:
192,192,69109,1,0,0:0:0:0:
64,192,69194,1,0,0:0:0:0:
320,192,69194,1,0,0:0:0:0:
448,192,69194,1,0,0:0:0:0:
320,192,69279,1,0,0:0:0:0:
64,192,69364,1,0,0:0:0:0:
192,192,69364,1,0,0:0:0:0:
192,192,69448,1,0,0:0:0:0:
64,192,69533,1,0,0:0:0:0:
320,192,69533,1,0,0:0:0:0:
448,192,69533,1,0,0:0:0:0:
192,192,69618,1,0,0:0:0:0:
64,192,69703,1,0,0:0:0:0:
320,192,69703,1,0,0:0:0:0:
448,192,69703,1,0,0:0:0:0:
320,192,69787,1,0,0:0:0:0:
448,192,69787,1,0,0:0:0:0:
64,192,69872,1,0,0:0:0:0:
192,192,69872,1,0,0:0:0:0:
448,192,69957,1,0,0:0:0:0:
192,192,70042,1,0,0:0:0:0:
320,192,70042,1,0,0:0:0:0:
64,192,70126,1,0,0:0:0:0:
448,192,70126,1,0,0:0:0:0:
192,192,70211,1,0,0:0:0:0:
320,192,70211,1,0,0:0:0:0:
192,192,70296,1,0,0:0:0:0:
320,192,70381,1,0,0:0:0:0:
448,192,70381,1,0,0:0:0:0:
64,192,70465,1,0,0:0:0:0:
320,192,70465,1,0,0:0:0:0:
192,192,70550,1,0,0:0:0:0:
448,192,70550,1,0,0:0:0:0:
320,192,70635,1,0,0:0:0:0:
192,192,70720,1,0,0:0:0:0:
448,192,70720,1,0,0:0:0:0:
320,192,70804,1,0,0:0:0:0:
64,192,70889,1,0,0:0:0:0:
192,192,70889,1,0,0:0:0:0:
448,192,70889,1,0,0:0:0:0:
64,192,70974,1,0,0:0:0:0:
192,192,70974,1,0,0:0:0:0:
320,192,71059,1,0,0:0:0:0:
448,192,71059,1,0,0:0:0:0:
64,192,71143,1,0,0:0:0:0:
192,192,71228,1,0,0:0:0:0:
320,192,71228,1,0,0:0:0:0:
448,192,71228,1,0,0:0:0:0:
320,192,71313,1,0,0:0:0:0:
448,192,71313,1,0,0:0:0:0:
64,192,71398,1,0,0:0:0:0:
192,192,71398,1,0,0:0:0:0:
320,192,71482,1,0,0:0:0:0:
64,192,71567,1,0,0:0:0:0:
192,192,71567,1,0,0:0:0:0:
448,192,71567,1,0,0:0:0:0:
64,192,71652,1,0,0:0:0:0:
320,192,71652,1,0,0:0:0:0:
192,192,71737,1,0,0:0:0:0:
448,192,71737,1,0,0:0:0:0:
320,192,71821,1,0,0:0:0:0:
64,192,71906,1,0,0:0:0:0:
192,192,71906,1,0,0:0:0:0:
448,192,71906,1,0,0:0:0:0:
192,192,71991,1,0,0:0:0:0:
320,192,71991,1,0,0:0:0:0:
64,192,72076,1,0,0:0:0:0:
448,192,72076,1,0,0:0:0:0:
320,192,72160,1,0,0:0:0:0:
64,192,72245,1,0,0:0:0:0:
192,192,72245,1,0,0:0:0:0:
448,192,72245,1,0,0:0:0:0:
320,192,72330,1,0,0:0:0:0:
192,192,72415,1,0,0:0:0:0:
320,192,72499,1,0,0:0:0:0:
64,192,72584,1,0,0:0:0:0:
192,192,72584,1,0,0:0:0:0:
448,192,72584,1,0,0:0:0:0:
320,192,72669,1,0,0:0:0:0:
448,192,72669,1,0,0:0:0:0:
64,192,72754,1,0,0:0:0:0:
192,192,72754,1,0,0:0:0:0:
320,192,72838,1,0,0:0:0:0:
448,192,72838,1,0,0:0:0:0:
64,192,72923,1,0,0:0:0:0:
192,192,72923,1,0,0:0:0:0:
448,192,72923,1,0,0:0:0:0:
320,192,73008,1,0,0:0:0:0:
192,192,73092,1,0,0:0:0:0:
448,192,73092,1,0,0:0:0:0:
192,192,73177,1,0,0:0:0:0:
320,192,73177,1,0,0:0:0:0:
64,192,73262,1,0,0:0:0:0:
448,192,73262,1,0,0:0:0:0:
192,192,73347,1,0,0:0:0:0:
64,192,73431,1,0,0:0:0:0:
320,192,73431,1,0,0:0:0:0:
448,192,73516,1,0,0:0:0:0:
64,192,73601,1,0,0:0:0:0:
192,192,73601,1,0,0:0:0:0:
320,192,73601,1,0,0:0:0:0:
320,192,73686,1,0,0:0:0:0:
448,192,73686,1,0,0:0:0:0:
64,192,73770,1,0,0:0:0:0:
192,192,73770,1,0,0:0:0:0:
320,192,73855,1,0,0:0:0:0:
64,192,73940,1,0,0:0:0:0:
192,192,73940,1,0,0:0:0:0:
448,192,73940,1,0,0:0:0:0:
192,192,74025,1,0,0:0:0:0:
320,192,74109,1,0,0:0:0:0:
448,192,74109,1,0,0:0:0:0:
192,192,74194,1,0,0:0:0:0:
64,192,74279,1,0,0:0:0:0:
320,192,74279,1,0,0:0:0:0:
448,192,74279,1,0,0:0:0:0:
320,192,74364,1,0,0:0:0:0:
64,192,74448,1,0,0:0:0:0:
192,192,74448,1,0,0:0:0:0:
320,192,74533,1,0,0:0:0:0:
64,192,74618,1,0,0:0:0:0:
192,192,74618,1,0,0:0:0:0:
448,192,74618,1,0,0:0:0:0:
448,192,74703,1,0,0:0:0:0:
64,192,74787,1,0,0:0:0:0:
192,192,74787,1,0,0:0:0:0:
192,192,74872,1,0,0:0:0:0:
64,192,74957,1,0,0:0:0:0:
320,192,74957,1,0,0:0:0:0:
448,192,74957,1,0,0:0:0:0:
192,192,75042,1,0,0:0:0:0:
64,192,75126,1,0,0:0:0:0:
320,192,75126,1,0,0:0:0:0:
448,192,75126,1,0,0:0:0:0:
192,192,75211,1,0,0:0:0:0:
320,192,75211,1,0,0:0:0:0:
64,192,75296,1,0,0:0:0:0:
448,192,75296,1,0,0:0:0:0:
192,192,75381,1,0,0:0:0:0:
320,192,75381,1,0,0:0:0:0:
64,192,75465,1,0,0:0:0:0:
320,192,75465,1,0,0:0:0:0:
448,192,75550,1,0,0:0:0:0:
64,192,75635,1,0,0:0:0:0:
320,192,75635,1,0,0:0:0:0:
192,192,75720,1,0,0:0:0:0:
448,192,75720,1,0,0:0:0:0:
192,192,75804,1,0,0:0:0:0:
320,192,75804,1,0,0:0:0:0:
64,192,75889,1,0,0:0:0:0:
320,192,75889,1,0,0:0:0:0:
192,192,75974,1,0,0:0:0:0:
448,192,75974,1,0,0:0:0:0:
192,192,76143,1,0,0:0:0:0:
320,192,76143,1,0,0:0:0:0:
320,192,76228,1,0,0:0:0:0:
64,192,76313,1,0,0:0:0:0:
192,192,76313,1,0,0:0:0:0:
448,192,76313,1,0,0:0:0:0:
320,192,76398,1,0,0:0:0:0:
448,192,76398,1,0,0:0:0:0:
64,192,76482,1,0,0:0:0:0:
192,192,76482,1,0,0:0:0:0:
320,192,76567,1,0,0:0:0:0:
192,192,76652,1,0,0:0:0:0:
320,192,76652,1,0,0:0:0:0:
448,192,76652,1,0,0:0:0:0:
64,192,76737,1,0,0:0:0:0:
448,192,76737,1,0,0:0:0:0:
192,192,76821,1,0,0:0:0:0:
320,192,76821,1,0,0:0:0:0:
320,192,76906,1,0,0:0:0:0:
64,192,76991,1,0,0:0:0:0:
192,192,76991,1,0,0:0:0:0:
448,192,76991,1,0,0:0:0:0:
192,192,77076,1,0,0:0:0:0:
448,192,77076,1,0,0:0:0:0:
64,192,77160,1,0,0:0:0:0:
320,192,77160,1,0,0:0:0:0:
192,192,77245,1,0,0:0:0:0:
64,192,77330,1,0,0:0:0:0:
320,192,77330,1,0,0:0:0:0:
448,192,77330,1,0,0:0:0:0:
320,192,77415,1,0,0:0:0:0:
448,192,77415,1,0,0:0:0:0:
64,192,77499,1,0,0:0:0:0:
192,192,77499,1,0,0:0:0:0:
320,192,77584,1,0,0:0:0:0:
192,192,77669,1,0,0:0:0:0:
320,192,77669,1,0,0:0:0:0:
448,192,77669,1,0,0:0:0:0:
64,192,77754,1,0,0:0:0:0:
192,192,77838,1,0,0:0:0:0:
320,192,77838,1,0,0:0:0:0:
448,192,77838,1,0,0:0:0:0:
64,192,77923,1,0,0:0:0:0:
320,192,77923,1,0,0:0:0:0:
192,192,78008,1,0,0:0:0:0:
448,192,78008,1,0,0:0:0:0:
320,192,78092,1,0,0:0:0:0:
64,192,78177,1,0,0:0:0:0:
192,192,78177,1,0,0:0:0:0:
320,192,78262,1,0,0:0:0:0:
448,192,78262,1,0,0:0:0:0:
64,192,78347,1,0,0:0:0:0:
192,192,78347,1,0,0:0:0:0:
192,192,78431,1,0,0:0:0:0:
320,192,78516,1,0,0:0:0:0:
448,192,78516,1,0,0:0:0:0:
64,192,78601,1,0,0:0:0:0:
448,192,78601,1,0,0:0:0:0:
192,192,78686,1,0,0:0:0:0:
320,192,78686,1,0,0:0:0:0:
192,192,78855,1,0,0:0:0:0:
320,192,78855,1,0,0:0:0:0:
192,192,78940,1,0,0:0:0:0:
64,192,79025,1,0,0:0:0:0:
320,192,79025,1,0,0:0:0:0:
448,192,79025,1,0,0:0:0:0:
192,192,79109,1,0,0:0:0:0:
320,192,79109,1,0,0:0:0:0:
64,192,79194,1,0,0:0:0:0:
448,192,79194,1,0,0:0:0:0:
192,192,79279,1,0,0:0:0:0:
192,192,79364,1,0,0:0:0:0:
320,192,79364,1,0,0:0:0:0:
448,192,79364,1,0,0:0:0:0:
64,192,79448,1,0,0:0:0:0:
320,192,79448,1,0,0:0:0:0:
192,192,79533,1,0,0:0:0:0:
448,192,79533,1,0,0:0:0:0:
192,192,79618,1,0,0:0:0:0:
64,192,79703,1,0,0:0:0:0:
320,192,79703,1,0,0:0:0:0:
448,192,79703,1,0,0:0:0:0:
64,192,79787,1,0,0:0:0:0:
448,192,79787,1,0,0:0:0:0:
192,192,79872,1,0,0:0:0:0:
320,192,79872,1,0,0:0:0:0:
448,192,79957,1,0,0:0:0:0:
64,192,80042,1,0,0:0:0:0:
192,192,80042,1,0,0:0:0:0:
320,192,80042,1,0,0:0:0:0:
192,192,80126,1,0,0:0:0:0:
320,192,80211,1,0,0:0:0:0:
448,192,80211,1,0,0:0:0:0:
320,192,80296,1,0,0:0:0:0:
64,192,80381,1,0,0:0:0:0:
192,192,80381,1,0,0:0:0:0:
448,192,80381,1,0,0:0:0:0:
320,192,80465,1,0,0:0:0:0:
64,192,80550,1,0,0:0:0:0:
192,192,80550,1,0,0:0:0:0:
448,192,80550,1,0,0:0:0:0:
64,192,80635,1,0,0:0:0:0:
192,192,80635,1,0,0:0:0:0:
320,192,80720,1,0,0:0:0:0:
448,192,80720,1,0,0:0:0:0:
64,192,80804,1,0,0:0:0:0:
192,192,80889,1,0,0:0:0:0:
320,192,80889,1,0,0:0:0:0:
64,192,80974,1,0,0:0:0:0:
448,192,80974,1,0,0:0:0:0:
192,192,81059,1,0,0:0:0:0:
320,192,81059,1,0,0:0:0:0:
320,192,81143,1,0,0:0:0:0:
64,192,81228,1,0,0:0:0:0:
192,192,81228,1,0,0:0:0:0:
192,192,81313,1,0,0:0:0:0:
448,192,81313,1,0,0:0:0:0:
64,192,81398,1,0,0:0:0:0:
320,192,81398,1,0,0:0:0:0:
448,192,81398,1,0,0:0:0:0:
192,192,81482,1,0,0:0:0:0:
320,192,81567,1,0,0:0:0:0:
448,192,81567,1,0,0:0:0:0:
192,192,81652,1,0,0:0:0:0:
64,192,81737,1,0,0:0:0:0:
320,192,81737,1,0,0:0:0:0:
448,192,81737,1,0,0:0:0:0:
320,192,81821,1,0,0:0:0:0:
64,192,81906,1,0,0:0:0:0:
192,192,81906,1,0,0:0:0:0:
448,192,81991,1,0,0:0:0:0:
64,192,82076,1,0,0:0:0:0:
192,192,82076,1,0,0:0:0:0:
320,192,82076,1,0,0:0:0:0:
192,192,82160,1,0,0:0:0:0:
320,192,82245,1,0,0:0:0:0:
448,192,82245,1,0,0:0:0:0:
192,192,82330,1,0,0:0:0:0:
64,192,82415,1,0,0:0:0:0:
320,192,82415,1,0,0:0:0:0:
448,192,82415,1,0,0:0:0:0:
192,192,82499,1,0,0:0:0:0:
64,192,82584,1,0,0:0:0:0:
320,192,82584,1,0,0:0:0:0:
192,192,82669,1,0,0:0:0:0:
64,192,82754,1,0,0:0:0:0:
320,192,82754,1,0,0:0:0:0:
448,192,82754,1,0,0:0:0:0:
192,192,82838,1,0,0:0:0:0:
64,192,82923,1,0,0:0:0:0:
320,192,82923,1,0,0:0:0:0:
192,192,83008,1,0,0:0:0:0:
448,192,83008,1,0,0:0:0:0:
64,192,83092,1,0,0:0:0:0:
192,192,83092,1,0,0:0:0:0:
320,192,83092,1,0,0:0:0:0:
64,192,83177,1,0,0:0:0:0:
448,192,83177,1,0,0:0:0:0:
192,192,83262,1,0,0:0:0:0:
320,192,83262,1,0,0:0:0:0:
192,192,83347,1,0,0:0:0:0:
64,192,83431,1,0,0:0:0:0:
320,192,83431,1,0,0:0:0:0:
448,192,83431,1,0,0:0:0:0:
320,192,83516,1,0,0:0:0:0:
64,192,83601,1,0,0:0:0:0:
192,192,83601,1,0,0:0:0:0:
448,192,83601,1,0,0:0:0:0:
320,192,83686,1,0,0:0:0:0:
64,192,83770,1,0,0:0:0:0:
192,192,83770,1,0,0:0:0:0:
448,192,83770,1,0,0:0:0:0:
320,192,83855,1,0,0:0:0:0:
64,192,83940,1,0,0:0:0:0:
192,192,83940,1,0,0:0:0:0:
448,192,83940,1,0,0:0:0:0:
448,192,84025,1,0,0:0:0:0:
64,192,84109,1,0,0:0:0:0:
192,192,84109,1,0,0:0:0:0:
320,192,84109,1,0,0:0:0:0:
192,192,84194,1,0,0:0:0:0:
320,192,84279,1,0,0:0:0:0:
448,192,84364,1,0,0:0:0:0:
64,192,84448,1,0,0:0:0:0:
192,192,84448,1,0,0:0:0:0:
320,192,84448,1,0,0:0:0:0:
448,192,84533,1,0,0:0:0:0:
64,192,84618,1,0,0:0:0:0:
192,192,84618,1,0,0:0:0:0:
320,192,84703,1,0,0:0:0:0:
64,192,84787,1,0,0:0:0:0:
192,192,84872,1,0,0:0:0:0:
64,192,84957,1,0,0:0:0:0:
320,192,84957,1,0,0:0:0:0:
448,192,85013,1,0,0:0:0:0:
320,192,85070,1,0,0:0:0:0:
192,192,85126,1,0,0:0:0:0:
320,192,85183,1,0,0:0:0:0:
64,192,85239,1,0,0:0:0:0:
192,192,85296,1,0,0:0:0:0:
320,192,85352,1,0,0:0:0:0:
448,192,85409,1,0,0:0:0:0:
64,192,85465,1,0,0:0:0:0:
192,192,85465,1,0,0:0:0:0:
320,192,85522,1,0,0:0:0:0:
192,192,85578,1,0,0:0:0:0:
320,192,85635,1,0,0:0:0:0:
448,192,85691,1,0,0:0:0:0:
64,192,85748,1,0,0:0:0:0:
192,192,85804,1,0,0:0:0:0:
320,192,85861,1,0,0:0:0:0:
192,192,85917,1,0,0:0:0:0:
448,192,85974,1,0,0:0:0:0:
320,192,86030,1,0,0:0:0:0:
192,192,86087,1,0,0:0:0:0:
64,192,86143,1,0,0:0:0:0:
448,192,86143,1,0,0:0:0:0:
192,192,86228,1,0,0:0:0:0:
320,192,86228,1,0,0:0:0:0:
64,192,86313,1,0,0:0:0:0:
448,192,86313,1,0,0:0:0:0:
320,192,86398,1,0,0:0:0:0:
192,192,86482,1,0,0:0:0:0:
320,192,86567,1,0,0:0:0:0:
192,192,86652,1,0,0:0:0:0:
320,192,86737,1,0,0:0:0:0:
64,192,86821,1,0,0:0:0:0:
448,192,86821,1,0,0:0:0:0:
64,192,86991,1,0,0:0:0:0:
192,192,86991,1,0,0:0:0:0:
192,192,87076,1,0,0:0:0:0:
64,192,87160,1,0,0:0:0:0:
320,192,87160,1,0,0:0:0:0:
448,192,87160,1,0,0:0:0:0:
192,192,87245,1,0,0:0:0:0:
320,192,87245,1,0,0:0:0:0:
64,192,87330,1,0,0:0:0:0:
448,192,87330,1,0,0:0:0:0:
320,192,87415,1,0,0:0:0:0:
64,192,87499,1,0,0:0:0:0:
192,192,87499,1,0,0:0:0:0:
448,192,87499,1,0,0:0:0:0:
192,192,87584,1,0,0:0:0:0:
448,192,87584,1,0,0:0:0:0:
64,192,87669,1,0,0:0:0:0:
320,192,87669,1,0,0:0:0:0:
192,192,87754,1,0,0:0:0:0:
64,192,87838,1,0,0:0:0:0:
320,192,87838,1,0,0:0:0:0:
448,192,87838,1,0,0:0:0:0:
64,192,87923,1,0,0:0:0:0:
320,192,87923,1,0,0:0:0:0:
192,192,88008,1,0,0:0:0:0:
448,192,88008,1,0,0:0:0:0:
320,192,88092,1,0,0:0:0:0:
64,192,88177,1,0,0:0:0:0:
192,192,88177,1,0,0:0:0:0:
448,192,88177,1,0,0:0:0:0:
192,192,88262,1,0,0:0:0:0:
320,192,88347,1,0,0:0:0:0:
448,192,88347,1,0,0:0:0:0:
192,192,88431,1,0,0:0:0:0:
64,192,88516,1,0,0:0:0:0:
320,192,88516,1,0,0:0:0:0:
448,192,88516,1,0,0:0:0:0:
448,192,88601,1,0,0:0:0:0:
64,192,88686,1,0,0:0:0:0:
192,192,88686,1,0,0:0:0:0:
320,192,88686,1,0,0:0:0:0:
192,192,88770,1,0,0:0:0:0:
448,192,88770,1,0,0:0:0:0:
64,192,88855,1,0,0:0:0:0:
320,192,88855,1,0,0:0:0:0:
192,192,88940,1,0,0:0:0:0:
320,192,89025,1,0,0:0:0:0:
448,192,89025,1,0,0:0:0:0:
64,192,89109,1,0,0:0:0:0:
192,192,89109,1,0,0:0:0:0:
320,192,89194,1,0,0:0:0:0:
448,192,89194,1,0,0:0:0:0:
320,192,89279,1,0,0:0:0:0:
64,192,89364,1,0,0:0:0:0:
448,192,89364,1,0,0:0:0:0:
192,192,89448,1,0,0:0:0:0:
320,192,89448,1,0,0:0:0:0:
64,192,89533,1,0,0:0:0:0:
320,192,89533,1,0,0:0:0:0:
192,192,89703,1,0,0:0:0:0:
320,192,89703,1,0,0:0:0:0:
320,192,89787,1,0,0:0:0:0:
64,192,89872,1,0,0:0:0:0:
192,192,89872,1,0,0:0:0:0:
448,192,89872,1,0,0:0:0:0:
192,192,89957,1,0,0:0:0:0:
320,192,89957,1,0,0:0:0:0:
64,192,90042,1,0,0:0:0:0:
448,192,90042,1,0,0:0:0:0:
192,192,90126,1,0,0:0:0:0:
64,192,90211,1,0,0:0:0:0:
320,192,90211,1,0,0:0:0:0:
448,192,90211,1,0,0:0:0:0:
64,192,90296,1,0,0:0:0:0:
320,192,90296,1,0,0:0:0:0:
192,192,90381,1,0,0:0:0:0:
448,192,90381,1,0,0:0:0:0:
320,192,90465,1,0,0:0:0:0:
64,192,90550,1,0,0:0:0:0:
192,192,90550,1,0,0:0:0:0:
448,192,90550,1,0,0:0:0:0:
64,192,90635,1,0,0:0:0:0:
192,192,90635,1,0,0:0:0:0:
320,192,90720,1,0,0:0:0:0:
448,192,90720,1,0,0:0:0:0:
192,192,90804,1,0,0:0:0:0:
64,192,90889,1,0,0:0:0:0:
320,192,90889,1,0,0:0:0:0:
448,192,90889,1,0,0:0:0:0:
320,192,90974,1,0,0:0:0:0:
64,192,91059,1,0,0:0:0:0:
192,192,91059,1,0,0:0:0:0:
192,192,91143,1,0,0:0:0:0:
64,192,91228,1,0,0:0:0:0:
320,192,91228,1,0,0:0:0:0:
448,192,91228,1,0,0:0:0:0:
192,192,91313,1,0,0:0:0:0:
64,192,91398,1,0,0:0:0:0:
320,192,91398,1,0,0:0:0:0:
448,192,91398,1,0,0:0:0:0:
320,192,91482,1,0,0:0:0:0:
448,192,91482,1,0,0:0:0:0:
64,192,91567,1,0,0:0:0:0:
192,192,91567,1,0,0:0:0:0:
448,192,91652,1,0,0:0:0:0:
192,192,91737,1,0,0:0:0:0:
320,192,91737,1,0,0:0:0:0:
64,192,91821,1,0,0:0:0:0:
448,192,91821,1,0,0:0:0:0:
192,192,91906,1,0,0:0:0:0:
320,192,91906,1,0,0:0:0:0:
192,192,91991,1,0,0:0:0:0:
320,192,92076,1,0,0:0:0:0:
448,192,92076,1,0,0:0:0:0:
64,192,92160,1,0,0:0:0:0:
320,192,92160,1,0,0:0:0:0:
192,192,92245,1,0,0:0:0:0:
448,192,92245,1,0,0:0:0:0:
320,192,92330,1,0,0:0:0:0:
192,192,92415,1,0,0:0:0:0:
448,192,92415,1,0,0:0:0:0:
320,192,92499,1,0,0:0:0:0:
64,192,92584,1,0,0:0:0:0:
192,192,92584,1,0,0:0:0:0:
448,192,92584,1,0,0:0:0:0:
64,192,92669,1,0,0:0:0:0:
192,192,92669,1,0,0:0:0:0:
320,192,92754,1,0,0:0:0:0:
448,192,92754,1,0,0:0:0:0:
64,192,92838,1,0,0:0:0:0:
192,192,92923,1,0,0:0:0:0:
320,192,92923,1,0,0:0:0:0:
448,192,92923,1,0,0:0:0:0:
192,192,93008,1,0,0:0:0:0:
320,192,93008,1,0,0:0:0:0:
64,192,93092,1,0,0:0:0:0:
448,192,93092,1,0,0:0:0:0:
320,192,93177,1,0,0:0:0:0:
64,192,93262,1,0,0:0:0:0:
192,192,93262,1,0,0:0:0:0:
448,192,93262,1,0,0:0:0:0:
192,192,93347,1,0,0:0:0:0:
448,192,93347,1,0,0:0:0:0:
64,192,93431,1,0,0:0:0:0:
320,192,93431,1,0,0:0:0:0:
192,192,93516,1,0,0:0:0:0:
64,192,93601,1,0,0:0:0:0:
320,192,93601,1,0,0:0:0:0:
448,192,93601,1,0,0:0:0:0:
320,192,93686,1,0,0:0:0:0:
192,192,93770,1,0,0:0:0:0:
448,192,93770,1,0,0:0:0:0:
64,192,93855,1,0,0:0:0:0:
192,192,93940,1,0,0:0:0:0:
320,192,93940,1,0,0:0:0:0:
448,192,93940,1,0,0:0:0:0:
64,192,94025,1,0,0:0:0:0:
192,192,94109,1,0,0:0:0:0:
448,192,94109,1,0,0:0:0:0:
320,192,94194,1,0,0:0:0:0:
64,192,94279,1,0,0:0:0:0:
192,192,94279,1,0,0:0:0:0:
448,192,94279,1,0,0:0:0:0:
64,192,94364,1,0,0:0:0:0:
192,192,94364,1,0,0:0:0:0:
320,192,94448,1,0,0:0:0:0:
448,192,94448,1,0,0:0:0:0:
64,192,94533,1,0,0:0:0:0:
192,192,94533,1,0,0:0:0:0:
64,192,94618,1,0,0:0:0:0:
320,192,94618,1,0,0:0:0:0:
448,192,94618,1,0,0:0:0:0:
192,192,94703,1,0,0:0:0:0:
64,192,94787,1,0,0:0:0:0:
320,192,94787,1,0,0:0:0:0:
192,192,94872,1,0,0:0:0:0:
320,192,94872,1,0,0:0:0:0:
64,192,94957,1,0,0:0:0:0:
448,192,94957,1,0,0:0:0:0:
320,192,95042,1,0,0:0:0:0:
192,192,95126,1,0,0:0:0:0:
448,192,95126,1,0,0:0:0:0:
64,192,95211,1,0,0:0:0:0:
192,192,95296,1,0,0:0:0:0:
320,192,95296,1,0,0:0:0:0:
448,192,95296,1,0,0:0:0:0:
64,192,95381,1,0,0:0:0:0:
320,192,95465,1,0,0:0:0:0:
448,192,95465,1,0,0:0:0:0:
192,192,95550,1,0,0:0:0:0:
64,192,95635,1,0,0:0:0:0:
320,192,95635,1,0,0:0:0:0:
448,192,95635,1,0,0:0:0:0:
320,192,95720,1,0,0:0:0:0:
64,192,95804,1,0,0:0:0:0:
192,192,95804,1,0,0:0:0:0:
320,192,95889,1,0,0:0:0:0:
64,192,95974,1,0,0:0:0:0:
192,192,95974,1,0,0:0:0:0:
448,192,95974,1,0,0:0:0:0:
192,192,96059,1,0,0:0:0:0:
320,192,96143,1,0,0:0:0:0:
448,192,96143,1,0,0:0:0:0:
192,192,96228,1,0,0:0:0:0:
64,192,96313,1,0,0:0:0:0:
320,192,96313,1,0,0:0:0:0:
448,192,96313,1,0,0:0:0:0:
64,192,96398,1,0,0:0:0:0:
320,192,96482,1,0,0:0:0:0:
448,192,96482,1,0,0:0:0:0:
320,192,96567,1,0,0:0:0:0:
64,192,96652,1,0,0:0:0:0:
192,192,96652,1,0,0:0:0:0:
448,192,96652,1,0,0:0:0:0:
320,192,96737,1,0,0:0:0:0:
64,192,96821,1,0,0:0:0:0:
192,192,96821,1,0,0:0:0:0:
448,192,96821,1,0,0:0:0:0:
192,192,96906,1,0,0:0:0:0:
320,192,96906,1,0,0:0:0:0:
64,192,96991,1,0,0:0:0:0:
448,192,96991,1,0,0:0:0:0:
320,192,97076,1,0,0:0:0:0:
192,192,97160,1,0,0:0:0:0:
448,192,97160,1,0,0:0:0:0:
64,192,97245,1,0,0:0:0:0:
192,192,97330,1,0,0:0:0:0:
448,192,97330,1,0,0:0:0:0:
64,192,97415,1,0,0:0:0:0:
320,192,97415,1,0,0:0:0:0:
192,192,97499,1,0,0:0:0:0:
320,192,97499,1,0,0:0:0:0:
192,192,97584,1,0,0:0:0:0:
448,192,97584,1,0,0:0:0:0:
64,192,97669,1,0,0:0:0:0:
320,192,97669,1,0,0:0:0:0:
64,192,97838,1,0,0:0:0:0:
320,192,97838,1,0,0:0:0:0:
320,192,97923,1,0,0:0:0:0:
64,192,98008,1,0,0:0:0:0:
192,192,98008,1,0,0:0:0:0:
448,192,98008,1,0,0:0:0:0:
64,192,98092,1,0,0:0:0:0:
192,192,98092,1,0,0:0:0:0:
320,192,98177,1,0,0:0:0:0:
448,192,98177,1,0,0:0:0:0:
192,192,98262,1,0,0:0:0:0:
64,192,98347,1,0,0:0:0:0:
320,192,98347,1,0,0:0:0:0:
448,192,98347,1,0,0:0:0:0:
192,192,98431,1,0,0:0:0:0:
320,192,98431,1,0,0:0:0:0:
64,192,98516,1,0,0:0:0:0:
448,192,98516,1,0,0:0:0:0:
320,192,98601,1,0,0:0:0:0:
64,192,98686,1,0,0:0:0:0:
192,192,98686,1,0,0:0:0:0:
448,192,98686,1,0,0:0:0:0:
192,192,98770,1,0,0:0:0:0:
448,192,98770,1,0,0:0:0:0:
64,192,98855,1,0,0:0:0:0:
320,192,98855,1,0,0:0:0:0:
192,192,98940,1,0,0:0:0:0:
64,192,99025,1,0,0:0:0:0:
320,192,99025,1,0,0:0:0:0:
448,192,99025,1,0,0:0:0:0:
192,192,99109,1,0,0:0:0:0:
64,192,99194,1,0,0:0:0:0:
320,192,99194,1,0,0:0:0:0:
320,192,99279,1,0,0:0:0:0:
64,192,99364,1,0,0:0:0:0:
192,192,99364,1,0,0:0:0:0:
448,192,99364,1,0,0:0:0:0:
64,192,99448,1,0,0:0:0:0:
192,192,99533,1,0,0:0:0:0:
320,192,99533,1,0,0:0:0:0:
448,192,99533,1,0,0:0:0:0:
64,192,99618,1,0,0:0:0:0:
320,192,99618,1,0,0:0:0:0:
192,192,99703,1,0,0:0:0:0:
448,192,99703,1,0,0:0:0:0:
320,192,99787,1,0,0:0:0:0:
64,192,99872,1,0,0:0:0:0:
192,192,99872,1,0,0:0:0:0:
320,192,99957,1,0,0:0:0:0:
448,192,99957,1,0,0:0:0:0:
64,192,100042,1,0,0:0:0:0:
192,192,100042,1,0,0:0:0:0:
192,192,100126,1,0,0:0:0:0:
64,192,100211,1,0,0:0:0:0:
448,192,100211,1,0,0:0:0:0:
192,192,100296,1,0,0:0:0:0:
448,192,100296,1,0,0:0:0:0:
192,192,100381,1,0,0:0:0:0:
320,192,100381,1,0,0:0:0:0:
192,192,100550,1,0,0:0:0:0:
448,192,100550,1,0,0:0:0:0:
192,192,100635,1,0,0:0:0:0:
64,192,100720,1,0,0:0:0:0:
320,192,100720,1,0,0:0:0:0:
448,192,100720,1,0,0:0:0:0:
192,192,100804,1,0,0:0:0:0:
320,192,100804,1,0,0:0:0:0:
64,192,100889,1,0,0:0:0:0:
448,192,100889,1,0,0:0:0:0:
192,192,100974,1,0,0:0:0:0:
64,192,101059,1,0,0:0:0:0:
320,192,101059,1,0,0:0:0:0:
448,192,101059,1,0,0:0:0:0:
320,192,101143,1,0,0:0:0:0:
448,192,101143,1,0,0:0:0:0:
64,192,101228,1,0,0:0:0:0:
192,192,101228,1,0,0:0:0:0:
320,192,101313,1,0,0:0:0:0:
64,192,101398,1,0,0:0:0:0:
192,192,101398,1,0,0:0:0:0:
448,192,101398,1,0,0:0:0:0:
64,192,101482,1,0,0:0:0:0:
448,192,101482,1,0,0:0:0:0:
192,192,101567,1,0,0:0:0:0:
320,192,101567,1,0,0:0:0:0:
448,192,101652,1,0,0:0:0:0:
64,192,101737,1,0,0:0:0:0:
192,192,101737,1,0,0:0:0:0:
320,192,101737,1,0,0:0:0:0:
448,192,101821,1,0,0:0:0:0:
64,192,101906,1,0,0:0:0:0:
320,192,101906,1,0,0:0:0:0:
320,192,101991,1,0,0:0:0:0:
64,192,102076,1,0,0:0:0:0:
192,192,102076,1,0,0:0:0:0:
448,192,102076,1,0,0:0:0:0:
320,192,102160,1,0,0:0:0:0:
64,192,102245,1,0,0:0:0:0:
192,192,102245,1,0,0:0:0:0:
448,192,102245,1,0,0:0:0:0:
64,192,102330,1,0,0:0:0:0:
192,192,102330,1,0,0:0:0:0:
320,192,102415,1,0,0:0:0:0:
448,192,102415,1,0,0:0:0:0:
64,192,102499,1,0,0:0:0:0:
192,192,102584,1,0,0:0:0:0:
320,192,102584,1,0,0:0:0:0:
64,192,102669,1,0,0:0:0:0:
448,192,102669,1,0,0:0:0:0:
192,192,102754,1,0,0:0:0:0:
320,192,102754,1,0,0:0:0:0:
320,192,102838,1,0,0:0:0:0:
64,192,102923,1,0,0:0:0:0:
192,192,102923,1,0,0:0:0:0:
320,192,103008,1,0,0:0:0:0:
448,192,103008,1,0,0:0:0:0:
64,192,103092,1,0,0:0:0:0:
320,192,103092,1,0,0:0:0:0:
192,192,103177,1,0,0:0:0:0:
320,192,103262,1,0,0:0:0:0:
448,192,103262,1,0,0:0:0:0:
192,192,103347,1,0,0:0:0:0:
64,192,103431,1,0,0:0:0:0:
320,192,103431,1,0,0:0:0:0:
448,192,103431,1,0,0:0:0:0:
320,192,103516,1,0,0:0:0:0:
64,192,103601,1,0,0:0:0:0:
192,192,103601,1,0,0:0:0:0:
448,192,103686,1,0,0:0:0:0:
64,192,103770,1,0,0:0:0:0:
192,192,103770,1,0,0:0:0:0:
320,192,103770,1,0,0:0:0:0:
192,192,103855,1,0,0:0:0:0:
320,192,103940,1,0,0:0:0:0:
448,192,103940,1,0,0:0:0:0:
192,192,104025,1,0,0:0:0:0:
64,192,104109,1,0,0:0:0:0:
320,192,104109,1,0,0:0:0:0:
448,192,104109,1,0,0:0:0:0:
192,192,104194,1,0,0:0:0:0:
64,192,104279,1,0,0:0:0:0:
320,192,104279,1,0,0:0:0:0:
448,192,104364,1,0,0:0:0:0:
64,192,104448,1,0,0:0:0:0:
192,192,104448,1,0,0:0:0:0:
320,192,104448,1,0,0:0:0:0:
448,192,104533,1,0,0:0:0:0:
64,192,104618,1,0,0:0:0:0:
320,192,104618,1,0,0:0:0:0:
192,192,104703,1,0,0:0:0:0:
64,192,104787,1,0,0:0:0:0:
320,192,104787,1,0,0:0:0:0:
448,192,104787,1,0,0:0:0:0:
192,192,104872,1,0,0:0:0:0:
64,192,104957,1,0,0:0:0:0:
320,192,104957,1,0,0:0:0:0:
448,192,105042,1,0,0:0:0:0:
64,192,105126,1,0,0:0:0:0:
192,192,105126,1,0,0:0:0:0:
320,192,105126,1,0,0:0:0:0:
320,192,105211,1,0,0:0:0:0:
64,192,105296,1,0,0:0:0:0:
192,192,105296,1,0,0:0:0:0:
448,192,105296,1,0,0:0:0:0:
320,192,105381,1,0,0:0:0:0:
64,192,105465,1,0,0:0:0:0:
192,192,105465,1,0,0:0:0:0:
448,192,105465,1,0,0:0:0:0:
320,192,105550,1,0,0:0:0:0:
64,192,105635,1,0,0:0:0:0:
192,192,105635,1,0,0:0:0:0:
448,192,105635,1,0,0:0:0:0:
448,192,105720,1,0,0:0:0:0:
64,192,105804,1,0,0:0:0:0:
192,192,105804,1,0,0:0:0:0:
320,192,105804,1,0,0:0:0:0:
192,192,105889,1,0,0:0:0:0:
448,192,105889,1,0,0:0:0:0:
64,192,105974,1,0,0:0:0:0:
320,192,105974,1,0,0:0:0:0:
448,192,106059,1,0,0:0:0:0:
64,192,106143,1,0,0:0:0:0:
192,192,106143,1,0,0:0:0:0:
320,192,106143,1,0,0:0:0:0:
448,192,106228,1,0,0:0:0:0:
64,192,106313,1,0,0:0:0:0:
192,192,106313,1,0,0:0:0:0:
320,192,106313,1,0,0:0:0:0:
448,192,106398,1,0,0:0:0:0:
64,192,106482,1,0,0:0:0:0:
192,192,106482,1,0,0:0:0:0:
320,192,106567,1,0,0:0:0:0:
448,192,106567,1,0,0:0:0:0:
64,192,106652,1,0,0:0:0:0:
320,192,106652,1,0,0:0:0:0:
64,192,106991,1,0,0:0:0:0:
192,192,106991,1,0,0:0:0:0:
320,192,106991,1,0,0:0:0:0:
64,192,107076,1,0,0:0:0:0:
192,192,107076,1,0,0:0:0:0:
320,192,107076,1,0,0:0:0:0:
64,192,107160,1,0,0:0:0:0:
192,192,107160,1,0,0:0:0:0:
320,192,107160,1,0,0:0:0:0:
64,192,107330,1,0,0:0:0:0:
320,192,107330,1,0,0:0:0:0:
448,192,107330,1,0,0:0:0:0:
64,192,107415,1,0,0:0:0:0:
320,192,107415,1,0,0:0:0:0:
448,192,107415,1,0,0:0:0:0:
64,192,107499,1,0,0:0:0:0:
320,192,107499,1,0,0:0:0:0:
448,192,107499,1,0,0:0:0:0:
192,192,107669,1,0,0:0:0:0:
320,192,107669,1,0,0:0:0:0:
448,192,107669,1,0,0:0:0:0:
192,192,107754,1,0,0:0:0:0:
320,192,107754,1,0,0:0:0:0:
448,192,107754,1,0,0:0:0:0:
192,192,107838,1,0,0:0:0:0:
320,192,107838,1,0,0:0:0:0:
448,192,107838,1,0,0:0:0:0:
64,192,108008,1,0,0:0:0:0:
192,192,108008,1,0,0:0:0:0:
320,192,108008,1,0,0:0:0:0:
448,192,108008,1,0,0:0:0:0:
64,192,108092,1,0,0:0:0:0:
192,192,108092,1,0,0:0:0:0:
320,192,108092,1,0,0:0:0:0:
448,192,108092,1,0,0:0:0:0:
64,192,108177,1,0,0:0:0:0:
192,192,108177,1,0,0:0:0:0:
320,192,108177,1,0,0:0:0:0:
448,192,108177,1,0,0:0:0:0:
448,192,108262,1,0,0:0:0:0:
320,192,108347,1,0,0:0:0:0:
192,192,108431,1,0,0:0:0:0:
64,192,108516,1,0,0:0:0:0:
64,192,108855,1,0,0:0:0:0:
192,192,108855,1,0,0:0:0:0:
448,192,108855,1,0,0:0:0:0:
320,192,109025,1,0,0:0:0:0:
320,192,109109,1,0,0:0:0:0:
64,192,109194,1,0,0:0:0:0:
192,192,109194,1,0,0:0:0:0:
320,192,109279,1,0,0:0:0:0:
448,192,109364,1,0,0:0:0:0:
320,192,109448,1,0,0:0:0:0:
64,192,109533,1,0,0:0:0:0:
192,192,109533,1,0,0:0:0:0:
448,192,109533,1,0,0:0:0:0:
320,192,109703,1,0,0:0:0:0:
320,192,109787,1,0,0:0:0:0:
64,192,109872,1,0,0:0:0:0:
192,192,109872,1,0,0:0:0:0:
320,192,109957,1,0,0:0:0:0:
448,192,110042,1,0,0:0:0:0:
320,192,110126,1,0,0:0:0:0:
64,192,110211,1,0,0:0:0:0:
192,192,110211,1,0,0:0:0:0:
448,192,110211,1,0,0:0:0:0:
320,192,110381,1,0,0:0:0:0:
320,192,110465,1,0,0:0:0:0:
64,192,110550,1,0,0:0:0:0:
192,192,110550,1,0,0:0:0:0:
320,192,110635,1,0,0:0:0:0:
448,192,110720,1,0,0:0:0:0:
320,192,110804,1,0,0:0:0:0:
64,192,110889,1,0,0:0:0:0:
192,192,110889,1,0,0:0:0:0:
448,192,110889,1,0,0:0:0:0:
320,192,111059,1,0,0:0:0:0:
320,192,111143,1,0,0:0:0:0:
64,192,111228,1,0,0:0:0:0:
192,192,111228,1,0,0:0:0:0:
320,192,111313,1,0,0:0:0:0:
448,192,111398,1,0,0:0:0:0:
320,192,111482,1,0,0:0:0:0:
64,192,111567,1,0,0:0:0:0:
192,192,111567,1,0,0:0:0:0:
448,192,111567,1,0,0:0:0:0:
320,192,111737,1,0,0:0:0:0:
320,192,111821,1,0,0:0:0:0:
64,192,111906,1,0,0:0:0:0:
192,192,111906,1,0,0:0:0:0:
320,192,111991,1,0,0:0:0:0:
448,192,112076,1,0,0:0:0:0:
320,192,112160,1,0,0:0:0:0:
64,192,112245,1,0,0:0:0:0:
192,192,112245,1,0,0:0:0:0:
448,192,112245,1,0,0:0:0:0:
320,192,112415,1,0,0:0:0:0:
320,192,112499,1,0,0:0:0:0:
64,192,112584,1,0,0:0:0:0:
192,192,112584,1,0,0:0:0:0:
320,192,112669,1,0,0:0:0:0:
448,192,112754,1,0,0:0:0:0:
320,192,112838,1,0,0:0:0:0:
64,192,112923,1,0,0:0:0:0:
192,192,112923,1,0,0:0:0:0:
448,192,112923,1,0,0:0:0:0:
320,192,113092,1,0,0:0:0:0:
192,192,113262,1,0,0:0:0:0:
320,192,113262,1,0,0:0:0:0:
192,192,113431,1,0,0:0:0:0:
320,192,113431,1,0,0:0:0:0:
64,192,113601,1,0,0:0:0:0:
448,192,113601,1,0,0:0:0:0:
192,192,113686,1,0,0:0:0:0:
448,192,113686,1,0,0:0:0:0:
192,192,113770,1,0,0:0:0:0:
320,192,113770,1,0,0:0:0:0:
64,192,113940,1,0,0:0:0:0:
320,192,113940,1,0,0:0:0:0:
448,192,113940,1,0,0:0:0:0:
192,192,114025,1,0,0:0:0:0:
64,192,114109,1,0,0:0:0:0:
192,192,114194,1,0,0:0:0:0:
64,192,114279,1,0,0:0:0:0:
320,192,114279,1,0,0:0:0:0:
448,192,114279,1,0,0:0:0:0:
192,192,114448,1,0,0:0:0:0:
192,192,114533,1,0,0:0:0:0:
320,192,114618,1,0,0:0:0:0:
448,192,114618,1,0,0:0:0:0:
192,192,114703,1,0,0:0:0:0:
64,192,114787,1,0,0:0:0:0:
192,192,114872,1,0,0:0:0:0:
64,192,114957,1,0,0:0:0:0:
320,192,114957,1,0,0:0:0:0:
448,192,114957,1,0,0:0:0:0:
192,192,115126,1,0,0:0:0:0:
192,192,115211,1,0,0:0:0:0:
320,192,115296,1,0,0:0:0:0:
448,192,115296,1,0,0:0:0:0:
192,192,115381,1,0,0:0:0:0:
64,192,115465,1,0,0:0:0:0:
192,192,115550,1,0,0:0:0:0:
64,192,115635,1,0,0:0:0:0:
320,192,115635,1,0,0:0:0:0:
448,192,115635,1,0,0:0:0:0:
192,192,115804,1,0,0:0:0:0:
192,192,115889,1,0,0:0:0:0:
320,192,115974,1,0,0:0:0:0:
448,192,115974,1,0,0:0:0:0:
192,192,116059,1,0,0:0:0:0:
64,192,116143,1,0,0:0:0:0:
192,192,116228,1,0,0:0:0:0:
64,192,116313,1,0,0:0:0:0:
320,192,116313,1,0,0:0:0:0:
448,192,116313,1,0,0:0:0:0:
192,192,116482,1,0,0:0:0:0:
192,192,116567,1,0,0:0:0:0:
320,192,116652,1,0,0:0:0:0:
448,192,116652,1,0,0:0:0:0:
192,192,116737,1,0,0:0:0:0:
64,192,116821,1,0,0:0:0:0:
192,192,116906,1,0,0:0:0:0:
64,192,116991,1,0,0:0:0:0:
320,192,116991,1,0,0:0:0:0:
448,192,116991,1,0,0:0:0:0:
192,192,117160,1,0,0:0:0:0:
192,192,117245,1,0,0:0:0:0:
320,192,117330,1,0,0:0:0:0:
448,192,117330,1,0,0:0:0:0:
192,192,117415,1,0,0:0:0:0:
64,192,117499,1,0,0:0:0:0:
192,192,117584,1,0,0:0:0:0:
64,192,117669,1,0,0:0:0:0:
320,192,117669,1,0,0:0:0:0:
448,192,117669,1,0,0:0:0:0:
192,192,117838,1,0,0:0:0:0:
192,192,117923,1,0,0:0:0:0:
320,192,118008,1,0,0:0:0:0:
448,192,118008,1,0,0:0:0:0:
192,192,118092,1,0,0:0:0:0:
64,192,118177,1,0,0:0:0:0:
192,192,118262,1,0,0:0:0:0:
64,192,118347,1,0,0:0:0:0:
320,192,118347,1,0,0:0:0:0:
448,192,118347,1,0,0:0:0:0:
192,192,118516,1,0,0:0:0:0:
192,192,118686,1,0,0:0:0:0:
320,192,118686,1,0,0:0:0:0:
192,192,118855,1,0,0:0:0:0:
320,192,118855,1,0,0:0:0:0:
64,192,119025,1,0,0:0:0:0:
448,192,119025,1,0,0:0:0:0:
192,192,119109,1,0,0:0:0:0:
448,192,119109,1,0,0:0:0:0:
192,192,119194,1,0,0:0:0:0:
320,192,119194,1,0,0:0:0:0:
64,192,119364,1,0,0:0:0:0:
192,192,119364,1,0,0:0:0:0:
320,192,119533,1,0,0:0:0:0:
448,192,119533,1,0,0:0:0:0:
64,192,119703,1,0,0:0:0:0:
192,192,119703,1,0,0:0:0:0:
448,192,119703,1,0,0:0:0:0:
320,192,119872,1,0,0:0:0:0:
448,192,119872,1,0,0:0:0:0:
64,192,120042,1,0,0:0:0:0:
192,192,120042,1,0,0:0:0:0:
64,192,120211,1,0,0:0:0:0:
448,192,120211,1,0,0:0:0:0:
192,192,120381,1,0,0:0:0:0:
320,192,120381,1,0,0:0:0:0:
448,192,120381,1,0,0:0:0:0:
64,192,120550,1,0,0:0:0:0:
448,192,120550,1,0,0:0:0:0:
320,192,120720,1,0,0:0:0:0:
448,192,120720,1,0,0:0:0:0:
64,192,120889,1,0,0:0:0:0:
192,192,120889,1,0,0:0:0:0:
64,192,121059,1,0,0:0:0:0:
320,192,121059,1,0,0:0:0:0:
448,192,121059,1,0,0:0:0:0:
64,192,121228,1,0,0:0:0:0:
192,192,121228,1,0,0:0:0:0:
64,192,121398,1,0,0:0:0:0:
448,192,121398,1,0,0:0:0:0:
192,192,121567,1,0,0:0:0:0:
320,192,121567,1,0,0:0:0:0:
64,192,121737,1,0,0:0:0:0:
320,192,121737,1,0,0:0:0:0:
448,192,121737,1,0,0:0:0:0:
192,192,121906,1,0,0:0:0:0:
320,192,121906,1,0,0:0:0:0:
64,192,122076,1,0,0:0:0:0:
192,192,122076,1,0,0:0:0:0:
320,192,122245,1,0,0:0:0:0:
448,192,122245,1,0,0:0:0:0:
64,192,122415,1,0,0:0:0:0:
192,192,122415,1,0,0:0:0:0:
448,192,122415,1,0,0:0:0:0:
320,192,122584,1,0,0:0:0:0:
448,192,122584,1,0,0:0:0:0:
192,192,122754,1,0,0:0:0:0:
320,192,122754,1,0,0:0:0:0:
64,192,122923,1,0,0:0:0:0:
448,192,122923,1,0,0:0:0:0:
64,192,123092,1,0,0:0:0:0:
192,192,123092,1,0,0:0:0:0:
320,192,123092,1,0,0:0:0:0:
64,192,123262,1,0,0:0:0:0:
448,192,123262,1,0,0:0:0:0:
64,192,123431,1,0,0:0:0:0:
192,192,123431,1,0,0:0:0:0:
192,192,123601,1,0,0:0:0:0:
320,192,123601,1,0,0:0:0:0:
64,192,123770,1,0,0:0:0:0:
320,192,123770,1,0,0:0:0:0:
448,192,123770,1,0,0:0:0:0:
192,192,123940,1,0,0:0:0:0:
320,192,123940,1,0,0:0:0:0:
320,192,124109,1,0,0:0:0:0:
448,192,124109,1,0,0:0:0:0:
192,192,124279,1,0,0:0:0:0:
320,192,124279,1,0,0:0:0:0:
64,192,124448,1,0,0:0:0:0:
192,192,124448,1,0,0:0:0:0:
448,192,124448,1,0,0:0:0:0:
192,192,124618,1,0,0:0:0:0:
320,192,124618,1,0,0:0:0:0:
448,192,124618,1,0,0:0:0:0:
192,192,124703,1,0,0:0:0:0:
320,192,124703,1,0,0:0:0:0:
64,192,124787,1,0,0:0:0:0:
448,192,124787,1,0,0:0:0:0:
320,192,124957,1,0,0:0:0:0:
448,192,124957,1,0,0:0:0:0:
64,192,125126,1,0,0:0:0:0:
192,192,125126,1,0,0:0:0:0:
448,192,125126,1,0,0:0:0:0:
320,192,125296,1,0,0:0:0:0:
448,192,125296,1,0,0:0:0:0:
64,192,125465,1,0,0:0:0:0:
192,192,125465,1,0,0:0:0:0:
64,192,125635,1,0,0:0:0:0:
448,192,125635,1,0,0:0:0:0:
192,192,125804,1,0,0:0:0:0:
320,192,125804,1,0,0:0:0:0:
448,192,125804,1,0,0:0:0:0:
64,192,125974,1,0,0:0:0:0:
448,192,125974,1,0,0:0:0:0:
320,192,126143,1,0,0:0:0:0:
448,192,126143,1,0,0:0:0:0:
64,192,126313,1,0,0:0:0:0:
192,192,126313,1,0,0:0:0:0:
64,192,126482,1,0,0:0:0:0:
320,192,126482,1,0,0:0:0:0:
448,192,126482,1,0,0:0:0:0:
64,192,126652,1,0,0:0:0:0:
192,192,126652,1,0,0:0:0:0:
64,192,126821,1,0,0:0:0:0:
448,192,126821,1,0,0:0:0:0:
192,192,126991,1,0,0:0:0:0:
320,192,126991,1,0,0:0:0:0:
64,192,127160,1,0,0:0:0:0:
320,192,127160,1,0,0:0:0:0:
448,192,127160,1,0,0:0:0:0:
192,192,127330,1,0,0:0:0:0:
320,192,127330,1,0,0:0:0:0:
64,192,127499,1,0,0:0:0:0:
192,192,127499,1,0,0:0:0:0:
320,192,127669,1,0,0:0:0:0:
448,192,127669,1,0,0:0:0:0:
64,192,127838,1,0,0:0:0:0:
192,192,127838,1,0,0:0:0:0:
448,192,127838,1,0,0:0:0:0:
320,192,128008,1,0,0:0:0:0:
448,192,128008,1,0,0:0:0:0:
192,192,128177,1,0,0:0:0:0:
320,192,128177,1,0,0:0:0:0:
64,192,128347,1,0,0:0:0:0:
448,192,128347,1,0,0:0:0:0:
64,192,128516,1,0,0:0:0:0:
192,192,128516,1,0,0:0:0:0:
320,192,128516,1,0,0:0:0:0:
64,192,128686,1,0,0:0:0:0:
448,192,128686,1,0,0:0:0:0:
192,192,128770,1,0,0:0:0:0:
320,192,128770,1,0,0:0:0:0:
64,192,128855,1,0,0:0:0:0:
320,192,128855,1,0,0:0:0:0:
192,192,129025,1,0,0:0:0:0:
320,192,129025,1,0,0:0:0:0:
64,192,129194,1,0,0:0:0:0:
320,192,129194,1,0,0:0:0:0:
448,192,129194,1,0,0:0:0:0:
192,192,129364,1,0,0:0:0:0:
320,192,129364,1,0,0:0:0:0:
320,192,129533,1,0,0:0:0:0:
448,192,129533,1,0,0:0:0:0:
192,192,129703,1,0,0:0:0:0:
320,192,129703,1,0,0:0:0:0:
64,192,129872,1,0,0:0:0:0:
192,192,129872,1,0,0:0:0:0:
448,192,129872,1,0,0:0:0:0:
192,192,129957,1,0,0:0:0:0:
320,192,129957,1,0,0:0:0:0:
64,192,130042,1,0,0:0:0:0:
320,192,130042,1,0,0:0:0:0:
448,192,130042,1,0,0:0:0:0:
64,0,130211,128,0,134279:1:0:0:0:
448,0,130211,128,0,134279:1:0:0:0:
