osu file format v14

[General]
AudioFilename: 11. ANTI THE-HOLiC.mp3
AudioLeadIn: 2
PreviewTime: 84814
Countdown: 0
SampleSet: None
StackLeniency: 0.7
Mode: 3
LetterboxInBreaks: 0
SpecialStyle: 0
WidescreenStoryboard: 0

[Editor]
DistanceSpacing: 0.8
BeatDivisor: 4
GridSize: 8
TimelineZoom: 1

[Metadata]
Title:Fish A La Carte
TitleUnicode:Fish A La Carte
Artist:Various Artists
ArtistUnicode:Various Artists
Creator:Yellyfish
Version:ANTI THE HOLiC
Source:
Tags:
BeatmapID:1117092
BeatmapSetID:526427

[Difficulty]
HPDrainRate:7
CircleSize:4
OverallDifficulty:8
ApproachRate:10
SliderMultiplier:1.4
SliderTickRate:1

[Events]
//Background and Video events
0,0,"11. ANTI THE-HOLiC.jpg",0,0
//Break Periods
//Storyboard Layer 0 (Background)
//Storyboard Layer 1 (Fail)
//Storyboard Layer 2 (Pass)
//Storyboard Layer 3 (Foreground)
//Storyboard Sound Samples

[TimingPoints]
-140,352.9412,4,1,0,0,1,0

[HitObjects]
64,192,1624,5,0,0:0:0:0:
192,192,1624,1,0,0:0:0:0:
448,192,1624,1,0,0:0:0:0:
192,192,1801,1,0,0:0:0:0:
320,192,1801,1,0,0:0:0:0:
64,192,1977,1,0,0:0:0:0:
448,192,1977,1,0,0:0:0:0:
64,192,2154,1,0,0:0:0:0:
192,192,2154,1,0,0:0:0:0:
320,192,2330,1,0,0:0:0:0:
448,192,2330,1,0,0:0:0:0:
192,192,2418,1,0,0:0:0:0:
320,192,2418,1,0,0:0:0:0:
64,192,2507,1,0,0:0:0:0:
448,192,2507,1,0,0:0:0:0:
192,192,2595,1,0,0:0:0:0:
320,192,2595,1,0,0:0:0:0:
64,192,2683,1,0,0:0:0:0:
192,192,2683,1,0,0:0:0:0:
192,192,2771,1,0,0:0:0:0:
320,192,2771,1,0,0:0:0:0:
448,192,2860,1,0,0:0:0:0:
192,192,2948,1,0,0:0:0:0:
320,192,2948,1,0,0:0:0:0:
448,192,2948,1,0,0:0:0:0:
64,192,3036,1,0,0:0:0:0:
320,192,3036,1,0,0:0:0:0:
320,192,3212,1,0,0:0:0:0:
448,192,3212,1,0,0:0:0:0:
192,192,3389,1,0,0:0:0:0:
320,192,3389,1,0,0:0:0:0:
64,192,3477,1,0,0:0:0:0:
320,192,3477,1,0,0:0:0:0:
192,192,3565,1,0,0:0:0:0:
448,192,3565,1,0,0:0:0:0:
64,192,3742,1,0,0:0:0:0:
320,192,3742,1,0,0:0:0:0:
448,192,3742,1,0,0:0:0:0:
192,192,3918,1,0,0:0:0:0:
448,192,3918,1,0,0:0:0:0:
64,192,4095,1,0,0:0:0:0:
192,192,4095,1,0,0:0:0:0:
320,192,4095,1,0,0:0:0:0:
64,192,4183,1,0,0:0:0:0:
192,192,4183,1,0,0:0:0:0:
320,192,4271,1,0,0:0:0:0:
448,192,4271,1,0,0:0:0:0:
192,192,4360,1,0,0:0:0:0:
320,192,4360,1,0,0:0:0:0:
64,192,4448,1,0,0:0:0:0:
192,192,4448,1,0,0:0:0:0:
448,192,4448,1,0,0:0:0:0:
192,192,4624,1,0,0:0:0:0:
320,192,4624,1,0,0:0:0:0:
64,192,4801,1,0,0:0:0:0:
448,192,4801,1,0,0:0:0:0:
192,192,4977,1,0,0:0:0:0:
320,192,4977,1,0,0:0:0:0:
192,192,5154,1,0,0:0:0:0:
320,192,5154,1,0,0:0:0:0:
448,192,5154,1,0,0:0:0:0:
64,192,5330,1,0,0:0:0:0:
192,192,5330,1,0,0:0:0:0:
320,192,5507,1,0,0:0:0:0:
448,192,5507,1,0,0:0:0:0:
192,192,5683,1,0,0:0:0:0:
448,192,5683,1,0,0:0:0:0:
64,192,5860,1,0,0:0:0:0:
192,192,5860,1,0,0:0:0:0:
320,192,5860,1,0,0:0:0:0:
64,192,5948,1,0,0:0:0:0:
192,192,5948,1,0,0:0:0:0:
192,192,6036,1,0,0:0:0:0:
320,192,6036,1,0,0:0:0:0:
64,192,6124,1,0,0:0:0:0:
448,192,6124,1,0,0:0:0:0:
320,192,6212,1,0,0:0:0:0:
448,192,6212,1,0,0:0:0:0:
64,192,6301,1,0,0:0:0:0:
192,192,6301,1,0,0:0:0:0:
192,192,6389,1,0,0:0:0:0:
320,192,6389,1,0,0:0:0:0:
320,192,6477,1,0,0:0:0:0:
448,192,6477,1,0,0:0:0:0:
192,192,6565,1,0,0:0:0:0:
448,192,6565,1,0,0:0:0:0:
64,192,6654,1,0,0:0:0:0:
320,192,6654,1,0,0:0:0:0:
64,192,6742,1,0,0:0:0:0:
192,192,6742,1,0,0:0:0:0:
192,192,6830,1,0,0:0:0:0:
320,192,6830,1,0,0:0:0:0:
64,192,6918,1,0,0:0:0:0:
448,192,6918,1,0,0:0:0:0:
192,192,7007,1,0,0:0:0:0:
320,192,7007,1,0,0:0:0:0:
64,192,7095,1,0,0:0:0:0:
192,192,7095,1,0,0:0:0:0:
64,192,7183,1,0,0:0:0:0:
320,192,7183,1,0,0:0:0:0:
64,192,7271,1,0,0:0:0:0:
192,192,7271,1,0,0:0:0:0:
448,192,7271,1,0,0:0:0:0:
64,192,7360,1,0,0:0:0:0:
192,192,7360,1,0,0:0:0:0:
192,192,7448,1,0,0:0:0:0:
320,192,7448,1,0,0:0:0:0:
64,192,7624,1,0,0:0:0:0:
320,192,7624,1,0,0:0:0:0:
192,192,7801,1,0,0:0:0:0:
448,192,7801,1,0,0:0:0:0:
64,192,7977,1,0,0:0:0:0:
448,192,7977,1,0,0:0:0:0:
192,192,8154,1,0,0:0:0:0:
320,192,8154,1,0,0:0:0:0:
64,192,8242,1,0,0:0:0:0:
320,192,8242,1,0,0:0:0:0:
192,192,8330,1,0,0:0:0:0:
448,192,8330,1,0,0:0:0:0:
64,192,8507,1,0,0:0:0:0:
192,192,8507,1,0,0:0:0:0:
320,192,8507,1,0,0:0:0:0:
192,192,8595,1,0,0:0:0:0:
320,192,8595,1,0,0:0:0:0:
320,192,8683,1,0,0:0:0:0:
448,192,8683,1,0,0:0:0:0:
192,192,8771,1,0,0:0:0:0:
448,192,8771,1,0,0:0:0:0:
64,192,8860,1,0,0:0:0:0:
320,192,8860,1,0,0:0:0:0:
192,192,8948,1,0,0:0:0:0:
64,192,9036,1,0,0:0:0:0:
320,192,9036,1,0,0:0:0:0:
192,192,9124,1,0,0:0:0:0:
448,192,9124,1,0,0:0:0:0:
320,192,9212,1,0,0:0:0:0:
448,192,9212,1,0,0:0:0:0:
64,192,9389,1,0,0:0:0:0:
192,192,9389,1,0,0:0:0:0:
320,192,9389,1,0,0:0:0:0:
192,192,9477,1,0,0:0:0:0:
448,192,9477,1,0,0:0:0:0:
192,192,9565,1,0,0:0:0:0:
320,192,9565,1,0,0:0:0:0:
64,192,9654,1,0,0:0:0:0:
320,192,9742,1,0,0:0:0:0:
448,192,9742,1,0,0:0:0:0:
192,192,9830,1,0,0:0:0:0:
448,192,9830,1,0,0:0:0:0:
64,192,9918,1,0,0:0:0:0:
320,192,9918,1,0,0:0:0:0:
64,192,10095,1,0,0:0:0:0:
192,192,10095,1,0,0:0:0:0:
320,192,10095,1,0,0:0:0:0:
192,192,10183,1,0,0:0:0:0:
448,192,10183,1,0,0:0:0:0:
64,192,10271,1,0,0:0:0:0:
448,192,10271,1,0,0:0:0:0:
192,192,10448,1,0,0:0:0:0:
320,192,10448,1,0,0:0:0:0:
64,192,10536,1,0,0:0:0:0:
320,192,10624,1,0,0:0:0:0:
448,192,10624,1,0,0:0:0:0:
64,192,10801,1,0,0:0:0:0:
320,192,10801,1,0,0:0:0:0:
448,192,10801,1,0,0:0:0:0:
192,192,10889,1,0,0:0:0:0:
448,192,10889,1,0,0:0:0:0:
192,192,10977,1,0,0:0:0:0:
320,192,10977,1,0,0:0:0:0:
64,192,11154,1,0,0:0:0:0:
192,192,11154,1,0,0:0:0:0:
448,192,11242,1,0,0:0:0:0:
192,192,11330,1,0,0:0:0:0:
320,192,11330,1,0,0:0:0:0:
64,192,11507,1,0,0:0:0:0:
192,192,11507,1,0,0:0:0:0:
448,192,11507,1,0,0:0:0:0:
64,192,11595,1,0,0:0:0:0:
192,192,11595,1,0,0:0:0:0:
320,192,11683,1,0,0:0:0:0:
192,192,11771,1,0,0:0:0:0:
320,192,11860,1,0,0:0:0:0:
448,192,11860,1,0,0:0:0:0:
64,192,11948,1,0,0:0:0:0:
192,192,11948,1,0,0:0:0:0:
448,192,12036,1,0,0:0:0:0:
320,192,12124,1,0,0:0:0:0:
64,192,12212,1,0,0:0:0:0:
192,192,12212,1,0,0:0:0:0:
448,192,12212,1,0,0:0:0:0:
320,192,12389,1,0,0:0:0:0:
448,192,12389,1,0,0:0:0:0:
64,192,12477,1,0,0:0:0:0:
192,192,12477,1,0,0:0:0:0:
192,192,12565,1,0,0:0:0:0:
320,192,12565,1,0,0:0:0:0:
448,192,12565,1,0,0:0:0:0:
64,192,12742,1,0,0:0:0:0:
192,192,12742,1,0,0:0:0:0:
320,192,12742,1,0,0:0:0:0:
64,192,12918,1,0,0:0:0:0:
192,192,12918,1,0,0:0:0:0:
448,192,12918,1,0,0:0:0:0:
64,192,13095,1,0,0:0:0:0:
320,192,13095,1,0,0:0:0:0:
192,192,13271,1,0,0:0:0:0:
320,192,13271,1,0,0:0:0:0:
320,192,13360,1,0,0:0:0:0:
448,192,13360,1,0,0:0:0:0:
192,192,13448,1,0,0:0:0:0:
448,192,13448,1,0,0:0:0:0:
64,192,13624,1,0,0:0:0:0:
320,192,13624,1,0,0:0:0:0:
192,192,13801,1,0,0:0:0:0:
448,192,13801,1,0,0:0:0:0:
64,192,13889,1,0,0:0:0:0:
320,192,13889,1,0,0:0:0:0:
64,192,13977,1,0,0:0:0:0:
192,192,13977,1,0,0:0:0:0:
192,192,14065,1,0,0:0:0:0:
320,192,14065,1,0,0:0:0:0:
64,192,14154,1,0,0:0:0:0:
448,192,14154,1,0,0:0:0:0:
192,192,14330,1,0,0:0:0:0:
320,192,14330,1,0,0:0:0:0:
320,192,14507,1,0,0:0:0:0:
448,192,14507,1,0,0:0:0:0:
192,192,14595,1,0,0:0:0:0:
320,192,14595,1,0,0:0:0:0:
320,192,14683,1,0,0:0:0:0:
448,192,14683,1,0,0:0:0:0:
64,192,14771,1,0,0:0:0:0:
192,192,14771,1,0,0:0:0:0:
320,192,14860,1,0,0:0:0:0:
448,192,14860,1,0,0:0:0:0:
64,192,14948,1,0,0:0:0:0:
192,192,15036,1,0,0:0:0:0:
320,192,15036,1,0,0:0:0:0:
448,192,15036,1,0,0:0:0:0:
192,192,15124,1,0,0:0:0:0:
320,192,15124,1,0,0:0:0:0:
64,192,15212,1,0,0:0:0:0:
192,192,15212,1,0,0:0:0:0:
320,192,15301,1,0,0:0:0:0:
448,192,15301,1,0,0:0:0:0:
64,192,15389,1,0,0:0:0:0:
192,192,15389,1,0,0:0:0:0:
64,192,15477,1,0,0:0:0:0:
320,192,15477,1,0,0:0:0:0:
192,192,15565,1,0,0:0:0:0:
320,192,15565,1,0,0:0:0:0:
192,192,15742,1,0,0:0:0:0:
320,192,15742,1,0,0:0:0:0:
448,192,15742,1,0,0:0:0:0:
64,192,15830,1,0,0:0:0:0:
192,192,15830,1,0,0:0:0:0:
320,192,15918,1,0,0:0:0:0:
448,192,15918,1,0,0:0:0:0:
64,192,16095,1,0,0:0:0:0:
320,192,16095,1,0,0:0:0:0:
192,192,16183,1,0,0:0:0:0:
320,192,16271,1,0,0:0:0:0:
448,192,16271,1,0,0:0:0:0:
192,192,16448,1,0,0:0:0:0:
320,192,16448,1,0,0:0:0:0:
448,192,16448,1,0,0:0:0:0:
64,192,16536,1,0,0:0:0:0:
320,192,16536,1,0,0:0:0:0:
64,192,16624,1,0,0:0:0:0:
448,192,16624,1,0,0:0:0:0:
192,192,16801,1,0,0:0:0:0:
320,192,16801,1,0,0:0:0:0:
64,192,16889,1,0,0:0:0:0:
320,192,16977,1,0,0:0:0:0:
448,192,16977,1,0,0:0:0:0:
64,192,17154,1,0,0:0:0:0:
192,192,17154,1,0,0:0:0:0:
448,192,17154,1,0,0:0:0:0:
64,192,17242,1,0,0:0:0:0:
192,192,17242,1,0,0:0:0:0:
192,192,17330,1,0,0:0:0:0:
320,192,17330,1,0,0:0:0:0:
320,192,17418,1,0,0:0:0:0:
448,192,17418,1,0,0:0:0:0:
64,192,17507,1,0,0:0:0:0:
192,192,17595,1,0,0:0:0:0:
320,192,17683,1,0,0:0:0:0:
448,192,17771,1,0,0:0:0:0:
192,192,17859,1,0,0:0:0:0:
320,192,17859,1,0,0:0:0:0:
320,192,17948,1,0,0:0:0:0:
448,192,17948,1,0,0:0:0:0:
64,192,18036,1,0,0:0:0:0:
192,192,18036,1,0,0:0:0:0:
192,192,18124,1,0,0:0:0:0:
320,192,18124,1,0,0:0:0:0:
192,192,18212,1,0,0:0:0:0:
448,192,18212,1,0,0:0:0:0:
64,192,18301,1,0,0:0:0:0:
320,192,18301,1,0,0:0:0:0:
192,192,18389,1,0,0:0:0:0:
320,192,18389,1,0,0:0:0:0:
64,192,18477,1,0,0:0:0:0:
448,192,18477,1,0,0:0:0:0:
192,192,18565,1,0,0:0:0:0:
320,192,18565,1,0,0:0:0:0:
448,192,18565,1,0,0:0:0:0:
64,192,18654,1,0,0:0:0:0:
192,192,18654,1,0,0:0:0:0:
192,192,18742,1,0,0:0:0:0:
320,192,18742,1,0,0:0:0:0:
320,192,18830,1,0,0:0:0:0:
448,192,18830,1,0,0:0:0:0:
192,192,18918,1,0,0:0:0:0:
448,192,18918,1,0,0:0:0:0:
64,192,19007,1,0,0:0:0:0:
320,192,19007,1,0,0:0:0:0:
192,192,19095,1,0,0:0:0:0:
320,192,19095,1,0,0:0:0:0:
320,192,19183,1,0,0:0:0:0:
448,192,19183,1,0,0:0:0:0:
64,192,19271,1,0,0:0:0:0:
192,192,19271,1,0,0:0:0:0:
320,192,19315,1,0,0:0:0:0:
192,192,19359,1,0,0:0:0:0:
448,192,19359,1,0,0:0:0:0:
64,192,19404,1,0,0:0:0:0:
320,192,19448,1,0,0:0:0:0:
448,192,19448,1,0,0:0:0:0:
192,192,19492,1,0,0:0:0:0:
320,192,19536,1,0,0:0:0:0:
448,192,19536,1,0,0:0:0:0:
64,192,19580,1,0,0:0:0:0:
192,192,19624,1,0,0:0:0:0:
448,192,19624,1,0,0:0:0:0:
320,192,19668,1,0,0:0:0:0:
64,192,19712,1,0,0:0:0:0:
448,192,19712,1,0,0:0:0:0:
192,192,19757,1,0,0:0:0:0:
64,192,19801,1,0,0:0:0:0:
320,192,19801,1,0,0:0:0:0:
448,192,19845,1,0,0:0:0:0:
64,192,19889,1,0,0:0:0:0:
192,192,19889,1,0,0:0:0:0:
320,192,19933,1,0,0:0:0:0:
64,192,19977,1,0,0:0:0:0:
192,192,19977,1,0,0:0:0:0:
448,192,19977,1,0,0:0:0:0:
320,192,20065,1,0,0:0:0:0:
64,192,20154,1,0,0:0:0:0:
320,192,20242,1,0,0:0:0:0:
192,192,20330,1,0,0:0:0:0:
320,192,20330,1,0,0:0:0:0:
448,192,20330,1,0,0:0:0:0:
64,192,20418,1,0,0:0:0:0:
192,192,20507,1,0,0:0:0:0:
320,192,20595,1,0,0:0:0:0:
64,192,20683,1,0,0:0:0:0:
192,192,20683,1,0,0:0:0:0:
448,192,20683,1,0,0:0:0:0:
192,192,20771,1,0,0:0:0:0:
320,192,20859,1,0,0:0:0:0:
448,192,20948,1,0,0:0:0:0:
64,192,21036,1,0,0:0:0:0:
192,192,21036,1,0,0:0:0:0:
320,192,21036,1,0,0:0:0:0:
64,192,21124,1,0,0:0:0:0:
192,192,21212,1,0,0:0:0:0:
320,192,21301,1,0,0:0:0:0:
64,192,21389,1,0,0:0:0:0:
320,192,21389,1,0,0:0:0:0:
448,192,21389,1,0,0:0:0:0:
192,192,21477,1,0,0:0:0:0:
64,192,21565,1,0,0:0:0:0:
320,192,21654,1,0,0:0:0:0:
192,192,21742,1,0,0:0:0:0:
320,192,21742,1,0,0:0:0:0:
448,192,21742,1,0,0:0:0:0:
192,192,21830,1,0,0:0:0:0:
64,192,21918,1,0,0:0:0:0:
320,192,22007,1,0,0:0:0:0:
64,192,22095,1,0,0:0:0:0:
192,192,22095,1,0,0:0:0:0:
320,192,22095,1,0,0:0:0:0:
448,192,22183,1,0,0:0:0:0:
192,192,22271,1,0,0:0:0:0:
320,192,22359,1,0,0:0:0:0:
64,192,22448,1,0,0:0:0:0:
192,192,22448,1,0,0:0:0:0:
448,192,22448,1,0,0:0:0:0:
320,192,22536,1,0,0:0:0:0:
64,192,22624,1,0,0:0:0:0:
192,192,22712,1,0,0:0:0:0:
64,192,22801,1,0,0:0:0:0:
320,192,22801,1,0,0:0:0:0:
448,192,22801,1,0,0:0:0:0:
320,192,22977,1,0,0:0:0:0:
448,192,23065,1,0,0:0:0:0:
192,192,23154,1,0,0:0:0:0:
320,192,23330,1,0,0:0:0:0:
64,192,23418,1,0,0:0:0:0:
192,192,23506,1,0,0:0:0:0:
448,192,23683,1,0,0:0:0:0:
192,192,23771,1,0,0:0:0:0:
320,192,23859,1,0,0:0:0:0:
64,192,24036,1,0,0:0:0:0:
320,192,24124,1,0,0:0:0:0:
192,192,24212,1,0,0:0:0:0:
320,192,24212,1,0,0:0:0:0:
448,192,24212,1,0,0:0:0:0:
64,192,24301,1,0,0:0:0:0:
192,192,24301,1,0,0:0:0:0:
192,192,24389,1,0,0:0:0:0:
320,192,24389,1,0,0:0:0:0:
64,192,24477,1,0,0:0:0:0:
448,192,24477,1,0,0:0:0:0:
192,192,24565,1,0,0:0:0:0:
320,192,24565,1,0,0:0:0:0:
64,192,24654,1,0,0:0:0:0:
192,192,24654,1,0,0:0:0:0:
192,192,24742,1,0,0:0:0:0:
320,192,24742,1,0,0:0:0:0:
64,192,24830,1,0,0:0:0:0:
320,192,24830,1,0,0:0:0:0:
64,192,24918,1,0,0:0:0:0:
448,192,24918,1,0,0:0:0:0:
192,192,25006,1,0,0:0:0:0:
320,192,25006,1,0,0:0:0:0:
192,192,25095,1,0,0:0:0:0:
448,192,25095,1,0,0:0:0:0:
192,192,25183,1,0,0:0:0:0:
320,192,25183,1,0,0:0:0:0:
448,192,25183,1,0,0:0:0:0:
64,192,25271,1,0,0:0:0:0:
192,192,25271,1,0,0:0:0:0:
448,192,25271,1,0,0:0:0:0:
320,192,25359,1,0,0:0:0:0:
448,192,25359,1,0,0:0:0:0:
192,192,25448,1,0,0:0:0:0:
320,192,25448,1,0,0:0:0:0:
448,192,25448,1,0,0:0:0:0:
64,192,25536,1,0,0:0:0:0:
448,192,25536,1,0,0:0:0:0:
64,192,25624,1,0,0:0:0:0:
192,192,25624,1,0,0:0:0:0:
320,192,25624,1,0,0:0:0:0:
192,192,25801,1,0,0:0:0:0:
448,192,25801,1,0,0:0:0:0:
64,192,25977,1,0,0:0:0:0:
320,192,25977,1,0,0:0:0:0:
448,192,25977,1,0,0:0:0:0:
192,192,26154,1,0,0:0:0:0:
320,192,26154,1,0,0:0:0:0:
64,192,26330,1,0,0:0:0:0:
320,192,26330,1,0,0:0:0:0:
448,192,26330,1,0,0:0:0:0:
64,192,26418,1,0,0:0:0:0:
192,192,26418,1,0,0:0:0:0:
192,192,26506,1,0,0:0:0:0:
320,192,26506,1,0,0:0:0:0:
64,192,26683,1,0,0:0:0:0:
192,192,26683,1,0,0:0:0:0:
448,192,26683,1,0,0:0:0:0:
192,192,26859,1,0,0:0:0:0:
320,192,26859,1,0,0:0:0:0:
64,192,27036,1,0,0:0:0:0:
320,192,27036,1,0,0:0:0:0:
448,192,27036,1,0,0:0:0:0:
192,192,27212,1,0,0:0:0:0:
448,192,27212,1,0,0:0:0:0:
64,192,27389,1,0,0:0:0:0:
320,192,27389,1,0,0:0:0:0:
448,192,27389,1,0,0:0:0:0:
64,192,27565,1,0,0:0:0:0:
192,192,27565,1,0,0:0:0:0:
64,192,27742,1,0,0:0:0:0:
320,192,27742,1,0,0:0:0:0:
448,192,27742,1,0,0:0:0:0:
192,192,27830,1,0,0:0:0:0:
448,192,27830,1,0,0:0:0:0:
192,192,27918,1,0,0:0:0:0:
320,192,27918,1,0,0:0:0:0:
192,192,28095,1,0,0:0:0:0:
320,192,28095,1,0,0:0:0:0:
448,192,28095,1,0,0:0:0:0:
192,192,28271,1,0,0:0:0:0:
448,192,28271,1,0,0:0:0:0:
64,192,28448,1,0,0:0:0:0:
320,192,28448,1,0,0:0:0:0:
448,192,28448,1,0,0:0:0:0:
192,192,28624,1,0,0:0:0:0:
320,192,28624,1,0,0:0:0:0:
64,192,28801,1,0,0:0:0:0:
192,192,28801,1,0,0:0:0:0:
320,192,28801,1,0,0:0:0:0:
320,192,28977,1,0,0:0:0:0:
448,192,28977,1,0,0:0:0:0:
192,192,29153,1,0,0:0:0:0:
320,192,29153,1,0,0:0:0:0:
448,192,29153,1,0,0:0:0:0:
64,192,29242,1,0,0:0:0:0:
320,192,29242,1,0,0:0:0:0:
192,192,29330,1,0,0:0:0:0:
320,192,29330,1,0,0:0:0:0:
64,192,29506,1,0,0:0:0:0:
192,192,29506,1,0,0:0:0:0:
448,192,29506,1,0,0:0:0:0:
320,192,29683,1,0,0:0:0:0:
448,192,29683,1,0,0:0:0:0:
64,192,29859,1,0,0:0:0:0:
192,192,29859,1,0,0:0:0:0:
320,192,29859,1,0,0:0:0:0:
192,192,30036,1,0,0:0:0:0:
448,192,30036,1,0,0:0:0:0:
64,192,30212,1,0,0:0:0:0:
320,192,30212,1,0,0:0:0:0:
448,192,30212,1,0,0:0:0:0:
64,192,30389,1,0,0:0:0:0:
192,192,30389,1,0,0:0:0:0:
64,192,30565,1,0,0:0:0:0:
192,192,30565,1,0,0:0:0:0:
448,192,30565,1,0,0:0:0:0:
192,192,30653,1,0,0:0:0:0:
320,192,30653,1,0,0:0:0:0:
320,192,30742,1,0,0:0:0:0:
448,192,30742,1,0,0:0:0:0:
64,192,30918,1,0,0:0:0:0:
192,192,30918,1,0,0:0:0:0:
320,192,30918,1,0,0:0:0:0:
192,192,31095,1,0,0:0:0:0:
320,192,31095,1,0,0:0:0:0:
64,192,31271,1,0,0:0:0:0:
320,192,31271,1,0,0:0:0:0:
448,192,31271,1,0,0:0:0:0:
192,192,31448,1,0,0:0:0:0:
448,192,31448,1,0,0:0:0:0:
320,192,31624,1,0,0:0:0:0:
448,192,31624,1,0,0:0:0:0:
192,192,31801,1,0,0:0:0:0:
448,192,31801,1,0,0:0:0:0:
64,192,31977,1,0,0:0:0:0:
448,192,31977,1,0,0:0:0:0:
64,192,32153,1,0,0:0:0:0:
192,192,32153,1,0,0:0:0:0:
192,192,32330,1,0,0:0:0:0:
320,192,32330,1,0,0:0:0:0:
64,192,32506,1,0,0:0:0:0:
448,192,32506,1,0,0:0:0:0:
192,192,32683,1,0,0:0:0:0:
320,192,32683,1,0,0:0:0:0:
64,192,32859,1,0,0:0:0:0:
448,192,32859,1,0,0:0:0:0:
192,192,32903,1,0,0:0:0:0:
320,192,32948,1,0,0:0:0:0:
448,192,32992,1,0,0:0:0:0:
192,192,33036,1,0,0:0:0:0:
320,192,33080,1,0,0:0:0:0:
192,192,33124,1,0,0:0:0:0:
64,192,33168,1,0,0:0:0:0:
448,192,33212,1,0,0:0:0:0:
320,192,33389,1,0,0:0:0:0:
448,192,33389,1,0,0:0:0:0:
192,192,33477,1,0,0:0:0:0:
320,192,33477,1,0,0:0:0:0:
64,192,33565,1,0,0:0:0:0:
192,192,33742,1,0,0:0:0:0:
448,192,33742,1,0,0:0:0:0:
192,192,33830,1,0,0:0:0:0:
320,192,33830,1,0,0:0:0:0:
64,192,33918,1,0,0:0:0:0:
192,192,34006,1,0,0:0:0:0:
320,192,34095,1,0,0:0:0:0:
448,192,34095,1,0,0:0:0:0:
192,192,34271,1,0,0:0:0:0:
320,192,34271,1,0,0:0:0:0:
64,192,34448,1,0,0:0:0:0:
320,192,34448,1,0,0:0:0:0:
192,192,34624,1,0,0:0:0:0:
320,192,34624,1,0,0:0:0:0:
64,192,34801,1,0,0:0:0:0:
192,192,34801,1,0,0:0:0:0:
320,192,34845,1,0,0:0:0:0:
64,192,34889,1,0,0:0:0:0:
192,192,34933,1,0,0:0:0:0:
320,192,34977,1,0,0:0:0:0:
320,192,35153,1,0,0:0:0:0:
448,192,35153,1,0,0:0:0:0:
192,192,35198,1,0,0:0:0:0:
64,192,35242,1,0,0:0:0:0:
320,192,35286,1,0,0:0:0:0:
448,192,35330,1,0,0:0:0:0:
64,192,35506,1,0,0:0:0:0:
192,192,35506,1,0,0:0:0:0:
448,192,35683,1,0,0:0:0:0:
64,192,35859,1,0,0:0:0:0:
192,192,35859,1,0,0:0:0:0:
320,192,35948,1,0,0:0:0:0:
448,192,35948,1,0,0:0:0:0:
192,192,36036,1,0,0:0:0:0:
320,192,36036,1,0,0:0:0:0:
64,192,36212,1,0,0:0:0:0:
448,192,36212,1,0,0:0:0:0:
192,192,36389,1,0,0:0:0:0:
320,192,36389,1,0,0:0:0:0:
448,192,36389,1,0,0:0:0:0:
320,192,36565,1,0,0:0:0:0:
448,192,36565,1,0,0:0:0:0:
192,192,36653,1,0,0:0:0:0:
320,192,36653,1,0,0:0:0:0:
64,192,36742,1,0,0:0:0:0:
320,192,36742,1,0,0:0:0:0:
192,192,36830,1,0,0:0:0:0:
448,192,36830,1,0,0:0:0:0:
64,192,36918,1,0,0:0:0:0:
320,192,36918,1,0,0:0:0:0:
448,192,36918,1,0,0:0:0:0:
192,192,37095,1,0,0:0:0:0:
448,192,37095,1,0,0:0:0:0:
320,192,37271,1,0,0:0:0:0:
448,192,37271,1,0,0:0:0:0:
64,192,37359,1,0,0:0:0:0:
192,192,37448,1,0,0:0:0:0:
448,192,37448,1,0,0:0:0:0:
64,192,37536,1,0,0:0:0:0:
320,192,37536,1,0,0:0:0:0:
64,192,37624,1,0,0:0:0:0:
192,192,37624,1,0,0:0:0:0:
448,192,37624,1,0,0:0:0:0:
320,192,37800,1,0,0:0:0:0:
448,192,37800,1,0,0:0:0:0:
64,192,37977,1,0,0:0:0:0:
192,192,37977,1,0,0:0:0:0:
320,192,38153,1,0,0:0:0:0:
448,192,38153,1,0,0:0:0:0:
192,192,38330,1,0,0:0:0:0:
448,192,38330,1,0,0:0:0:0:
64,192,38506,1,0,0:0:0:0:
448,192,38506,1,0,0:0:0:0:
320,192,38550,1,0,0:0:0:0:
192,192,38595,1,0,0:0:0:0:
64,192,38639,1,0,0:0:0:0:
320,192,38683,1,0,0:0:0:0:
448,192,38683,1,0,0:0:0:0:
64,192,38859,1,0,0:0:0:0:
448,192,38859,1,0,0:0:0:0:
192,192,39036,1,0,0:0:0:0:
320,192,39036,1,0,0:0:0:0:
64,192,39124,1,0,0:0:0:0:
192,192,39124,1,0,0:0:0:0:
320,192,39212,1,0,0:0:0:0:
448,192,39212,1,0,0:0:0:0:
64,192,39389,1,0,0:0:0:0:
192,192,39389,1,0,0:0:0:0:
448,192,39389,1,0,0:0:0:0:
64,192,39565,1,0,0:0:0:0:
192,192,39565,1,0,0:0:0:0:
320,192,39653,1,0,0:0:0:0:
192,192,39742,1,0,0:0:0:0:
448,192,39742,1,0,0:0:0:0:
64,192,39830,1,0,0:0:0:0:
448,192,39830,1,0,0:0:0:0:
192,192,39918,1,0,0:0:0:0:
320,192,39918,1,0,0:0:0:0:
320,192,40006,1,0,0:0:0:0:
448,192,40006,1,0,0:0:0:0:
64,192,40095,1,0,0:0:0:0:
192,192,40095,1,0,0:0:0:0:
64,192,40271,1,0,0:0:0:0:
448,192,40271,1,0,0:0:0:0:
192,192,40448,1,0,0:0:0:0:
320,192,40448,1,0,0:0:0:0:
448,192,40448,1,0,0:0:0:0:
64,192,40536,1,0,0:0:0:0:
192,192,40536,1,0,0:0:0:0:
64,192,40624,1,0,0:0:0:0:
192,192,40624,1,0,0:0:0:0:
320,192,40624,1,0,0:0:0:0:
64,192,40800,1,0,0:0:0:0:
192,192,40800,1,0,0:0:0:0:
448,192,40800,1,0,0:0:0:0:
64,192,40889,1,0,0:0:0:0:
320,192,40889,1,0,0:0:0:0:
192,192,40977,1,0,0:0:0:0:
320,192,40977,1,0,0:0:0:0:
448,192,40977,1,0,0:0:0:0:
320,192,41065,1,0,0:0:0:0:
448,192,41065,1,0,0:0:0:0:
64,192,41153,1,0,0:0:0:0:
192,192,41153,1,0,0:0:0:0:
448,192,41153,1,0,0:0:0:0:
320,192,41242,1,0,0:0:0:0:
448,192,41330,1,0,0:0:0:0:
192,192,41418,1,0,0:0:0:0:
448,192,41506,1,0,0:0:0:0:
320,192,41595,1,0,0:0:0:0:
192,192,41683,1,0,0:0:0:0:
64,192,41771,1,0,0:0:0:0:
320,192,41859,1,0,0:0:0:0:
192,192,41947,1,0,0:0:0:0:
448,192,42036,1,0,0:0:0:0:
192,192,42124,1,0,0:0:0:0:
320,192,42124,1,0,0:0:0:0:
64,192,42212,1,0,0:0:0:0:
320,192,42212,1,0,0:0:0:0:
448,192,42212,1,0,0:0:0:0:
192,192,42300,1,0,0:0:0:0:
320,192,42389,1,0,0:0:0:0:
448,192,42389,1,0,0:0:0:0:
192,192,42477,1,0,0:0:0:0:
448,192,42477,1,0,0:0:0:0:
64,192,42565,1,0,0:0:0:0:
192,192,42565,1,0,0:0:0:0:
320,192,42565,1,0,0:0:0:0:
320,192,42742,1,0,0:0:0:0:
448,192,42742,1,0,0:0:0:0:
192,192,42830,1,0,0:0:0:0:
320,192,42830,1,0,0:0:0:0:
64,192,42918,1,0,0:0:0:0:
192,192,42918,1,0,0:0:0:0:
448,192,42918,1,0,0:0:0:0:
192,192,43095,1,0,0:0:0:0:
320,192,43095,1,0,0:0:0:0:
64,192,43271,1,0,0:0:0:0:
320,192,43271,1,0,0:0:0:0:
448,192,43271,1,0,0:0:0:0:
192,192,43359,1,0,0:0:0:0:
320,192,43447,1,0,0:0:0:0:
448,192,43447,1,0,0:0:0:0:
192,192,43536,1,0,0:0:0:0:
448,192,43536,1,0,0:0:0:0:
320,192,43624,1,0,0:0:0:0:
64,192,43712,1,0,0:0:0:0:
448,192,43712,1,0,0:0:0:0:
192,192,43800,1,0,0:0:0:0:
320,192,43800,1,0,0:0:0:0:
64,192,43977,1,0,0:0:0:0:
320,192,43977,1,0,0:0:0:0:
448,192,43977,1,0,0:0:0:0:
64,192,44153,1,0,0:0:0:0:
192,192,44153,1,0,0:0:0:0:
320,192,44153,1,0,0:0:0:0:
64,192,44242,1,0,0:0:0:0:
448,192,44242,1,0,0:0:0:0:
192,192,44330,1,0,0:0:0:0:
320,192,44330,1,0,0:0:0:0:
64,192,44506,1,0,0:0:0:0:
192,192,44506,1,0,0:0:0:0:
320,192,44683,1,0,0:0:0:0:
448,192,44683,1,0,0:0:0:0:
64,192,44771,1,0,0:0:0:0:
320,192,44859,1,0,0:0:0:0:
448,192,44859,1,0,0:0:0:0:
192,192,44947,1,0,0:0:0:0:
320,192,44947,1,0,0:0:0:0:
64,192,45036,1,0,0:0:0:0:
320,192,45124,1,0,0:0:0:0:
448,192,45124,1,0,0:0:0:0:
192,192,45212,1,0,0:0:0:0:
448,192,45212,1,0,0:0:0:0:
64,192,45389,1,0,0:0:0:0:
320,192,45389,1,0,0:0:0:0:
448,192,45389,1,0,0:0:0:0:
192,192,45565,1,0,0:0:0:0:
320,192,45565,1,0,0:0:0:0:
64,192,45653,1,0,0:0:0:0:
448,192,45653,1,0,0:0:0:0:
192,192,45742,1,0,0:0:0:0:
320,192,45742,1,0,0:0:0:0:
448,192,45742,1,0,0:0:0:0:
192,192,45918,1,0,0:0:0:0:
320,192,45918,1,0,0:0:0:0:
64,192,46095,1,0,0:0:0:0:
320,192,46095,1,0,0:0:0:0:
448,192,46095,1,0,0:0:0:0:
192,192,46183,1,0,0:0:0:0:
320,192,46183,1,0,0:0:0:0:
192,192,46271,1,0,0:0:0:0:
448,192,46271,1,0,0:0:0:0:
64,192,46447,1,0,0:0:0:0:
192,192,46447,1,0,0:0:0:0:
320,192,46447,1,0,0:0:0:0:
320,192,46536,1,0,0:0:0:0:
448,192,46536,1,0,0:0:0:0:
64,192,46624,1,0,0:0:0:0:
192,192,46624,1,0,0:0:0:0:
64,192,46800,1,0,0:0:0:0:
320,192,46800,1,0,0:0:0:0:
64,192,46977,1,0,0:0:0:0:
192,192,46977,1,0,0:0:0:0:
448,192,46977,1,0,0:0:0:0:
192,192,47065,1,0,0:0:0:0:
320,192,47065,1,0,0:0:0:0:
320,192,47153,1,0,0:0:0:0:
448,192,47153,1,0,0:0:0:0:
64,192,47330,1,0,0:0:0:0:
192,192,47330,1,0,0:0:0:0:
192,192,47506,1,0,0:0:0:0:
320,192,47506,1,0,0:0:0:0:
192,192,47594,1,0,0:0:0:0:
448,192,47594,1,0,0:0:0:0:
64,192,47683,1,0,0:0:0:0:
320,192,47683,1,0,0:0:0:0:
64,192,47859,1,0,0:0:0:0:
320,192,47859,1,0,0:0:0:0:
448,192,47859,1,0,0:0:0:0:
192,192,48036,1,0,0:0:0:0:
320,192,48036,1,0,0:0:0:0:
64,192,48212,1,0,0:0:0:0:
192,192,48212,1,0,0:0:0:0:
320,192,48212,1,0,0:0:0:0:
448,192,48212,1,0,0:0:0:0:
192,192,48389,1,0,0:0:0:0:
320,192,48389,1,0,0:0:0:0:
320,192,48477,1,0,0:0:0:0:
448,192,48477,1,0,0:0:0:0:
64,192,48565,1,0,0:0:0:0:
192,192,48565,1,0,0:0:0:0:
192,192,48653,1,0,0:0:0:0:
320,192,48653,1,0,0:0:0:0:
64,192,48742,1,0,0:0:0:0:
192,192,48742,1,0,0:0:0:0:
448,192,48830,1,0,0:0:0:0:
64,192,48918,1,0,0:0:0:0:
192,192,48918,1,0,0:0:0:0:
320,192,48918,1,0,0:0:0:0:
448,192,49006,1,0,0:0:0:0:
192,192,49094,1,0,0:0:0:0:
320,192,49094,1,0,0:0:0:0:
192,192,49183,1,0,0:0:0:0:
448,192,49183,1,0,0:0:0:0:
320,192,49271,1,0,0:0:0:0:
192,192,49359,1,0,0:0:0:0:
448,192,49359,1,0,0:0:0:0:
320,192,49447,1,0,0:0:0:0:
448,192,49447,1,0,0:0:0:0:
64,192,49624,1,0,0:0:0:0:
192,192,49624,1,0,0:0:0:0:
448,192,49624,1,0,0:0:0:0:
64,192,49800,1,0,0:0:0:0:
320,192,49800,1,0,0:0:0:0:
448,192,49800,1,0,0:0:0:0:
192,192,49889,1,0,0:0:0:0:
320,192,49889,1,0,0:0:0:0:
64,192,49977,1,0,0:0:0:0:
192,192,49977,1,0,0:0:0:0:
448,192,49977,1,0,0:0:0:0:
192,192,50153,1,0,0:0:0:0:
320,192,50153,1,0,0:0:0:0:
448,192,50153,1,0,0:0:0:0:
64,192,50330,1,0,0:0:0:0:
192,192,50330,1,0,0:0:0:0:
320,192,50330,1,0,0:0:0:0:
448,192,50418,1,0,0:0:0:0:
64,192,50506,1,0,0:0:0:0:
192,192,50506,1,0,0:0:0:0:
192,192,50594,1,0,0:0:0:0:
320,192,50594,1,0,0:0:0:0:
448,192,50683,1,0,0:0:0:0:
64,192,50771,1,0,0:0:0:0:
320,192,50771,1,0,0:0:0:0:
192,192,50859,1,0,0:0:0:0:
448,192,50859,1,0,0:0:0:0:
64,192,51036,1,0,0:0:0:0:
320,192,51036,1,0,0:0:0:0:
448,192,51036,1,0,0:0:0:0:
192,192,51212,1,0,0:0:0:0:
448,192,51212,1,0,0:0:0:0:
64,192,51300,1,0,0:0:0:0:
320,192,51300,1,0,0:0:0:0:
64,192,51389,1,0,0:0:0:0:
192,192,51389,1,0,0:0:0:0:
64,192,51565,1,0,0:0:0:0:
320,192,51565,1,0,0:0:0:0:
192,192,51653,1,0,0:0:0:0:
448,192,51653,1,0,0:0:0:0:
192,192,51742,1,0,0:0:0:0:
320,192,51742,1,0,0:0:0:0:
448,192,51742,1,0,0:0:0:0:
64,192,51918,1,0,0:0:0:0:
192,192,51918,1,0,0:0:0:0:
320,192,52094,1,0,0:0:0:0:
448,192,52094,1,0,0:0:0:0:
192,192,52271,1,0,0:0:0:0:
448,192,52271,1,0,0:0:0:0:
192,192,52359,1,0,0:0:0:0:
320,192,52359,1,0,0:0:0:0:
64,192,52447,1,0,0:0:0:0:
320,192,52447,1,0,0:0:0:0:
448,192,52447,1,0,0:0:0:0:
192,192,52624,1,0,0:0:0:0:
448,192,52624,1,0,0:0:0:0:
320,192,52800,1,0,0:0:0:0:
448,192,52800,1,0,0:0:0:0:
192,192,52889,1,0,0:0:0:0:
320,192,52889,1,0,0:0:0:0:
64,192,52977,1,0,0:0:0:0:
192,192,52977,1,0,0:0:0:0:
64,192,53153,1,0,0:0:0:0:
192,192,53153,1,0,0:0:0:0:
320,192,53153,1,0,0:0:0:0:
448,192,53241,1,0,0:0:0:0:
320,192,53330,1,0,0:0:0:0:
64,192,53418,1,0,0:0:0:0:
192,192,53418,1,0,0:0:0:0:
192,192,53506,1,0,0:0:0:0:
320,192,53506,1,0,0:0:0:0:
448,192,53506,1,0,0:0:0:0:
64,192,53683,1,0,0:0:0:0:
320,192,53683,1,0,0:0:0:0:
448,192,53683,1,0,0:0:0:0:
192,192,53859,1,0,0:0:0:0:
320,192,53859,1,0,0:0:0:0:
448,192,53859,1,0,0:0:0:0:
64,192,53947,1,0,0:0:0:0:
192,192,54036,1,0,0:0:0:0:
320,192,54036,1,0,0:0:0:0:
64,192,54124,1,0,0:0:0:0:
448,192,54124,1,0,0:0:0:0:
64,192,54212,1,0,0:0:0:0:
192,192,54212,1,0,0:0:0:0:
320,192,54212,1,0,0:0:0:0:
192,192,54300,1,0,0:0:0:0:
64,192,54389,1,0,0:0:0:0:
320,192,54389,1,0,0:0:0:0:
192,192,54477,1,0,0:0:0:0:
64,192,54565,1,0,0:0:0:0:
448,192,54565,1,0,0:0:0:0:
192,192,54653,1,0,0:0:0:0:
320,192,54653,1,0,0:0:0:0:
320,192,54741,1,0,0:0:0:0:
448,192,54741,1,0,0:0:0:0:
64,192,54830,1,0,0:0:0:0:
192,192,54830,1,0,0:0:0:0:
64,192,54918,1,0,0:0:0:0:
192,192,54918,1,0,0:0:0:0:
320,192,54918,1,0,0:0:0:0:
448,192,55006,1,0,0:0:0:0:
192,192,55094,1,0,0:0:0:0:
320,192,55094,1,0,0:0:0:0:
64,192,55183,1,0,0:0:0:0:
192,192,55271,1,0,0:0:0:0:
320,192,55271,1,0,0:0:0:0:
448,192,55271,1,0,0:0:0:0:
64,192,55359,1,0,0:0:0:0:
320,192,55359,1,0,0:0:0:0:
64,192,55447,1,0,0:0:0:0:
192,192,55447,1,0,0:0:0:0:
192,192,55536,1,0,0:0:0:0:
320,192,55536,1,0,0:0:0:0:
320,192,55624,1,0,0:0:0:0:
448,192,55624,1,0,0:0:0:0:
192,192,55712,1,0,0:0:0:0:
64,192,55800,1,0,0:0:0:0:
192,192,55800,1,0,0:0:0:0:
320,192,55800,1,0,0:0:0:0:
448,192,55844,1,0,0:0:0:0:
320,192,55889,1,0,0:0:0:0:
192,192,55933,1,0,0:0:0:0:
448,192,55977,1,0,0:0:0:0:
320,192,56021,1,0,0:0:0:0:
64,192,56065,1,0,0:0:0:0:
192,192,56109,1,0,0:0:0:0:
320,192,56153,1,0,0:0:0:0:
448,192,56153,1,0,0:0:0:0:
192,192,56241,1,0,0:0:0:0:
320,192,56241,1,0,0:0:0:0:
64,192,56330,1,0,0:0:0:0:
448,192,56330,1,0,0:0:0:0:
320,192,56418,1,0,0:0:0:0:
448,192,56418,1,0,0:0:0:0:
192,192,56506,1,0,0:0:0:0:
320,192,56506,1,0,0:0:0:0:
64,192,56594,1,0,0:0:0:0:
320,192,56594,1,0,0:0:0:0:
64,192,56683,1,0,0:0:0:0:
192,192,56683,1,0,0:0:0:0:
448,192,56683,1,0,0:0:0:0:
320,192,56771,1,0,0:0:0:0:
64,192,56859,1,0,0:0:0:0:
192,192,56859,1,0,0:0:0:0:
64,192,56947,1,0,0:0:0:0:
320,192,56947,1,0,0:0:0:0:
64,192,57036,1,0,0:0:0:0:
192,192,57036,1,0,0:0:0:0:
448,192,57036,1,0,0:0:0:0:
320,192,57124,1,0,0:0:0:0:
448,192,57124,1,0,0:0:0:0:
192,192,57212,1,0,0:0:0:0:
320,192,57212,1,0,0:0:0:0:
64,192,57300,1,0,0:0:0:0:
448,192,57300,1,0,0:0:0:0:
192,192,57389,1,0,0:0:0:0:
320,192,57389,1,0,0:0:0:0:
448,192,57389,1,0,0:0:0:0:
64,192,57477,1,0,0:0:0:0:
192,192,57477,1,0,0:0:0:0:
320,192,57565,1,0,0:0:0:0:
448,192,57565,1,0,0:0:0:0:
192,192,57653,1,0,0:0:0:0:
320,192,57653,1,0,0:0:0:0:
64,192,57741,1,0,0:0:0:0:
192,192,57741,1,0,0:0:0:0:
448,192,57741,1,0,0:0:0:0:
64,192,57830,1,0,0:0:0:0:
320,192,57830,1,0,0:0:0:0:
192,192,57918,1,0,0:0:0:0:
448,192,57918,1,0,0:0:0:0:
320,192,58006,1,0,0:0:0:0:
64,192,58094,1,0,0:0:0:0:
192,192,58094,1,0,0:0:0:0:
320,192,58094,1,0,0:0:0:0:
192,192,58271,1,0,0:0:0:0:
320,192,58271,1,0,0:0:0:0:
448,192,58271,1,0,0:0:0:0:
64,192,58447,1,0,0:0:0:0:
320,192,58447,1,0,0:0:0:0:
448,192,58447,1,0,0:0:0:0:
192,192,58624,1,0,0:0:0:0:
320,192,58624,1,0,0:0:0:0:
448,192,58624,1,0,0:0:0:0:
64,192,58800,1,0,0:0:0:0:
320,192,58800,1,0,0:0:0:0:
448,192,58800,1,0,0:0:0:0:
64,192,58888,1,0,0:0:0:0:
192,192,58888,1,0,0:0:0:0:
320,192,58977,1,0,0:0:0:0:
448,192,58977,1,0,0:0:0:0:
192,192,59065,1,0,0:0:0:0:
448,192,59065,1,0,0:0:0:0:
64,192,59153,1,0,0:0:0:0:
320,192,59153,1,0,0:0:0:0:
448,192,59153,1,0,0:0:0:0:
64,192,59330,1,0,0:0:0:0:
192,192,59330,1,0,0:0:0:0:
192,192,59506,1,0,0:0:0:0:
320,192,59506,1,0,0:0:0:0:
448,192,59506,1,0,0:0:0:0:
64,192,59594,1,0,0:0:0:0:
192,192,59594,1,0,0:0:0:0:
192,192,59683,1,0,0:0:0:0:
320,192,59683,1,0,0:0:0:0:
64,192,59771,1,0,0:0:0:0:
448,192,59771,1,0,0:0:0:0:
192,192,59859,1,0,0:0:0:0:
320,192,59859,1,0,0:0:0:0:
448,192,59859,1,0,0:0:0:0:
64,192,60036,1,0,0:0:0:0:
192,192,60036,1,0,0:0:0:0:
320,192,60036,1,0,0:0:0:0:
192,192,60212,1,0,0:0:0:0:
320,192,60212,1,0,0:0:0:0:
448,192,60212,1,0,0:0:0:0:
64,192,60300,1,0,0:0:0:0:
448,192,60300,1,0,0:0:0:0:
192,192,60388,1,0,0:0:0:0:
448,192,60388,1,0,0:0:0:0:
64,192,60477,1,0,0:0:0:0:
320,192,60477,1,0,0:0:0:0:
64,192,60565,1,0,0:0:0:0:
192,192,60565,1,0,0:0:0:0:
448,192,60565,1,0,0:0:0:0:
64,192,60741,1,0,0:0:0:0:
192,192,60741,1,0,0:0:0:0:
320,192,60741,1,0,0:0:0:0:
192,192,60918,1,0,0:0:0:0:
320,192,60918,1,0,0:0:0:0:
448,192,60918,1,0,0:0:0:0:
64,192,61006,1,0,0:0:0:0:
192,192,61006,1,0,0:0:0:0:
320,192,61094,1,0,0:0:0:0:
448,192,61094,1,0,0:0:0:0:
192,192,61183,1,0,0:0:0:0:
320,192,61183,1,0,0:0:0:0:
64,192,61271,1,0,0:0:0:0:
192,192,61271,1,0,0:0:0:0:
320,192,61271,1,0,0:0:0:0:
192,192,61359,1,0,0:0:0:0:
448,192,61359,1,0,0:0:0:0:
64,192,61447,1,0,0:0:0:0:
320,192,61447,1,0,0:0:0:0:
192,192,61536,1,0,0:0:0:0:
320,192,61536,1,0,0:0:0:0:
192,192,61624,1,0,0:0:0:0:
320,192,61624,1,0,0:0:0:0:
448,192,61624,1,0,0:0:0:0:
64,192,61712,1,0,0:0:0:0:
192,192,61712,1,0,0:0:0:0:
192,192,61800,1,0,0:0:0:0:
320,192,61800,1,0,0:0:0:0:
64,192,61888,1,0,0:0:0:0:
448,192,61888,1,0,0:0:0:0:
64,192,61977,1,0,0:0:0:0:
192,192,61977,1,0,0:0:0:0:
320,192,61977,1,0,0:0:0:0:
320,192,62065,1,0,0:0:0:0:
448,192,62065,1,0,0:0:0:0:
192,192,62153,1,0,0:0:0:0:
448,192,62153,1,0,0:0:0:0:
64,192,62241,1,0,0:0:0:0:
320,192,62241,1,0,0:0:0:0:
64,192,62330,1,0,0:0:0:0:
192,192,62330,1,0,0:0:0:0:
448,192,62330,1,0,0:0:0:0:
192,192,62506,1,0,0:0:0:0:
320,192,62506,1,0,0:0:0:0:
448,192,62506,1,0,0:0:0:0:
64,192,62683,1,0,0:0:0:0:
192,192,62683,1,0,0:0:0:0:
320,192,62683,1,0,0:0:0:0:
64,192,62859,1,0,0:0:0:0:
320,192,62859,1,0,0:0:0:0:
448,192,62859,1,0,0:0:0:0:
192,192,63036,1,0,0:0:0:0:
320,192,63036,1,0,0:0:0:0:
448,192,63036,1,0,0:0:0:0:
192,192,63124,1,0,0:0:0:0:
320,192,63124,1,0,0:0:0:0:
320,192,63212,1,0,0:0:0:0:
448,192,63212,1,0,0:0:0:0:
64,192,63300,1,0,0:0:0:0:
192,192,63300,1,0,0:0:0:0:
64,192,63388,1,0,0:0:0:0:
320,192,63388,1,0,0:0:0:0:
448,192,63388,1,0,0:0:0:0:
192,192,63565,1,0,0:0:0:0:
320,192,63565,1,0,0:0:0:0:
448,192,63565,1,0,0:0:0:0:
64,192,63741,1,0,0:0:0:0:
192,192,63741,1,0,0:0:0:0:
448,192,63741,1,0,0:0:0:0:
320,192,63786,1,0,0:0:0:0:
192,192,63830,1,0,0:0:0:0:
320,192,63874,1,0,0:0:0:0:
448,192,63918,1,0,0:0:0:0:
192,192,63962,1,0,0:0:0:0:
320,192,64006,1,0,0:0:0:0:
448,192,64050,1,0,0:0:0:0:
192,192,64094,1,0,0:0:0:0:
320,192,64094,1,0,0:0:0:0:
64,192,64183,1,0,0:0:0:0:
192,192,64183,1,0,0:0:0:0:
192,192,64271,1,0,0:0:0:0:
320,192,64271,1,0,0:0:0:0:
320,192,64359,1,0,0:0:0:0:
448,192,64359,1,0,0:0:0:0:
192,192,64447,1,0,0:0:0:0:
448,192,64447,1,0,0:0:0:0:
64,192,64535,1,0,0:0:0:0:
448,192,64535,1,0,0:0:0:0:
192,192,64624,1,0,0:0:0:0:
320,192,64624,1,0,0:0:0:0:
320,192,64712,1,0,0:0:0:0:
448,192,64712,1,0,0:0:0:0:
64,192,64800,1,0,0:0:0:0:
192,192,64800,1,0,0:0:0:0:
320,192,64800,1,0,0:0:0:0:
320,192,64888,1,0,0:0:0:0:
448,192,64888,1,0,0:0:0:0:
192,192,64977,1,0,0:0:0:0:
320,192,64977,1,0,0:0:0:0:
64,192,65065,1,0,0:0:0:0:
192,192,65065,1,0,0:0:0:0:
64,192,65153,1,0,0:0:0:0:
320,192,65153,1,0,0:0:0:0:
448,192,65153,1,0,0:0:0:0:
192,192,65330,1,0,0:0:0:0:
320,192,65330,1,0,0:0:0:0:
192,192,65506,1,0,0:0:0:0:
448,192,65506,1,0,0:0:0:0:
192,192,65594,1,0,0:0:0:0:
320,192,65594,1,0,0:0:0:0:
64,192,65683,1,0,0:0:0:0:
448,192,65683,1,0,0:0:0:0:
64,192,65859,1,0,0:0:0:0:
320,192,65859,1,0,0:0:0:0:
448,192,65859,1,0,0:0:0:0:
192,192,65947,1,0,0:0:0:0:
448,192,65947,1,0,0:0:0:0:
192,192,66035,1,0,0:0:0:0:
320,192,66035,1,0,0:0:0:0:
64,192,66212,1,0,0:0:0:0:
448,192,66212,1,0,0:0:0:0:
192,192,66300,1,0,0:0:0:0:
320,192,66300,1,0,0:0:0:0:
192,192,66388,1,0,0:0:0:0:
448,192,66388,1,0,0:0:0:0:
64,192,66565,1,0,0:0:0:0:
320,192,66565,1,0,0:0:0:0:
448,192,66565,1,0,0:0:0:0:
64,192,66741,1,0,0:0:0:0:
192,192,66741,1,0,0:0:0:0:
320,192,66918,1,0,0:0:0:0:
448,192,66918,1,0,0:0:0:0:
192,192,67006,1,0,0:0:0:0:
320,192,67006,1,0,0:0:0:0:
64,192,67094,1,0,0:0:0:0:
192,192,67094,1,0,0:0:0:0:
64,192,67271,1,0,0:0:0:0:
320,192,67271,1,0,0:0:0:0:
448,192,67271,1,0,0:0:0:0:
64,192,67359,1,0,0:0:0:0:
192,192,67359,1,0,0:0:0:0:
192,192,67447,1,0,0:0:0:0:
320,192,67447,1,0,0:0:0:0:
64,192,67624,1,0,0:0:0:0:
448,192,67624,1,0,0:0:0:0:
192,192,67712,1,0,0:0:0:0:
320,192,67712,1,0,0:0:0:0:
320,192,67800,1,0,0:0:0:0:
448,192,67800,1,0,0:0:0:0:
64,192,67977,1,0,0:0:0:0:
192,192,67977,1,0,0:0:0:0:
320,192,67977,1,0,0:0:0:0:
320,192,68153,1,0,0:0:0:0:
448,192,68153,1,0,0:0:0:0:
192,192,68330,1,0,0:0:0:0:
448,192,68330,1,0,0:0:0:0:
192,192,68418,1,0,0:0:0:0:
320,192,68418,1,0,0:0:0:0:
64,192,68506,1,0,0:0:0:0:
320,192,68506,1,0,0:0:0:0:
192,192,68683,1,0,0:0:0:0:
320,192,68683,1,0,0:0:0:0:
448,192,68683,1,0,0:0:0:0:
320,192,68771,1,0,0:0:0:0:
448,192,68771,1,0,0:0:0:0:
64,192,68859,1,0,0:0:0:0:
192,192,68859,1,0,0:0:0:0:
320,192,68947,1,0,0:0:0:0:
448,192,68947,1,0,0:0:0:0:
192,192,69035,1,0,0:0:0:0:
448,192,69035,1,0,0:0:0:0:
192,192,69212,1,0,0:0:0:0:
320,192,69212,1,0,0:0:0:0:
64,192,69388,1,0,0:0:0:0:
192,192,69388,1,0,0:0:0:0:
448,192,69388,1,0,0:0:0:0:
320,192,69565,1,0,0:0:0:0:
448,192,69565,1,0,0:0:0:0:
192,192,69653,1,0,0:0:0:0:
320,192,69653,1,0,0:0:0:0:
64,192,69741,1,0,0:0:0:0:
320,192,69741,1,0,0:0:0:0:
448,192,69741,1,0,0:0:0:0:
64,192,69918,1,0,0:0:0:0:
192,192,69918,1,0,0:0:0:0:
320,192,70006,1,0,0:0:0:0:
448,192,70006,1,0,0:0:0:0:
192,192,70094,1,0,0:0:0:0:
320,192,70094,1,0,0:0:0:0:
448,192,70094,1,0,0:0:0:0:
64,192,70183,1,0,0:0:0:0:
192,192,70183,1,0,0:0:0:0:
64,192,70359,1,0,0:0:0:0:
320,192,70359,1,0,0:0:0:0:
448,192,70359,1,0,0:0:0:0:
192,192,70447,1,0,0:0:0:0:
320,192,70447,1,0,0:0:0:0:
192,192,70624,1,0,0:0:0:0:
320,192,70624,1,0,0:0:0:0:
448,192,70624,1,0,0:0:0:0:
64,192,70800,1,0,0:0:0:0:
320,192,70800,1,0,0:0:0:0:
448,192,70800,1,0,0:0:0:0:
64,192,70888,1,0,0:0:0:0:
192,192,70888,1,0,0:0:0:0:
192,192,70977,1,0,0:0:0:0:
320,192,70977,1,0,0:0:0:0:
320,192,71153,1,0,0:0:0:0:
448,192,71153,1,0,0:0:0:0:
64,192,71330,1,0,0:0:0:0:
192,192,71330,1,0,0:0:0:0:
448,192,71330,1,0,0:0:0:0:
320,192,71418,1,0,0:0:0:0:
448,192,71418,1,0,0:0:0:0:
64,192,71506,1,0,0:0:0:0:
192,192,71506,1,0,0:0:0:0:
320,192,71506,1,0,0:0:0:0:
448,192,71859,1,0,0:0:0:0:
192,192,71947,1,0,0:0:0:0:
320,192,72035,1,0,0:0:0:0:
448,192,72124,1,0,0:0:0:0:
192,192,72212,1,0,0:0:0:0:
320,192,72212,1,0,0:0:0:0:
64,192,72300,1,0,0:0:0:0:
192,192,72388,1,0,0:0:0:0:
448,192,72388,1,0,0:0:0:0:
64,192,72477,1,0,0:0:0:0:
448,192,72565,1,0,0:0:0:0:
192,192,72609,1,0,0:0:0:0:
320,192,72653,1,0,0:0:0:0:
448,192,72697,1,0,0:0:0:0:
192,192,72741,1,0,0:0:0:0:
64,192,72785,1,0,0:0:0:0:
192,192,72830,1,0,0:0:0:0:
320,192,72830,1,0,0:0:0:0:
320,192,73006,1,0,0:0:0:0:
448,192,73006,1,0,0:0:0:0:
192,192,73182,1,0,0:0:0:0:
320,192,73182,1,0,0:0:0:0:
64,192,73271,1,0,0:0:0:0:
192,192,73271,1,0,0:0:0:0:
320,192,73359,1,0,0:0:0:0:
448,192,73359,1,0,0:0:0:0:
192,192,73447,1,0,0:0:0:0:
320,192,73447,1,0,0:0:0:0:
64,192,73535,1,0,0:0:0:0:
192,192,73535,1,0,0:0:0:0:
64,192,73624,1,0,0:0:0:0:
320,192,73624,1,0,0:0:0:0:
448,192,73624,1,0,0:0:0:0:
192,192,73712,1,0,0:0:0:0:
448,192,73712,1,0,0:0:0:0:
64,192,73800,1,0,0:0:0:0:
192,192,73800,1,0,0:0:0:0:
320,192,73800,1,0,0:0:0:0:
192,192,73977,1,0,0:0:0:0:
448,192,73977,1,0,0:0:0:0:
64,192,74153,1,0,0:0:0:0:
320,192,74153,1,0,0:0:0:0:
448,192,74153,1,0,0:0:0:0:
192,192,74241,1,0,0:0:0:0:
448,192,74241,1,0,0:0:0:0:
192,192,74330,1,0,0:0:0:0:
320,192,74330,1,0,0:0:0:0:
448,192,74330,1,0,0:0:0:0:
64,192,74506,1,0,0:0:0:0:
192,192,74506,1,0,0:0:0:0:
320,192,74682,1,0,0:0:0:0:
448,192,74682,1,0,0:0:0:0:
64,192,74727,1,0,0:0:0:0:
192,192,74771,1,0,0:0:0:0:
320,192,74815,1,0,0:0:0:0:
192,192,74859,1,0,0:0:0:0:
448,192,74859,1,0,0:0:0:0:
320,192,74903,1,0,0:0:0:0:
192,192,74947,1,0,0:0:0:0:
64,192,74991,1,0,0:0:0:0:
320,192,75035,1,0,0:0:0:0:
448,192,75035,1,0,0:0:0:0:
64,192,75212,1,0,0:0:0:0:
192,192,75212,1,0,0:0:0:0:
192,192,75388,1,0,0:0:0:0:
448,192,75388,1,0,0:0:0:0:
64,192,75477,1,0,0:0:0:0:
448,192,75477,1,0,0:0:0:0:
64,192,75653,1,0,0:0:0:0:
192,192,75653,1,0,0:0:0:0:
192,192,75741,1,0,0:0:0:0:
320,192,75741,1,0,0:0:0:0:
320,192,75918,1,0,0:0:0:0:
448,192,75918,1,0,0:0:0:0:
192,192,75962,1,0,0:0:0:0:
320,192,76006,1,0,0:0:0:0:
448,192,76050,1,0,0:0:0:0:
192,192,76094,1,0,0:0:0:0:
320,192,76094,1,0,0:0:0:0:
64,192,76182,1,0,0:0:0:0:
192,192,76182,1,0,0:0:0:0:
192,192,76271,1,0,0:0:0:0:
320,192,76271,1,0,0:0:0:0:
64,192,76359,1,0,0:0:0:0:
448,192,76359,1,0,0:0:0:0:
64,192,76447,1,0,0:0:0:0:
192,192,76447,1,0,0:0:0:0:
320,192,76447,1,0,0:0:0:0:
192,192,76535,1,0,0:0:0:0:
448,192,76535,1,0,0:0:0:0:
320,192,76624,1,0,0:0:0:0:
448,192,76624,1,0,0:0:0:0:
192,192,76800,1,0,0:0:0:0:
320,192,76800,1,0,0:0:0:0:
64,192,76977,1,0,0:0:0:0:
320,192,76977,1,0,0:0:0:0:
448,192,76977,1,0,0:0:0:0:
192,192,77065,1,0,0:0:0:0:
320,192,77065,1,0,0:0:0:0:
64,192,77153,1,0,0:0:0:0:
448,192,77153,1,0,0:0:0:0:
64,192,77329,1,0,0:0:0:0:
192,192,77329,1,0,0:0:0:0:
64,192,77506,1,0,0:0:0:0:
320,192,77506,1,0,0:0:0:0:
448,192,77506,1,0,0:0:0:0:
192,192,77594,1,0,0:0:0:0:
320,192,77594,1,0,0:0:0:0:
64,192,77682,1,0,0:0:0:0:
448,192,77682,1,0,0:0:0:0:
192,192,77859,1,0,0:0:0:0:
320,192,77859,1,0,0:0:0:0:
64,192,78035,1,0,0:0:0:0:
320,192,78035,1,0,0:0:0:0:
448,192,78035,1,0,0:0:0:0:
64,192,78124,1,0,0:0:0:0:
192,192,78124,1,0,0:0:0:0:
320,192,78212,1,0,0:0:0:0:
448,192,78212,1,0,0:0:0:0:
64,192,78388,1,0,0:0:0:0:
192,192,78388,1,0,0:0:0:0:
448,192,78388,1,0,0:0:0:0:
64,192,78565,1,0,0:0:0:0:
192,192,78565,1,0,0:0:0:0:
320,192,78565,1,0,0:0:0:0:
64,192,78741,1,0,0:0:0:0:
320,192,78741,1,0,0:0:0:0:
192,192,78829,1,0,0:0:0:0:
448,192,78829,1,0,0:0:0:0:
64,192,78918,1,0,0:0:0:0:
320,192,78918,1,0,0:0:0:0:
448,192,78918,1,0,0:0:0:0:
192,192,79094,1,0,0:0:0:0:
320,192,79094,1,0,0:0:0:0:
448,192,79094,1,0,0:0:0:0:
64,192,79271,1,0,0:0:0:0:
192,192,79271,1,0,0:0:0:0:
320,192,79271,1,0,0:0:0:0:
448,192,79359,1,0,0:0:0:0:
64,192,79447,1,0,0:0:0:0:
320,192,79535,1,0,0:0:0:0:
64,192,79624,1,0,0:0:0:0:
192,192,79712,1,0,0:0:0:0:
320,192,79800,1,0,0:0:0:0:
448,192,79888,1,0,0:0:0:0:
192,192,79977,1,0,0:0:0:0:
320,192,80065,1,0,0:0:0:0:
64,192,80153,1,0,0:0:0:0:
320,192,80241,1,0,0:0:0:0:
448,192,80329,1,0,0:0:0:0:
192,192,80418,1,0,0:0:0:0:
64,192,80506,1,0,0:0:0:0:
320,192,80594,1,0,0:0:0:0:
192,192,80682,1,0,0:0:0:0:
320,192,80771,1,0,0:0:0:0:
64,192,80859,1,0,0:0:0:0:
320,192,80947,1,0,0:0:0:0:
448,192,81035,1,0,0:0:0:0:
192,192,81124,1,0,0:0:0:0:
64,192,81212,1,0,0:0:0:0:
320,192,81300,1,0,0:0:0:0:
448,192,81388,1,0,0:0:0:0:
64,192,81477,1,0,0:0:0:0:
320,192,81565,1,0,0:0:0:0:
192,192,81653,1,0,0:0:0:0:
448,192,81741,1,0,0:0:0:0:
192,192,81829,1,0,0:0:0:0:
448,192,81918,1,0,0:0:0:0:
320,192,82006,1,0,0:0:0:0:
64,192,82094,1,0,0:0:0:0:
192,192,82094,1,0,0:0:0:0:
448,192,82094,1,0,0:0:0:0:
320,192,82271,1,0,0:0:0:0:
448,192,82271,1,0,0:0:0:0:
64,192,82447,1,0,0:0:0:0:
192,192,82447,1,0,0:0:0:0:
320,192,82447,1,0,0:0:0:0:
64,192,82624,1,0,0:0:0:0:
448,192,82624,1,0,0:0:0:0:
192,192,82800,1,0,0:0:0:0:
320,192,82800,1,0,0:0:0:0:
320,192,82888,1,0,0:0:0:0:
448,192,82888,1,0,0:0:0:0:
64,192,82976,1,0,0:0:0:0:
192,192,82976,1,0,0:0:0:0:
64,192,83153,1,0,0:0:0:0:
320,192,83153,1,0,0:0:0:0:
448,192,83153,1,0,0:0:0:0:
64,192,83329,1,0,0:0:0:0:
320,192,83329,1,0,0:0:0:0:
192,192,83506,1,0,0:0:0:0:
320,192,83506,1,0,0:0:0:0:
448,192,83506,1,0,0:0:0:0:
64,192,83594,1,0,0:0:0:0:
192,192,83594,1,0,0:0:0:0:
64,192,83682,1,0,0:0:0:0:
192,192,83682,1,0,0:0:0:0:
320,192,83682,1,0,0:0:0:0:
192,192,83771,1,0,0:0:0:0:
320,192,83771,1,0,0:0:0:0:
64,192,83859,1,0,0:0:0:0:
192,192,83859,1,0,0:0:0:0:
448,192,83859,1,0,0:0:0:0:
320,192,83947,1,0,0:0:0:0:
448,192,83947,1,0,0:0:0:0:
192,192,84035,1,0,0:0:0:0:
320,192,84035,1,0,0:0:0:0:
448,192,84035,1,0,0:0:0:0:
192,192,84124,1,0,0:0:0:0:
320,192,84124,1,0,0:0:0:0:
64,192,84212,1,0,0:0:0:0:
192,192,84212,1,0,0:0:0:0:
448,192,84212,1,0,0:0:0:0:
320,192,84300,1,0,0:0:0:0:
448,192,84300,1,0,0:0:0:0:
192,192,84388,1,0,0:0:0:0:
320,192,84388,1,0,0:0:0:0:
64,192,84476,1,0,0:0:0:0:
448,192,84476,1,0,0:0:0:0:
192,192,84565,1,0,0:0:0:0:
320,192,84565,1,0,0:0:0:0:
448,192,84565,1,0,0:0:0:0:
64,192,84653,1,0,0:0:0:0:
192,192,84653,1,0,0:0:0:0:
64,192,84741,1,0,0:0:0:0:
448,192,84741,1,0,0:0:0:0:
192,192,84829,1,0,0:0:0:0:
320,192,84829,1,0,0:0:0:0:
64,192,84918,1,0,0:0:0:0:
320,192,84918,1,0,0:0:0:0:
448,192,84918,1,0,0:0:0:0:
192,192,85094,1,0,0:0:0:0:
320,192,85094,1,0,0:0:0:0:
448,192,85094,1,0,0:0:0:0:
64,192,85271,1,0,0:0:0:0:
192,192,85271,1,0,0:0:0:0:
448,192,85271,1,0,0:0:0:0:
320,192,85447,1,0,0:0:0:0:
448,192,85447,1,0,0:0:0:0:
192,192,85535,1,0,0:0:0:0:
320,192,85535,1,0,0:0:0:0:
64,192,85624,1,0,0:0:0:0:
320,192,85624,1,0,0:0:0:0:
448,192,85624,1,0,0:0:0:0:
64,192,85800,1,0,0:0:0:0:
192,192,85800,1,0,0:0:0:0:
320,192,85800,1,0,0:0:0:0:
64,192,85976,1,0,0:0:0:0:
192,192,85976,1,0,0:0:0:0:
448,192,85976,1,0,0:0:0:0:
64,192,86153,1,0,0:0:0:0:
320,192,86153,1,0,0:0:0:0:
448,192,86153,1,0,0:0:0:0:
192,192,86241,1,0,0:0:0:0:
448,192,86241,1,0,0:0:0:0:
64,192,86329,1,0,0:0:0:0:
320,192,86329,1,0,0:0:0:0:
448,192,86329,1,0,0:0:0:0:
320,192,86506,1,0,0:0:0:0:
448,192,86506,1,0,0:0:0:0:
192,192,86682,1,0,0:0:0:0:
448,192,86682,1,0,0:0:0:0:
192,192,86771,1,0,0:0:0:0:
320,192,86771,1,0,0:0:0:0:
64,192,86859,1,0,0:0:0:0:
192,192,86859,1,0,0:0:0:0:
320,192,86947,1,0,0:0:0:0:
64,192,87035,1,0,0:0:0:0:
448,192,87035,1,0,0:0:0:0:
192,192,87124,1,0,0:0:0:0:
320,192,87124,1,0,0:0:0:0:
64,192,87212,1,0,0:0:0:0:
192,192,87212,1,0,0:0:0:0:
320,192,87300,1,0,0:0:0:0:
64,192,87388,1,0,0:0:0:0:
192,192,87388,1,0,0:0:0:0:
320,192,87476,1,0,0:0:0:0:
448,192,87476,1,0,0:0:0:0:
192,192,87565,1,0,0:0:0:0:
320,192,87565,1,0,0:0:0:0:
64,192,87653,1,0,0:0:0:0:
192,192,87653,1,0,0:0:0:0:
192,192,87741,1,0,0:0:0:0:
320,192,87741,1,0,0:0:0:0:
448,192,87741,1,0,0:0:0:0:
192,192,87918,1,0,0:0:0:0:
320,192,87918,1,0,0:0:0:0:
64,192,88006,1,0,0:0:0:0:
192,192,88006,1,0,0:0:0:0:
64,192,88094,1,0,0:0:0:0:
320,192,88094,1,0,0:0:0:0:
448,192,88094,1,0,0:0:0:0:
64,192,88271,1,0,0:0:0:0:
192,192,88271,1,0,0:0:0:0:
320,192,88359,1,0,0:0:0:0:
192,192,88447,1,0,0:0:0:0:
320,192,88447,1,0,0:0:0:0:
448,192,88447,1,0,0:0:0:0:
64,192,88535,1,0,0:0:0:0:
192,192,88535,1,0,0:0:0:0:
192,192,88623,1,0,0:0:0:0:
320,192,88623,1,0,0:0:0:0:
64,192,88800,1,0,0:0:0:0:
320,192,88800,1,0,0:0:0:0:
448,192,88800,1,0,0:0:0:0:
192,192,88976,1,0,0:0:0:0:
320,192,88976,1,0,0:0:0:0:
320,192,89065,1,0,0:0:0:0:
448,192,89065,1,0,0:0:0:0:
64,192,89153,1,0,0:0:0:0:
192,192,89153,1,0,0:0:0:0:
448,192,89153,1,0,0:0:0:0:
192,192,89329,1,0,0:0:0:0:
320,192,89329,1,0,0:0:0:0:
448,192,89329,1,0,0:0:0:0:
64,192,89506,1,0,0:0:0:0:
192,192,89506,1,0,0:0:0:0:
320,192,89506,1,0,0:0:0:0:
192,192,89682,1,0,0:0:0:0:
320,192,89682,1,0,0:0:0:0:
448,192,89682,1,0,0:0:0:0:
64,192,89859,1,0,0:0:0:0:
320,192,89859,1,0,0:0:0:0:
448,192,89859,1,0,0:0:0:0:
64,192,89947,1,0,0:0:0:0:
192,192,89947,1,0,0:0:0:0:
192,192,90035,1,0,0:0:0:0:
320,192,90035,1,0,0:0:0:0:
64,192,90123,1,0,0:0:0:0:
448,192,90123,1,0,0:0:0:0:
192,192,90212,1,0,0:0:0:0:
320,192,90212,1,0,0:0:0:0:
448,192,90212,1,0,0:0:0:0:
64,192,90388,1,0,0:0:0:0:
192,192,90388,1,0,0:0:0:0:
320,192,90388,1,0,0:0:0:0:
64,192,90565,1,0,0:0:0:0:
320,192,90565,1,0,0:0:0:0:
448,192,90565,1,0,0:0:0:0:
192,192,90741,1,0,0:0:0:0:
448,192,90741,1,0,0:0:0:0:
64,192,90918,1,0,0:0:0:0:
320,192,90918,1,0,0:0:0:0:
448,192,90918,1,0,0:0:0:0:
192,192,91094,1,0,0:0:0:0:
320,192,91094,1,0,0:0:0:0:
320,192,91182,1,0,0:0:0:0:
448,192,91182,1,0,0:0:0:0:
64,192,91271,1,0,0:0:0:0:
192,192,91271,1,0,0:0:0:0:
448,192,91271,1,0,0:0:0:0:
320,192,91359,1,0,0:0:0:0:
448,192,91359,1,0,0:0:0:0:
192,192,91447,1,0,0:0:0:0:
320,192,91447,1,0,0:0:0:0:
64,192,91535,1,0,0:0:0:0:
192,192,91535,1,0,0:0:0:0:
192,192,91623,1,0,0:0:0:0:
320,192,91623,1,0,0:0:0:0:
448,192,91623,1,0,0:0:0:0:
64,192,91800,1,0,0:0:0:0:
192,192,91800,1,0,0:0:0:0:
192,192,91976,1,0,0:0:0:0:
320,192,91976,1,0,0:0:0:0:
64,192,92153,1,0,0:0:0:0:
448,192,92153,1,0,0:0:0:0:
64,192,92329,1,0,0:0:0:0:
192,192,92329,1,0,0:0:0:0:
320,192,92329,1,0,0:0:0:0:
320,192,92418,1,0,0:0:0:0:
448,192,92418,1,0,0:0:0:0:
64,192,92506,1,0,0:0:0:0:
192,192,92506,1,0,0:0:0:0:
192,192,92594,1,0,0:0:0:0:
320,192,92594,1,0,0:0:0:0:
64,192,92682,1,0,0:0:0:0:
320,192,92682,1,0,0:0:0:0:
448,192,92682,1,0,0:0:0:0:
64,192,92771,1,0,0:0:0:0:
192,192,92771,1,0,0:0:0:0:
192,192,92859,1,0,0:0:0:0:
320,192,92859,1,0,0:0:0:0:
320,192,92947,1,0,0:0:0:0:
448,192,92947,1,0,0:0:0:0:
192,192,93035,1,0,0:0:0:0:
320,192,93035,1,0,0:0:0:0:
448,192,93035,1,0,0:0:0:0:
64,192,93123,1,0,0:0:0:0:
192,192,93123,1,0,0:0:0:0:
64,192,93212,1,0,0:0:0:0:
448,192,93212,1,0,0:0:0:0:
64,192,93300,1,0,0:0:0:0:
320,192,93300,1,0,0:0:0:0:
64,192,93388,1,0,0:0:0:0:
192,192,93388,1,0,0:0:0:0:
448,192,93388,1,0,0:0:0:0:
320,192,93476,1,0,0:0:0:0:
448,192,93476,1,0,0:0:0:0:
192,192,93565,1,0,0:0:0:0:
320,192,93565,1,0,0:0:0:0:
64,192,93741,1,0,0:0:0:0:
320,192,93741,1,0,0:0:0:0:
448,192,93741,1,0,0:0:0:0:
64,192,93918,1,0,0:0:0:0:
192,192,93918,1,0,0:0:0:0:
320,192,94006,1,0,0:0:0:0:
448,192,94006,1,0,0:0:0:0:
192,192,94094,1,0,0:0:0:0:
320,192,94094,1,0,0:0:0:0:
64,192,94182,1,0,0:0:0:0:
192,192,94182,1,0,0:0:0:0:
192,192,94270,1,0,0:0:0:0:
320,192,94270,1,0,0:0:0:0:
64,192,94447,1,0,0:0:0:0:
192,192,94447,1,0,0:0:0:0:
448,192,94447,1,0,0:0:0:0:
192,192,94623,1,0,0:0:0:0:
320,192,94623,1,0,0:0:0:0:
448,192,94623,1,0,0:0:0:0:
192,192,94712,1,0,0:0:0:0:
448,192,94712,1,0,0:0:0:0:
64,192,94800,1,0,0:0:0:0:
192,192,94800,1,0,0:0:0:0:
320,192,94800,1,0,0:0:0:0:
448,192,94888,1,0,0:0:0:0:
192,192,94976,1,0,0:0:0:0:
64,192,95065,1,0,0:0:0:0:
320,192,95065,1,0,0:0:0:0:
64,192,95153,1,0,0:0:0:0:
448,192,95153,1,0,0:0:0:0:
192,192,95241,1,0,0:0:0:0:
320,192,95241,1,0,0:0:0:0:
320,192,95329,1,0,0:0:0:0:
448,192,95329,1,0,0:0:0:0:
192,192,95418,1,0,0:0:0:0:
320,192,95418,1,0,0:0:0:0:
64,192,95506,1,0,0:0:0:0:
192,192,95506,1,0,0:0:0:0:
320,192,95506,1,0,0:0:0:0:
192,192,95682,1,0,0:0:0:0:
320,192,95682,1,0,0:0:0:0:
448,192,95682,1,0,0:0:0:0:
64,192,95770,1,0,0:0:0:0:
192,192,95770,1,0,0:0:0:0:
64,192,95859,1,0,0:0:0:0:
320,192,95859,1,0,0:0:0:0:
448,192,95859,1,0,0:0:0:0:
192,192,96035,1,0,0:0:0:0:
320,192,96035,1,0,0:0:0:0:
448,192,96035,1,0,0:0:0:0:
64,192,96212,1,0,0:0:0:0:
192,192,96212,1,0,0:0:0:0:
448,192,96212,1,0,0:0:0:0:
320,192,96388,1,0,0:0:0:0:
448,192,96388,1,0,0:0:0:0:
64,192,96476,1,0,0:0:0:0:
192,192,96476,1,0,0:0:0:0:
64,192,96565,1,0,0:0:0:0:
192,192,96565,1,0,0:0:0:0:
320,192,96565,1,0,0:0:0:0:
192,192,96741,1,0,0:0:0:0:
448,192,96741,1,0,0:0:0:0:
192,192,96829,1,0,0:0:0:0:
320,192,96829,1,0,0:0:0:0:
64,192,96918,1,0,0:0:0:0:
448,192,96918,1,0,0:0:0:0:
64,192,97094,1,0,0:0:0:0:
192,192,97094,1,0,0:0:0:0:
192,192,97182,1,0,0:0:0:0:
320,192,97182,1,0,0:0:0:0:
64,192,97270,1,0,0:0:0:0:
192,192,97270,1,0,0:0:0:0:
448,192,97270,1,0,0:0:0:0:
320,192,97447,1,0,0:0:0:0:
448,192,97447,1,0,0:0:0:0:
64,192,97535,1,0,0:0:0:0:
192,192,97535,1,0,0:0:0:0:
64,192,97623,1,0,0:0:0:0:
320,192,97623,1,0,0:0:0:0:
448,192,97623,1,0,0:0:0:0:
192,192,97800,1,0,0:0:0:0:
448,192,97800,1,0,0:0:0:0:
64,192,97976,1,0,0:0:0:0:
320,192,97976,1,0,0:0:0:0:
448,192,97976,1,0,0:0:0:0:
192,192,98065,1,0,0:0:0:0:
448,192,98065,1,0,0:0:0:0:
64,192,98153,1,0,0:0:0:0:
320,192,98153,1,0,0:0:0:0:
192,192,98329,1,0,0:0:0:0:
320,192,98329,1,0,0:0:0:0:
448,192,98329,1,0,0:0:0:0:
64,192,98418,1,0,0:0:0:0:
320,192,98418,1,0,0:0:0:0:
192,192,98506,1,0,0:0:0:0:
320,192,98506,1,0,0:0:0:0:
64,192,98682,1,0,0:0:0:0:
320,192,98682,1,0,0:0:0:0:
448,192,98682,1,0,0:0:0:0:
192,192,98770,1,0,0:0:0:0:
320,192,98770,1,0,0:0:0:0:
320,192,98859,1,0,0:0:0:0:
448,192,98859,1,0,0:0:0:0:
64,192,98947,1,0,0:0:0:0:
192,192,98947,1,0,0:0:0:0:
64,192,99035,1,0,0:0:0:0:
192,192,99035,1,0,0:0:0:0:
320,192,99035,1,0,0:0:0:0:
320,192,99212,1,0,0:0:0:0:
448,192,99212,1,0,0:0:0:0:
64,192,99388,1,0,0:0:0:0:
192,192,99388,1,0,0:0:0:0:
448,192,99388,1,0,0:0:0:0:
64,192,99476,1,0,0:0:0:0:
320,192,99476,1,0,0:0:0:0:
64,192,99565,1,0,0:0:0:0:
192,192,99565,1,0,0:0:0:0:
192,192,99653,1,0,0:0:0:0:
320,192,99653,1,0,0:0:0:0:
64,192,99741,1,0,0:0:0:0:
448,192,99741,1,0,0:0:0:0:
320,192,99829,1,0,0:0:0:0:
192,192,99917,1,0,0:0:0:0:
448,192,99917,1,0,0:0:0:0:
320,192,100006,1,0,0:0:0:0:
64,192,100094,1,0,0:0:0:0:
192,192,100094,1,0,0:0:0:0:
448,192,100094,1,0,0:0:0:0:
64,192,100182,1,0,0:0:0:0:
320,192,100182,1,0,0:0:0:0:
192,192,100270,1,0,0:0:0:0:
320,192,100270,1,0,0:0:0:0:
64,192,100359,1,0,0:0:0:0:
448,192,100359,1,0,0:0:0:0:
64,192,100447,1,0,0:0:0:0:
192,192,100447,1,0,0:0:0:0:
320,192,100447,1,0,0:0:0:0:
64,192,100535,1,0,0:0:0:0:
192,192,100535,1,0,0:0:0:0:
320,192,100623,1,0,0:0:0:0:
448,192,100623,1,0,0:0:0:0:
320,192,100712,1,0,0:0:0:0:
448,192,100712,1,0,0:0:0:0:
64,192,100800,1,0,0:0:0:0:
448,192,100800,1,0,0:0:0:0:
64,192,100888,1,0,0:0:0:0:
448,192,100888,1,0,0:0:0:0:
192,192,100976,1,0,0:0:0:0:
320,192,100976,1,0,0:0:0:0:
192,192,101065,1,0,0:0:0:0:
320,192,101065,1,0,0:0:0:0:
64,192,101153,1,0,0:0:0:0:
448,192,101153,1,0,0:0:0:0:
192,192,101241,1,0,0:0:0:0:
320,192,101241,1,0,0:0:0:0:
320,192,101329,1,0,0:0:0:0:
448,192,101329,1,0,0:0:0:0:
64,192,101417,1,0,0:0:0:0:
192,192,101417,1,0,0:0:0:0:
192,192,101506,1,0,0:0:0:0:
320,192,101506,1,0,0:0:0:0:
448,192,101506,1,0,0:0:0:0:
320,192,101594,1,0,0:0:0:0:
448,192,101594,1,0,0:0:0:0:
64,192,101682,1,0,0:0:0:0:
192,192,101682,1,0,0:0:0:0:
192,192,101770,1,0,0:0:0:0:
320,192,101770,1,0,0:0:0:0:
64,192,101859,1,0,0:0:0:0:
320,192,101859,1,0,0:0:0:0:
448,192,101859,1,0,0:0:0:0:
192,192,102035,1,0,0:0:0:0:
320,192,102035,1,0,0:0:0:0:
64,192,102212,1,0,0:0:0:0:
320,192,102212,1,0,0:0:0:0:
448,192,102212,1,0,0:0:0:0:
192,192,102300,1,0,0:0:0:0:
448,192,102300,1,0,0:0:0:0:
64,192,102388,1,0,0:0:0:0:
320,192,102388,1,0,0:0:0:0:
64,192,102476,1,0,0:0:0:0:
192,192,102476,1,0,0:0:0:0:
192,192,102565,1,0,0:0:0:0:
320,192,102565,1,0,0:0:0:0:
448,192,102565,1,0,0:0:0:0:
64,192,102741,1,0,0:0:0:0:
192,192,102741,1,0,0:0:0:0:
320,192,102741,1,0,0:0:0:0:
64,192,102917,1,0,0:0:0:0:
192,192,102917,1,0,0:0:0:0:
448,192,102917,1,0,0:0:0:0:
192,192,103006,1,0,0:0:0:0:
320,192,103006,1,0,0:0:0:0:
64,192,103094,1,0,0:0:0:0:
448,192,103094,1,0,0:0:0:0:
192,192,103182,1,0,0:0:0:0:
320,192,103182,1,0,0:0:0:0:
64,192,103270,1,0,0:0:0:0:
320,192,103270,1,0,0:0:0:0:
448,192,103270,1,0,0:0:0:0:
192,192,103447,1,0,0:0:0:0:
320,192,103447,1,0,0:0:0:0:
448,192,103447,1,0,0:0:0:0:
64,192,103623,1,0,0:0:0:0:
320,192,103623,1,0,0:0:0:0:
448,192,103623,1,0,0:0:0:0:
192,192,103712,1,0,0:0:0:0:
320,192,103712,1,0,0:0:0:0:
64,192,103800,1,0,0:0:0:0:
320,192,103800,1,0,0:0:0:0:
192,192,103888,1,0,0:0:0:0:
448,192,103888,1,0,0:0:0:0:
64,192,103976,1,0,0:0:0:0:
192,192,103976,1,0,0:0:0:0:
320,192,103976,1,0,0:0:0:0:
192,192,104153,1,0,0:0:0:0:
320,192,104153,1,0,0:0:0:0:
448,192,104153,1,0,0:0:0:0:
64,192,104329,1,0,0:0:0:0:
192,192,104329,1,0,0:0:0:0:
320,192,104329,1,0,0:0:0:0:
320,192,104417,1,0,0:0:0:0:
448,192,104417,1,0,0:0:0:0:
192,192,104506,1,0,0:0:0:0:
448,192,104506,1,0,0:0:0:0:
192,192,104682,1,0,0:0:0:0:
320,192,104682,1,0,0:0:0:0:
448,192,104682,1,0,0:0:0:0:
64,192,104770,1,0,0:0:0:0:
192,192,104770,1,0,0:0:0:0:
64,192,104859,1,0,0:0:0:0:
320,192,104859,1,0,0:0:0:0:
448,192,104859,1,0,0:0:0:0:
64,192,105035,1,0,0:0:0:0:
192,192,105035,1,0,0:0:0:0:
320,192,105035,1,0,0:0:0:0:
192,192,105123,1,0,0:0:0:0:
320,192,105212,1,0,0:0:0:0:
448,192,105212,1,0,0:0:0:0:
64,192,105388,1,0,0:0:0:0:
320,192,105388,1,0,0:0:0:0:
448,192,105388,1,0,0:0:0:0:
64,192,105476,1,0,0:0:0:0:
192,192,105476,1,0,0:0:0:0:
320,192,105476,1,0,0:0:0:0:
192,192,105564,1,0,0:0:0:0:
320,192,105564,1,0,0:0:0:0:
448,192,105564,1,0,0:0:0:0:
192,192,105741,1,0,0:0:0:0:
448,192,105741,1,0,0:0:0:0:
192,192,105829,1,0,0:0:0:0:
320,192,105829,1,0,0:0:0:0:
64,192,105917,1,0,0:0:0:0:
320,192,105917,1,0,0:0:0:0:
64,192,106094,1,0,0:0:0:0:
192,192,106094,1,0,0:0:0:0:
448,192,106094,1,0,0:0:0:0:
192,192,106182,1,0,0:0:0:0:
320,192,106182,1,0,0:0:0:0:
320,192,106270,1,0,0:0:0:0:
448,192,106270,1,0,0:0:0:0:
64,192,106359,1,0,0:0:0:0:
192,192,106359,1,0,0:0:0:0:
192,192,106447,1,0,0:0:0:0:
320,192,106447,1,0,0:0:0:0:
64,192,106535,1,0,0:0:0:0:
448,192,106535,1,0,0:0:0:0:
192,192,106623,1,0,0:0:0:0:
320,192,106623,1,0,0:0:0:0:
192,192,106712,1,0,0:0:0:0:
448,192,106712,1,0,0:0:0:0:
64,192,106800,1,0,0:0:0:0:
320,192,106800,1,0,0:0:0:0:
448,192,106800,1,0,0:0:0:0:
192,192,106844,1,0,0:0:0:0:
320,192,106888,1,0,0:0:0:0:
448,192,106888,1,0,0:0:0:0:
192,192,106932,1,0,0:0:0:0:
64,192,106976,1,0,0:0:0:0:
448,192,106976,1,0,0:0:0:0:
320,192,107020,1,0,0:0:0:0:
192,192,107064,1,0,0:0:0:0:
448,192,107064,1,0,0:0:0:0:
320,192,107109,1,0,0:0:0:0:
192,192,107153,1,0,0:0:0:0:
448,192,107153,1,0,0:0:0:0:
64,192,107197,1,0,0:0:0:0:
320,192,107241,1,0,0:0:0:0:
448,192,107241,1,0,0:0:0:0:
192,192,107285,1,0,0:0:0:0:
64,192,107329,1,0,0:0:0:0:
448,192,107329,1,0,0:0:0:0:
320,192,107373,1,0,0:0:0:0:
192,192,107417,1,0,0:0:0:0:
448,192,107417,1,0,0:0:0:0:
64,192,107462,1,0,0:0:0:0:
192,192,107506,1,0,0:0:0:0:
320,192,107506,1,0,0:0:0:0:
448,192,107506,1,0,0:0:0:0:
320,192,107682,1,0,0:0:0:0:
448,192,107859,1,0,0:0:0:0:
192,192,108035,1,0,0:0:0:0:
448,192,108300,1,0,0:0:0:0:
320,192,108388,1,0,0:0:0:0:
64,192,108564,1,0,0:0:0:0:
320,192,108741,1,0,0:0:0:0:
64,192,108917,1,0,0:0:0:0:
192,192,108917,1,0,0:0:0:0:
448,192,109094,1,0,0:0:0:0:
64,192,109270,1,0,0:0:0:0:
320,192,109447,1,0,0:0:0:0:
64,192,109623,1,0,0:0:0:0:
192,192,109623,1,0,0:0:0:0:
448,192,109667,1,0,0:0:0:0:
320,192,109712,1,0,0:0:0:0:
192,192,109756,1,0,0:0:0:0:
320,192,109800,1,0,0:0:0:0:
448,192,109844,1,0,0:0:0:0:
192,192,109888,1,0,0:0:0:0:
320,192,109932,1,0,0:0:0:0:
64,192,109976,1,0,0:0:0:0:
192,192,109976,1,0,0:0:0:0:
448,192,110020,1,0,0:0:0:0:
320,192,110064,1,0,0:0:0:0:
192,192,110109,1,0,0:0:0:0:
448,192,110153,1,0,0:0:0:0:
320,192,110197,1,0,0:0:0:0:
192,192,110241,1,0,0:0:0:0:
320,192,110285,1,0,0:0:0:0:
64,192,110329,1,0,0:0:0:0:
192,192,110329,1,0,0:0:0:0:
448,192,110329,1,0,0:0:0:0:
