osu file format v14

[General]
AudioFilename: audio.mp3
AudioLeadIn: 0
PreviewTime: 23812
Countdown: 0
SampleSet: Soft
StackLeniency: 0.7
Mode: 0
LetterboxInBreaks: 0
SkinPreference:Default
WidescreenStoryboard: 0

[Editor]
DistanceSpacing: 1
BeatDivisor: 6
GridSize: 32
TimelineZoom: 3.399999

[Metadata]
Title:Everybody Hates Chris
TitleUnicode:Everybody Hates Chris
Artist:Various Artists
ArtistUnicode:Various Artists
Creator:AJT
Version:Misunderstood
Source:Everybody Hates Chris
Tags:tichina arnold english black gospel choir jazz r&b soul bloxi
BeatmapID:3379576
BeatmapSetID:1655675

[Difficulty]
HPDrainRate:4
CircleSize:5
OverallDifficulty:6
ApproachRate:7
SliderMultiplier:2.2
SliderTickRate:1

[Events]
//Background and Video events
Video,0,"video.mp4"
0,0,"bg.jpg",0,0
//Break Periods
//Storyboard Layer 0 (Background)
//Storyboard Layer 1 (Fail)
//Storyboard Layer 2 (Pass)
//Storyboard Layer 3 (Foreground)
//Storyboard Layer 4 (Overlay)
//Storyboard Sound Samples

[TimingPoints]
735,689.655172413793,4,2,1,50,1,0
1424,714.285714285714,4,2,1,50,1,8
2852,750,4,2,1,50,1,8
3604,714.285714285714,4,2,1,50,1,8
11442,750,4,2,1,50,1,8
12192,692.04152249135,4,2,1,50,1,0
12884,718.562874251497,4,2,1,50,1,8
15039,713.436385255648,4,2,1,50,1,8
17205,714.285714285714,4,2,1,50,1,8
17919,714.285714285714,5,2,1,50,1,0
20895,672.268907563025,4,2,1,50,1,8
21567,722.89156626506,4,2,1,50,1,8
23012,808.625336927224,4,2,1,50,1,8
23822,662.983425414365,4,2,1,60,1,1
24484,723.109370292257,4,2,1,60,1,9
26653,714.285714285714,4,2,1,60,1,9
29510,718.993409227082,4,2,1,60,1,9
30947,731.707317073171,4,2,1,60,1,9
32044,724.63768115942,4,2,1,60,1,1
35872,725.274725277116,4,2,1,100,1,0

[Colours]
Combo1 : 255,64,64
Combo2 : 192,192,192
Combo3 : 82,82,82
Combo4 : 255,128,0

[HitObjects]
480,352,735,5,4,0:0:0:0:
410,298,1079,1,2,0:0:0:0:
331,337,1424,2,0,P|301:351|205:358,1,110,10|0,0:0|0:0,0:0:0:0:
163,320,2019,1,2,0:0:0:0:
284,143,2852,2,0,P|264:151|207:155,1,73.3333333333333,10|0,0:0|0:0,0:0:0:0:
187,129,3227,2,0,P|159:132|113:146,1,73.3333333333333
76,142,3604,6,0,P|62:172|55:268,1,110,2|0,0:0|0:0,0:0:0:0:
23,353,4318,1,10,0:0:0:0:
135,382,4675,1,0,0:0:0:0:
156,384,4913,1,2,0:0:0:0:
240,311,5270,1,0,0:0:0:0:
338,374,5627,1,0,0:0:0:0:
338,374,5746,2,0,P|394:366|445:364,1,73.3333333333333,10|0,0:0|0:0,0:0:0:0:
469,272,6342,1,0,0:0:0:0:
469,272,6461,38,0,P|477:216|471:155,1,110,2|0,0:0|0:0,0:0:0:0:
426,111,7056,1,0,0:0:0:0:
426,111,7175,2,0,P|370:103|375:166,1,110,10|0,0:0|0:0,0:0:0:0:
295,182,7770,2,0,B|268:224|315:262|291:291,1,110,2|0,0:0|0:0,0:0:0:0:
293,287,8246,1,0,0:0:0:0:
210,330,8484,1,0,0:0:0:0:
210,330,8603,2,0,P|154:322|93:328,1,110,10|0,0:0|0:0,0:0:0:0:
44,248,9199,1,0,0:0:0:0:
44,248,9318,5,2,0:0:0:0:
31,138,9675,1,2,0:0:0:0:
92,46,10032,1,10,0:0:0:0:
202,43,10389,1,2,0:0:0:0:
270,79,10627,1,0,0:0:0:0:
270,79,10746,1,2,0:0:0:0:
360,18,11103,1,0,0:0:0:0:
465,50,11442,38,0,P|466:93|465:124,1,73.3333333333333,10|0,0:0|0:0,0:0:0:0:
452,156,11817,1,0,0:0:0:0:
494,260,12192,1,2,0:0:0:0:
385,293,12538,5,2,0:0:0:0:
297,231,12884,2,0,P|213:233|175:249,1,110,10|0,0:0|0:0,0:0:0:0:
146,275,13482,1,2,0:0:0:0:
51,199,13842,1,2,0:0:0:0:
150,82,14321,2,0,B|173:110|173:110|133:151|132:204,1,110,10|0,0:0|0:0,0:0:0:0:
92,257,14919,1,0,0:0:0:0:
92,257,15039,37,2,0:0:0:0:
191,316,15395,1,2,0:0:0:0:
275,262,15752,2,0,P|297:263|403:293,1,110,10|0,0:0|0:0,0:0:0:0:
436,326,16346,1,2,0:0:0:0:
479,242,16703,1,2,0:0:0:0:
445,80,17205,1,10,0:0:0:0:
384,32,17443,1,0,0:0:0:0:
384,32,17562,1,2,0:0:0:0:
324,88,17800,6,0,P|293:86|173:92,1,146.666666666667,2|0,0:0|0:0,0:0:0:0:
105,81,18514,2,0,B|112:134|49:151|63:225,1,146.666666666667,2|0,0:0|0:0,0:0:0:0:
123,256,19228,1,2,0:0:0:0:
226,325,19704,1,0,0:0:0:0:
242,341,19942,2,0,P|279:330|417:331,1,146.666666666667,2|0,0:0|0:0,0:0:0:0:
512,192,20776,1,0,0:0:0:0:
512,192,20895,38,0,P|475:189|433:197,1,73.3333333333333,2|0,0:0|0:0,0:0:0:0:
414,221,21231,2,0,P|377:214|338:195,1,73.3333333333333,2|0,0:0|0:0,0:0:0:0:
315,176,21567,2,0,P|278:182|239:201,1,73.3333333333333,10|0,0:0|0:0,0:0:0:0:
208,194,21928,1,2,0:0:0:0:
118,252,22289,1,2,0:0:0:0:
22,187,22651,1,2,0:0:0:0:
19,316,23012,22,2,B|83:351|151:236|223:286,1,183.333333333333,10|0,0:0|0:0,0:1:0:0:
234,306,23820,5,4,0:0:0:0:
329,252,24153,1,0,0:0:0:0:
245,179,24484,2,0,P|217:181|117:199,1,110,10|0,0:0|0:0,0:0:0:0:
124,121,25086,2,0,P|178:111|233:106,1,110,2|0,0:0|0:0,0:0:0:0:
363,12,25930,1,10,0:0:0:0:
253,3,26291,1,2,0:0:0:0:
180,16,26532,1,0,0:0:0:0:
180,16,26653,38,0,P|135:7|51:-2,1,110,2|0,0:0|0:0,0:0:0:0:
23,99,27367,1,10,0:0:0:0:
114,168,27724,1,0,0:0:0:0:
125,184,27962,1,2,0:0:0:0:
219,135,28319,1,0,0:0:0:0:
206,299,28795,2,0,P|214:325|221:393,1,73.3333333333333,10|0,0:0|0:0,0:0:0:0:
254,375,29153,1,0,0:0:0:0:
365,376,29510,5,2,0:0:0:0:
459,320,29869,1,2,0:0:0:0:
466,210,30228,1,10,0:0:0:0:
406,117,30588,1,2,0:0:0:0:
256,64,30947,1,2,0:0:0:0:
160,192,31312,1,2,0:0:0:0:
0,0,32044,37,6,0:0:0:0:
256,192,32164,12,0,35872,0:0:0:0:
