osu file format v14

[General]
AudioFilename: audio.mp3
AudioLeadIn: 0
PreviewTime: -1
Countdown: 0
SampleSet: None
StackLeniency: 0.7
Mode: 3
LetterboxInBreaks: 0
SpecialStyle: 0
WidescreenStoryboard: 0

[Editor]
DistanceSpacing: 1.2
BeatDivisor: 4
GridSize: 4
TimelineZoom: 1

[Metadata]
Title:Eternal Pack 2
TitleUnicode:Eternal Pack 2
Artist:Various Artists
ArtistUnicode:Various Artists
Creator:[Shana Lesus]
Version:Yui Horie - The World's End
Source:
Tags:
BeatmapID:2194630
BeatmapSetID:1049301

[Difficulty]
HPDrainRate:8
CircleSize:7
OverallDifficulty:8
ApproachRate:5
SliderMultiplier:1.4
SliderTickRate:1

[Events]
//Background and Video events
0,0,"World End.jpg",0,0
//Break Periods
//Storyboard Layer 0 (Background)
//Storyboard Layer 1 (Fail)
//Storyboard Layer 2 (Pass)
//Storyboard Layer 3 (Foreground)
//Storyboard Layer 4 (Overlay)
//Storyboard Sound Samples
Sample,9600,0,"D4S_s.ogg",48
Sample,9600,0,"G3S_s.ogg",48
Sample,10600,0,"G4S_s.ogg",69
Sample,10600,0,"C4S_s.ogg",69
Sample,11600,0,"A4S_s.ogg",63
Sample,11600,0,"D4S_s.ogg",63
Sample,12600,0,"B4S_s.ogg",65
Sample,12600,0,"E4S_s.ogg",65
Sample,13600,0,"G4S_s.ogg",55
Sample,13600,0,"C4S_s.ogg",55
Sample,14600,0,"G4S_s.ogg",61
Sample,14600,0,"B3S_s.ogg",61
Sample,15600,0,"D4S_s.ogg",56
Sample,15600,0,"F#3S_Gb3S_s.ogg",56
Sample,16600,0,"D4S_s.ogg",58
Sample,16600,0,"G3S_s.ogg",58
Sample,16850,0,"G3S.ogg",55
Sample,17600,0,"G3S.ogg",55
Sample,17600,0,"D5S.ogg",66
Sample,17600,0,"G2S.ogg",55
Sample,18100,0,"B3S_s.ogg",65
Sample,18600,0,"C3S.ogg",54
Sample,18600,0,"G5S.ogg",75
Sample,18600,0,"C2S.ogg",54
Sample,19100,0,"E4S_s.ogg",79
Sample,19600,0,"D3S.ogg",60
Sample,19600,0,"A5S.ogg",74
Sample,19600,0,"D2S.ogg",60
Sample,20100,0,"F#4S_Gb4S_s.ogg",74
Sample,20600,0,"E3S.ogg",60
Sample,20600,0,"B5S.ogg",78
Sample,20600,0,"E2S.ogg",60
Sample,21100,0,"G4S_s.ogg",74
Sample,21600,0,"C3S.ogg",59
Sample,21600,0,"B5S.ogg",77
Sample,21600,0,"C2S.ogg",59
Sample,22100,0,"E4S_s.ogg",81
Sample,22600,0,"B2S.ogg",59
Sample,22600,0,"G5S.ogg",76
Sample,22600,0,"B1S.ogg",59
Sample,23100,0,"D4S_s.ogg",71
Sample,23600,0,"F#4S_Gb4S.ogg",63
Sample,23600,0,"F#5S_Gb5S.ogg",71
Sample,23600,0,"F#3S_Gb3S.ogg",63
Sample,24100,0,"A4S_s.ogg",74
Sample,24350,0,"F#4S_Gb4S_s.ogg",55
Sample,24350,0,"G5S_s.ogg",77
Sample,24600,0,"G4S.ogg",60
Sample,24600,0,"G5S.ogg",77
Sample,24600,0,"G3S.ogg",60
Sample,25100,0,"B4S_s.ogg",77
Sample,33600,0,"G3S_s.ogg",50
Sample,33600,0,"D6S.ogg",69
Sample,34600,0,"C4S_s.ogg",52
Sample,34600,0,"G6S.ogg",77
Sample,35600,0,"D4S_s.ogg",52
Sample,35600,0,"A6S.ogg",80
Sample,36600,0,"E4S_s.ogg",51
Sample,36600,0,"B6S.ogg",72
Sample,37600,0,"C4S_s.ogg",51
Sample,37600,0,"B6S.ogg",75
Sample,38600,0,"B3S_s.ogg",48
Sample,38600,0,"G6S.ogg",78
Sample,39600,0,"F#4S_Gb4S_s.ogg",54
Sample,39600,0,"F#6S_Gb6S.ogg",73
Sample,40600,0,"G4S_s.ogg",51
Sample,40600,0,"G6S_s.ogg",77
Sample,56600,0,"G3S_s.ogg",59
Sample,56600,0,"D4S_s.ogg",59
Sample,56725,0,"G3S_s.ogg",59
Sample,56725,0,"D4S_s.ogg",59
Sample,56850,0,"G3S_s.ogg",62
Sample,56850,0,"D4S_s.ogg",62
Sample,57100,0,"G3S.ogg",59
Sample,57100,0,"D4S.ogg",59
Sample,58350,0,"C4S_s.ogg",65
Sample,59350,0,"C4S_s.ogg",66
Sample,59850,0,"B3S_s.ogg",65
Sample,60350,0,"B3S_s.ogg",62
Sample,60850,0,"A#3S_Bb3S_s.ogg",67
Sample,62350,0,"A3S_s.ogg",63
Sample,63350,0,"B3S_s.ogg",60
Sample,64850,0,"D4S_s.ogg",61
Sample,65600,0,"C3S_s.ogg",64
Sample,65600,0,"B5S.ogg",81
Sample,65600,0,"C2S_s.ogg",64
Sample,66100,0,"C2S_s.ogg",62
Sample,66350,0,"C4S_s.ogg",66
Sample,66350,0,"E4S_s.ogg",66
Sample,66475,0,"A5S.ogg",67
Sample,67100,0,"C2S_s.ogg",63
Sample,67350,0,"C4S_s.ogg",68
Sample,67350,0,"E4S_s.ogg",68
Sample,67600,0,"B2S_s.ogg",64
Sample,67600,0,"B5S_s.ogg",81
Sample,67600,0,"B1S_s.ogg",64
Sample,67850,0,"D4S_s.ogg",66
Sample,67850,0,"B3S_s.ogg",66
Sample,68100,0,"B1S_s.ogg",64
Sample,68350,0,"B3S_s.ogg",66
Sample,68350,0,"D4S_s.ogg",66
Sample,68850,0,"A#3S_Bb3S_s.ogg",66
Sample,68850,0,"C4S_s.ogg",66
Sample,69100,0,"null_s.ogg",62
Sample,69600,0,"A2S_s.ogg",62
Sample,69600,0,"null_s.ogg",62
Sample,69600,0,"B5S.ogg",92
Sample,70100,0,"null_s.ogg",63
Sample,70350,0,"C4S_s.ogg",65
Sample,70350,0,"A3S_s.ogg",65
Sample,70475,0,"A5S.ogg",68
Sample,71100,0,"B1S_s.ogg",61
Sample,71350,0,"D4S_s.ogg",67
Sample,71350,0,"B3S_s.ogg",67
Sample,71600,0,"E2S_s.ogg",61
Sample,72100,0,"E2S_s.ogg",62
Sample,72600,0,"D2S_s.ogg",62
Sample,72850,0,"D4S_s.ogg",66
Sample,72850,0,"F#4S_Gb4S_s.ogg",66
Sample,73100,0,"D2S_s.ogg",63

[TimingPoints]
0,600,4,1,1,100,1,0
9600,500,4,1,1,100,1,0

[HitObjects]
83,192,0,5,0,0:0:0:53:G5S.ogg
375,192,0,1,0,0:0:0:48:D6S.ogg
302,192,900,1,0,0:0:0:60:G6S_s.ogg
156,192,1200,1,0,0:0:0:67:C6S.ogg
448,192,1200,1,0,0:0:0:57:G6S.ogg
229,192,2100,1,0,0:0:0:59:A6S_s.ogg
10,192,2400,1,0,0:0:0:66:D6S.ogg
375,192,2400,1,0,0:0:0:54:A6S.ogg
83,192,3300,1,0,0:0:0:59:B6S_s.ogg
156,192,3600,1,0,0:0:0:61:E6S.ogg
302,192,3600,1,0,0:0:0:55:B6S.ogg
448,192,4500,1,0,0:0:0:61:C7S_s.ogg
229,192,4800,1,0,0:0:0:51:C6S.ogg
375,192,4800,1,0,0:0:0:55:B6S.ogg
10,192,5700,1,0,0:0:0:48:G6S_s.ogg
83,192,6000,1,0,0:0:0:55:B5S.ogg
302,192,6000,1,0,0:0:0:55:G6S.ogg
156,192,6900,1,0,0:0:0:58:A6S_s.ogg
448,192,7050,1,0,0:0:0:51:G6S_s.ogg
229,192,7200,1,0,0:0:0:52:F#5S_Gb5S.ogg
375,192,7200,1,0,0:0:0:48:F#6S_Gb6S.ogg
10,192,8100,1,0,0:0:0:51:E6S_s.ogg
83,192,8400,1,0,0:0:0:62:G5S.ogg
302,192,8400,1,0,0:0:0:60:G6S.ogg
156,192,9600,1,0,0:0:0:48:G4S_s.ogg
229,192,9600,1,0,0:0:0:63:D5S.ogg
448,192,9600,1,0,0:0:0:63:D6S.ogg
10,192,9850,1,0,0:0:0:62:G3S_s.ogg
302,192,9850,1,0,0:0:0:62:D4S_s.ogg
375,192,9850,1,0,0:0:0:62:G4S_s.ogg
83,192,10350,1,0,0:0:0:55:D4S_s.ogg
156,192,10350,1,0,0:0:0:83:G5S_s.ogg
448,192,10350,1,0,0:0:0:83:G6S_s.ogg
229,192,10475,1,0,0:0:0:63:G4S_s.ogg
10,192,10600,1,0,0:0:0:69:C5S_s.ogg
302,192,10600,1,0,0:0:0:79:G5S.ogg
375,192,10600,1,0,0:0:0:79:G6S.ogg
83,192,10850,1,0,0:0:0:60:C4S_s.ogg
156,192,10850,1,0,0:0:0:60:G4S_s.ogg
448,192,10850,1,0,0:0:0:60:C5S_s.ogg
10,192,11350,1,0,0:0:0:51:G4S_s.ogg
229,192,11350,1,0,0:0:0:84:A5S_s.ogg
302,192,11350,1,0,0:0:0:84:A6S_s.ogg
375,192,11475,1,0,0:0:0:63:C5S_s.ogg
83,192,11600,1,0,0:0:0:63:D5S_s.ogg
156,192,11600,1,0,0:0:0:77:A5S.ogg
448,192,11600,1,0,0:0:0:77:A6S.ogg
10,192,11850,1,0,0:0:0:65:D4S_s.ogg
229,192,11850,1,0,0:0:0:65:A4S_s.ogg
302,192,11850,1,0,0:0:0:65:D5S_s.ogg
83,192,12350,1,0,0:0:0:52:A4S_s.ogg
375,192,12350,1,0,0:0:0:85:B5S_s.ogg
448,192,12350,1,0,0:0:0:85:B6S_s.ogg
156,192,12475,1,0,0:0:0:70:D5S_s.ogg
10,192,12600,1,0,0:0:0:65:E5S_s.ogg
229,192,12600,1,0,0:0:0:74:B5S.ogg
302,192,12600,1,0,0:0:0:74:B6S.ogg
83,192,12850,1,0,0:0:0:57:E4S_s.ogg
375,192,12850,1,0,0:0:0:57:B4S_s.ogg
448,192,12850,1,0,0:0:0:57:E5S_s.ogg
156,192,13350,1,0,0:0:0:59:B4S_s.ogg
229,192,13350,1,0,0:0:0:79:C6S_s.ogg
302,192,13350,1,0,0:0:0:79:C7S_s.ogg
10,192,13475,1,0,0:0:0:67:E5S_s.ogg
83,192,13600,1,0,0:0:0:55:C5S_s.ogg
375,192,13600,1,0,0:0:0:73:B5S.ogg
448,192,13600,1,0,0:0:0:73:B6S.ogg
156,192,13850,1,0,0:0:0:58:C4S_s.ogg
229,192,13850,1,0,0:0:0:58:G4S_s.ogg
302,192,13850,1,0,0:0:0:58:C5S_s.ogg
10,192,14350,1,0,0:0:0:55:G4S_s.ogg
83,192,14350,1,0,0:0:0:67:G5S_s.ogg
375,192,14350,1,0,0:0:0:67:G6S_s.ogg
448,192,14475,1,0,0:0:0:67:C5S_s.ogg
156,192,14600,1,0,0:0:0:61:B4S_s.ogg
229,192,14600,1,0,0:0:0:74:G5S.ogg
302,192,14600,1,0,0:0:0:74:G6S.ogg
10,192,14850,1,0,0:0:0:60:B3S_s.ogg
83,192,14850,1,0,0:0:0:60:G4S_s.ogg
375,192,14850,1,0,0:0:0:60:B4S_s.ogg
156,192,15350,1,0,0:0:0:55:G4S_s.ogg
229,192,15350,1,0,0:0:0:84:A5S_s.ogg
448,192,15350,1,0,0:0:0:84:A6S_s.ogg
83,192,15475,1,0,0:0:0:59:B4S_s.ogg
302,192,15475,1,0,0:0:0:70:G5S_s.ogg
375,192,15475,1,0,0:0:0:70:G6S_s.ogg
10,192,15600,1,0,0:0:0:56:F#4S_Gb4S_s.ogg
156,192,15600,1,0,0:0:0:70:F#5S_Gb5S.ogg
448,192,15600,1,0,0:0:0:70:F#6S_Gb6S.ogg
83,192,15850,1,0,0:0:0:58:F#3S_Gb3S_s.ogg
229,192,15850,1,0,0:0:0:58:D4S_s.ogg
375,192,15850,1,0,0:0:0:58:F#4S_Gb4S_s.ogg
10,192,16350,1,0,0:0:0:59:F#4S_Gb4S_s.ogg
302,192,16350,1,0,0:0:0:77:G5S_s.ogg
448,192,16350,1,0,0:0:0:77:G6S_s.ogg
156,192,16475,1,0,0:0:0:63:B4S_s.ogg
83,192,16600,1,0,0:0:0:58:G4S_s.ogg
229,192,16600,1,0,0:0:0:81:G5S.ogg
375,192,16600,1,0,0:0:0:81:G6S.ogg
10,192,16850,1,0,0:0:0:55:D4S.ogg
302,192,16850,1,0,0:0:0:55:G4S.ogg
448,192,16850,1,0,0:0:0:56:E5S_s.ogg
156,192,16975,1,0,0:0:0:59:F#5S_Gb5S_s.ogg
375,192,17100,1,0,0:0:0:65:G5S.ogg
229,192,17225,1,0,0:0:0:64:A5S_s.ogg
83,192,17350,1,0,0:0:0:63:B5S_s.ogg
448,192,17475,1,0,0:0:0:65:C6S_s.ogg
10,192,17600,1,0,0:0:0:66:G5S.ogg
156,192,17600,1,0,0:0:0:66:B5S.ogg
302,192,17600,1,0,0:0:0:66:D6S.ogg
229,192,17850,1,0,0:0:0:54:G3S.ogg
375,192,17850,1,0,0:0:0:55:D5S.ogg
83,192,18100,1,0,0:0:0:65:D4S_s.ogg
156,192,18100,1,0,0:0:0:65:G4S_s.ogg
448,192,18100,1,0,0:0:0:66:G5S_s.ogg
10,192,18350,1,0,0:0:0:51:G3S_s.ogg
302,192,18350,1,0,0:0:0:83:G5S_s.ogg
375,192,18350,1,0,0:0:0:83:G6S_s.ogg
83,192,18600,1,0,0:0:0:75:B5S.ogg
229,192,18600,1,0,0:0:0:75:D6S.ogg
448,192,18600,1,0,0:0:0:75:G6S.ogg
156,192,18850,1,0,0:0:0:54:C4S_s.ogg
302,192,18850,1,0,0:0:0:51:G5S.ogg
10,192,19100,1,0,0:0:0:79:G4S_s.ogg
83,192,19100,1,0,0:0:0:79:C5S_s.ogg
375,192,19100,1,0,0:0:0:62:G5S_s.ogg
156,192,19350,1,0,0:0:0:57:C4S_s.ogg
229,192,19350,1,0,0:0:0:80:A5S_s.ogg
448,192,19350,1,0,0:0:0:80:A6S_s.ogg
83,192,19600,1,0,0:0:0:74:D6S.ogg
302,192,19600,1,0,0:0:0:74:F#6S_Gb6S.ogg
375,192,19600,1,0,0:0:0:74:A6S.ogg
10,192,19850,1,0,0:0:0:51:D4S_s.ogg
448,192,19850,1,0,0:0:0:54:A5S.ogg
156,192,20100,1,0,0:0:0:74:A4S_s.ogg
229,192,20100,1,0,0:0:0:74:D5S_s.ogg
375,192,20100,1,0,0:0:0:55:A5S_s.ogg
10,192,20350,1,0,0:0:0:52:D4S_s.ogg
83,192,20350,1,0,0:0:0:81:B5S_s.ogg
302,192,20350,1,0,0:0:0:81:B6S_s.ogg
156,192,20600,1,0,0:0:0:78:E6S.ogg
229,192,20600,1,0,0:0:0:78:G6S.ogg
448,192,20600,1,0,0:0:0:78:B6S.ogg
10,192,20850,1,0,0:0:0:53:E4S_s.ogg
375,192,20850,1,0,0:0:0:50:B5S.ogg
83,192,21100,1,0,0:0:0:74:B4S_s.ogg
302,192,21100,1,0,0:0:0:74:E5S_s.ogg
448,192,21100,1,0,0:0:0:59:B5S_s.ogg
156,192,21350,1,0,0:0:0:54:E4S_s.ogg
229,192,21350,1,0,0:0:0:80:C6S_s.ogg
375,192,21350,1,0,0:0:0:80:C7S_s.ogg
10,192,21600,1,0,0:0:0:77:E6S.ogg
83,192,21600,1,0,0:0:0:77:G6S.ogg
448,192,21600,1,0,0:0:0:77:B6S.ogg
156,192,21850,1,0,0:0:0:53:C4S_s.ogg
302,192,21850,1,0,0:0:0:54:B5S.ogg
229,192,22100,1,0,0:0:0:81:G4S_s.ogg
375,192,22100,1,0,0:0:0:81:C5S_s.ogg
448,192,22100,1,0,0:0:0:59:B5S_s.ogg
10,192,22350,1,0,0:0:0:55:C4S_s.ogg
83,192,22350,1,0,0:0:0:66:G5S_s.ogg
302,192,22350,1,0,0:0:0:66:G6S_s.ogg
156,192,22600,1,0,0:0:0:76:B5S.ogg
229,192,22600,1,0,0:0:0:76:D6S.ogg
448,192,22600,1,0,0:0:0:76:G6S.ogg
10,192,22850,1,0,0:0:0:51:B3S_s.ogg
375,192,22850,1,0,0:0:0:55:G5S.ogg
83,192,23100,1,0,0:0:0:71:G4S_s.ogg
302,192,23100,1,0,0:0:0:71:B4S_s.ogg
448,192,23100,1,0,0:0:0:59:G5S_s.ogg
156,192,23350,1,0,0:0:0:51:B3S_s.ogg
229,192,23350,1,0,0:0:0:85:A5S_s.ogg
375,192,23350,1,0,0:0:0:85:A6S_s.ogg
10,192,23475,1,0,0:0:0:72:G5S_s.ogg
302,192,23475,1,0,0:0:0:72:G6S_s.ogg
83,192,23600,1,0,0:0:0:71:A5S.ogg
156,192,23600,1,0,0:0:0:71:D6S.ogg
448,192,23600,1,0,0:0:0:71:F#6S_Gb6S.ogg
229,192,23850,1,0,0:0:0:52:F#4S_Gb4S.ogg
375,192,23850,1,0,0:0:0:55:F#5S_Gb5S.ogg
10,192,24100,1,0,0:0:0:74:C5S_s.ogg
156,192,24100,1,0,0:0:0:59:F#5S_Gb5S_s.ogg
302,192,24100,1,0,0:0:0:74:F#5S_Gb5S_s.ogg
83,192,24350,1,0,0:0:0:77:B5S_s.ogg
229,192,24350,1,0,0:0:0:77:D6S_s.ogg
448,192,24350,1,0,0:0:0:77:G6S_s.ogg
156,192,24600,1,0,0:0:0:77:B5S.ogg
302,192,24600,1,0,0:0:0:77:D6S.ogg
375,192,24600,1,0,0:0:0:77:G6S.ogg
10,192,24850,1,0,0:0:0:52:G4S.ogg
448,192,24850,1,0,0:0:0:51:E6S_s.ogg
229,192,24975,1,0,0:0:0:66:F#6S_Gb6S_s.ogg
83,192,25100,1,0,0:0:0:77:D5S_s.ogg
156,192,25100,1,0,0:0:0:77:G5S.ogg
375,192,25100,1,0,0:0:0:62:G6S.ogg
302,192,25225,1,0,0:0:0:72:A6S_s.ogg
10,192,25350,1,0,0:0:0:56:G4S_s.ogg
448,192,25350,1,0,0:0:0:66:B6S_s.ogg
229,192,25475,1,0,0:0:0:62:C7S_s.ogg
83,192,25600,1,0,0:0:0:51:G3S_s.ogg
156,192,25600,1,0,0:0:0:65:D6S.ogg
375,192,25600,1,0,0:0:0:65:D7S.ogg
302,192,25725,1,0,0:0:0:65:G4S_s.ogg
10,192,25850,1,0,0:0:0:66:B4S_s.ogg
448,192,25850,1,0,0:0:0:55:G5S_s.ogg
229,192,25975,1,0,0:0:0:66:D5S_s.ogg
375,192,25975,1,0,0:0:0:66:B5S_s.ogg
83,192,26100,1,0,0:0:0:56:G5S_s.ogg
156,192,26100,1,0,0:0:0:70:G5S_s.ogg
10,192,26225,1,0,0:0:0:54:D5S_s.ogg
302,192,26225,1,0,0:0:0:64:B5S_s.ogg
229,192,26350,1,0,0:0:0:58:B4S_s.ogg
375,192,26350,1,0,0:0:0:88:G6S_s.ogg
448,192,26350,1,0,0:0:0:88:G7S_s.ogg
156,192,26475,1,0,0:0:0:58:G4S_s.ogg
10,192,26600,1,0,0:0:0:53:C4S_s.ogg
83,192,26600,1,0,0:0:0:76:G6S.ogg
302,192,26600,1,0,0:0:0:76:G7S.ogg
229,192,26725,1,0,0:0:0:70:C5S_s.ogg
375,192,26850,1,0,0:0:0:70:E5S_s.ogg
448,192,26850,1,0,0:0:0:53:C6S_s.ogg
156,192,26975,1,0,0:0:0:62:G5S_s.ogg
302,192,26975,1,0,0:0:0:66:E6S_s.ogg
10,192,27100,1,0,0:0:0:54:C6S_s.ogg
83,192,27100,1,0,0:0:0:68:C6S_s.ogg
229,192,27225,1,0,0:0:0:53:G5S_s.ogg
448,192,27225,1,0,0:0:0:69:E6S_s.ogg
156,192,27350,1,0,0:0:0:53:E5S_s.ogg
302,192,27350,1,0,0:0:0:78:A6S_s.ogg
375,192,27350,1,0,0:0:0:78:A7S_s.ogg
10,192,27475,1,0,0:0:0:51:C5S_s.ogg
83,192,27600,1,0,0:0:0:51:D4S_s.ogg
229,192,27600,1,0,0:0:0:77:A6S.ogg
448,192,27600,1,0,0:0:0:77:A7S.ogg
156,192,27725,1,0,0:0:0:76:D5S_s.ogg
302,192,27850,1,0,0:0:0:70:F#5S_Gb5S_s.ogg
375,192,27850,1,0,0:0:0:54:D6S_s.ogg
10,192,27975,1,0,0:0:0:68:A5S_s.ogg
448,192,27975,1,0,0:0:0:65:F#6S_Gb6S_s.ogg
83,192,28100,1,0,0:0:0:59:D6S_s.ogg
229,192,28100,1,0,0:0:0:65:D6S_s.ogg
156,192,28225,1,0,0:0:0:50:A5S_s.ogg
375,192,28225,1,0,0:0:0:66:F#6S_Gb6S_s.ogg
10,192,28350,1,0,0:0:0:51:F#5S_Gb5S_s.ogg
302,192,28350,1,0,0:0:0:79:B6S_s.ogg
448,192,28350,1,0,0:0:0:79:B7S_s.ogg
229,192,28475,1,0,0:0:0:53:D5S_s.ogg
83,192,28600,1,0,0:0:0:48:E4S_s.ogg
156,192,28600,1,0,0:0:0:80:B6S.ogg
375,192,28600,1,0,0:0:0:80:B7S.ogg
448,192,28725,1,0,0:0:0:78:E5S_s.ogg
10,192,28850,1,0,0:0:0:67:G5S_s.ogg
302,192,28850,1,0,0:0:0:51:E6S_s.ogg
83,192,28975,1,0,0:0:0:72:B5S_s.ogg
229,192,28975,1,0,0:0:0:66:G6S_s.ogg
156,192,29100,1,0,0:0:0:51:E6S_s.ogg
375,192,29100,1,0,0:0:0:70:E6S_s.ogg
10,192,29225,1,0,0:0:0:53:B5S_s.ogg
448,192,29225,1,0,0:0:0:65:G6S_s.ogg
83,192,29350,1,0,0:0:0:50:G5S_s.ogg
229,192,29350,1,0,0:0:0:77:C7S_s.ogg
302,192,29350,1,0,0:0:0:77:C8S_s.ogg
375,192,29475,1,0,0:0:0:51:E5S_s.ogg
10,192,29600,1,0,0:0:0:52:C4S_s.ogg
156,192,29600,1,0,0:0:0:70:B6S.ogg
448,192,29600,1,0,0:0:0:70:B7S.ogg
302,192,29725,1,0,0:0:0:72:C5S_s.ogg
83,192,29850,1,0,0:0:0:69:E5S_s.ogg
229,192,29850,1,0,0:0:0:49:C6S_s.ogg
156,192,29975,1,0,0:0:0:66:G5S_s.ogg
375,192,29975,1,0,0:0:0:64:E6S_s.ogg
10,192,30100,1,0,0:0:0:52:C6S_s.ogg
448,192,30100,1,0,0:0:0:67:C6S_s.ogg
229,192,30225,1,0,0:0:0:53:G5S_s.ogg
302,192,30225,1,0,0:0:0:66:E6S_s.ogg
83,192,30350,1,0,0:0:0:52:E5S_s.ogg
156,192,30350,1,0,0:0:0:71:G6S_s.ogg
375,192,30350,1,0,0:0:0:71:G7S_s.ogg
448,192,30475,1,0,0:0:0:51:C5S_s.ogg
10,192,30600,1,0,0:0:0:49:B3S_s.ogg
229,192,30600,1,0,0:0:0:76:G6S.ogg
302,192,30600,1,0,0:0:0:76:G7S.ogg
156,192,30725,1,0,0:0:0:65:B4S_s.ogg
83,192,30850,1,0,0:0:0:66:D5S_s.ogg
375,192,30850,1,0,0:0:0:51:B5S_s.ogg
10,192,30975,1,0,0:0:0:73:G5S_s.ogg
448,192,30975,1,0,0:0:0:73:G6S_s.ogg
229,192,31100,1,0,0:0:0:53:B5S_s.ogg
302,192,31100,1,0,0:0:0:67:B5S_s.ogg
156,192,31225,1,0,0:0:0:52:G5S_s.ogg
375,192,31225,1,0,0:0:0:71:G6S_s.ogg
10,192,31350,1,0,0:0:0:51:D5S_s.ogg
83,192,31350,1,0,0:0:0:82:A6S_s.ogg
448,192,31350,1,0,0:0:0:82:A7S_s.ogg
156,192,31475,1,0,0:0:0:55:B4S_s.ogg
229,192,31475,1,0,0:0:0:76:G6S_s.ogg
302,192,31475,1,0,0:0:0:76:G7S_s.ogg
10,192,31600,1,0,0:0:0:57:F#4S_Gb4S_s.ogg
375,192,31600,1,0,0:0:0:77:F#6S_Gb6S.ogg
448,192,31600,1,0,0:0:0:77:F#7S_Gb7S.ogg
83,192,31725,1,0,0:0:0:74:F#5S_Gb5S_s.ogg
156,192,31850,1,0,0:0:0:56:A5S_s.ogg
302,192,31850,1,0,0:0:0:68:A5S_s.ogg
229,192,31975,1,0,0:0:0:64:C6S_s.ogg
375,192,31975,1,0,0:0:0:66:C6S_s.ogg
10,192,32100,1,0,0:0:0:59:A5S_s.ogg
448,192,32100,1,0,0:0:0:72:F#6S_Gb6S_s.ogg
83,192,32225,1,0,0:0:0:59:C6S_s.ogg
302,192,32225,1,0,0:0:0:51:C6S_s.ogg
156,192,32350,1,0,0:0:0:51:A5S_s.ogg
229,192,32350,1,0,0:0:0:79:G6S_s.ogg
375,192,32350,1,0,0:0:0:79:G7S_s.ogg
10,192,32475,1,0,0:0:0:54:F#5S_Gb5S_s.ogg
83,192,32600,1,0,0:0:0:54:G4S_s.ogg
302,192,32600,1,0,0:0:0:80:G6S.ogg
448,192,32600,1,0,0:0:0:80:G7S.ogg
156,192,32725,1,0,0:0:0:77:G5S_s.ogg
375,192,32850,1,0,0:0:0:70:B5S_s.ogg
229,192,32975,1,0,0:0:0:68:D6S_s.ogg
10,192,33100,1,0,0:0:0:69:G6S.ogg
448,192,33225,1,0,0:0:0:54:D6S_s.ogg
83,192,33350,1,0,0:0:0:52:B5S_s.ogg
302,192,33475,1,0,0:0:0:55:G5S_s.ogg
156,192,33600,1,0,0:0:0:69:G6S.ogg
229,192,33600,1,0,0:0:0:69:B6S.ogg
375,192,33600,1,0,0:0:0:69:D7S.ogg
10,192,33725,1,0,0:0:0:62:G4S_s.ogg
83,192,33850,1,0,0:0:0:66:B4S_s.ogg
448,192,33850,1,0,0:0:0:52:G5S_s.ogg
156,192,33975,1,0,0:0:0:66:D5S_s.ogg
302,192,33975,1,0,0:0:0:59:B5S_s.ogg
229,192,34100,1,0,0:0:0:57:G5S_s.ogg
375,192,34100,1,0,0:0:0:69:G5S_s.ogg
10,192,34225,1,0,0:0:0:51:D5S_s.ogg
448,192,34225,1,0,0:0:0:62:B5S_s.ogg
83,192,34350,1,0,0:0:0:59:B4S_s.ogg
156,192,34350,1,0,0:0:0:88:G6S_s.ogg
302,192,34350,1,0,0:0:0:88:G7S_s.ogg
375,192,34475,1,0,0:0:0:55:G4S_s.ogg
10,192,34600,1,0,0:0:0:77:B6S.ogg
229,192,34600,1,0,0:0:0:77:D7S.ogg
448,192,34600,1,0,0:0:0:77:G7S.ogg
302,192,34725,1,0,0:0:0:70:C5S_s.ogg
83,192,34850,1,0,0:0:0:69:E5S_s.ogg
156,192,34850,1,0,0:0:0:53:C6S_s.ogg
10,192,34975,1,0,0:0:0:70:G5S_s.ogg
375,192,34975,1,0,0:0:0:65:E6S_s.ogg
229,192,35100,1,0,0:0:0:59:C6S_s.ogg
448,192,35100,1,0,0:0:0:68:C6S_s.ogg
156,192,35225,1,0,0:0:0:51:G5S_s.ogg
302,192,35225,1,0,0:0:0:62:E6S_s.ogg
10,192,35350,1,0,0:0:0:54:E5S_s.ogg
83,192,35350,1,0,0:0:0:78:A6S_s.ogg
375,192,35350,1,0,0:0:0:78:A7S_s.ogg
448,192,35475,1,0,0:0:0:53:C5S_s.ogg
156,192,35600,1,0,0:0:0:80:D7S.ogg
229,192,35600,1,0,0:0:0:80:F#7S_Gb7S.ogg
302,192,35600,1,0,0:0:0:80:A7S.ogg
375,192,35725,1,0,0:0:0:77:D5S_s.ogg
10,192,35850,1,0,0:0:0:69:F#5S_Gb5S_s.ogg
83,192,35850,1,0,0:0:0:49:D6S_s.ogg
156,192,35975,1,0,0:0:0:66:A5S_s.ogg
448,192,35975,1,0,0:0:0:66:F#6S_Gb6S_s.ogg
229,192,36100,1,0,0:0:0:54:D6S_s.ogg
302,192,36100,1,0,0:0:0:69:D6S_s.ogg
83,192,36225,1,0,0:0:0:53:A5S_s.ogg
375,192,36225,1,0,0:0:0:65:F#6S_Gb6S_s.ogg
10,192,36350,1,0,0:0:0:51:F#5S_Gb5S_s.ogg
156,192,36350,1,0,0:0:0:85:B6S_s.ogg
448,192,36350,1,0,0:0:0:85:B7S_s.ogg
229,192,36475,1,0,0:0:0:50:D5S_s.ogg
83,192,36600,1,0,0:0:0:72:E7S.ogg
302,192,36600,1,0,0:0:0:72:G7S.ogg
375,192,36600,1,0,0:0:0:72:B7S.ogg
10,192,36725,1,0,0:0:0:71:E5S_s.ogg
156,192,36850,1,0,0:0:0:66:G5S_s.ogg
448,192,36850,1,0,0:0:0:56:E6S_s.ogg
229,192,36975,1,0,0:0:0:70:B5S_s.ogg
375,192,36975,1,0,0:0:0:65:G6S_s.ogg
83,192,37100,1,0,0:0:0:55:E6S_s.ogg
302,192,37100,1,0,0:0:0:69:E6S_s.ogg
10,192,37225,1,0,0:0:0:54:B5S_s.ogg
448,192,37225,1,0,0:0:0:62:G6S_s.ogg
156,192,37350,1,0,0:0:0:53:G5S_s.ogg
229,192,37350,1,0,0:0:0:76:C7S_s.ogg
375,192,37350,1,0,0:0:0:76:C8S_s.ogg
83,192,37475,1,0,0:0:0:53:E5S_s.ogg
10,192,37600,1,0,0:0:0:75:E7S.ogg
302,192,37600,1,0,0:0:0:75:G7S.ogg
448,192,37600,1,0,0:0:0:75:B7S.ogg
156,192,37725,1,0,0:0:0:77:C5S_s.ogg
229,192,37850,1,0,0:0:0:69:E5S_s.ogg
375,192,37850,1,0,0:0:0:54:C6S_s.ogg
83,192,37975,1,0,0:0:0:63:G5S_s.ogg
302,192,37975,1,0,0:0:0:65:E6S_s.ogg
10,192,38100,1,0,0:0:0:53:C6S_s.ogg
448,192,38100,1,0,0:0:0:69:C6S_s.ogg
156,192,38225,1,0,0:0:0:52:G5S_s.ogg
375,192,38225,1,0,0:0:0:62:E6S_s.ogg
83,192,38350,1,0,0:0:0:57:E5S_s.ogg
229,192,38350,1,0,0:0:0:66:G6S_s.ogg
302,192,38350,1,0,0:0:0:66:G7S_s.ogg
10,192,38475,1,0,0:0:0:53:C5S_s.ogg
156,192,38600,1,0,0:0:0:78:B6S.ogg
375,192,38600,1,0,0:0:0:78:D7S.ogg
448,192,38600,1,0,0:0:0:78:G7S.ogg
83,192,38725,1,0,0:0:0:68:B4S_s.ogg
229,192,38850,1,0,0:0:0:66:D5S_s.ogg
302,192,38850,1,0,0:0:0:50:B5S_s.ogg
10,192,38975,1,0,0:0:0:70:G5S_s.ogg
448,192,38975,1,0,0:0:0:74:G6S_s.ogg
156,192,39100,1,0,0:0:0:54:B5S_s.ogg
375,192,39100,1,0,0:0:0:70:B5S_s.ogg
83,192,39225,1,0,0:0:0:51:G5S_s.ogg
229,192,39225,1,0,0:0:0:70:G6S_s.ogg
10,192,39350,1,0,0:0:0:48:D5S_s.ogg
302,192,39350,1,0,0:0:0:76:A6S_s.ogg
448,192,39350,1,0,0:0:0:76:A7S_s.ogg
156,192,39475,1,0,0:0:0:55:B4S_s.ogg
229,192,39475,1,0,0:0:0:72:G6S_s.ogg
375,192,39475,1,0,0:0:0:72:G7S_s.ogg
10,192,39600,1,0,0:0:0:73:A6S.ogg
83,192,39600,1,0,0:0:0:73:D7S.ogg
302,192,39600,1,0,0:0:0:73:F#7S_Gb7S.ogg
448,192,39725,1,0,0:0:0:75:F#5S_Gb5S_s.ogg
156,192,39850,1,0,0:0:0:56:A5S_s.ogg
375,192,39850,1,0,0:0:0:64:A5S_s.ogg
229,192,39975,1,0,0:0:0:64:C6S_s.ogg
302,192,39975,1,0,0:0:0:62:C6S_s.ogg
10,192,40100,1,0,0:0:0:58:A5S_s.ogg
83,192,40100,1,0,0:0:0:66:F#6S_Gb6S_s.ogg
156,192,40225,1,0,0:0:0:66:C6S_s.ogg
448,192,40225,1,0,0:0:0:53:C6S_s.ogg
229,192,40350,1,0,0:0:0:52:A5S_s.ogg
302,192,40350,1,0,0:0:0:76:G6S_s.ogg
375,192,40350,1,0,0:0:0:76:G7S_s.ogg
10,192,40475,1,0,0:0:0:51:F#5S_Gb5S_s.ogg
83,192,40600,1,0,0:0:0:77:B6S_s.ogg
156,192,40600,1,0,0:0:0:77:D7S_s.ogg
448,192,40600,1,0,0:0:0:77:G7S_s.ogg
229,192,40725,1,0,0:0:0:77:G5S_s.ogg
375,192,40850,1,0,0:0:0:70:B5S_s.ogg
302,192,40975,1,0,0:0:0:66:D6S_s.ogg
10,192,41100,1,0,0:0:0:69:G6S_s.ogg
448,192,41225,1,0,0:0:0:51:D6S_s.ogg
83,192,41350,1,0,0:0:0:55:B5S_s.ogg
156,192,41350,1,0,0:0:0:65:D6S_s.ogg
229,192,41350,1,0,0:0:0:65:D7S_s.ogg
375,192,41475,1,0,0:0:0:51:G5S_s.ogg
10,192,41600,1,0,0:0:0:49:G3S_s.ogg
302,192,41600,1,0,0:0:0:77:D5S.ogg
448,192,41600,1,0,0:0:0:77:D6S.ogg
229,192,41683,1,0,0:0:0:58:B3S_s.ogg
156,192,41766,1,0,0:0:0:59:D4S_s.ogg
83,192,41850,1,0,0:0:0:63:G4S_s.ogg
375,192,41933,1,0,0:0:0:63:B4S_s.ogg
10,192,42016,1,0,0:0:0:66:D5S_s.ogg
302,192,42100,1,0,0:0:0:67:G5S_s.ogg
448,192,42183,1,0,0:0:0:55:B4S_s.ogg
229,192,42266,1,0,0:0:0:59:G4S_s.ogg
83,192,42350,1,0,0:0:0:57:D4S_s.ogg
156,192,42350,1,0,0:0:0:86:G5S_s.ogg
375,192,42350,1,0,0:0:0:86:G6S_s.ogg
10,192,42433,1,0,0:0:0:56:B3S_s.ogg
302,192,42516,1,0,0:0:0:56:G3S_s.ogg
83,192,42600,1,0,0:0:0:62:C4S_s.ogg
229,192,42600,1,0,0:0:0:81:G5S_s.ogg
448,192,42600,1,0,0:0:0:81:G6S_s.ogg
375,192,42683,1,0,0:0:0:61:E4S_s.ogg
156,192,42766,1,0,0:0:0:62:G4S_s.ogg
10,192,42850,1,0,0:0:0:66:C5S_s.ogg
83,192,42850,1,0,0:0:0:74:F#5S_Gb5S_s.ogg
302,192,42850,1,0,0:0:0:74:F#6S_Gb6S_s.ogg
229,192,42933,1,0,0:0:0:67:E5S_s.ogg
448,192,43016,1,0,0:0:0:67:G5S_s.ogg
156,192,43100,1,0,0:0:0:77:G5S_s.ogg
302,192,43100,1,0,0:0:0:73:C6S_s.ogg
375,192,43100,1,0,0:0:0:77:G6S_s.ogg
83,192,43183,1,0,0:0:0:47:E5S_s.ogg
10,192,43266,1,0,0:0:0:53:C5S_s.ogg
156,192,43350,1,0,0:0:0:53:G4S_s.ogg
229,192,43350,1,0,0:0:0:79:A5S.ogg
448,192,43350,1,0,0:0:0:79:A6S.ogg
302,192,43433,1,0,0:0:0:58:E4S_s.ogg
375,192,43516,1,0,0:0:0:58:C4S_s.ogg
83,192,43600,1,0,0:0:0:61:D4S_s.ogg
10,192,43725,1,0,0:0:0:64:F#4S_Gb4S_s.ogg
156,192,43850,1,0,0:0:0:61:A4S_s.ogg
229,192,43850,1,0,0:0:0:77:B5S_s.ogg
448,192,43850,1,0,0:0:0:77:B6S_s.ogg
302,192,43975,1,0,0:0:0:68:D5S_s.ogg
10,192,44100,1,0,0:0:0:68:F#5S_Gb5S_s.ogg
83,192,44100,1,0,0:0:0:79:C6S_s.ogg
375,192,44100,1,0,0:0:0:79:C7S_s.ogg
448,192,44225,1,0,0:0:0:69:A5S_s.ogg
156,192,44350,1,0,0:0:0:55:F#5S_Gb5S_s.ogg
229,192,44350,1,0,0:0:0:77:B5S.ogg
302,192,44350,1,0,0:0:0:77:B6S.ogg
83,192,44475,1,0,0:0:0:52:D5S_s.ogg
375,192,44600,1,0,0:0:0:52:E4S_s.ogg
10,192,44683,1,0,0:0:0:61:G4S_s.ogg
448,192,44766,1,0,0:0:0:61:B4S_s.ogg
156,192,44850,1,0,0:0:0:68:E5S_s.ogg
229,192,44850,1,0,0:0:0:74:B5S_s.ogg
302,192,44850,1,0,0:0:0:74:B6S_s.ogg
83,192,44933,1,0,0:0:0:68:G5S_s.ogg
375,192,45016,1,0,0:0:0:66:B5S_s.ogg
10,192,45100,1,0,0:0:0:77:C6S_s.ogg
156,192,45100,1,0,0:0:0:69:E6S_s.ogg
448,192,45100,1,0,0:0:0:77:C7S_s.ogg
302,192,45183,1,0,0:0:0:46:G5S_s.ogg
229,192,45266,1,0,0:0:0:53:E5S_s.ogg
10,192,45350,1,0,0:0:0:55:B4S_s.ogg
83,192,45350,1,0,0:0:0:78:D6S.ogg
375,192,45350,1,0,0:0:0:78:D7S.ogg
448,192,45433,1,0,0:0:0:53:G4S_s.ogg
156,192,45516,1,0,0:0:0:59:E4S_s.ogg
302,192,45600,1,0,0:0:0:57:C4S_s.ogg
229,192,45725,1,0,0:0:0:62:E4S_s.ogg
10,192,45850,1,0,0:0:0:62:G4S_s.ogg
83,192,45850,1,0,0:0:0:63:G5S_s.ogg
375,192,45850,1,0,0:0:0:63:G6S_s.ogg
448,192,45975,1,0,0:0:0:68:C5S_s.ogg
156,192,46100,1,0,0:0:0:66:E5S_s.ogg
229,192,46100,1,0,0:0:0:71:F#5S_Gb5S_s.ogg
302,192,46100,1,0,0:0:0:71:F#6S_Gb6S_s.ogg
375,192,46225,1,0,0:0:0:65:G5S_s.ogg
10,192,46350,1,0,0:0:0:78:G5S.ogg
83,192,46350,1,0,0:0:0:66:C6S_s.ogg
448,192,46350,1,0,0:0:0:78:G6S.ogg
156,192,46600,1,0,0:0:0:54:B3S_s.ogg
302,192,46725,1,0,0:0:0:59:D4S_s.ogg
10,192,46850,1,0,0:0:0:62:G4S_s.ogg
229,192,46850,1,0,0:0:0:76:F#5S_Gb5S_s.ogg
375,192,46850,1,0,0:0:0:76:F#6S_Gb6S_s.ogg
448,192,46975,1,0,0:0:0:62:B4S_s.ogg
83,192,47100,1,0,0:0:0:63:D5S_s.ogg
156,192,47100,1,0,0:0:0:80:G5S_s.ogg
302,192,47100,1,0,0:0:0:80:G6S_s.ogg
10,192,47225,1,0,0:0:0:64:F#5S_Gb5S_s.ogg
229,192,47350,1,0,0:0:0:81:A5S.ogg
375,192,47350,1,0,0:0:0:70:B5S_s.ogg
448,192,47350,1,0,0:0:0:81:A6S.ogg
83,192,47600,1,0,0:0:0:55:F#3S_Gb3S_s.ogg
302,192,47725,1,0,0:0:0:62:A3S_s.ogg
10,192,47850,1,0,0:0:0:62:C4S_s.ogg
156,192,47850,1,0,0:0:0:71:G5S_s.ogg
375,192,47850,1,0,0:0:0:71:G6S_s.ogg
448,192,47975,1,0,0:0:0:62:F#4S_Gb4S_s.ogg
83,192,48100,1,0,0:0:0:62:A4S_s.ogg
229,192,48100,1,0,0:0:0:70:F#5S_Gb5S_s.ogg
302,192,48100,1,0,0:0:0:70:F#6S_Gb6S_s.ogg
10,192,48225,1,0,0:0:0:64:C5S_s.ogg
156,192,48350,1,0,0:0:0:55:A4S_s.ogg
375,192,48350,1,0,0:0:0:80:G5S.ogg
448,192,48350,1,0,0:0:0:80:G6S.ogg
83,192,48475,1,0,0:0:0:61:F#4S_Gb4S_s.ogg
229,192,48600,1,0,0:0:0:50:G3S_s.ogg
302,192,48683,1,0,0:0:0:59:B3S_s.ogg
10,192,48766,1,0,0:0:0:62:D4S_s.ogg
375,192,48850,1,0,0:0:0:64:G4S_s.ogg
156,192,48933,1,0,0:0:0:66:B4S_s.ogg
448,192,49016,1,0,0:0:0:61:D5S_s.ogg
83,192,49100,1,0,0:0:0:67:G4S.ogg
229,192,49100,1,0,0:0:0:67:G5S.ogg
302,192,49350,1,0,0:0:0:64:D6S_s.ogg
10,192,49600,1,0,0:0:0:51:G3S_s.ogg
156,192,49600,1,0,0:0:0:75:D5S.ogg
375,192,49600,1,0,0:0:0:75:D6S.ogg
448,192,49683,1,0,0:0:0:61:B3S_s.ogg
229,192,49766,1,0,0:0:0:65:D4S_s.ogg
83,192,49850,1,0,0:0:0:66:G4S_s.ogg
302,192,49933,1,0,0:0:0:66:B4S_s.ogg
156,192,50016,1,0,0:0:0:68:D5S_s.ogg
375,192,50100,1,0,0:0:0:72:G5S_s.ogg
10,192,50183,1,0,0:0:0:55:B4S_s.ogg
448,192,50266,1,0,0:0:0:55:G4S_s.ogg
83,192,50350,1,0,0:0:0:55:D4S_s.ogg
229,192,50350,1,0,0:0:0:83:G5S_s.ogg
302,192,50350,1,0,0:0:0:83:G6S_s.ogg
156,192,50433,1,0,0:0:0:55:B3S_s.ogg
375,192,50516,1,0,0:0:0:55:G3S_s.ogg
10,192,50600,1,0,0:0:0:62:C4S_s.ogg
83,192,50600,1,0,0:0:0:78:G5S_s.ogg
448,192,50600,1,0,0:0:0:78:G6S_s.ogg
302,192,50683,1,0,0:0:0:62:E4S_s.ogg
229,192,50766,1,0,0:0:0:60:G4S_s.ogg
83,192,50850,1,0,0:0:0:68:C5S_s.ogg
156,192,50850,1,0,0:0:0:72:F#5S_Gb5S_s.ogg
375,192,50850,1,0,0:0:0:72:F#6S_Gb6S_s.ogg
448,192,50933,1,0,0:0:0:68:E5S_s.ogg
10,192,51016,1,0,0:0:0:66:G5S_s.ogg
156,192,51100,1,0,0:0:0:79:G5S_s.ogg
229,192,51100,1,0,0:0:0:66:C6S_s.ogg
302,192,51100,1,0,0:0:0:79:G6S_s.ogg
375,192,51183,1,0,0:0:0:50:E5S_s.ogg
83,192,51266,1,0,0:0:0:48:C5S_s.ogg
10,192,51350,1,0,0:0:0:54:G4S_s.ogg
302,192,51350,1,0,0:0:0:81:A5S.ogg
448,192,51350,1,0,0:0:0:81:A6S.ogg
229,192,51433,1,0,0:0:0:55:E4S_s.ogg
156,192,51516,1,0,0:0:0:55:C4S_s.ogg
375,192,51600,1,0,0:0:0:66:D4S_s.ogg
83,192,51725,1,0,0:0:0:66:F#4S_Gb4S_s.ogg
10,192,51850,1,0,0:0:0:64:A4S_s.ogg
302,192,51850,1,0,0:0:0:81:B5S_s.ogg
448,192,51850,1,0,0:0:0:81:B6S_s.ogg
229,192,51975,1,0,0:0:0:70:D5S_s.ogg
83,192,52100,1,0,0:0:0:70:F#5S_Gb5S_s.ogg
156,192,52100,1,0,0:0:0:80:C6S_s.ogg
375,192,52100,1,0,0:0:0:80:C7S_s.ogg
302,192,52225,1,0,0:0:0:69:A5S_s.ogg
10,192,52350,1,0,0:0:0:53:F#5S_Gb5S_s.ogg
229,192,52350,1,0,0:0:0:73:B5S.ogg
448,192,52350,1,0,0:0:0:73:B6S.ogg
375,192,52475,1,0,0:0:0:50:D5S_s.ogg
156,192,52600,1,0,0:0:0:47:E4S_s.ogg
83,192,52683,1,0,0:0:0:60:G4S_s.ogg
302,192,52766,1,0,0:0:0:64:B4S_s.ogg
10,192,52850,1,0,0:0:0:66:E5S_s.ogg
229,192,52850,1,0,0:0:0:78:B5S_s.ogg
448,192,52850,1,0,0:0:0:78:B6S_s.ogg
375,192,52933,1,0,0:0:0:66:G5S_s.ogg
156,192,53016,1,0,0:0:0:67:B5S_s.ogg
10,192,53100,1,0,0:0:0:82:C6S_s.ogg
83,192,53100,1,0,0:0:0:67:E6S_s.ogg
302,192,53100,1,0,0:0:0:82:C7S_s.ogg
229,192,53183,1,0,0:0:0:48:G5S_s.ogg
448,192,53266,1,0,0:0:0:54:E5S_s.ogg
156,192,53350,1,0,0:0:0:54:B4S_s.ogg
302,192,53350,1,0,0:0:0:85:D6S.ogg
375,192,53350,1,0,0:0:0:85:D7S.ogg
83,192,53433,1,0,0:0:0:57:G4S_s.ogg
10,192,53516,1,0,0:0:0:59:E4S_s.ogg
229,192,53600,1,0,0:0:0:54:C4S_s.ogg
448,192,53725,1,0,0:0:0:62:E4S_s.ogg
156,192,53850,1,0,0:0:0:62:G4S_s.ogg
302,192,53850,1,0,0:0:0:63:G5S_s.ogg
375,192,53850,1,0,0:0:0:63:G6S_s.ogg
83,192,53975,1,0,0:0:0:69:C5S_s.ogg
10,192,54100,1,0,0:0:0:72:E5S_s.ogg
229,192,54100,1,0,0:0:0:70:F#5S_Gb5S_s.ogg
448,192,54100,1,0,0:0:0:70:F#6S_Gb6S_s.ogg
156,192,54225,1,0,0:0:0:66:G5S_s.ogg
83,192,54350,1,0,0:0:0:81:G5S.ogg
302,192,54350,1,0,0:0:0:69:C6S_s.ogg
375,192,54350,1,0,0:0:0:81:G6S.ogg
448,192,54600,1,0,0:0:0:53:B3S_s.ogg
229,192,54725,1,0,0:0:0:61:D4S_s.ogg
10,192,54850,1,0,0:0:0:62:G4S_s.ogg
156,192,54850,1,0,0:0:0:75:F#5S_Gb5S_s.ogg
375,192,54850,1,0,0:0:0:75:F#6S_Gb6S_s.ogg
83,192,54975,1,0,0:0:0:67:B4S_s.ogg
229,192,55100,1,0,0:0:0:64:D5S_s.ogg
302,192,55100,1,0,0:0:0:77:G5S_s.ogg
448,192,55100,1,0,0:0:0:77:G6S_s.ogg
156,192,55225,1,0,0:0:0:70:F#5S_Gb5S_s.ogg
10,192,55350,1,0,0:0:0:82:A5S.ogg
83,192,55350,1,0,0:0:0:71:B5S_s.ogg
375,192,55350,1,0,0:0:0:82:A6S.ogg
302,192,55600,1,0,0:0:0:56:F#3S_Gb3S_s.ogg
229,192,55725,1,0,0:0:0:61:A3S_s.ogg
156,192,55850,1,0,0:0:0:67:C4S_s.ogg
375,192,55850,1,0,0:0:0:70:G5S_s.ogg
448,192,55850,1,0,0:0:0:70:G6S_s.ogg
10,192,55975,1,0,0:0:0:62:F#4S_Gb4S_s.ogg
83,192,56100,1,0,0:0:0:62:A4S_s.ogg
229,192,56100,1,0,0:0:0:74:F#5S_Gb5S_s.ogg
302,192,56100,1,0,0:0:0:74:F#6S_Gb6S_s.ogg
375,192,56225,1,0,0:0:0:66:C5S_s.ogg
10,192,56350,1,0,0:0:0:59:A4S_s.ogg
156,192,56350,1,0,0:0:0:76:G5S_s.ogg
448,192,56350,1,0,0:0:0:76:G6S_s.ogg
302,192,56475,1,0,0:0:0:59:F#4S_Gb4S_s.ogg
83,192,56600,1,0,0:0:0:59:G4S_s.ogg
229,192,56600,1,0,0:0:0:74:G5S_s.ogg
375,192,56600,1,0,0:0:0:74:G6S_s.ogg
10,192,56725,1,0,0:0:0:59:G4S_s.ogg
156,192,56725,1,0,0:0:0:75:G5S_s.ogg
448,192,56725,1,0,0:0:0:75:G6S_s.ogg
83,192,56850,1,0,0:0:0:62:G4S_s.ogg
302,192,56850,1,0,0:0:0:77:G5S_s.ogg
375,192,56850,1,0,0:0:0:77:G6S_s.ogg
10,192,57100,1,0,0:0:0:59:G4S.ogg
229,192,57100,1,0,0:0:0:78:G5S.ogg
448,192,57100,1,0,0:0:0:78:G6S.ogg
83,192,57600,1,0,0:0:0:56:C3S_s.ogg
156,192,57600,1,0,0:0:0:56:C4S_s.ogg
302,192,57600,1,0,0:0:0:82:B6S.ogg
10,192,57850,1,0,0:0:0:65:C4S_s.ogg
375,192,57850,1,0,0:0:0:65:E4S_s.ogg
448,192,57850,1,0,0:0:0:65:G4S_s.ogg
156,192,58100,1,0,0:0:0:57:C3S_s.ogg
229,192,58100,1,0,0:0:0:57:C4S_s.ogg
302,192,58100,1,0,0:0:0:81:B6S_s.ogg
83,192,58225,1,0,0:0:0:81:C7S_s.ogg
10,192,58350,1,0,0:0:0:65:E4S_s.ogg
375,192,58350,1,0,0:0:0:65:G4S_s.ogg
448,192,58350,1,0,0:0:0:84:D7S_s.ogg
156,192,58475,1,0,0:0:0:68:A6S.ogg
229,192,58600,1,0,0:0:0:54:C3S_s.ogg
302,192,58600,1,0,0:0:0:54:C4S_s.ogg
10,192,58850,1,0,0:0:0:59:C4S_s.ogg
83,192,58850,1,0,0:0:0:59:E4S_s.ogg
375,192,58850,1,0,0:0:0:59:G4S_s.ogg
448,192,58975,1,0,0:0:0:72:G6S_s.ogg
156,192,59100,1,0,0:0:0:55:C3S_s.ogg
229,192,59100,1,0,0:0:0:55:C4S_s.ogg
302,192,59100,1,0,0:0:0:84:A6S_s.ogg
10,192,59225,1,0,0:0:0:70:G6S_s.ogg
83,192,59350,1,0,0:0:0:66:E4S_s.ogg
375,192,59350,1,0,0:0:0:66:G4S_s.ogg
448,192,59350,1,0,0:0:0:81:A6S_s.ogg
156,192,59475,1,0,0:0:0:72:G6S_s.ogg
10,192,59600,1,0,0:0:0:55:B2S_s.ogg
229,192,59600,1,0,0:0:0:55:B3S_s.ogg
302,192,59600,1,0,0:0:0:85:B6S_s.ogg
83,192,59850,1,0,0:0:0:65:D4S_s.ogg
375,192,59850,1,0,0:0:0:65:F#4S_Gb4S_s.ogg
448,192,59850,1,0,0:0:0:77:B6S_s.ogg
156,192,60100,1,0,0:0:0:54:B2S_s.ogg
229,192,60100,1,0,0:0:0:54:B3S_s.ogg
302,192,60100,1,0,0:0:0:75:B6S_s.ogg
10,192,60225,1,0,0:0:0:77:C7S_s.ogg
83,192,60350,1,0,0:0:0:62:D4S_s.ogg
375,192,60350,1,0,0:0:0:62:F#4S_Gb4S_s.ogg
448,192,60350,1,0,0:0:0:80:D7S_s.ogg
156,192,60475,1,0,0:0:0:68:A6S_s.ogg
229,192,60600,1,0,0:0:0:52:A#2S_Bb2S_s.ogg
302,192,60600,1,0,0:0:0:52:A#3S_Bb3S_s.ogg
10,192,60850,1,0,0:0:0:67:C4S_s.ogg
83,192,60850,1,0,0:0:0:67:E4S_s.ogg
375,192,60850,1,0,0:0:0:74:G6S_s.ogg
156,192,61100,1,0,0:0:0:54:A#2S_Bb2S_s.ogg
229,192,61100,1,0,0:0:0:54:A#3S_Bb3S_s.ogg
448,192,61100,1,0,0:0:0:66:E6S.ogg
83,192,61350,1,0,0:0:0:66:A#3S_Bb3S_s.ogg
302,192,61350,1,0,0:0:0:66:C4S_s.ogg
375,192,61350,1,0,0:0:0:66:E4S_s.ogg
10,192,61600,1,0,0:0:0:54:A2S_s.ogg
156,192,61600,1,0,0:0:0:54:A3S_s.ogg
448,192,61600,1,0,0:0:0:88:B6S.ogg
83,192,61850,1,0,0:0:0:66:A3S_s.ogg
229,192,61850,1,0,0:0:0:66:C4S_s.ogg
302,192,61850,1,0,0:0:0:66:E4S_s.ogg
10,192,62100,1,0,0:0:0:59:A2S_s.ogg
375,192,62100,1,0,0:0:0:59:A3S_s.ogg
448,192,62100,1,0,0:0:0:76:B6S_s.ogg
156,192,62225,1,0,0:0:0:79:C7S_s.ogg
83,192,62350,1,0,0:0:0:63:C4S_s.ogg
229,192,62350,1,0,0:0:0:63:E4S_s.ogg
302,192,62350,1,0,0:0:0:78:D7S_s.ogg
375,192,62475,1,0,0:0:0:68:A6S.ogg
10,192,62600,1,0,0:0:0:55:B2S_s.ogg
448,192,62600,1,0,0:0:0:55:B3S_s.ogg
156,192,62850,1,0,0:0:0:63:B3S_s.ogg
229,192,62850,1,0,0:0:0:63:D4S_s.ogg
302,192,62850,1,0,0:0:0:63:F#4S_Gb4S_s.ogg
83,192,62975,1,0,0:0:0:68:G6S_s.ogg
10,192,63100,1,0,0:0:0:55:B2S_s.ogg
375,192,63100,1,0,0:0:0:55:B3S_s.ogg
448,192,63100,1,0,0:0:0:82:A6S_s.ogg
156,192,63225,1,0,0:0:0:74:G6S_s.ogg
83,192,63350,1,0,0:0:0:60:D4S_s.ogg
229,192,63350,1,0,0:0:0:60:F#4S_Gb4S_s.ogg
302,192,63350,1,0,0:0:0:83:A6S_s.ogg
375,192,63475,1,0,0:0:0:72:G6S_s.ogg
10,192,63600,1,0,0:0:0:57:E3S_s.ogg
156,192,63600,1,0,0:0:0:57:E4S_s.ogg
448,192,63600,1,0,0:0:0:85:B6S_s.ogg
83,192,63850,1,0,0:0:0:62:E4S_s.ogg
229,192,63850,1,0,0:0:0:62:G4S_s.ogg
302,192,63850,1,0,0:0:0:62:B4S_s.ogg
375,192,63975,1,0,0:0:0:84:C7S_s.ogg
10,192,64100,1,0,0:0:0:57:E3S_s.ogg
156,192,64100,1,0,0:0:0:57:E4S_s.ogg
448,192,64100,1,0,0:0:0:78:D7S_s.ogg
83,192,64350,1,0,0:0:0:63:E4S_s.ogg
229,192,64350,1,0,0:0:0:63:G4S_s.ogg
302,192,64350,1,0,0:0:0:63:B4S_s.ogg
375,192,64475,1,0,0:0:0:80:E7S_s.ogg
10,192,64600,1,0,0:0:0:54:D3S_s.ogg
156,192,64600,1,0,0:0:0:54:D4S_s.ogg
448,192,64600,1,0,0:0:0:74:D7S_s.ogg
83,192,64850,1,0,0:0:0:61:F#4S_Gb4S_s.ogg
229,192,64850,1,0,0:0:0:61:A4S_s.ogg
302,192,64850,1,0,0:0:0:70:B6S_s.ogg
10,192,65100,1,0,0:0:0:51:D3S_s.ogg
375,192,65100,1,0,0:0:0:51:D4S_s.ogg
448,192,65100,1,0,0:0:0:66:G6S.ogg
156,192,65350,1,0,0:0:0:65:D4S_s.ogg
229,192,65350,1,0,0:0:0:65:F#4S_Gb4S_s.ogg
302,192,65350,1,0,0:0:0:65:A4S_s.ogg
10,192,65600,1,0,0:0:0:81:E6S.ogg
83,192,65600,1,0,0:0:0:81:G6S.ogg
375,192,65600,1,0,0:0:0:81:B6S.ogg
156,192,65850,1,0,0:0:0:65:C4S_s.ogg
302,192,65850,1,0,0:0:0:65:E4S_s.ogg
448,192,65850,1,0,0:0:0:65:G4S_s.ogg
83,192,66100,1,0,0:0:0:62:C3S_s.ogg
229,192,66100,1,0,0:0:0:77:B5S_s.ogg
375,192,66100,1,0,0:0:0:77:B6S_s.ogg
10,192,66225,1,0,0:0:0:80:C6S_s.ogg
302,192,66225,1,0,0:0:0:80:C7S_s.ogg
83,192,66350,1,0,0:0:0:66:G4S_s.ogg
156,192,66350,1,0,0:0:0:81:D6S_s.ogg
448,192,66350,1,0,0:0:0:81:D7S_s.ogg
10,192,66475,1,0,0:0:0:67:D6S.ogg
229,192,66475,1,0,0:0:0:67:F#6S_Gb6S.ogg
375,192,66475,1,0,0:0:0:67:A6S.ogg
83,192,66600,1,0,0:0:0:63:C2S_s.ogg
302,192,66600,1,0,0:0:0:63:C3S_s.ogg
156,192,66850,1,0,0:0:0:69:C4S_s.ogg
375,192,66850,1,0,0:0:0:69:E4S_s.ogg
448,192,66850,1,0,0:0:0:69:G4S_s.ogg
10,192,66975,1,0,0:0:0:70:G5S_s.ogg
229,192,66975,1,0,0:0:0:70:G6S_s.ogg
83,192,67100,1,0,0:0:0:63:C3S_s.ogg
302,192,67100,1,0,0:0:0:79:A5S_s.ogg
448,192,67100,1,0,0:0:0:79:A6S_s.ogg
156,192,67225,1,0,0:0:0:75:G5S_s.ogg
375,192,67225,1,0,0:0:0:75:G6S_s.ogg
10,192,67350,1,0,0:0:0:68:G4S_s.ogg
229,192,67350,1,0,0:0:0:80:A5S_s.ogg
448,192,67350,1,0,0:0:0:80:A6S_s.ogg
83,192,67475,1,0,0:0:0:74:G5S_s.ogg
302,192,67475,1,0,0:0:0:74:G6S_s.ogg
10,192,67600,1,0,0:0:0:81:E6S_s.ogg
156,192,67600,1,0,0:0:0:81:G6S_s.ogg
375,192,67600,1,0,0:0:0:81:B6S_s.ogg
83,192,67850,1,0,0:0:0:66:F#4S_Gb4S_s.ogg
229,192,67850,1,0,0:0:0:76:B5S_s.ogg
448,192,67850,1,0,0:0:0:76:B6S_s.ogg
10,192,68100,1,0,0:0:0:64:B2S_s.ogg
302,192,68100,1,0,0:0:0:78:B5S_s.ogg
375,192,68100,1,0,0:0:0:78:B6S_s.ogg
156,192,68225,1,0,0:0:0:82:C6S_s.ogg
448,192,68225,1,0,0:0:0:82:C7S_s.ogg
83,192,68350,1,0,0:0:0:66:F#4S_Gb4S_s.ogg
229,192,68350,1,0,0:0:0:79:D6S_s.ogg
302,192,68350,1,0,0:0:0:79:D7S_s.ogg
10,192,68475,1,0,0:0:0:70:A5S_s.ogg
375,192,68475,1,0,0:0:0:70:A6S_s.ogg
156,192,68600,1,0,0:0:0:64:null_s.ogg
448,192,68600,1,0,0:0:0:64:A#2S_Bb2S_s.ogg
83,192,68850,1,0,0:0:0:66:E4S_s.ogg
229,192,68850,1,0,0:0:0:70:G5S_s.ogg
302,192,68850,1,0,0:0:0:70:G6S_s.ogg
10,192,69100,1,0,0:0:0:62:A#2S_Bb2S_s.ogg
375,192,69100,1,0,0:0:0:64:E5S.ogg
448,192,69100,1,0,0:0:0:64:E6S.ogg
83,192,69350,1,0,0:0:0:63:A#3S_Bb3S_s.ogg
156,192,69350,1,0,0:0:0:63:C4S_s.ogg
302,192,69350,1,0,0:0:0:63:E4S_s.ogg
10,192,69600,1,0,0:0:0:92:E6S.ogg
229,192,69600,1,0,0:0:0:92:G6S.ogg
375,192,69600,1,0,0:0:0:92:B6S.ogg
156,192,69850,1,0,0:0:0:65:A3S_s.ogg
302,192,69850,1,0,0:0:0:65:C4S_s.ogg
448,192,69850,1,0,0:0:0:65:E4S_s.ogg
83,192,70100,1,0,0:0:0:63:A2S_s.ogg
229,192,70100,1,0,0:0:0:77:B5S_s.ogg
375,192,70100,1,0,0:0:0:77:B6S_s.ogg
10,192,70225,1,0,0:0:0:78:C6S_s.ogg
448,192,70225,1,0,0:0:0:78:C7S_s.ogg
83,192,70350,1,0,0:0:0:65:E4S_s.ogg
156,192,70350,1,0,0:0:0:81:D6S_s.ogg
302,192,70350,1,0,0:0:0:81:D7S_s.ogg
10,192,70475,1,0,0:0:0:68:D6S.ogg
229,192,70475,1,0,0:0:0:68:F#6S_Gb6S.ogg
375,192,70475,1,0,0:0:0:68:A6S.ogg
156,192,70600,1,0,0:0:0:63:B1S_s.ogg
448,192,70600,1,0,0:0:0:63:B2S_s.ogg
83,192,70850,1,0,0:0:0:66:B3S_s.ogg
302,192,70850,1,0,0:0:0:66:D4S_s.ogg
375,192,70850,1,0,0:0:0:66:F#4S_Gb4S_s.ogg
10,192,70975,1,0,0:0:0:70:G5S_s.ogg
229,192,70975,1,0,0:0:0:70:G6S_s.ogg
156,192,71100,1,0,0:0:0:61:B2S_s.ogg
375,192,71100,1,0,0:0:0:79:A5S_s.ogg
448,192,71100,1,0,0:0:0:79:A6S_s.ogg
83,192,71225,1,0,0:0:0:73:G5S_s.ogg
302,192,71225,1,0,0:0:0:73:G6S_s.ogg
10,192,71350,1,0,0:0:0:67:F#4S_Gb4S_s.ogg
229,192,71350,1,0,0:0:0:78:A5S_s.ogg
375,192,71350,1,0,0:0:0:78:A6S_s.ogg
156,192,71475,1,0,0:0:0:72:G5S_s.ogg
448,192,71475,1,0,0:0:0:72:G6S_s.ogg
10,192,71600,1,0,0:0:0:61:E3S_s.ogg
83,192,71600,1,0,0:0:0:82:B5S_s.ogg
302,192,71600,1,0,0:0:0:82:B6S_s.ogg
229,192,71850,1,0,0:0:0:71:E4S_s.ogg
375,192,71850,1,0,0:0:0:71:G4S_s.ogg
448,192,71850,1,0,0:0:0:71:B4S_s.ogg
156,192,71975,1,0,0:0:0:82:C6S_s.ogg
302,192,71975,1,0,0:0:0:82:C7S_s.ogg
10,192,72100,1,0,0:0:0:62:E3S_s.ogg
83,192,72100,1,0,0:0:0:85:D6S_s.ogg
375,192,72100,1,0,0:0:0:85:D7S_s.ogg
156,192,72350,1,0,0:0:0:69:E4S_s.ogg
229,192,72350,1,0,0:0:0:69:G4S_s.ogg
448,192,72350,1,0,0:0:0:69:B4S_s.ogg
10,192,72475,1,0,0:0:0:81:E6S_s.ogg
302,192,72475,1,0,0:0:0:81:E7S_s.ogg
83,192,72600,1,0,0:0:0:62:D3S_s.ogg
375,192,72600,1,0,0:0:0:70:D6S_s.ogg
448,192,72600,1,0,0:0:0:70:D7S_s.ogg
156,192,72850,1,0,0:0:0:66:A4S_s.ogg
229,192,72850,1,0,0:0:0:68:B5S_s.ogg
302,192,72850,1,0,0:0:0:68:B6S_s.ogg
10,192,73100,1,0,0:0:0:63:D3S_s.ogg
83,192,73100,1,0,0:0:0:65:G5S.ogg
448,192,73100,1,0,0:0:0:65:G6S.ogg
156,192,73350,1,0,0:0:0:68:D4S_s.ogg
229,192,73350,1,0,0:0:0:68:F#4S_Gb4S_s.ogg
375,192,73350,1,0,0:0:0:68:A4S_s.ogg
10,192,73600,1,0,0:0:0:75:G5S.ogg
302,192,73600,1,0,0:0:0:77:G6S.ogg
83,192,74350,1,0,0:0:0:59:F#5S_Gb5S_s.ogg
448,192,74350,1,0,0:0:0:74:F#6S_Gb6S_s.ogg
229,192,74475,1,0,0:0:0:60:G5S_s.ogg
375,192,74475,1,0,0:0:0:81:G6S_s.ogg
156,192,74600,1,0,0:0:0:60:A5S.ogg
302,192,74600,1,0,0:0:0:77:A6S.ogg
10,192,75100,1,0,0:0:0:56:F#5S_Gb5S.ogg
448,192,75100,1,0,0:0:0:68:F#6S_Gb6S.ogg
83,192,75600,1,0,0:0:0:61:G5S.ogg
229,192,75600,1,0,0:0:0:80:G6S.ogg
156,192,79600,1,0,0:0:0:30:G5S.ogg
375,192,79600,1,0,0:0:0:27:D6S.ogg
302,192,79850,1,0,0:0:0:55:D7S_s.ogg
10,192,79975,1,0,0:0:0:69:F#7S_Gb7S_s.ogg
448,192,80100,1,0,0:0:0:65:G7S_s.ogg
229,192,80350,1,0,0:0:0:36:G6S_s.ogg
83,192,80600,1,0,0:0:0:37:C6S.ogg
375,192,80600,1,0,0:0:0:33:G6S.ogg
156,192,80850,1,0,0:0:0:51:F#7S_Gb7S_s.ogg
302,192,80975,1,0,0:0:0:63:G7S_s.ogg
10,192,81100,1,0,0:0:0:59:A7S_s.ogg
448,192,81350,1,0,0:0:0:32:A6S_s.ogg
83,192,81600,1,0,0:0:0:29:D6S.ogg
229,192,81600,1,0,0:0:0:30:A6S.ogg
375,192,81850,1,0,0:0:0:55:G7S_s.ogg
156,192,81975,1,0,0:0:0:63:A7S_s.ogg
302,192,82100,1,0,0:0:0:63:B7S_s.ogg
10,192,82350,1,0,0:0:0:33:B6S_s.ogg
229,192,82600,1,0,0:0:0:33:E6S.ogg
448,192,82600,1,0,0:0:0:32:B6S.ogg
83,192,82850,1,0,0:0:0:54:A7S_s.ogg
375,192,82975,1,0,0:0:0:62:B7S_s.ogg
156,192,83100,1,0,0:0:0:62:C8S_s.ogg
302,192,83350,1,0,0:0:0:33:C7S_s.ogg
10,192,83600,1,0,0:0:0:25:C6S.ogg
229,192,83600,1,0,0:0:0:30:B6S.ogg
448,192,83850,1,0,0:0:0:53:C8S_s.ogg
83,192,83975,1,0,0:0:0:53:B7S_s.ogg
375,192,84100,1,0,0:0:0:55:A7S_s.ogg
156,192,84350,1,0,0:0:0:28:G6S_s.ogg
229,192,84600,1,0,0:0:0:33:B5S.ogg
302,192,84600,1,0,0:0:0:32:G6S.ogg
10,192,84850,1,0,0:0:0:51:B7S_s.ogg
448,192,84975,1,0,0:0:0:55:A7S_s.ogg
83,192,85100,1,0,0:0:0:55:G7S_s.ogg
375,192,85350,1,0,0:0:0:35:A6S_s.ogg
156,192,85475,1,0,0:0:0:30:G6S_s.ogg
229,192,85600,1,0,0:0:0:28:F#5S_Gb5S.ogg
302,192,85600,1,0,0:0:0:29:F#6S_Gb6S.ogg
10,192,85850,1,0,0:0:0:51:A7S_s.ogg
448,192,85975,1,0,0:0:0:52:G7S_s.ogg
83,192,86100,1,0,0:0:0:56:F#7S_Gb7S_s.ogg
375,192,86350,1,0,0:0:0:29:G6S_s.ogg
156,192,86600,1,0,0:0:0:31:G5S.ogg
229,192,86600,1,0,0:0:0:31:B5S.ogg
302,192,86600,1,0,0:0:0:30:G6S.ogg
