osu file format v14

[General]
AudioFilename: audio.mp3
AudioLeadIn: 0
PreviewTime: -1
Countdown: 0
SampleSet: None
StackLeniency: 0.7
Mode: 3
LetterboxInBreaks: 0
SpecialStyle: 0
WidescreenStoryboard: 0

[Editor]
DistanceSpacing: 1.2
BeatDivisor: 16
GridSize: 4
TimelineZoom: 1

[Metadata]
Title:Eternal Pack 2
TitleUnicode:Eternal Pack 2
Artist:Various Artists
ArtistUnicode:Various Artists
Creator:[Shana Lesus]
Version:Yoshiaki Dewa - Surinukeru Kokoro
Source:
Tags:
BeatmapID:2205858
BeatmapSetID:1049301

[Difficulty]
HPDrainRate:8
CircleSize:7
OverallDifficulty:8
ApproachRate:5
SliderMultiplier:1.4
SliderTickRate:1

[Events]
//Background and Video events
0,0,"nagi4.jpg",0,0
//Break Periods
//Storyboard Layer 0 (Background)
//Storyboard Layer 1 (Fail)
//Storyboard Layer 2 (Pass)
//Storyboard Layer 3 (Foreground)
//Storyboard Layer 4 (Overlay)
//Storyboard Sound Samples
Sample,0,0,"A4S.ogg",38
Sample,0,0,"E5S.ogg",38
Sample,1579,0,"G4S.ogg",38
Sample,4737,0,"F4S.ogg",38
Sample,7895,0,"G4S.ogg",38
Sample,9474,0,"E4S.ogg",38
Sample,12632,0,"A4S.ogg",38
Sample,12632,0,"E5S.ogg",38
Sample,14211,0,"G4S.ogg",38
Sample,17369,0,"F4S.ogg",38
Sample,20527,0,"G4S.ogg",38
Sample,22106,0,"E4S.ogg",38
Sample,25264,0,"F3S.ogg",45
Sample,28421,0,"G3S.ogg",45
Sample,31579,0,"A3S.ogg",45
Sample,34737,0,"E3S.ogg",45
Sample,37895,0,"G4S.ogg",35
Sample,37895,0,"F3S.ogg",45
Sample,37895,0,"C4S.ogg",35
Sample,44211,0,"A3S.ogg",45
Sample,44211,0,"E4S.ogg",35
Sample,44211,0,"A4S.ogg",35
Sample,47369,0,"E3S.ogg",45
Sample,50527,0,"C4S.ogg",38
Sample,50527,0,"G4S.ogg",38
Sample,50527,0,"C4S.ogg",40
Sample,50527,0,"F3S.ogg",53
Sample,52106,0,"F4S.ogg",38
Sample,53685,0,"E4S.ogg",40
Sample,53685,0,"G3S.ogg",53
Sample,53685,0,"E4S.ogg",38
Sample,53685,0,"G4S.ogg",38
Sample,56842,0,"E4S.ogg",38
Sample,56842,0,"A3S.ogg",38
Sample,56842,0,"A3S.ogg",53
Sample,56842,0,"E4S.ogg",40
Sample,60000,0,"E4S.ogg",38
Sample,60000,0,"E3S.ogg",53
Sample,60000,0,"B3S.ogg",38
Sample,60000,0,"E4S.ogg",40
Sample,61579,0,"E4S.ogg",38
Sample,61579,0,"B4S.ogg",38
Sample,63158,0,"F3S.ogg",53
Sample,63158,0,"G4S.ogg",40
Sample,63158,0,"C4S.ogg",40
Sample,63158,0,"C4S.ogg",38
Sample,63158,0,"G4S.ogg",38
Sample,63158,0,"E5S_s.ogg",56
Sample,66316,0,"E4S.ogg",40
Sample,66316,0,"G3S.ogg",53
Sample,66316,0,"E4S.ogg",38
Sample,69474,0,"A3S.ogg",53
Sample,69474,0,"E4S.ogg",40
Sample,69474,0,"E4S.ogg",38
Sample,69474,0,"A3S.ogg",38
Sample,69474,0,"A4S.ogg",40
Sample,69474,0,"C5S_s.ogg",56
Sample,72632,0,"B3S.ogg",38
Sample,72632,0,"E4S.ogg",38
Sample,72632,0,"B3S.ogg",40
Sample,72632,0,"E3S.ogg",53
Sample,74211,0,"E4S.ogg",38
Sample,75790,0,"F3S_s.ogg",94
Sample,75790,0,"G4S.ogg",40
Sample,75790,0,"C4S.ogg",40
Sample,75790,0,"C4S.ogg",38
Sample,75790,0,"G4S.ogg",38
Sample,75790,0,"C5S_s.ogg",56
Sample,78158,0,"F3S_s.ogg",94
Sample,78948,0,"E4S.ogg",38
Sample,78948,0,"G4S.ogg",38
Sample,78948,0,"E4S.ogg",40
Sample,78948,0,"G3S_s.ogg",94
Sample,78948,0,"G4S.ogg",40
Sample,82106,0,"A#4S_Bb4S.ogg",40
Sample,82106,0,"A#3S_Bb3S_s.ogg",94
Sample,82106,0,"A#4S_Bb4S.ogg",38
Sample,82106,0,"C5S_s.ogg",70
Sample,85263,0,"F4S.ogg",40
Sample,85263,0,"A#3S_Bb3S_s.ogg",94
Sample,85263,0,"C#4S_Db4S_s.ogg",7
Sample,85658,0,"A#3S_Bb3S_s.ogg",92
Sample,86053,0,"A#3S_Bb3S_s.ogg",88
Sample,86448,0,"A#3S_Bb3S_s.ogg",86
Sample,86448,0,"C#4S_Db4S_s.ogg",19
Sample,86842,0,"A#3S_Bb3S_s.ogg",83
Sample,86842,0,"C#4S_Db4S_s.ogg",23
Sample,86842,0,"C5S_s.ogg",50
Sample,87237,0,"A#3S_Bb3S_s.ogg",81
Sample,87237,0,"D5S_s.ogg",65
Sample,87237,0,"A#4S_Bb4S.ogg",50
Sample,87237,0,"C#4S_Db4S_s.ogg",27
Sample,87237,0,"D5S_s.ogg",50
Sample,87632,0,"C#4S_Db4S_s.ogg",31
Sample,87632,0,"D#5S_Eb5S_s.ogg",50
Sample,87632,0,"C5S_s.ogg",50
Sample,87632,0,"A#3S_Bb3S_s.ogg",77
Sample,87632,0,"D#5S_Eb5S_s.ogg",67
Sample,88027,0,"A#3S_Bb3S_s.ogg",74
Sample,88027,0,"F5S_s.ogg",70
Sample,88027,0,"D5S_s.ogg",50
Sample,88027,0,"C#4S_Db4S_s.ogg",35
Sample,88027,0,"F5S_s.ogg",50
Sample,88421,0,"G#3S_Ab3S_s.ogg",86
Sample,88421,0,"G#4S_Ab4S.ogg",55
Sample,88421,0,"C#4S_Db4S.ogg",47
Sample,88421,0,"G#2S_Ab2S_s.ogg",56
Sample,89211,0,"G#2S_Ab2S_s.ogg",56
Sample,90000,0,"G#2S_Ab2S_s.ogg",56
Sample,90395,0,"G#2S_Ab2S_s.ogg",56
Sample,90790,0,"G#2S_Ab2S_s.ogg",56
Sample,90790,0,"G#3S_Ab3S_s.ogg",86
Sample,91184,0,"G#2S_Ab2S_s.ogg",56
Sample,91579,0,"A#2S_Bb2S_s.ogg",56
Sample,91579,0,"A#3S_Bb3S_s.ogg",86
Sample,91579,0,"A#4S_Bb4S_s.ogg",55
Sample,92369,0,"A#2S_Bb2S_s.ogg",56
Sample,92763,0,"A#2S_Bb2S_s.ogg",56
Sample,93158,0,"A#2S_Bb2S_s.ogg",56
Sample,93158,0,"A#3S_Bb3S_s.ogg",86
Sample,93948,0,"A#2S_Bb2S_s.ogg",56
Sample,93948,0,"A#3S_Bb3S_s.ogg",86
Sample,94342,0,"A#2S_Bb2S_s.ogg",56
Sample,94342,0,"A#3S_Bb3S_s.ogg",86
Sample,94737,0,"C5S_s.ogg",64
Sample,94737,0,"C3S_s.ogg",56
Sample,94737,0,"C4S_s.ogg",86
Sample,94737,0,"C5S.ogg",55
Sample,95527,0,"C3S_s.ogg",56
Sample,95527,0,"C4S_s.ogg",86
Sample,95921,0,"C3S_s.ogg",56
Sample,95921,0,"C4S_s.ogg",86
Sample,96316,0,"D#5S_Eb5S_s.ogg",55
Sample,96316,0,"C3S_s.ogg",56
Sample,96316,0,"C4S_s.ogg",86
Sample,97106,0,"C3S_s.ogg",56
Sample,97106,0,"C4S_s.ogg",86
Sample,97500,0,"C3S_s.ogg",56
Sample,97500,0,"C4S_s.ogg",86
Sample,97895,0,"G3S_s.ogg",86
Sample,97895,0,"G4S.ogg",55
Sample,97895,0,"G4S_s.ogg",55
Sample,97895,0,"G2S_s.ogg",56
Sample,97895,0,"A#4S_Bb4S_s.ogg",55
Sample,98684,0,"G4S_s.ogg",55
Sample,98684,0,"G2S_s.ogg",56
Sample,98684,0,"G3S_s.ogg",86
Sample,99474,0,"G3S_s.ogg",86
Sample,99474,0,"A#4S_Bb4S_s.ogg",55
Sample,99474,0,"G4S_s.ogg",55
Sample,99474,0,"G2S_s.ogg",56
Sample,99869,0,"G2S_s.ogg",56
Sample,99869,0,"G3S_s.ogg",86
Sample,100263,0,"G3S_s.ogg",86
Sample,100263,0,"A#4S_Bb4S_s.ogg",55
Sample,100263,0,"G4S_s.ogg",55
Sample,100263,0,"G2S_s.ogg",56
Sample,100658,0,"G2S_s.ogg",56
Sample,100658,0,"G3S_s.ogg",86
Sample,101053,0,"G#2S_Ab2S_s.ogg",56
Sample,101053,0,"G#3S_Ab3S_s.ogg",86
Sample,101053,0,"G#4S_Ab4S.ogg",55
Sample,101448,0,"G#2S_Ab2S_s.ogg",56
Sample,101842,0,"G#2S_Ab2S_s.ogg",56
Sample,101842,0,"G#3S_Ab3S_s.ogg",86
Sample,102237,0,"G#2S_Ab2S_s.ogg",56
Sample,102632,0,"G#2S_Ab2S_s.ogg",56
Sample,102632,0,"G#3S_Ab3S_s.ogg",86
Sample,103027,0,"G#2S_Ab2S_s.ogg",56
Sample,103421,0,"G#2S_Ab2S_s.ogg",56
Sample,103421,0,"G#3S_Ab3S_s.ogg",86
Sample,103816,0,"G#2S_Ab2S_s.ogg",56
Sample,104211,0,"A#4S_Bb4S_s.ogg",55
Sample,104211,0,"A#2S_Bb2S_s.ogg",56
Sample,104211,0,"A#3S_Bb3S_s.ogg",86
Sample,104605,0,"A#2S_Bb2S_s.ogg",56
Sample,105000,0,"A#2S_Bb2S_s.ogg",56
Sample,105000,0,"A#3S_Bb3S_s.ogg",86
Sample,105395,0,"A#2S_Bb2S_s.ogg",56
Sample,105790,0,"A#2S_Bb2S_s.ogg",56
Sample,105790,0,"A#3S_Bb3S_s.ogg",86
Sample,106184,0,"A#2S_Bb2S_s.ogg",56
Sample,106579,0,"A#2S_Bb2S_s.ogg",56
Sample,106579,0,"A#3S_Bb3S_s.ogg",86
Sample,106974,0,"A#2S_Bb2S_s.ogg",56
Sample,106974,0,"A#3S_Bb3S_s.ogg",86
Sample,107369,0,"C5S.ogg",55
Sample,107369,0,"C3S_s.ogg",56
Sample,107369,0,"C4S_s.ogg",86
Sample,107369,0,"F5S_s.ogg",55
Sample,107763,0,"C3S_s.ogg",57
Sample,107763,0,"C4S_s.ogg",86
Sample,108158,0,"D#5S_Eb5S_s.ogg",55
Sample,108158,0,"C3S_s.ogg",58
Sample,108158,0,"C4S_s.ogg",86
Sample,108553,0,"C3S_s.ogg",59
Sample,108948,0,"C3S_s.ogg",59
Sample,109737,0,"C3S_s.ogg",62
Sample,109737,0,"C4S_s.ogg",86
Sample,110132,0,"C3S_s.ogg",62
Sample,110527,0,"C5S.ogg",55
Sample,110527,0,"C3S_s.ogg",63
Sample,110527,0,"C4S_s.ogg",86
Sample,111316,0,"C3S_s.ogg",66
Sample,111316,0,"C4S_s.ogg",86
Sample,111711,0,"C3S_s.ogg",66
Sample,112105,0,"D5S_s.ogg",59
Sample,112105,0,"C3S_s.ogg",67
Sample,112105,0,"C4S_s.ogg",86
Sample,112105,0,"F5S_s.ogg",64
Sample,112500,0,"C3S_s.ogg",68
Sample,112895,0,"C4S_s.ogg",69
Sample,112895,0,"C5S_s.ogg",60
Sample,112895,0,"C4S_s.ogg",86
Sample,112895,0,"C3S_s.ogg",69
Sample,112895,0,"D5S_s.ogg",60
Sample,112895,0,"F5S_s.ogg",64
Sample,113290,0,"C3S_s.ogg",70
Sample,113290,0,"C4S_s.ogg",70
Sample,113290,0,"C4S_s.ogg",86
Sample,113684,0,"G#3S_Ab3S.ogg",50
Sample,116842,0,"A#3S_Bb3S.ogg",50
Sample,120000,0,"C4S.ogg",50
Sample,122715,0,"C4S_s.ogg",39
Sample,124048,0,"C4S.ogg",35

[TimingPoints]
0,789.472,4,1,1,100,1,0
12632,789.472,4,1,1,100,1,0
120000,833.333,4,1,1,100,1,0
120833,882.356,4,1,1,100,1,0
121715,1000,4,1,1,100,1,0
122715,1333.333,4,1,1,100,1,0
124048,1200,4,1,1,100,1,0

[HitObjects]
10,192,0,5,0,0:0:0:38:A5S.ogg
302,192,0,1,0,0:0:0:50:C6S.ogg
448,192,0,1,0,0:0:0:50:A6S.ogg
83,192,1578,1,0,0:0:0:38:E5S.ogg
156,192,1578,1,0,0:0:0:50:B5S.ogg
375,192,1578,1,0,0:0:0:50:E6S.ogg
229,192,3947,1,0,0:0:0:59:E6S_s.ogg
10,192,4736,1,0,0:0:0:38:C5S.ogg
302,192,4736,1,0,0:0:0:50:F5S.ogg
448,192,4736,1,0,0:0:0:50:A5S.ogg
83,192,7105,1,0,0:0:0:59:E6S_s.ogg
156,192,7894,1,0,0:0:0:38:D5S.ogg
229,192,7894,1,0,0:0:0:50:G5S_s.ogg
375,192,7894,1,0,0:0:0:50:B5S_s.ogg
10,192,8684,1,0,0:0:0:59:E6S_s.ogg
83,192,9473,1,0,0:0:0:38:C5S.ogg
302,192,9473,1,0,0:0:0:50:E5S.ogg
448,192,9473,1,0,0:0:0:50:G5S.ogg
156,192,12631,1,0,0:0:0:38:A5S.ogg
229,192,12631,1,0,0:0:0:50:C6S.ogg
375,192,12631,1,0,0:0:0:50:A6S.ogg
10,192,14210,1,0,0:0:0:38:E5S.ogg
83,192,14210,1,0,0:0:0:50:B5S.ogg
448,192,14210,1,0,0:0:0:50:E6S.ogg
302,192,16579,1,0,0:0:0:59:E6S_s.ogg
156,192,17368,1,0,0:0:0:38:C5S.ogg
229,192,17368,1,0,0:0:0:50:F5S.ogg
375,192,17368,1,0,0:0:0:50:A5S.ogg
83,192,19737,1,0,0:0:0:59:E6S_s.ogg
10,192,20526,1,0,0:0:0:38:D5S.ogg
302,192,20526,1,0,0:0:0:50:G5S_s.ogg
448,192,20526,1,0,0:0:0:50:B5S_s.ogg
156,192,21316,1,0,0:0:0:59:E6S_s.ogg
83,192,22105,1,0,0:0:0:38:C5S.ogg
229,192,22105,1,0,0:0:0:50:E5S.ogg
375,192,22105,1,0,0:0:0:50:G5S.ogg
10,192,25263,1,0,0:0:0:35:C4S.ogg
302,192,25263,1,0,0:0:0:47:C5S_s.ogg
448,192,25263,1,0,0:0:0:50:E5S.ogg
156,192,25658,1,0,0:0:0:47:B4S_s.ogg
375,192,26053,1,0,0:0:0:47:A4S_s.ogg
229,192,26447,1,0,0:0:0:47:G4S_s.ogg
83,192,26842,1,0,0:0:0:47:A4S_s.ogg
448,192,27237,1,0,0:0:0:50:A5S_s.ogg
10,192,27631,1,0,0:0:0:47:F4S_s.ogg
302,192,27631,1,0,0:0:0:50:E5S_s.ogg
156,192,28026,1,0,0:0:0:50:D5S_s.ogg
83,192,28421,1,0,0:0:0:35:E4S.ogg
229,192,28421,1,0,0:0:0:47:A4S.ogg
375,192,28421,1,0,0:0:0:50:E5S.ogg
10,192,29605,1,0,0:0:0:47:B4S.ogg
448,192,29605,1,0,0:0:0:50:G5S_s.ogg
302,192,30395,1,0,0:0:0:50:E5S_s.ogg
156,192,30789,1,0,0:0:0:50:D5S_s.ogg
229,192,31184,1,0,0:0:0:47:C5S_s.ogg
375,192,31184,1,0,0:0:0:50:E5S_s.ogg
10,192,31579,1,0,0:0:0:35:E4S.ogg
83,192,31579,1,0,0:0:0:47:G4S_s.ogg
448,192,31579,1,0,0:0:0:50:D5S.ogg
302,192,31974,1,0,0:0:0:47:A4S_s.ogg
156,192,32368,1,0,0:0:0:47:B4S_s.ogg
229,192,32763,1,0,0:0:0:47:C5S.ogg
375,192,32763,1,0,0:0:0:50:E5S.ogg
83,192,33947,1,0,0:0:0:47:G4S_s.ogg
448,192,33947,1,0,0:0:0:50:D5S_s.ogg
10,192,34342,1,0,0:0:0:47:A4S_s.ogg
302,192,34342,1,0,0:0:0:50:C5S_s.ogg
156,192,34737,1,0,0:0:0:35:E4S.ogg
229,192,34737,1,0,0:0:0:47:B4S.ogg
375,192,34737,1,0,0:0:0:50:G5S.ogg
83,192,35921,1,0,0:0:0:41:B4S_s.ogg
448,192,35921,1,0,0:0:0:50:E5S_s.ogg
10,192,36316,1,0,0:0:0:39:B4S_s.ogg
302,192,36316,1,0,0:0:0:50:D5S_s.ogg
156,192,37105,1,0,0:0:0:48:C5S_s.ogg
229,192,37105,1,0,0:0:0:50:E5S_s.ogg
83,192,37500,1,0,0:0:0:48:E5S_s.ogg
375,192,37500,1,0,0:0:0:50:G5S_s.ogg
10,192,37895,1,0,0:0:0:48:E5S_s.ogg
302,192,37895,1,0,0:0:0:50:A5S.ogg
448,192,37895,1,0,0:0:0:31:A5S.ogg
229,192,38289,1,0,0:0:0:48:D5S_s.ogg
83,192,39079,1,0,0:0:0:48:C5S_s.ogg
156,192,39079,1,0,0:0:0:51:E5S_s.ogg
375,192,39079,1,0,0:0:0:50:G5S_s.ogg
10,192,39868,1,0,0:0:0:48:G5S_s.ogg
302,192,39868,1,0,0:0:0:50:B5S_s.ogg
448,192,39868,1,0,0:0:0:47:B5S_s.ogg
83,192,40658,1,0,0:0:0:48:A5S.ogg
229,192,40658,1,0,0:0:0:50:C6S_s.ogg
375,192,40658,1,0,0:0:0:47:C6S_s.ogg
10,192,41052,1,0,0:0:0:45:G3S.ogg
156,192,41052,1,0,0:0:0:35:E4S.ogg
448,192,41052,1,0,0:0:0:35:G4S.ogg
83,192,41447,1,0,0:0:0:50:D6S.ogg
302,192,41447,1,0,0:0:0:47:D6S.ogg
375,192,42237,1,0,0:0:0:48:G5S_s.ogg
156,192,43026,1,0,0:0:0:48:F5S_s.ogg
229,192,43026,1,0,0:0:0:50:C6S_s.ogg
448,192,43026,1,0,0:0:0:47:C6S_s.ogg
10,192,43421,1,0,0:0:0:48:E5S_s.ogg
83,192,43421,1,0,0:0:0:50:B5S_s.ogg
302,192,43421,1,0,0:0:0:47:B5S_s.ogg
156,192,43816,1,0,0:0:0:48:D5S_s.ogg
229,192,43816,1,0,0:0:0:50:C6S_s.ogg
375,192,43816,1,0,0:0:0:47:C6S_s.ogg
83,192,44210,1,0,0:0:0:48:C5S_s.ogg
302,192,44210,1,0,0:0:0:47:G5S.ogg
448,192,44210,1,0,0:0:0:50:B5S.ogg
10,192,44605,1,0,0:0:0:48:B4S_s.ogg
375,192,45000,1,0,0:0:0:48:A4S_s.ogg
229,192,45395,1,0,0:0:0:48:G4S_s.ogg
156,192,46184,1,0,0:0:0:48:A4S_s.ogg
448,192,46579,1,0,0:0:0:48:B4S_s.ogg
83,192,46974,1,0,0:0:0:48:C5S_s.ogg
10,192,47368,1,0,0:0:0:35:B3S.ogg
302,192,47368,1,0,0:0:0:35:E4S.ogg
375,192,47368,1,0,0:0:0:48:B4S.ogg
156,192,47763,1,0,0:0:0:47:E5S_s.ogg
229,192,47763,1,0,0:0:0:51:G5S_s.ogg
83,192,48552,1,0,0:0:0:47:B4S_s.ogg
448,192,48552,1,0,0:0:0:52:E5S_s.ogg
10,192,48947,1,0,0:0:0:47:B4S_s.ogg
302,192,48947,1,0,0:0:0:54:D5S_s.ogg
229,192,49737,1,0,0:0:0:48:B4S_s.ogg
375,192,49737,1,0,0:0:0:55:E5S_s.ogg
156,192,50131,1,0,0:0:0:48:D5S_s.ogg
448,192,50131,1,0,0:0:0:56:G5S_s.ogg
10,192,50526,1,0,0:0:0:48:C5S_s.ogg
83,192,50526,1,0,0:0:0:58:E5S.ogg
302,192,50526,1,0,0:0:0:53:A5S.ogg
229,192,50921,1,0,0:0:0:48:B4S_s.ogg
375,192,51316,1,0,0:0:0:48:A4S_s.ogg
156,192,51710,1,0,0:0:0:48:G4S_s.ogg
83,192,52105,1,0,0:0:0:48:A4S_s.ogg
302,192,52105,1,0,0:0:0:38:B4S.ogg
448,192,52105,1,0,0:0:0:53:B5S.ogg
10,192,52500,1,0,0:0:0:58:A5S_s.ogg
229,192,52895,1,0,0:0:0:48:F4S_s.ogg
375,192,52895,1,0,0:0:0:58:E5S_s.ogg
156,192,53289,1,0,0:0:0:58:D5S_s.ogg
83,192,53684,1,0,0:0:0:48:A4S.ogg
302,192,53684,1,0,0:0:0:58:E5S.ogg
448,192,53684,1,0,0:0:0:53:A5S.ogg
10,192,54868,1,0,0:0:0:48:B4S.ogg
229,192,54868,1,0,0:0:0:58:G5S_s.ogg
156,192,55263,1,0,0:0:0:38:G4S.ogg
302,192,55263,1,0,0:0:0:38:B4S.ogg
375,192,55263,1,0,0:0:0:53:B5S.ogg
83,192,55658,1,0,0:0:0:58:E5S_s.ogg
448,192,56052,1,0,0:0:0:58:D5S_s.ogg
10,192,56447,1,0,0:0:0:48:C5S_s.ogg
229,192,56447,1,0,0:0:0:58:E5S_s.ogg
156,192,56842,1,0,0:0:0:48:G4S_s.ogg
302,192,56842,1,0,0:0:0:53:D5S.ogg
375,192,56842,1,0,0:0:0:58:D5S.ogg
83,192,57237,1,0,0:0:0:48:A4S_s.ogg
448,192,57631,1,0,0:0:0:48:B4S_s.ogg
10,192,58026,1,0,0:0:0:48:C5S.ogg
229,192,58026,1,0,0:0:0:58:E5S.ogg
156,192,58421,1,0,0:0:0:38:A4S.ogg
302,192,58421,1,0,0:0:0:38:C5S.ogg
375,192,58421,1,0,0:0:0:53:A5S.ogg
83,192,59210,1,0,0:0:0:48:G4S_s.ogg
448,192,59210,1,0,0:0:0:58:D5S_s.ogg
10,192,59605,1,0,0:0:0:48:A4S_s.ogg
229,192,59605,1,0,0:0:0:58:C5S_s.ogg
156,192,60000,1,0,0:0:0:48:B4S.ogg
302,192,60000,1,0,0:0:0:58:G5S.ogg
375,192,60000,1,0,0:0:0:53:B5S.ogg
83,192,61184,1,0,0:0:0:43:B4S_s.ogg
448,192,61184,1,0,0:0:0:58:E5S_s.ogg
10,192,61579,1,0,0:0:0:40:B4S_s.ogg
229,192,61579,1,0,0:0:0:58:D5S_s.ogg
375,192,61579,1,0,0:0:0:53:C6S.ogg
156,192,62368,1,0,0:0:0:56:C5S_s.ogg
302,192,62368,1,0,0:0:0:58:E5S_s.ogg
83,192,62763,1,0,0:0:0:56:E5S_s.ogg
448,192,62763,1,0,0:0:0:58:G5S_s.ogg
10,192,63158,1,0,0:0:0:53:A5S.ogg
229,192,63158,1,0,0:0:0:58:A5S.ogg
375,192,63158,1,0,0:0:0:35:A5S.ogg
156,192,63552,1,0,0:0:0:56:D5S_s.ogg
83,192,64342,1,0,0:0:0:56:C5S_s.ogg
302,192,64342,1,0,0:0:0:59:E5S_s.ogg
448,192,64342,1,0,0:0:0:58:G5S_s.ogg
10,192,64737,1,0,0:0:0:38:F4S.ogg
229,192,64737,1,0,0:0:0:38:B4S.ogg
375,192,64737,1,0,0:0:0:53:B5S.ogg
83,192,65131,1,0,0:0:0:56:G5S_s.ogg
156,192,65131,1,0,0:0:0:58:B5S_s.ogg
302,192,65131,1,0,0:0:0:50:B5S_s.ogg
10,192,65921,1,0,0:0:0:56:A5S.ogg
229,192,65921,1,0,0:0:0:58:C6S_s.ogg
448,192,65921,1,0,0:0:0:50:C6S_s.ogg
83,192,66316,1,0,0:0:0:38:G4S.ogg
302,192,66316,1,0,0:0:0:40:G4S.ogg
375,192,66316,1,0,0:0:0:53:A5S.ogg
156,192,66710,1,0,0:0:0:58:D6S.ogg
448,192,66710,1,0,0:0:0:50:D6S.ogg
10,192,67500,1,0,0:0:0:56:G5S_s.ogg
83,192,67895,1,0,0:0:0:38:G4S.ogg
229,192,67895,1,0,0:0:0:38:B4S.ogg
375,192,67895,1,0,0:0:0:53:B5S.ogg
156,192,68289,1,0,0:0:0:56:F5S_s.ogg
302,192,68289,1,0,0:0:0:58:C6S_s.ogg
448,192,68289,1,0,0:0:0:50:C6S_s.ogg
10,192,68684,1,0,0:0:0:56:E5S_s.ogg
83,192,68684,1,0,0:0:0:58:B5S_s.ogg
375,192,68684,1,0,0:0:0:50:B5S_s.ogg
156,192,69079,1,0,0:0:0:56:D5S_s.ogg
229,192,69079,1,0,0:0:0:58:C6S_s.ogg
448,192,69079,1,0,0:0:0:50:C6S_s.ogg
10,192,69473,1,0,0:0:0:53:D5S.ogg
302,192,69473,1,0,0:0:0:50:G5S.ogg
375,192,69473,1,0,0:0:0:58:B5S.ogg
83,192,69868,1,0,0:0:0:56:B4S_s.ogg
448,192,70263,1,0,0:0:0:56:A4S_s.ogg
156,192,70658,1,0,0:0:0:56:G4S_s.ogg
10,192,71052,1,0,0:0:0:38:A4S.ogg
229,192,71052,1,0,0:0:0:38:C5S.ogg
375,192,71052,1,0,0:0:0:53:A5S.ogg
302,192,71447,1,0,0:0:0:56:A4S_s.ogg
83,192,71842,1,0,0:0:0:56:B4S_s.ogg
448,192,72237,1,0,0:0:0:56:C5S_s.ogg
10,192,72631,1,0,0:0:0:40:E4S.ogg
156,192,72631,1,0,0:0:0:56:B4S.ogg
375,192,72631,1,0,0:0:0:53:B5S.ogg
229,192,73026,1,0,0:0:0:50:E5S_s.ogg
302,192,73026,1,0,0:0:0:58:G5S_s.ogg
83,192,73816,1,0,0:0:0:58:E5S_s.ogg
10,192,74210,1,0,0:0:0:38:B4S.ogg
375,192,74210,1,0,0:0:0:58:D5S_s.ogg
448,192,74210,1,0,0:0:0:53:C6S.ogg
156,192,75000,1,0,0:0:0:56:B4S_s.ogg
229,192,75000,1,0,0:0:0:58:E5S_s.ogg
83,192,75395,1,0,0:0:0:56:D5S_s.ogg
302,192,75395,1,0,0:0:0:58:G5S_s.ogg
10,192,75789,1,0,0:0:0:58:E5S.ogg
375,192,75789,1,0,0:0:0:70:A5S.ogg
448,192,75789,1,0,0:0:0:35:A6S.ogg
156,192,76184,1,0,0:0:0:94:F3S_s.ogg
229,192,76184,1,0,0:0:0:56:B4S_s.ogg
83,192,76579,1,0,0:0:0:94:F3S_s.ogg
302,192,76579,1,0,0:0:0:56:A4S_s.ogg
10,192,76973,1,0,0:0:0:94:F3S_s.ogg
375,192,76973,1,0,0:0:0:56:G4S_s.ogg
156,192,77368,1,0,0:0:0:94:F3S_s.ogg
229,192,77368,1,0,0:0:0:56:A4S_s.ogg
448,192,77368,1,0,0:0:0:70:G5S_s.ogg
83,192,77763,1,0,0:0:0:94:F3S_s.ogg
302,192,77763,1,0,0:0:0:58:A5S_s.ogg
10,192,78158,1,0,0:0:0:56:F4S_s.ogg
375,192,78158,1,0,0:0:0:58:E5S_s.ogg
448,192,78158,1,0,0:0:0:70:C6S_s.ogg
156,192,78552,1,0,0:0:0:94:F3S_s.ogg
229,192,78552,1,0,0:0:0:58:D5S_s.ogg
10,192,78947,1,0,0:0:0:56:A4S.ogg
83,192,78947,1,0,0:0:0:58:E5S.ogg
302,192,78947,1,0,0:0:0:70:B5S.ogg
448,192,79342,1,0,0:0:0:94:G3S_s.ogg
375,192,79737,1,0,0:0:0:94:G3S_s.ogg
83,192,80131,1,0,0:0:0:94:G3S_s.ogg
156,192,80131,1,0,0:0:0:56:B4S_s.ogg
229,192,80131,1,0,0:0:0:58:G5S.ogg
10,192,80526,1,0,0:0:0:94:G3S_s.ogg
302,192,80526,1,0,0:0:0:70:G5S_s.ogg
375,192,80921,1,0,0:0:0:94:G3S_s.ogg
448,192,80921,1,0,0:0:0:56:C5S_s.ogg
83,192,81316,1,0,0:0:0:94:G3S_s.ogg
156,192,81316,1,0,0:0:0:58:A5S_s.ogg
229,192,81316,1,0,0:0:0:70:C6S_s.ogg
10,192,81710,1,0,0:0:0:94:G3S_s.ogg
302,192,81710,1,0,0:0:0:56:D5S_s.ogg
448,192,81710,1,0,0:0:0:58:B5S_s.ogg
156,192,82105,1,0,0:0:0:47:C5S_s.ogg
229,192,82105,1,0,0:0:0:55:C6S_s.ogg
375,192,82105,1,0,0:0:0:35:G#6S_Ab6S.ogg
83,192,82500,1,0,0:0:0:94:A#3S_Bb3S_s.ogg
10,192,82895,1,0,0:0:0:94:A#3S_Bb3S_s.ogg
302,192,82895,1,0,0:0:0:70:G#5S_Ab5S_s.ogg
448,192,83289,1,0,0:0:0:94:A#3S_Bb3S_s.ogg
156,192,83684,1,0,0:0:0:94:A#3S_Bb3S_s.ogg
375,192,83684,1,0,0:0:0:70:A#5S_Bb5S_s.ogg
229,192,84079,1,0,0:0:0:94:A#3S_Bb3S_s.ogg
10,192,84473,1,0,0:0:0:94:A#3S_Bb3S_s.ogg
83,192,84473,1,0,0:0:0:70:G#5S_Ab5S_s.ogg
302,192,84473,1,0,0:0:0:70:C6S_s.ogg
448,192,84868,1,0,0:0:0:94:A#3S_Bb3S_s.ogg
156,192,85263,1,0,0:0:0:70:D5S_s.ogg
229,192,85263,1,0,0:0:0:70:A#5S_Bb5S_s.ogg
375,192,85263,1,0,0:0:0:35:F6S.ogg
10,192,85362,1,0,0:0:0:7:C#4S_Db4S_s.ogg
302,192,85460,1,0,0:0:0:7:C#4S_Db4S_s.ogg
83,192,85559,1,0,0:0:0:7:C#4S_Db4S_s.ogg
156,192,85658,1,0,0:0:0:11:C#4S_Db4S_s.ogg
375,192,85658,1,0,0:0:0:50:F5S_s.ogg
448,192,85658,1,0,0:0:0:50:A#5S_Bb5S_s.ogg
229,192,85756,1,0,0:0:0:11:C#4S_Db4S_s.ogg
10,192,85855,1,0,0:0:0:11:C#4S_Db4S_s.ogg
302,192,85954,1,0,0:0:0:11:C#4S_Db4S_s.ogg
83,192,86052,1,0,0:0:0:15:C#4S_Db4S_s.ogg
156,192,86052,1,0,0:0:0:50:D5S_s.ogg
448,192,86052,1,0,0:0:0:50:A#5S_Bb5S_s.ogg
375,192,86151,1,0,0:0:0:15:C#4S_Db4S_s.ogg
229,192,86250,1,0,0:0:0:15:C#4S_Db4S_s.ogg
10,192,86348,1,0,0:0:0:15:C#4S_Db4S_s.ogg
83,192,86447,1,0,0:0:0:62:A#4S_Bb4S_s.ogg
302,192,86447,1,0,0:0:0:50:C5S_s.ogg
448,192,86447,1,0,0:0:0:50:D#5S_Eb5S_s.ogg
156,192,86546,1,0,0:0:0:19:C#4S_Db4S_s.ogg
375,192,86645,1,0,0:0:0:19:C#4S_Db4S_s.ogg
229,192,86743,1,0,0:0:0:19:C#4S_Db4S_s.ogg
10,192,86842,1,0,0:0:0:62:C5S_s.ogg
83,192,86842,1,0,0:0:0:50:C6S_s.ogg
302,192,86842,1,0,0:0:0:38:C6S_s.ogg
448,192,86941,1,0,0:0:0:23:C#4S_Db4S_s.ogg
156,192,87039,1,0,0:0:0:23:C#4S_Db4S_s.ogg
375,192,87138,1,0,0:0:0:23:C#4S_Db4S_s.ogg
83,192,87237,1,0,0:0:0:50:A#5S_Bb5S_s.ogg
229,192,87237,1,0,0:0:0:40:A#5S_Bb5S_s.ogg
302,192,87237,1,0,0:0:0:42:D6S_s.ogg
10,192,87335,1,0,0:0:0:27:C#4S_Db4S_s.ogg
448,192,87434,1,0,0:0:0:27:C#4S_Db4S_s.ogg
156,192,87533,1,0,0:0:0:27:C#4S_Db4S_s.ogg
83,192,87631,1,0,0:0:0:50:C6S_s.ogg
302,192,87631,1,0,0:0:0:44:C6S_s.ogg
375,192,87631,1,0,0:0:0:46:D#6S_Eb6S_s.ogg
229,192,87730,1,0,0:0:0:31:C#4S_Db4S_s.ogg
10,192,87829,1,0,0:0:0:31:C#4S_Db4S_s.ogg
448,192,87927,1,0,0:0:0:31:C#4S_Db4S_s.ogg
83,192,88026,1,0,0:0:0:50:D6S_s.ogg
156,192,88026,1,0,0:0:0:47:D6S_s.ogg
302,192,88026,1,0,0:0:0:50:F6S_s.ogg
375,192,88125,1,0,0:0:0:35:C#4S_Db4S_s.ogg
229,192,88223,1,0,0:0:0:35:C#4S_Db4S_s.ogg
10,192,88322,1,0,0:0:0:35:C#4S_Db4S_s.ogg
156,192,88421,1,0,0:0:0:64:C5S_s.ogg
302,192,88421,1,0,0:0:0:55:G5S_s.ogg
448,192,88421,1,0,0:0:0:75:G6S.ogg
83,192,88618,1,0,0:0:0:56:G#3S_Ab3S_s.ogg
375,192,88618,1,0,0:0:0:64:D5S_s.ogg
10,192,88816,1,0,0:0:0:56:G#2S_Ab2S_s.ogg
229,192,88816,1,0,0:0:0:86:G#3S_Ab3S_s.ogg
302,192,88816,1,0,0:0:0:64:D#5S_Eb5S_s.ogg
156,192,89013,1,0,0:0:0:56:G#3S_Ab3S_s.ogg
448,192,89013,1,0,0:0:0:64:D5S_s.ogg
10,192,89210,1,0,0:0:0:86:G#3S_Ab3S_s.ogg
83,192,89210,1,0,0:0:0:64:D#5S_Eb5S_s.ogg
375,192,89210,1,0,0:0:0:55:C6S_s.ogg
229,192,89408,1,0,0:0:0:56:G#3S_Ab3S_s.ogg
302,192,89408,1,0,0:0:0:64:D5S_s.ogg
156,192,89605,1,0,0:0:0:56:G#2S_Ab2S_s.ogg
375,192,89605,1,0,0:0:0:86:G#3S_Ab3S_s.ogg
448,192,89605,1,0,0:0:0:64:D#5S_Eb5S_s.ogg
10,192,89802,1,0,0:0:0:56:G#3S_Ab3S_s.ogg
83,192,89802,1,0,0:0:0:64:D5S_s.ogg
156,192,90000,1,0,0:0:0:86:G#3S_Ab3S_s.ogg
229,192,90000,1,0,0:0:0:64:D#5S_Eb5S_s.ogg
302,192,90000,1,0,0:0:0:55:A#5S_Bb5S_s.ogg
375,192,90197,1,0,0:0:0:56:G#3S_Ab3S_s.ogg
448,192,90197,1,0,0:0:0:64:D5S_s.ogg
10,192,90394,1,0,0:0:0:86:G#3S_Ab3S_s.ogg
83,192,90394,1,0,0:0:0:64:D#5S_Eb5S_s.ogg
302,192,90394,1,0,0:0:0:82:C7S_s.ogg
156,192,90592,1,0,0:0:0:56:G#3S_Ab3S_s.ogg
229,192,90592,1,0,0:0:0:64:D5S_s.ogg
10,192,90789,1,0,0:0:0:55:D#5S_Eb5S_s.ogg
375,192,90789,1,0,0:0:0:64:D#5S_Eb5S_s.ogg
448,192,90789,1,0,0:0:0:75:G6S_s.ogg
83,192,90987,1,0,0:0:0:56:G#3S_Ab3S_s.ogg
302,192,90987,1,0,0:0:0:64:D5S_s.ogg
156,192,91184,1,0,0:0:0:86:G#3S_Ab3S_s.ogg
229,192,91184,1,0,0:0:0:64:D#5S_Eb5S_s.ogg
375,192,91184,1,0,0:0:0:75:F6S_s.ogg
10,192,91381,1,0,0:0:0:56:G#3S_Ab3S_s.ogg
448,192,91381,1,0,0:0:0:64:D5S_s.ogg
83,192,91579,1,0,0:0:0:55:A#4S_Bb4S.ogg
156,192,91579,1,0,0:0:0:64:C5S_s.ogg
302,192,91579,1,0,0:0:0:82:C6S.ogg
229,192,91776,1,0,0:0:0:56:A#3S_Bb3S_s.ogg
375,192,91776,1,0,0:0:0:64:D5S_s.ogg
10,192,91973,1,0,0:0:0:56:A#2S_Bb2S_s.ogg
302,192,91973,1,0,0:0:0:86:A#3S_Bb3S_s.ogg
448,192,91973,1,0,0:0:0:64:D#5S_Eb5S_s.ogg
83,192,92171,1,0,0:0:0:56:A#3S_Bb3S_s.ogg
156,192,92171,1,0,0:0:0:64:D5S_s.ogg
10,192,92368,1,0,0:0:0:86:A#3S_Bb3S_s.ogg
229,192,92368,1,0,0:0:0:64:D#5S_Eb5S_s.ogg
375,192,92368,1,0,0:0:0:55:F5S_s.ogg
302,192,92566,1,0,0:0:0:56:A#3S_Bb3S_s.ogg
448,192,92566,1,0,0:0:0:64:D5S_s.ogg
83,192,92763,1,0,0:0:0:86:A#3S_Bb3S_s.ogg
156,192,92763,1,0,0:0:0:64:D#5S_Eb5S_s.ogg
375,192,92763,1,0,0:0:0:75:F6S_s.ogg
10,192,92960,1,0,0:0:0:56:A#3S_Bb3S_s.ogg
229,192,92960,1,0,0:0:0:64:D5S_s.ogg
156,192,93158,1,0,0:0:0:64:D#5S_Eb5S_s.ogg
302,192,93158,1,0,0:0:0:55:A#5S_Bb5S_s.ogg
448,192,93158,1,0,0:0:0:75:F6S_s.ogg
83,192,93355,1,0,0:0:0:56:A#3S_Bb3S_s.ogg
375,192,93355,1,0,0:0:0:64:D5S_s.ogg
10,192,93552,1,0,0:0:0:56:A#2S_Bb2S_s.ogg
229,192,93552,1,0,0:0:0:86:A#3S_Bb3S_s.ogg
302,192,93552,1,0,0:0:0:64:D#5S_Eb5S_s.ogg
156,192,93750,1,0,0:0:0:56:A#3S_Bb3S_s.ogg
448,192,93750,1,0,0:0:0:64:D5S_s.ogg
10,192,93947,1,0,0:0:0:64:D#5S_Eb5S_s.ogg
83,192,93947,1,0,0:0:0:55:A#5S_Bb5S_s.ogg
375,192,93947,1,0,0:0:0:82:A#6S_Bb6S_s.ogg
229,192,94144,1,0,0:0:0:56:A#3S_Bb3S_s.ogg
302,192,94144,1,0,0:0:0:64:D5S_s.ogg
156,192,94342,1,0,0:0:0:64:D#5S_Eb5S_s.ogg
375,192,94342,1,0,0:0:0:55:F5S_s.ogg
448,192,94342,1,0,0:0:0:75:F6S_s.ogg
10,192,94539,1,0,0:0:0:56:A#3S_Bb3S_s.ogg
83,192,94539,1,0,0:0:0:64:D5S_s.ogg
229,192,94737,1,0,0:0:0:55:F5S_s.ogg
302,192,94737,1,0,0:0:0:55:G5S_s.ogg
375,192,94737,1,0,0:0:0:75:F6S.ogg
156,192,94934,1,0,0:0:0:56:C4S_s.ogg
448,192,94934,1,0,0:0:0:64:D5S_s.ogg
10,192,95131,1,0,0:0:0:56:C3S_s.ogg
83,192,95131,1,0,0:0:0:86:C4S_s.ogg
375,192,95131,1,0,0:0:0:64:D#5S_Eb5S_s.ogg
229,192,95329,1,0,0:0:0:56:C4S_s.ogg
302,192,95329,1,0,0:0:0:64:D5S_s.ogg
10,192,95526,1,0,0:0:0:64:D#5S_Eb5S_s.ogg
156,192,95526,1,0,0:0:0:55:F5S_s.ogg
448,192,95526,1,0,0:0:0:55:G5S_s.ogg
83,192,95723,1,0,0:0:0:56:C4S_s.ogg
375,192,95723,1,0,0:0:0:64:D5S_s.ogg
10,192,95921,1,0,0:0:0:55:D#5S_Eb5S_s.ogg
229,192,95921,1,0,0:0:0:64:D#5S_Eb5S_s.ogg
302,192,95921,1,0,0:0:0:78:D#6S_Eb6S_s.ogg
156,192,96118,1,0,0:0:0:56:C4S_s.ogg
448,192,96118,1,0,0:0:0:64:D5S_s.ogg
83,192,96316,1,0,0:0:0:64:D#5S_Eb5S_s.ogg
302,192,96316,1,0,0:0:0:55:G5S_s.ogg
375,192,96316,1,0,0:0:0:78:D#6S_Eb6S_s.ogg
10,192,96513,1,0,0:0:0:56:C4S_s.ogg
229,192,96513,1,0,0:0:0:64:D5S_s.ogg
156,192,96710,1,0,0:0:0:56:C3S_s.ogg
302,192,96710,1,0,0:0:0:86:C4S_s.ogg
448,192,96710,1,0,0:0:0:64:D#5S_Eb5S_s.ogg
83,192,96908,1,0,0:0:0:56:C4S_s.ogg
375,192,96908,1,0,0:0:0:64:D5S_s.ogg
10,192,97105,1,0,0:0:0:64:D#5S_Eb5S_s.ogg
229,192,97105,1,0,0:0:0:55:G5S_s.ogg
448,192,97105,1,0,0:0:0:70:G6S_s.ogg
156,192,97302,1,0,0:0:0:56:C4S_s.ogg
302,192,97302,1,0,0:0:0:64:D5S_s.ogg
10,192,97500,1,0,0:0:0:55:A#4S_Bb4S_s.ogg
83,192,97500,1,0,0:0:0:64:D#5S_Eb5S_s.ogg
375,192,97500,1,0,0:0:0:80:A#5S_Bb5S_s.ogg
229,192,97697,1,0,0:0:0:56:C4S_s.ogg
448,192,97697,1,0,0:0:0:64:D5S_s.ogg
156,192,97894,1,0,0:0:0:55:F5S_s.ogg
302,192,97894,1,0,0:0:0:64:F5S_s.ogg
375,192,97894,1,0,0:0:0:80:A#5S_Bb5S.ogg
83,192,98092,1,0,0:0:0:56:G3S_s.ogg
10,192,98289,1,0,0:0:0:56:G2S_s.ogg
229,192,98289,1,0,0:0:0:86:G3S_s.ogg
448,192,98289,1,0,0:0:0:64:D5S_s.ogg
156,192,98487,1,0,0:0:0:56:G3S_s.ogg
302,192,98487,1,0,0:0:0:64:F5S_s.ogg
83,192,98684,1,0,0:0:0:55:A#4S_Bb4S_s.ogg
375,192,98684,1,0,0:0:0:55:F5S_s.ogg
448,192,98684,1,0,0:0:0:64:F5S_s.ogg
229,192,98881,1,0,0:0:0:56:G3S_s.ogg
10,192,99079,1,0,0:0:0:56:G2S_s.ogg
156,192,99079,1,0,0:0:0:86:G3S_s.ogg
302,192,99079,1,0,0:0:0:64:D5S_s.ogg
83,192,99276,1,0,0:0:0:56:G3S_s.ogg
375,192,99276,1,0,0:0:0:64:F5S_s.ogg
156,192,99473,1,0,0:0:0:55:D5S_s.ogg
229,192,99473,1,0,0:0:0:64:F5S_s.ogg
448,192,99473,1,0,0:0:0:80:D6S_s.ogg
302,192,99671,1,0,0:0:0:56:G3S_s.ogg
10,192,99868,1,0,0:0:0:64:D5S_s.ogg
83,192,99868,1,0,0:0:0:55:D#5S_Eb5S_s.ogg
375,192,99868,1,0,0:0:0:80:D#6S_Eb6S_s.ogg
156,192,100066,1,0,0:0:0:56:G3S_s.ogg
448,192,100066,1,0,0:0:0:64:F5S_s.ogg
83,192,100263,1,0,0:0:0:55:F5S_s.ogg
229,192,100263,1,0,0:0:0:64:F5S_s.ogg
302,192,100263,1,0,0:0:0:75:F6S_s.ogg
375,192,100460,1,0,0:0:0:56:G3S_s.ogg
10,192,100658,1,0,0:0:0:55:D5S_s.ogg
156,192,100658,1,0,0:0:0:64:D5S_s.ogg
448,192,100658,1,0,0:0:0:78:D6S_s.ogg
83,192,100855,1,0,0:0:0:56:G3S_s.ogg
302,192,100855,1,0,0:0:0:64:F5S_s.ogg
156,192,101052,1,0,0:0:0:64:C5S_s.ogg
229,192,101052,1,0,0:0:0:55:G5S_s.ogg
375,192,101052,1,0,0:0:0:78:C6S_s.ogg
10,192,101250,1,0,0:0:0:56:G#3S_Ab3S_s.ogg
448,192,101250,1,0,0:0:0:64:D5S_s.ogg
83,192,101447,1,0,0:0:0:86:G#3S_Ab3S_s.ogg
302,192,101447,1,0,0:0:0:64:D#5S_Eb5S_s.ogg
375,192,101447,1,0,0:0:0:77:F6S_s.ogg
156,192,101644,1,0,0:0:0:56:G#3S_Ab3S_s.ogg
229,192,101644,1,0,0:0:0:64:D5S_s.ogg
10,192,101842,1,0,0:0:0:64:D#5S_Eb5S_s.ogg
375,192,101842,1,0,0:0:0:55:C6S_s.ogg
448,192,101842,1,0,0:0:0:77:F6S_s.ogg
83,192,102039,1,0,0:0:0:56:G#3S_Ab3S_s.ogg
302,192,102039,1,0,0:0:0:64:D5S_s.ogg
156,192,102237,1,0,0:0:0:86:G#3S_Ab3S_s.ogg
229,192,102237,1,0,0:0:0:64:D#5S_Eb5S_s.ogg
448,192,102237,1,0,0:0:0:74:G6S_s.ogg
10,192,102434,1,0,0:0:0:56:G#3S_Ab3S_s.ogg
375,192,102434,1,0,0:0:0:64:D5S_s.ogg
83,192,102631,1,0,0:0:0:64:D#5S_Eb5S_s.ogg
156,192,102631,1,0,0:0:0:55:A#5S_Bb5S_s.ogg
302,192,102631,1,0,0:0:0:74:G6S_s.ogg
229,192,102829,1,0,0:0:0:56:G#3S_Ab3S_s.ogg
448,192,102829,1,0,0:0:0:64:D5S_s.ogg
10,192,103026,1,0,0:0:0:86:G#3S_Ab3S_s.ogg
83,192,103026,1,0,0:0:0:64:D#5S_Eb5S_s.ogg
375,192,103026,1,0,0:0:0:78:C6S_s.ogg
156,192,103223,1,0,0:0:0:56:G#3S_Ab3S_s.ogg
302,192,103223,1,0,0:0:0:64:D5S_s.ogg
10,192,103421,1,0,0:0:0:55:D#5S_Eb5S_s.ogg
229,192,103421,1,0,0:0:0:64:D#5S_Eb5S_s.ogg
448,192,103421,1,0,0:0:0:78:D#6S_Eb6S_s.ogg
83,192,103618,1,0,0:0:0:56:G#3S_Ab3S_s.ogg
375,192,103618,1,0,0:0:0:64:D5S_s.ogg
156,192,103816,1,0,0:0:0:86:G#3S_Ab3S_s.ogg
302,192,103816,1,0,0:0:0:64:D#5S_Eb5S_s.ogg
448,192,103816,1,0,0:0:0:78:D6S_s.ogg
10,192,104013,1,0,0:0:0:56:G#3S_Ab3S_s.ogg
229,192,104013,1,0,0:0:0:64:D5S_s.ogg
83,192,104210,1,0,0:0:0:55:A#4S_Bb4S.ogg
302,192,104210,1,0,0:0:0:64:C5S_s.ogg
375,192,104210,1,0,0:0:0:78:C6S_s.ogg
156,192,104408,1,0,0:0:0:56:A#3S_Bb3S_s.ogg
448,192,104408,1,0,0:0:0:64:D5S_s.ogg
10,192,104605,1,0,0:0:0:86:A#3S_Bb3S_s.ogg
229,192,104605,1,0,0:0:0:64:D#5S_Eb5S_s.ogg
302,192,104605,1,0,0:0:0:77:F6S_s.ogg
83,192,104802,1,0,0:0:0:56:A#3S_Bb3S_s.ogg
375,192,104802,1,0,0:0:0:64:D5S_s.ogg
10,192,105000,1,0,0:0:0:64:D#5S_Eb5S_s.ogg
156,192,105000,1,0,0:0:0:55:F5S_s.ogg
448,192,105000,1,0,0:0:0:77:F6S_s.ogg
229,192,105197,1,0,0:0:0:56:A#3S_Bb3S_s.ogg
302,192,105197,1,0,0:0:0:64:D5S_s.ogg
83,192,105394,1,0,0:0:0:86:A#3S_Bb3S_s.ogg
156,192,105394,1,0,0:0:0:64:D#5S_Eb5S_s.ogg
375,192,105394,1,0,0:0:0:74:G6S_s.ogg
10,192,105592,1,0,0:0:0:56:A#3S_Bb3S_s.ogg
448,192,105592,1,0,0:0:0:64:D5S_s.ogg
156,192,105789,1,0,0:0:0:64:D#5S_Eb5S_s.ogg
229,192,105789,1,0,0:0:0:55:A#5S_Bb5S_s.ogg
302,192,105789,1,0,0:0:0:74:G6S_s.ogg
83,192,105987,1,0,0:0:0:56:A#3S_Bb3S_s.ogg
375,192,105987,1,0,0:0:0:64:D5S_s.ogg
10,192,106184,1,0,0:0:0:86:A#3S_Bb3S_s.ogg
302,192,106184,1,0,0:0:0:64:D#5S_Eb5S_s.ogg
448,192,106184,1,0,0:0:0:78:C6S_s.ogg
156,192,106381,1,0,0:0:0:56:A#3S_Bb3S_s.ogg
229,192,106381,1,0,0:0:0:64:D5S_s.ogg
83,192,106579,1,0,0:0:0:64:D#5S_Eb5S_s.ogg
302,192,106579,1,0,0:0:0:55:A#5S_Bb5S_s.ogg
375,192,106579,1,0,0:0:0:78:D#6S_Eb6S_s.ogg
10,192,106776,1,0,0:0:0:56:A#3S_Bb3S_s.ogg
448,192,106776,1,0,0:0:0:64:D5S_s.ogg
156,192,106973,1,0,0:0:0:64:D#5S_Eb5S_s.ogg
229,192,106973,1,0,0:0:0:55:F5S_s.ogg
375,192,106973,1,0,0:0:0:77:F6S_s.ogg
83,192,107171,1,0,0:0:0:56:A#3S_Bb3S_s.ogg
302,192,107171,1,0,0:0:0:64:D5S_s.ogg
10,192,107368,1,0,0:0:0:55:G5S_s.ogg
156,192,107368,1,0,0:0:0:64:G5S_s.ogg
448,192,107368,1,0,0:0:0:77:F6S_s.ogg
229,192,107566,1,0,0:0:0:56:C4S_s.ogg
375,192,107566,1,0,0:0:0:64:F5S_s.ogg
83,192,107763,1,0,0:0:0:55:D5S_s.ogg
302,192,107763,1,0,0:0:0:64:G5S_s.ogg
448,192,107763,1,0,0:0:0:77:D6S_s.ogg
10,192,107960,1,0,0:0:0:57:C4S_s.ogg
156,192,107960,1,0,0:0:0:64:F5S_s.ogg
83,192,108158,1,0,0:0:0:55:G5S_s.ogg
229,192,108158,1,0,0:0:0:64:G5S_s.ogg
375,192,108158,1,0,0:0:0:77:D#6S_Eb6S_s.ogg
302,192,108355,1,0,0:0:0:59:C4S_s.ogg
448,192,108355,1,0,0:0:0:64:F5S_s.ogg
10,192,108552,1,0,0:0:0:86:C4S_s.ogg
156,192,108552,1,0,0:0:0:64:G5S_s.ogg
375,192,108552,1,0,0:0:0:82:A#6S_Bb6S.ogg
83,192,108750,1,0,0:0:0:59:C4S_s.ogg
229,192,108750,1,0,0:0:0:64:F5S_s.ogg
156,192,108947,1,0,0:0:0:86:C4S_s.ogg
302,192,108947,1,0,0:0:0:64:G5S_s.ogg
448,192,108947,1,0,0:0:0:55:C6S_s.ogg
10,192,109144,1,0,0:0:0:60:C4S_s.ogg
375,192,109144,1,0,0:0:0:64:F5S_s.ogg
83,192,109342,1,0,0:0:0:61:C3S_s.ogg
229,192,109342,1,0,0:0:0:86:C4S_s.ogg
448,192,109342,1,0,0:0:0:64:G5S_s.ogg
156,192,109539,1,0,0:0:0:61:C4S_s.ogg
302,192,109539,1,0,0:0:0:64:F5S_s.ogg
10,192,109737,1,0,0:0:0:64:G5S_s.ogg
83,192,109737,1,0,0:0:0:55:C6S_s.ogg
375,192,109737,1,0,0:0:0:70:G6S_s.ogg
229,192,109934,1,0,0:0:0:62:C4S_s.ogg
448,192,109934,1,0,0:0:0:64:F5S_s.ogg
156,192,110131,1,0,0:0:0:86:C4S_s.ogg
302,192,110131,1,0,0:0:0:64:G5S_s.ogg
375,192,110131,1,0,0:0:0:78:D#6S_Eb6S_s.ogg
10,192,110329,1,0,0:0:0:63:C4S_s.ogg
83,192,110329,1,0,0:0:0:64:F5S_s.ogg
156,192,110526,1,0,0:0:0:64:F5S_s.ogg
229,192,110526,1,0,0:0:0:55:C6S_s.ogg
448,192,110526,1,0,0:0:0:78:D6S.ogg
375,192,110723,1,0,0:0:0:64:C4S_s.ogg
10,192,110921,1,0,0:0:0:64:C3S_s.ogg
83,192,110921,1,0,0:0:0:86:C4S_s.ogg
302,192,110921,1,0,0:0:0:64:D5S_s.ogg
229,192,111118,1,0,0:0:0:65:C4S_s.ogg
448,192,111118,1,0,0:0:0:64:F5S_s.ogg
10,192,111316,1,0,0:0:0:64:F5S_s.ogg
156,192,111316,1,0,0:0:0:56:G5S_s.ogg
375,192,111316,1,0,0:0:0:56:C6S_s.ogg
302,192,111513,1,0,0:0:0:66:C4S_s.ogg
83,192,111710,1,0,0:0:0:86:C4S_s.ogg
229,192,111710,1,0,0:0:0:64:D5S_s.ogg
448,192,111710,1,0,0:0:0:78:D#6S_Eb6S_s.ogg
156,192,111908,1,0,0:0:0:66:C4S_s.ogg
375,192,111908,1,0,0:0:0:64:F5S_s.ogg
10,192,112105,1,0,0:0:0:59:G5S_s.ogg
83,192,112105,1,0,0:0:0:59:C6S_s.ogg
302,192,112105,1,0,0:0:0:75:F6S_s.ogg
229,192,112302,1,0,0:0:0:68:C4S_s.ogg
156,192,112500,1,0,0:0:0:86:C4S_s.ogg
375,192,112500,1,0,0:0:0:64:D5S_s.ogg
448,192,112500,1,0,0:0:0:75:D#6S_Eb6S_s.ogg
83,192,112697,1,0,0:0:0:69:C4S_s.ogg
302,192,112697,1,0,0:0:0:64:F5S_s.ogg
10,192,112894,1,0,0:0:0:60:G5S_s.ogg
156,192,112894,1,0,0:0:0:60:C6S_s.ogg
229,192,112894,1,0,0:0:0:75:D6S_s.ogg
83,192,113289,1,0,0:0:0:61:C5S_s.ogg
375,192,113289,1,0,0:0:0:64:D5S_s.ogg
448,192,113289,1,0,0:0:0:75:A#5S_Bb5S_s.ogg
302,192,113487,1,0,0:0:0:64:F5S_s.ogg
10,192,113684,1,0,0:0:0:35:D#4S_Eb4S.ogg
156,192,113684,1,0,0:0:0:56:D#5S_Eb5S_s.ogg
229,192,113684,1,0,0:0:0:50:G5S.ogg
448,192,114079,1,0,0:0:0:56:D5S_s.ogg
83,192,114473,1,0,0:0:0:56:C5S_s.ogg
375,192,114868,1,0,0:0:0:56:A#4S_Bb4S_s.ogg
302,192,115263,1,0,0:0:0:56:C5S_s.ogg
10,192,115658,1,0,0:0:0:50:C6S_s.ogg
156,192,116052,1,0,0:0:0:56:G#4S_Ab4S_s.ogg
229,192,116052,1,0,0:0:0:50:G5S_s.ogg
83,192,116447,1,0,0:0:0:56:A#4S_Bb4S_s.ogg
448,192,116447,1,0,0:0:0:50:F5S_s.ogg
10,192,116842,1,0,0:0:0:35:G4S.ogg
302,192,116842,1,0,0:0:0:56:C5S.ogg
375,192,116842,1,0,0:0:0:50:G5S.ogg
156,192,118026,1,0,0:0:0:56:D5S.ogg
229,192,118026,1,0,0:0:0:50:A#5S_Bb5S_s.ogg
448,192,118815,1,0,0:0:0:50:G5S_s.ogg
83,192,119210,1,0,0:0:0:50:F5S_s.ogg
10,192,119605,1,0,0:0:0:56:D#5S_Eb5S_s.ogg
375,192,119605,1,0,0:0:0:50:G5S_s.ogg
156,192,120000,1,0,0:0:0:35:G4S.ogg
229,192,120000,1,0,0:0:0:56:A#4S_Bb4S_s.ogg
302,192,120000,1,0,0:0:0:50:F5S.ogg
448,192,120416,1,0,0:0:0:54:C5S_s.ogg
83,192,120833,1,0,0:0:0:51:D5S_s.ogg
10,192,121274,1,0,0:0:0:49:A#4S_Bb4S.ogg
375,192,121274,1,0,0:0:0:46:D#5S_Eb5S.ogg
156,192,122715,1,0,0:0:0:35:F4S_s.ogg
229,192,122715,1,0,0:0:0:42:G#4S_Ab4S_s.ogg
302,192,122715,1,0,0:0:0:41:D5S_s.ogg
83,192,124048,1,0,0:0:0:31:D#4S_Eb4S.ogg
375,192,124048,1,0,0:0:0:37:G4S.ogg
448,192,124048,1,0,0:0:0:38:F5S.ogg
