osu file format v14

[General]
AudioFilename: audio.mp3
AudioLeadIn: 0
PreviewTime: -1
Countdown: 0
SampleSet: None
StackLeniency: 0.7
Mode: 3
LetterboxInBreaks: 0
SpecialStyle: 0
WidescreenStoryboard: 0

[Editor]
DistanceSpacing: 1.2
BeatDivisor: 16
GridSize: 4
TimelineZoom: 1

[Metadata]
Title:Eternal Pack 2
TitleUnicode:Eternal Pack 2
Artist:Various Artists
ArtistUnicode:Various Artists
Creator:[Shana Lesus]
Version:Yoshiaki Dewa - Cry for the moon
Source:
Tags:
BeatmapID:2205857
BeatmapSetID:1049301

[Difficulty]
HPDrainRate:8
CircleSize:7
OverallDifficulty:8
ApproachRate:5
SliderMultiplier:1.4
SliderTickRate:1

[Events]
//Background and Video events
0,0,"nagi1.jpg",0,0
//Break Periods
//Storyboard Layer 0 (Background)
//Storyboard Layer 1 (Fail)
//Storyboard Layer 2 (Pass)
//Storyboard Layer 3 (Foreground)
//Storyboard Layer 4 (Overlay)
//Storyboard Sound Samples
Sample,46316,0,"B3S.ogg",50

[TimingPoints]
0,1052.632,4,1,1,100,1,0

[HitObjects]
10,192,0,5,0,0:0:0:38:D6S.ogg
302,192,0,1,0,0:0:0:38:A6S.ogg
375,192,0,1,0,0:0:0:38:F#7S_Gb7S_s.ogg
156,192,526,1,0,0:0:0:38:G#7S_Ab7S_s.ogg
448,192,1052,1,0,0:0:0:38:A7S_s.ogg
229,192,1578,1,0,0:0:0:38:C#8S_Db8S_s.ogg
10,192,2105,1,0,0:0:0:38:E6S.ogg
83,192,2105,1,0,0:0:0:38:B6S.ogg
375,192,2105,1,0,0:0:0:38:B7S.ogg
302,192,3684,1,0,0:0:0:38:G#7S_Ab7S_s.ogg
156,192,3947,1,0,0:0:0:38:F#7S_Gb7S_s.ogg
229,192,4210,1,0,0:0:0:38:C#6S_Db6S.ogg
375,192,4210,1,0,0:0:0:38:G#6S_Ab6S.ogg
448,192,4210,1,0,0:0:0:38:E7S_s.ogg
83,192,4736,1,0,0:0:0:38:F#7S_Gb7S_s.ogg
10,192,5263,1,0,0:0:0:38:G#7S_Ab7S_s.ogg
302,192,5789,1,0,0:0:0:38:E7S_s.ogg
156,192,6315,1,0,0:0:0:38:F#6S_Gb6S.ogg
229,192,6315,1,0,0:0:0:38:C#7S_Db7S.ogg
375,192,6315,1,0,0:0:0:38:A7S.ogg
10,192,8421,1,0,0:0:0:38:D6S.ogg
83,192,8421,1,0,0:0:0:38:A6S.ogg
448,192,8421,1,0,0:0:0:38:F#7S_Gb7S_s.ogg
302,192,8947,1,0,0:0:0:38:G#7S_Ab7S_s.ogg
156,192,9473,1,0,0:0:0:38:A7S_s.ogg
375,192,10000,1,0,0:0:0:38:C#8S_Db8S_s.ogg
10,192,10526,1,0,0:0:0:38:E6S.ogg
229,192,10526,1,0,0:0:0:38:B6S.ogg
448,192,10526,1,0,0:0:0:38:B7S.ogg
83,192,12105,1,0,0:0:0:38:B7S_s.ogg
156,192,12631,1,0,0:0:0:38:C#6S_Db6S.ogg
302,192,12631,1,0,0:0:0:38:G#6S_Ab6S.ogg
375,192,12631,1,0,0:0:0:38:B7S_s.ogg
10,192,13157,1,0,0:0:0:38:C#8S_Db8S_s.ogg
448,192,13684,1,0,0:0:0:38:D8S_s.ogg
229,192,14210,1,0,0:0:0:38:E8S_s.ogg
83,192,14736,1,0,0:0:0:38:F#6S_Gb6S.ogg
156,192,14736,1,0,0:0:0:38:C#7S_Db7S.ogg
302,192,14736,1,0,0:0:0:38:C#8S_Db8S.ogg
10,192,16842,1,0,0:0:0:38:D5S.ogg
375,192,16842,1,0,0:0:0:38:A5S.ogg
448,192,16842,1,0,0:0:0:38:F#6S_Gb6S_s.ogg
229,192,17368,1,0,0:0:0:38:G#6S_Ab6S_s.ogg
156,192,17894,1,0,0:0:0:38:A6S_s.ogg
302,192,18421,1,0,0:0:0:38:C#7S_Db7S_s.ogg
10,192,18947,1,0,0:0:0:38:E5S.ogg
83,192,18947,1,0,0:0:0:38:B5S.ogg
375,192,18947,1,0,0:0:0:38:B6S.ogg
448,192,20526,1,0,0:0:0:38:G#6S_Ab6S_s.ogg
229,192,20789,1,0,0:0:0:38:F#6S_Gb6S_s.ogg
10,192,21052,1,0,0:0:0:38:C#5S_Db5S_s.ogg
156,192,21052,1,0,0:0:0:38:G#5S_Ab5S_s.ogg
302,192,21052,1,0,0:0:0:38:E6S_s.ogg
375,192,21578,1,0,0:0:0:38:F#6S_Gb6S_s.ogg
83,192,22105,1,0,0:0:0:38:F5S_s.ogg
229,192,22105,1,0,0:0:0:38:D6S_s.ogg
448,192,22105,1,0,0:0:0:38:G#6S_Ab6S_s.ogg
156,192,22631,1,0,0:0:0:38:B6S_s.ogg
10,192,23157,1,0,0:0:0:38:F#5S_Gb5S_s.ogg
302,192,23157,1,0,0:0:0:38:C#6S_Db6S_s.ogg
375,192,23157,1,0,0:0:0:38:A6S_s.ogg
83,192,24210,1,0,0:0:0:38:E5S_s.ogg
229,192,24210,1,0,0:0:0:38:B5S_s.ogg
448,192,24210,1,0,0:0:0:38:G#6S_Ab6S_s.ogg
156,192,24736,1,0,0:0:0:38:E6S_s.ogg
302,192,25000,1,0,0:0:0:38:F#6S_Gb6S.ogg
10,192,25263,1,0,0:0:0:38:D5S.ogg
375,192,25263,1,0,0:0:0:38:A5S.ogg
83,192,26842,1,0,0:0:0:38:F#6S_Gb6S_s.ogg
229,192,27105,1,0,0:0:0:38:G#6S_Ab6S.ogg
156,192,27368,1,0,0:0:0:38:E5S.ogg
448,192,27368,1,0,0:0:0:38:B5S.ogg
302,192,28421,1,0,0:0:0:38:E6S_s.ogg
10,192,29473,1,0,0:0:0:38:C#6S_Db6S.ogg
375,192,29473,1,0,0:0:0:38:F#6S_Gb6S.ogg
83,192,31052,1,0,0:0:0:38:C#5S_Db5S_s.ogg
229,192,31578,1,0,0:0:0:38:F#4S_Gb4S.ogg
156,192,33684,1,0,0:0:0:50:A4S.ogg
302,192,33684,1,0,0:0:0:50:E5S.ogg
448,192,33684,1,0,0:0:0:50:C#6S_Db6S_s.ogg
10,192,34210,1,0,0:0:0:50:B5S_s.ogg
375,192,34473,1,0,0:0:0:50:C#6S_Db6S_s.ogg
83,192,35263,1,0,0:0:0:50:E6S_s.ogg
156,192,35789,1,0,0:0:0:50:G#4S_Ab4S.ogg
229,192,35789,1,0,0:0:0:50:E5S.ogg
448,192,35789,1,0,0:0:0:50:B5S_s.ogg
302,192,36842,1,0,0:0:0:50:E6S_s.ogg
10,192,37894,1,0,0:0:0:50:F#4S_Gb4S.ogg
83,192,37894,1,0,0:0:0:50:C#5S_Db5S.ogg
375,192,37894,1,0,0:0:0:50:A5S_s.ogg
448,192,38421,1,0,0:0:0:50:G#5S_Ab5S_s.ogg
229,192,38684,1,0,0:0:0:50:A5S_s.ogg
156,192,39473,1,0,0:0:0:50:C#6S_Db6S_s.ogg
10,192,40000,1,0,0:0:0:50:E4S.ogg
302,192,40000,1,0,0:0:0:50:B4S.ogg
375,192,40000,1,0,0:0:0:50:G#5S_Ab5S.ogg
83,192,42105,1,0,0:0:0:50:D4S.ogg
229,192,42105,1,0,0:0:0:50:A4S.ogg
448,192,42105,1,0,0:0:0:50:F#5S_Gb5S_s.ogg
156,192,42631,1,0,0:0:0:50:E5S_s.ogg
302,192,42894,1,0,0:0:0:50:F#5S_Gb5S_s.ogg
10,192,43684,1,0,0:0:0:50:A5S_s.ogg
83,192,44210,1,0,0:0:0:50:C#4S_Db4S.ogg
375,192,44210,1,0,0:0:0:50:A4S.ogg
448,192,44210,1,0,0:0:0:50:E5S_s.ogg
229,192,45263,1,0,0:0:0:50:A5S_s.ogg
156,192,45789,1,0,0:0:0:50:C#6S_Db6S_s.ogg
10,192,46315,1,0,0:0:0:50:D4S.ogg
302,192,46315,1,0,0:0:0:50:B4S.ogg
375,192,46315,1,0,0:0:0:50:D6S_s.ogg
83,192,46842,1,0,0:0:0:50:E6S_s.ogg
448,192,47368,1,0,0:0:0:50:A5S_s.ogg
229,192,47894,1,0,0:0:0:50:B5S.ogg
156,192,48421,1,0,0:0:0:50:E4S_s.ogg
302,192,48947,1,0,0:0:0:50:B4S_s.ogg
10,192,49473,1,0,0:0:0:50:E5S_s.ogg
83,192,50526,1,0,0:0:0:50:A4S.ogg
375,192,50526,1,0,0:0:0:50:E5S.ogg
448,192,50526,1,0,0:0:0:50:C#6S_Db6S_s.ogg
229,192,51052,1,0,0:0:0:50:B5S_s.ogg
156,192,51315,1,0,0:0:0:50:C#6S_Db6S_s.ogg
302,192,52105,1,0,0:0:0:50:E6S_s.ogg
10,192,52631,1,0,0:0:0:50:G#4S_Ab4S.ogg
83,192,52631,1,0,0:0:0:50:E5S.ogg
375,192,52631,1,0,0:0:0:50:B5S.ogg
448,192,54210,1,0,0:0:0:50:B5S_s.ogg
156,192,54736,1,0,0:0:0:50:F#4S_Gb4S.ogg
229,192,54736,1,0,0:0:0:50:C#5S_Db5S.ogg
302,192,54736,1,0,0:0:0:50:E6S_s.ogg
83,192,55263,1,0,0:0:0:50:D6S_s.ogg
375,192,55789,1,0,0:0:0:50:C#6S_Db6S_s.ogg
10,192,56315,1,0,0:0:0:50:A5S.ogg
156,192,56842,1,0,0:0:0:50:E4S.ogg
448,192,56842,1,0,0:0:0:50:B4S.ogg
229,192,58421,1,0,0:0:0:50:G#5S_Ab5S_s.ogg
83,192,58947,1,0,0:0:0:50:D4S.ogg
302,192,58947,1,0,0:0:0:50:A4S.ogg
375,192,58947,1,0,0:0:0:50:F#5S_Gb5S_s.ogg
10,192,59473,1,0,0:0:0:50:G#5S_Ab5S_s.ogg
448,192,60000,1,0,0:0:0:50:A5S_s.ogg
156,192,60526,1,0,0:0:0:50:E5S_s.ogg
229,192,61052,1,0,0:0:0:50:C#4S_Db4S.ogg
302,192,61052,1,0,0:0:0:50:A4S.ogg
83,192,61578,1,0,0:0:0:50:A5S_s.ogg
375,192,62105,1,0,0:0:0:50:E6S_s.ogg
10,192,62631,1,0,0:0:0:50:D6S_s.ogg
448,192,62894,1,0,0:0:0:50:C#6S_Db6S_s.ogg
156,192,63157,1,0,0:0:0:50:B3S.ogg
229,192,63157,1,0,0:0:0:50:A4S.ogg
302,192,63157,1,0,0:0:0:50:D6S.ogg
83,192,64736,1,0,0:0:0:50:A5S_s.ogg
375,192,64736,1,0,0:0:0:50:F#6S_Gb6S_s.ogg
10,192,65263,1,0,0:0:0:50:E4S_s.ogg
156,192,65263,1,0,0:0:0:50:A5S_s.ogg
448,192,65263,1,0,0:0:0:50:F#6S_Gb6S_s.ogg
302,192,65789,1,0,0:0:0:50:B4S_s.ogg
83,192,66315,1,0,0:0:0:50:E5S_s.ogg
229,192,66315,1,0,0:0:0:50:B5S_s.ogg
375,192,66315,1,0,0:0:0:50:G#6S_Ab6S_s.ogg
10,192,67368,1,0,0:0:0:62:F#4S_Gb4S_s.ogg
156,192,67368,1,0,0:0:0:62:C#6S_Db6S_s.ogg
448,192,67368,1,0,0:0:0:62:A6S_s.ogg
83,192,67894,1,0,0:0:0:62:C#5S_Db5S_s.ogg
302,192,67894,1,0,0:0:0:62:G#6S_Ab6S_s.ogg
229,192,68157,1,0,0:0:0:62:A6S_s.ogg
375,192,68421,1,0,0:0:0:62:F#5S_Gb5S_s.ogg
10,192,68947,1,0,0:0:0:62:C#7S_Db7S_s.ogg
156,192,69473,1,0,0:0:0:62:D4S_s.ogg
448,192,69473,1,0,0:0:0:62:F#6S_Gb6S.ogg
302,192,70000,1,0,0:0:0:62:A4S_s.ogg
83,192,70526,1,0,0:0:0:62:D5S_s.ogg
229,192,71052,1,0,0:0:0:62:C#7S_Db7S_s.ogg
10,192,71578,1,0,0:0:0:62:E4S_s.ogg
375,192,71578,1,0,0:0:0:62:B6S_s.ogg
156,192,72105,1,0,0:0:0:62:B4S_s.ogg
448,192,72105,1,0,0:0:0:62:C#7S_Db7S_s.ogg
302,192,72368,1,0,0:0:0:62:D7S_s.ogg
83,192,72631,1,0,0:0:0:62:E5S_s.ogg
229,192,73157,1,0,0:0:0:62:E7S_s.ogg
10,192,73684,1,0,0:0:0:62:A4S_s.ogg
375,192,73684,1,0,0:0:0:62:C#7S_Db7S.ogg
156,192,74210,1,0,0:0:0:62:E5S_s.ogg
448,192,74736,1,0,0:0:0:62:A5S_s.ogg
83,192,75789,1,0,0:0:0:62:F#4S_Gb4S_s.ogg
302,192,75789,1,0,0:0:0:62:A5S_s.ogg
229,192,76315,1,0,0:0:0:62:C#5S_Db5S_s.ogg
375,192,76315,1,0,0:0:0:62:G#5S_Ab5S_s.ogg
10,192,76578,1,0,0:0:0:62:A5S_s.ogg
156,192,76842,1,0,0:0:0:62:F#5S_Gb5S_s.ogg
448,192,77368,1,0,0:0:0:62:C#6S_Db6S_s.ogg
83,192,77894,1,0,0:0:0:62:D4S_s.ogg
302,192,77894,1,0,0:0:0:62:F#5S_Gb5S.ogg
229,192,78421,1,0,0:0:0:62:A4S_s.ogg
375,192,78947,1,0,0:0:0:62:D5S_s.ogg
10,192,79473,1,0,0:0:0:62:F#6S_Gb6S_s.ogg
156,192,80000,1,0,0:0:0:62:E4S_s.ogg
448,192,80000,1,0,0:0:0:62:E6S_s.ogg
83,192,80526,1,0,0:0:0:62:B4S_s.ogg
302,192,80526,1,0,0:0:0:62:B5S_s.ogg
229,192,81052,1,0,0:0:0:62:E5S_s.ogg
375,192,81052,1,0,0:0:0:62:C#6S_Db6S_s.ogg
10,192,81578,1,0,0:0:0:62:D6S_s.ogg
448,192,81842,1,0,0:0:0:62:C#6S_Db6S.ogg
156,192,82105,1,0,0:0:0:62:A4S_s.ogg
302,192,82631,1,0,0:0:0:62:E5S_s.ogg
83,192,83157,1,0,0:0:0:62:G#4S_Ab4S_s.ogg
375,192,83157,1,0,0:0:0:62:B5S_s.ogg
229,192,83684,1,0,0:0:0:62:E5S_s.ogg
10,192,84210,1,0,0:0:0:62:F#4S_Gb4S_s.ogg
448,192,84210,1,0,0:0:0:62:A6S_s.ogg
156,192,84736,1,0,0:0:0:62:C#5S_Db5S_s.ogg
302,192,84736,1,0,0:0:0:62:G#6S_Ab6S_s.ogg
83,192,85000,1,0,0:0:0:62:A6S_s.ogg
375,192,85263,1,0,0:0:0:62:F#5S_Gb5S_s.ogg
229,192,85789,1,0,0:0:0:62:C#7S_Db7S_s.ogg
10,192,86315,1,0,0:0:0:62:D4S_s.ogg
448,192,86315,1,0,0:0:0:62:F#6S_Gb6S.ogg
156,192,86842,1,0,0:0:0:62:A4S_s.ogg
302,192,87368,1,0,0:0:0:62:D5S_s.ogg
83,192,87894,1,0,0:0:0:62:C#7S_Db7S_s.ogg
10,192,88421,1,0,0:0:0:62:E4S_s.ogg
229,192,88421,1,0,0:0:0:62:D6S_s.ogg
375,192,88421,1,0,0:0:0:62:B6S_s.ogg
448,192,88947,1,0,0:0:0:62:B4S_s.ogg
156,192,89473,1,0,0:0:0:62:E5S_s.ogg
302,192,89473,1,0,0:0:0:62:D7S_s.ogg
83,192,90000,1,0,0:0:0:62:C#7S_Db7S_s.ogg
10,192,90526,1,0,0:0:0:62:C#4S_Db4S.ogg
375,192,90526,1,0,0:0:0:62:F6S_s.ogg
229,192,90657,1,0,0:0:0:62:G#6S_Ab6S_s.ogg
448,192,90789,1,0,0:0:0:62:C#7S_Db7S_s.ogg
156,192,91578,1,0,0:0:0:62:B6S_s.ogg
83,192,92631,1,0,0:0:0:62:F#4S_Gb4S_s.ogg
302,192,92631,1,0,0:0:0:62:A6S_s.ogg
10,192,93157,1,0,0:0:0:62:C#5S_Db5S_s.ogg
375,192,93157,1,0,0:0:0:62:G#6S_Ab6S_s.ogg
229,192,93684,1,0,0:0:0:62:F#5S_Gb5S_s.ogg
448,192,93684,1,0,0:0:0:62:F#6S_Gb6S_s.ogg
156,192,94210,1,0,0:0:0:62:C#6S_Db6S_s.ogg
83,192,94736,1,0,0:0:0:62:D4S_s.ogg
302,192,94736,1,0,0:0:0:62:A5S_s.ogg
375,192,94736,1,0,0:0:0:62:E6S_s.ogg
10,192,95263,1,0,0:0:0:62:A4S_s.ogg
448,192,95263,1,0,0:0:0:62:D6S_s.ogg
156,192,95789,1,0,0:0:0:62:D5S_s.ogg
229,192,95789,1,0,0:0:0:62:A5S_s.ogg
375,192,96315,1,0,0:0:0:62:C#6S_Db6S_s.ogg
83,192,96842,1,0,0:0:0:62:E4S_s.ogg
302,192,96842,1,0,0:0:0:62:B5S.ogg
10,192,97368,1,0,0:0:0:62:B4S_s.ogg
448,192,97894,1,0,0:0:0:62:E5S_s.ogg
229,192,98421,1,0,0:0:0:62:A5S_s.ogg
83,192,98947,1,0,0:0:0:62:A4S.ogg
156,192,98947,1,0,0:0:0:62:E5S.ogg
375,192,98947,1,0,0:0:0:62:A5S.ogg
10,192,101052,1,0,0:0:0:50:C5S_s.ogg
302,192,101052,1,0,0:0:0:50:G5S_s.ogg
448,192,101052,1,0,0:0:0:50:G7S_s.ogg
83,192,101578,1,0,0:0:0:50:G4S_s.ogg
229,192,101578,1,0,0:0:0:50:G6S_s.ogg
375,192,101578,1,0,0:0:0:50:C7S_s.ogg
10,192,102105,1,0,0:0:0:50:C5S_s.ogg
156,192,102105,1,0,0:0:0:50:G5S_s.ogg
448,192,102105,1,0,0:0:0:50:G7S_s.ogg
83,192,102631,1,0,0:0:0:50:G4S_s.ogg
302,192,102631,1,0,0:0:0:50:G6S_s.ogg
375,192,102631,1,0,0:0:0:50:C7S_s.ogg
156,192,103157,1,0,0:0:0:50:C5S_s.ogg
229,192,103157,1,0,0:0:0:50:G5S_s.ogg
448,192,103157,1,0,0:0:0:50:G7S_s.ogg
10,192,103684,1,0,0:0:0:50:G4S_s.ogg
83,192,103684,1,0,0:0:0:50:G6S_s.ogg
302,192,103684,1,0,0:0:0:50:C7S_s.ogg
156,192,104210,1,0,0:0:0:50:C5S_s.ogg
229,192,104210,1,0,0:0:0:50:G5S_s.ogg
375,192,104210,1,0,0:0:0:50:G7S_s.ogg
10,192,104736,1,0,0:0:0:50:G4S_s.ogg
302,192,104736,1,0,0:0:0:50:G6S_s.ogg
448,192,104736,1,0,0:0:0:50:C7S_s.ogg
83,192,105263,1,0,0:0:0:50:C5S_s.ogg
229,192,105263,1,0,0:0:0:50:F5S_s.ogg
375,192,105263,1,0,0:0:0:50:G7S_s.ogg
10,192,105789,1,0,0:0:0:50:G4S_s.ogg
156,192,105789,1,0,0:0:0:50:F6S_s.ogg
448,192,105789,1,0,0:0:0:50:C7S_s.ogg
83,192,106315,1,0,0:0:0:50:C5S_s.ogg
302,192,106315,1,0,0:0:0:50:F5S_s.ogg
375,192,106315,1,0,0:0:0:50:G7S_s.ogg
10,192,106842,1,0,0:0:0:50:G4S_s.ogg
229,192,106842,1,0,0:0:0:50:F6S_s.ogg
448,192,106842,1,0,0:0:0:50:C7S_s.ogg
83,192,107368,1,0,0:0:0:50:C5S_s.ogg
156,192,107368,1,0,0:0:0:50:F5S_s.ogg
302,192,107368,1,0,0:0:0:50:G7S_s.ogg
10,192,107894,1,0,0:0:0:50:G4S_s.ogg
375,192,107894,1,0,0:0:0:50:F6S_s.ogg
448,192,107894,1,0,0:0:0:50:C7S_s.ogg
156,192,108421,1,0,0:0:0:50:C5S_s.ogg
229,192,108421,1,0,0:0:0:50:F5S_s.ogg
302,192,108421,1,0,0:0:0:50:G7S_s.ogg
10,192,108947,1,0,0:0:0:50:G4S_s.ogg
83,192,108947,1,0,0:0:0:50:F6S_s.ogg
448,192,108947,1,0,0:0:0:50:C7S_s.ogg
156,192,109473,1,0,0:0:0:50:C5S_s.ogg
229,192,109473,1,0,0:0:0:50:E5S_s.ogg
375,192,109473,1,0,0:0:0:50:G7S_s.ogg
83,192,110000,1,0,0:0:0:50:G4S_s.ogg
302,192,110000,1,0,0:0:0:50:E6S_s.ogg
448,192,110000,1,0,0:0:0:50:C7S_s.ogg
10,192,110526,1,0,0:0:0:50:C5S_s.ogg
229,192,110526,1,0,0:0:0:50:E5S_s.ogg
375,192,110526,1,0,0:0:0:50:G7S_s.ogg
83,192,111052,1,0,0:0:0:50:G4S_s.ogg
156,192,111052,1,0,0:0:0:50:E6S_s.ogg
302,192,111052,1,0,0:0:0:50:C7S_s.ogg
10,192,111578,1,0,0:0:0:50:C5S_s.ogg
375,192,111578,1,0,0:0:0:50:E5S_s.ogg
448,192,111578,1,0,0:0:0:50:G7S_s.ogg
83,192,112105,1,0,0:0:0:50:G4S_s.ogg
229,192,112105,1,0,0:0:0:50:E6S_s.ogg
302,192,112105,1,0,0:0:0:50:C7S_s.ogg
10,192,112631,1,0,0:0:0:50:C5S_s.ogg
156,192,112631,1,0,0:0:0:50:E5S_s.ogg
375,192,112631,1,0,0:0:0:50:G7S_s.ogg
83,192,113157,1,0,0:0:0:50:G4S_s.ogg
229,192,113157,1,0,0:0:0:50:E6S_s.ogg
448,192,113157,1,0,0:0:0:50:C7S_s.ogg
10,192,113684,1,0,0:0:0:50:C5S_s.ogg
302,192,113684,1,0,0:0:0:50:F5S_s.ogg
375,192,113684,1,0,0:0:0:50:G7S_s.ogg
83,192,114210,1,0,0:0:0:50:G4S_s.ogg
156,192,114210,1,0,0:0:0:50:F6S_s.ogg
448,192,114210,1,0,0:0:0:50:C7S_s.ogg
10,192,114736,1,0,0:0:0:50:C5S_s.ogg
229,192,114736,1,0,0:0:0:50:F5S_s.ogg
375,192,114736,1,0,0:0:0:50:G7S_s.ogg
83,192,115263,1,0,0:0:0:50:G4S_s.ogg
302,192,115263,1,0,0:0:0:50:F6S_s.ogg
448,192,115263,1,0,0:0:0:50:C7S_s.ogg
10,192,115789,1,0,0:0:0:50:C5S.ogg
156,192,115789,1,0,0:0:0:50:F5S.ogg
375,192,115789,1,0,0:0:0:50:G7S.ogg
83,192,117894,1,0,0:0:0:62:F3S_s.ogg
229,192,117894,1,0,0:0:0:62:A4S_s.ogg
448,192,117894,1,0,0:0:0:62:A5S_s.ogg
10,192,118421,1,0,0:0:0:62:C4S_s.ogg
302,192,118421,1,0,0:0:0:62:B5S_s.ogg
375,192,118684,1,0,0:0:0:62:C6S_s.ogg
156,192,118947,1,0,0:0:0:62:F4S_s.ogg
448,192,119473,1,0,0:0:0:62:E6S_s.ogg
83,192,120000,1,0,0:0:0:62:G3S_s.ogg
229,192,120000,1,0,0:0:0:62:F5S.ogg
302,192,120000,1,0,0:0:0:62:D6S.ogg
10,192,120526,1,0,0:0:0:62:D4S_s.ogg
375,192,121052,1,0,0:0:0:62:G4S_s.ogg
156,192,121578,1,0,0:0:0:62:B5S_s.ogg
448,192,121842,1,0,0:0:0:62:A5S_s.ogg
83,192,122105,1,0,0:0:0:62:E3S_s.ogg
229,192,122105,1,0,0:0:0:62:D5S_s.ogg
302,192,122105,1,0,0:0:0:62:G5S_s.ogg
10,192,122631,1,0,0:0:0:62:B3S_s.ogg
375,192,122631,1,0,0:0:0:62:A5S_s.ogg
156,192,122894,1,0,0:0:0:62:B5S_s.ogg
448,192,123157,1,0,0:0:0:62:E4S_s.ogg
83,192,123684,1,0,0:0:0:62:E5S_s.ogg
10,192,124210,1,0,0:0:0:62:A3S_s.ogg
229,192,124210,1,0,0:0:0:62:C5S.ogg
302,192,124210,1,0,0:0:0:62:C6S.ogg
375,192,124736,1,0,0:0:0:62:E4S_s.ogg
156,192,125263,1,0,0:0:0:62:B4S_s.ogg
448,192,125789,1,0,0:0:0:62:C5S_s.ogg
83,192,126315,1,0,0:0:0:62:F3S_s.ogg
302,192,126315,1,0,0:0:0:62:A5S_s.ogg
10,192,126842,1,0,0:0:0:62:C4S_s.ogg
229,192,126842,1,0,0:0:0:62:B5S_s.ogg
375,192,127105,1,0,0:0:0:62:C6S_s.ogg
156,192,127368,1,0,0:0:0:62:F4S_s.ogg
448,192,127894,1,0,0:0:0:62:E6S_s.ogg
83,192,128421,1,0,0:0:0:62:G3S_s.ogg
229,192,128421,1,0,0:0:0:62:F5S.ogg
302,192,128421,1,0,0:0:0:62:D6S.ogg
10,192,128947,1,0,0:0:0:62:D4S_s.ogg
375,192,129473,1,0,0:0:0:62:G4S_s.ogg
156,192,130000,1,0,0:0:0:62:G5S_s.ogg
448,192,130000,1,0,0:0:0:62:D6S_s.ogg
83,192,130526,1,0,0:0:0:62:E3S_s.ogg
229,192,130526,1,0,0:0:0:62:G5S_s.ogg
302,192,130526,1,0,0:0:0:62:D6S_s.ogg
10,192,131052,1,0,0:0:0:62:B3S_s.ogg
156,192,131052,1,0,0:0:0:62:G5S_s.ogg
375,192,131052,1,0,0:0:0:62:E6S_s.ogg
83,192,131315,1,0,0:0:0:62:G5S_s.ogg
448,192,131315,1,0,0:0:0:62:F6S_s.ogg
302,192,131579,1,0,0:0:0:62:E4S_s.ogg
10,192,132105,1,0,0:0:0:62:G5S_s.ogg
229,192,132105,1,0,0:0:0:62:G6S_s.ogg
156,192,132631,1,0,0:0:0:62:A3S_s.ogg
375,192,132631,1,0,0:0:0:62:G5S.ogg
448,192,132631,1,0,0:0:0:62:E6S.ogg
83,192,133157,1,0,0:0:0:62:E4S_s.ogg
302,192,133684,1,0,0:0:0:62:A4S_s.ogg
10,192,134210,1,0,0:0:0:62:B5S_s.ogg
156,192,134736,1,0,0:0:0:62:F3S_s.ogg
229,192,134736,1,0,0:0:0:62:C5S_s.ogg
448,192,134736,1,0,0:0:0:62:A5S_s.ogg
83,192,135263,1,0,0:0:0:62:C4S_s.ogg
302,192,135263,1,0,0:0:0:62:D5S_s.ogg
375,192,135263,1,0,0:0:0:62:B5S_s.ogg
10,192,135526,1,0,0:0:0:62:E5S_s.ogg
448,192,135526,1,0,0:0:0:62:C6S_s.ogg
229,192,135789,1,0,0:0:0:62:F4S_s.ogg
156,192,136315,1,0,0:0:0:62:G5S_s.ogg
375,192,136315,1,0,0:0:0:62:E6S_s.ogg
10,192,136842,1,0,0:0:0:62:G3S_s.ogg
83,192,136842,1,0,0:0:0:62:F5S.ogg
302,192,136842,1,0,0:0:0:62:D6S.ogg
448,192,137368,1,0,0:0:0:62:D4S_s.ogg
229,192,137894,1,0,0:0:0:62:G4S_s.ogg
375,192,138421,1,0,0:0:0:62:B5S_s.ogg
156,192,138684,1,0,0:0:0:62:A5S_s.ogg
83,192,138947,1,0,0:0:0:62:E3S_s.ogg
302,192,138947,1,0,0:0:0:62:G5S_s.ogg
10,192,139473,1,0,0:0:0:62:A5S_s.ogg
448,192,139736,1,0,0:0:0:62:B5S_s.ogg
229,192,140000,1,0,0:0:0:62:G#3S_Ab3S_s.ogg
375,192,140526,1,0,0:0:0:62:D6S_s.ogg
156,192,141052,1,0,0:0:0:62:A3S_s.ogg
302,192,141052,1,0,0:0:0:62:C6S_s.ogg
83,192,141579,1,0,0:0:0:62:E4S_s.ogg
10,192,142105,1,0,0:0:0:62:A4S_s.ogg
448,192,142105,1,0,0:0:0:62:B5S_s.ogg
229,192,143157,1,0,0:0:0:62:F3S_s.ogg
375,192,143157,1,0,0:0:0:62:A5S.ogg
156,192,143684,1,0,0:0:0:62:C4S_s.ogg
302,192,144210,1,0,0:0:0:62:F4S_s.ogg
83,192,144736,1,0,0:0:0:62:A5S_s.ogg
10,192,145263,1,0,0:0:0:62:G3S_s.ogg
448,192,145263,1,0,0:0:0:62:B5S.ogg
375,192,145789,1,0,0:0:0:62:D4S_s.ogg
229,192,146315,1,0,0:0:0:62:G4S_s.ogg
156,192,146842,1,0,0:0:0:62:G5S_s.ogg
83,192,147368,1,0,0:0:0:62:F4S_s.ogg
302,192,147368,1,0,0:0:0:62:A5S.ogg
448,192,147894,1,0,0:0:0:62:C5S_s.ogg
10,192,148421,1,0,0:0:0:62:F5S_s.ogg
375,192,148947,1,0,0:0:0:62:E6S_s.ogg
156,192,149473,1,0,0:0:0:62:G4S.ogg
229,192,149473,1,0,0:0:0:62:D6S.ogg
83,192,151579,1,0,0:0:0:38:F5S.ogg
302,192,151579,1,0,0:0:0:38:C6S.ogg
448,192,151579,1,0,0:0:0:38:A6S_s.ogg
10,192,152105,1,0,0:0:0:38:B6S_s.ogg
375,192,152368,1,0,0:0:0:38:C7S_s.ogg
156,192,153157,1,0,0:0:0:38:E7S_s.ogg
83,192,153684,1,0,0:0:0:38:G5S.ogg
229,192,153684,1,0,0:0:0:38:D6S.ogg
302,192,153684,1,0,0:0:0:38:D7S.ogg
448,192,155263,1,0,0:0:0:38:B6S_s.ogg
10,192,155526,1,0,0:0:0:38:A6S_s.ogg
156,192,155789,1,0,0:0:0:38:E5S.ogg
302,192,155789,1,0,0:0:0:38:B5S.ogg
375,192,155789,1,0,0:0:0:38:G6S_s.ogg
83,192,156315,1,0,0:0:0:38:A6S_s.ogg
229,192,156579,1,0,0:0:0:38:B6S_s.ogg
448,192,157368,1,0,0:0:0:38:G6S_s.ogg
10,192,157894,1,0,0:0:0:38:A5S.ogg
156,192,157894,1,0,0:0:0:38:E6S.ogg
302,192,157894,1,0,0:0:0:38:C7S.ogg
83,192,160000,1,0,0:0:0:38:F5S.ogg
229,192,160000,1,0,0:0:0:38:C6S.ogg
375,192,160000,1,0,0:0:0:38:A6S_s.ogg
448,192,160526,1,0,0:0:0:38:B6S_s.ogg
10,192,160789,1,0,0:0:0:38:C7S_s.ogg
302,192,161579,1,0,0:0:0:38:E7S_s.ogg
83,192,162105,1,0,0:0:0:38:G5S.ogg
156,192,162105,1,0,0:0:0:38:D6S.ogg
375,192,162105,1,0,0:0:0:38:D7S_s.ogg
229,192,163157,1,0,0:0:0:38:B6S_s.ogg
10,192,164210,1,0,0:0:0:38:C5S_s.ogg
302,192,164210,1,0,0:0:0:38:E6S.ogg
448,192,164210,1,0,0:0:0:38:C7S.ogg
83,192,164736,1,0,0:0:0:38:G5S_s.ogg
375,192,165263,1,0,0:0:0:38:D6S_s.ogg
156,192,165789,1,0,0:0:0:38:E6S.ogg
229,192,166315,1,0,0:0:0:38:G6S.ogg
448,192,166315,1,0,0:0:0:38:D7S.ogg
