osu file format v14

[General]
AudioFilename: audio.mp3
AudioLeadIn: 0
PreviewTime: -1
Countdown: 0
SampleSet: Normal
StackLeniency: 0.7
Mode: 3
LetterboxInBreaks: 0
SpecialStyle: 0
WidescreenStoryboard: 0

[Editor]
DistanceSpacing: 1.2
BeatDivisor: 12
GridSize: 4
TimelineZoom: 1

[Metadata]
Title:Eternal Pack 2
TitleUnicode:Eternal Pack 2
Artist:Various Artists
ArtistUnicode:Various Artists
Creator:[Shana Lesus]
Version:Rammstein - Sonne (Deutschland Ending)
Source:
Tags:
BeatmapID:2193328
BeatmapSetID:1049301

[Difficulty]
HPDrainRate:8
CircleSize:7
OverallDifficulty:8
ApproachRate:5
SliderMultiplier:1.4
SliderTickRate:1

[Events]
//Background and Video events
0,0,"sonne.jpg",0,0
//Break Periods
//Storyboard Layer 0 (Background)
//Storyboard Layer 1 (Fail)
//Storyboard Layer 2 (Pass)
//Storyboard Layer 3 (Foreground)
//Storyboard Layer 4 (Overlay)
//Storyboard Sound Samples
Sample,1667,0,"E4S.ogg",62
Sample,8333,0,"E4S.ogg",62
Sample,21667,0,"B3S.ogg",62
Sample,107500,0,"E4S_s.ogg",62
Sample,109167,0,"B3S_s.ogg",62
Sample,110833,0,"G3S_s.ogg",62
Sample,112500,0,"F#3S_Gb3S_s.ogg",62
Sample,115833,0,"B3S_s.ogg",62
Sample,117500,0,"G3S_s.ogg",62

[TimingPoints]
0,833.333,4,1,1,100,1,0

[HitObjects]
83,192,0,5,0,0:0:0:62:B3S.ogg
156,192,0,1,0,0:0:0:62:F#4S_Gb4S.ogg
302,192,0,1,0,0:0:0:62:B4S.ogg
448,192,0,1,0,0:0:0:62:F#5S_Gb5S_s.ogg
375,192,416,1,0,0:0:0:62:B5S_s.ogg
10,192,624,1,0,0:0:0:62:C#6S_Db6S_s.ogg
229,192,833,1,0,0:0:0:62:D6S_s.ogg
83,192,1666,1,0,0:0:0:62:B4S.ogg
156,192,1666,1,0,0:0:0:62:D5S.ogg
302,192,1666,1,0,0:0:0:62:G5S_s.ogg
448,192,1666,1,0,0:0:0:62:F#6S_Gb6S_s.ogg
375,192,2499,1,0,0:0:0:62:B5S_s.ogg
10,192,3333,1,0,0:0:0:62:D4S.ogg
229,192,3333,1,0,0:0:0:62:A4S.ogg
448,192,3333,1,0,0:0:0:62:F#5S_Gb5S_s.ogg
156,192,3611,1,0,0:0:0:62:B5S_s.ogg
302,192,4166,1,0,0:0:0:62:C#6S_Db6S_s.ogg
83,192,4444,1,0,0:0:0:62:D6S_s.ogg
375,192,4722,1,0,0:0:0:62:E6S_s.ogg
10,192,4999,1,0,0:0:0:62:C4S.ogg
229,192,4999,1,0,0:0:0:62:G4S.ogg
448,192,4999,1,0,0:0:0:62:C#6S_Db6S.ogg
83,192,6666,1,0,0:0:0:62:B3S.ogg
156,192,6666,1,0,0:0:0:62:F#4S_Gb4S.ogg
302,192,6666,1,0,0:0:0:62:B4S.ogg
375,192,6666,1,0,0:0:0:62:F#5S_Gb5S_s.ogg
10,192,7083,1,0,0:0:0:62:B5S_s.ogg
229,192,7291,1,0,0:0:0:62:C#6S_Db6S_s.ogg
448,192,7499,1,0,0:0:0:62:D6S_s.ogg
83,192,8333,1,0,0:0:0:62:B4S.ogg
156,192,8333,1,0,0:0:0:62:D5S.ogg
302,192,8333,1,0,0:0:0:62:G5S_s.ogg
375,192,8333,1,0,0:0:0:62:F#6S_Gb6S_s.ogg
10,192,9166,1,0,0:0:0:62:B5S_s.ogg
83,192,9999,1,0,0:0:0:62:D4S.ogg
229,192,9999,1,0,0:0:0:62:A4S.ogg
448,192,9999,1,0,0:0:0:62:F#5S_Gb5S_s.ogg
302,192,10277,1,0,0:0:0:62:B5S_s.ogg
156,192,10833,1,0,0:0:0:62:C#6S_Db6S_s.ogg
375,192,11111,1,0,0:0:0:62:D6S_s.ogg
10,192,11388,1,0,0:0:0:62:E6S_s.ogg
83,192,11666,1,0,0:0:0:62:C4S.ogg
229,192,11666,1,0,0:0:0:62:G4S.ogg
302,192,11666,1,0,0:0:0:62:F#5S_Gb5S.ogg
448,192,11666,1,0,0:0:0:62:C#6S_Db6S.ogg
10,192,13333,1,0,0:0:0:62:E4S.ogg
156,192,13333,1,0,0:0:0:62:B4S.ogg
375,192,13333,1,0,0:0:0:62:F#6S_Gb6S_s.ogg
302,192,14166,1,0,0:0:0:62:G6S_s.ogg
83,192,14999,1,0,0:0:0:62:B3S.ogg
156,192,14999,1,0,0:0:0:62:F#4S_Gb4S.ogg
229,192,14999,1,0,0:0:0:62:B4S.ogg
448,192,14999,1,0,0:0:0:62:F#6S_Gb6S.ogg
10,192,16666,1,0,0:0:0:62:G4S.ogg
302,192,16666,1,0,0:0:0:62:D5S.ogg
375,192,16666,1,0,0:0:0:62:B5S_s.ogg
156,192,16874,1,0,0:0:0:62:C#6S_Db6S_s.ogg
448,192,17083,1,0,0:0:0:62:D6S_s.ogg
83,192,17916,1,0,0:0:0:62:E6S_s.ogg
229,192,18124,1,0,0:0:0:62:C#6S_Db6S.ogg
10,192,18333,1,0,0:0:0:62:F#4S_Gb4S.ogg
302,192,18333,1,0,0:0:0:62:C#5S_Db5S.ogg
83,192,19999,1,0,0:0:0:62:E4S.ogg
156,192,19999,1,0,0:0:0:62:B4S.ogg
375,192,19999,1,0,0:0:0:62:G5S_s.ogg
448,192,19999,1,0,0:0:0:62:F#6S_Gb6S_s.ogg
229,192,20833,1,0,0:0:0:62:G6S_s.ogg
10,192,21666,1,0,0:0:0:62:F#4S_Gb4S.ogg
156,192,21666,1,0,0:0:0:62:B4S.ogg
302,192,21666,1,0,0:0:0:62:D6S.ogg
375,192,21666,1,0,0:0:0:62:F#6S_Gb6S.ogg
83,192,23333,1,0,0:0:0:62:G4S.ogg
229,192,23333,1,0,0:0:0:62:D5S.ogg
448,192,23333,1,0,0:0:0:62:B5S_s.ogg
156,192,23541,1,0,0:0:0:62:C#6S_Db6S_s.ogg
375,192,23749,1,0,0:0:0:62:D6S_s.ogg
10,192,24583,1,0,0:0:0:62:E6S_s.ogg
302,192,24791,1,0,0:0:0:62:C#6S_Db6S.ogg
83,192,24999,1,0,0:0:0:62:F#4S_Gb4S.ogg
229,192,24999,1,0,0:0:0:62:C#5S_Db5S.ogg
10,192,26666,1,0,0:0:0:62:B2S_s.ogg
156,192,26666,1,0,0:0:0:62:B3S_s.ogg
375,192,26666,1,0,0:0:0:62:C#5S_Db5S_s.ogg
448,192,26666,1,0,0:0:0:62:D5S_s.ogg
302,192,27083,1,0,0:0:0:62:B4S_s.ogg
83,192,27499,1,0,0:0:0:62:B3S_s.ogg
229,192,27499,1,0,0:0:0:62:D5S_s.ogg
375,192,27499,1,0,0:0:0:62:D5S.ogg
10,192,27916,1,0,0:0:0:62:B4S_s.ogg
83,192,28333,1,0,0:0:0:62:E3S_s.ogg
156,192,28333,1,0,0:0:0:62:E4S_s.ogg
302,192,28333,1,0,0:0:0:62:B4S_s.ogg
448,192,28333,1,0,0:0:0:62:G5S_s.ogg
229,192,28749,1,0,0:0:0:62:G4S_s.ogg
10,192,29166,1,0,0:0:0:62:E4S_s.ogg
375,192,29166,1,0,0:0:0:62:B4S_s.ogg
448,192,29166,1,0,0:0:0:62:G5S_s.ogg
156,192,29583,1,0,0:0:0:62:G4S_s.ogg
10,192,29999,1,0,0:0:0:62:D3S_s.ogg
83,192,29999,1,0,0:0:0:62:D4S_s.ogg
229,192,29999,1,0,0:0:0:62:A4S_s.ogg
302,192,29999,1,0,0:0:0:62:F#5S_Gb5S_s.ogg
375,192,30416,1,0,0:0:0:62:F#4S_Gb4S_s.ogg
156,192,30833,1,0,0:0:0:62:D4S_s.ogg
302,192,30833,1,0,0:0:0:62:A4S_s.ogg
448,192,30833,1,0,0:0:0:62:F#5S_Gb5S_s.ogg
229,192,31249,1,0,0:0:0:62:F#4S_Gb4S_s.ogg
10,192,31666,1,0,0:0:0:62:C3S_s.ogg
83,192,31666,1,0,0:0:0:62:C4S_s.ogg
156,192,31666,1,0,0:0:0:62:G4S_s.ogg
375,192,31666,1,0,0:0:0:62:F#5S_Gb5S_s.ogg
302,192,32083,1,0,0:0:0:62:E4S_s.ogg
156,192,32499,1,0,0:0:0:62:C4S_s.ogg
229,192,32499,1,0,0:0:0:62:G4S_s.ogg
448,192,32499,1,0,0:0:0:62:E5S_s.ogg
375,192,32916,1,0,0:0:0:62:E4S_s.ogg
10,192,33333,1,0,0:0:0:62:B2S_s.ogg
83,192,33333,1,0,0:0:0:62:B3S_s.ogg
156,192,33333,1,0,0:0:0:62:F#4S_Gb4S_s.ogg
302,192,33333,1,0,0:0:0:62:D5S.ogg
229,192,33749,1,0,0:0:0:62:D4S_s.ogg
83,192,34166,1,0,0:0:0:62:B3S_s.ogg
375,192,34166,1,0,0:0:0:62:F#4S_Gb4S_s.ogg
448,192,34166,1,0,0:0:0:62:D5S.ogg
302,192,34583,1,0,0:0:0:62:D4S_s.ogg
10,192,34999,1,0,0:0:0:62:E3S_s.ogg
156,192,34999,1,0,0:0:0:62:E4S_s.ogg
229,192,34999,1,0,0:0:0:62:B4S_s.ogg
448,192,34999,1,0,0:0:0:62:G5S_s.ogg
83,192,35416,1,0,0:0:0:62:G4S_s.ogg
156,192,35833,1,0,0:0:0:62:E4S_s.ogg
302,192,35833,1,0,0:0:0:62:B4S_s.ogg
375,192,35833,1,0,0:0:0:62:G5S_s.ogg
448,192,36249,1,0,0:0:0:62:G4S_s.ogg
10,192,36666,1,0,0:0:0:62:D3S_s.ogg
83,192,36666,1,0,0:0:0:62:D4S_s.ogg
229,192,36666,1,0,0:0:0:62:A4S_s.ogg
375,192,36666,1,0,0:0:0:62:F#5S_Gb5S_s.ogg
156,192,37083,1,0,0:0:0:62:F#4S_Gb4S_s.ogg
10,192,37499,1,0,0:0:0:62:D4S_s.ogg
302,192,37499,1,0,0:0:0:62:A4S_s.ogg
448,192,37499,1,0,0:0:0:62:F#5S_Gb5S_s.ogg
375,192,37916,1,0,0:0:0:62:F#4S_Gb4S_s.ogg
83,192,38333,1,0,0:0:0:62:C3S_s.ogg
156,192,38333,1,0,0:0:0:62:C4S_s.ogg
229,192,38333,1,0,0:0:0:62:G4S_s.ogg
448,192,38333,1,0,0:0:0:62:F#5S_Gb5S_s.ogg
10,192,38749,1,0,0:0:0:62:E4S_s.ogg
83,192,39166,1,0,0:0:0:62:C4S_s.ogg
302,192,39166,1,0,0:0:0:62:G4S_s.ogg
375,192,39166,1,0,0:0:0:62:E5S_s.ogg
448,192,39583,1,0,0:0:0:62:E4S_s.ogg
10,192,39999,1,0,0:0:0:62:E3S_s.ogg
156,192,39999,1,0,0:0:0:62:E4S_s.ogg
229,192,39999,1,0,0:0:0:62:B4S_s.ogg
375,192,39999,1,0,0:0:0:62:E5S_s.ogg
83,192,40416,1,0,0:0:0:62:G4S_s.ogg
10,192,40833,1,0,0:0:0:62:E4S_s.ogg
302,192,40833,1,0,0:0:0:62:B4S_s.ogg
448,192,40833,1,0,0:0:0:62:E5S_s.ogg
375,192,41249,1,0,0:0:0:62:G4S_s.ogg
83,192,41666,1,0,0:0:0:62:B2S_s.ogg
156,192,41666,1,0,0:0:0:62:B3S_s.ogg
229,192,41666,1,0,0:0:0:62:F#5S_Gb5S_s.ogg
302,192,41666,1,0,0:0:0:62:D6S_s.ogg
10,192,42083,1,0,0:0:0:62:D5S.ogg
156,192,42499,1,0,0:0:0:62:B3S_s.ogg
375,192,42499,1,0,0:0:0:62:F#5S_Gb5S_s.ogg
448,192,42499,1,0,0:0:0:62:D6S_s.ogg
302,192,42916,1,0,0:0:0:62:D5S.ogg
10,192,43333,1,0,0:0:0:62:G2S_s.ogg
83,192,43333,1,0,0:0:0:62:G3S_s.ogg
229,192,43333,1,0,0:0:0:62:G5S_s.ogg
375,192,43333,1,0,0:0:0:62:B5S_s.ogg
156,192,43749,1,0,0:0:0:62:D5S.ogg
83,192,44166,1,0,0:0:0:62:G3S_s.ogg
302,192,44166,1,0,0:0:0:62:G5S_s.ogg
448,192,44166,1,0,0:0:0:62:B5S_s.ogg
375,192,44583,1,0,0:0:0:62:D5S.ogg
10,192,44999,1,0,0:0:0:62:F#2S_Gb2S_s.ogg
156,192,44999,1,0,0:0:0:62:F#3S_Gb3S_s.ogg
229,192,44999,1,0,0:0:0:62:E5S_s.ogg
302,192,44999,1,0,0:0:0:62:B5S_s.ogg
83,192,45416,1,0,0:0:0:62:C#5S_Db5S_s.ogg
156,192,45833,1,0,0:0:0:62:F#3S_Gb3S_s.ogg
375,192,45833,1,0,0:0:0:62:E5S_s.ogg
448,192,45833,1,0,0:0:0:62:A5S_s.ogg
302,192,46249,1,0,0:0:0:62:C#5S_Db5S_s.ogg
10,192,46666,1,0,0:0:0:62:E3S_s.ogg
83,192,46666,1,0,0:0:0:62:E4S_s.ogg
229,192,46666,1,0,0:0:0:62:A5S.ogg
375,192,46666,1,0,0:0:0:62:A5S.ogg
156,192,47083,1,0,0:0:0:62:B4S_s.ogg
302,192,47499,1,0,0:0:0:62:E4S_s.ogg
448,192,47499,1,0,0:0:0:62:E5S_s.ogg
83,192,47916,1,0,0:0:0:62:B4S_s.ogg
10,192,48333,1,0,0:0:0:62:B2S_s.ogg
156,192,48333,1,0,0:0:0:62:B3S_s.ogg
229,192,48333,1,0,0:0:0:62:D5S.ogg
375,192,48333,1,0,0:0:0:62:F#5S_Gb5S_s.ogg
302,192,48749,1,0,0:0:0:62:B4S_s.ogg
83,192,49166,1,0,0:0:0:62:B3S_s.ogg
375,192,49166,1,0,0:0:0:62:D5S.ogg
448,192,49166,1,0,0:0:0:62:F#5S_Gb5S_s.ogg
10,192,49583,1,0,0:0:0:62:B4S_s.ogg
83,192,49999,1,0,0:0:0:62:G2S_s.ogg
156,192,49999,1,0,0:0:0:62:G3S_s.ogg
229,192,49999,1,0,0:0:0:62:D5S.ogg
302,192,49999,1,0,0:0:0:62:G5S_s.ogg
448,192,50416,1,0,0:0:0:62:B4S_s.ogg
10,192,50833,1,0,0:0:0:62:G3S_s.ogg
302,192,50833,1,0,0:0:0:62:D5S.ogg
375,192,50833,1,0,0:0:0:62:G5S_s.ogg
83,192,51249,1,0,0:0:0:62:B4S_s.ogg
10,192,51666,1,0,0:0:0:62:F#2S_Gb2S_s.ogg
156,192,51666,1,0,0:0:0:62:F#3S_Gb3S_s.ogg
229,192,51666,1,0,0:0:0:62:E5S_s.ogg
448,192,51666,1,0,0:0:0:62:B5S_s.ogg
375,192,52083,1,0,0:0:0:62:C#5S_Db5S_s.ogg
83,192,52499,1,0,0:0:0:62:F#3S_Gb3S_s.ogg
302,192,52499,1,0,0:0:0:62:E5S_s.ogg
448,192,52499,1,0,0:0:0:62:A5S.ogg
10,192,52916,1,0,0:0:0:62:C#5S_Db5S_s.ogg
83,192,53333,1,0,0:0:0:62:B2S_s.ogg
156,192,53333,1,0,0:0:0:62:B3S_s.ogg
229,192,53333,1,0,0:0:0:62:F#4S_Gb4S_s.ogg
375,192,53333,1,0,0:0:0:62:D5S.ogg
302,192,53749,1,0,0:0:0:62:D4S_s.ogg
10,192,54166,1,0,0:0:0:62:B3S_s.ogg
375,192,54166,1,0,0:0:0:62:F#4S_Gb4S_s.ogg
448,192,54166,1,0,0:0:0:62:D5S.ogg
83,192,54583,1,0,0:0:0:62:D4S_s.ogg
10,192,54999,1,0,0:0:0:62:E3S_s.ogg
156,192,54999,1,0,0:0:0:62:E4S_s.ogg
229,192,54999,1,0,0:0:0:62:B4S_s.ogg
302,192,54999,1,0,0:0:0:62:G5S_s.ogg
448,192,55416,1,0,0:0:0:62:G4S_s.ogg
83,192,55833,1,0,0:0:0:62:E4S_s.ogg
302,192,55833,1,0,0:0:0:62:B4S_s.ogg
375,192,55833,1,0,0:0:0:62:G5S_s.ogg
229,192,56249,1,0,0:0:0:62:G4S_s.ogg
10,192,56666,1,0,0:0:0:62:D3S_s.ogg
83,192,56666,1,0,0:0:0:62:D4S_s.ogg
156,192,56666,1,0,0:0:0:62:A4S_s.ogg
448,192,56666,1,0,0:0:0:62:F#5S_Gb5S_s.ogg
375,192,57083,1,0,0:0:0:62:F#4S_Gb4S_s.ogg
83,192,57499,1,0,0:0:0:62:D4S_s.ogg
229,192,57499,1,0,0:0:0:62:A4S_s.ogg
302,192,57499,1,0,0:0:0:62:F#5S_Gb5S_s.ogg
448,192,57916,1,0,0:0:0:62:F#4S_Gb4S_s.ogg
10,192,58333,1,0,0:0:0:62:C3S_s.ogg
83,192,58333,1,0,0:0:0:62:C4S_s.ogg
156,192,58333,1,0,0:0:0:62:G4S_s.ogg
375,192,58333,1,0,0:0:0:62:F#5S_Gb5S_s.ogg
302,192,58749,1,0,0:0:0:62:E4S_s.ogg
10,192,59166,1,0,0:0:0:62:C4S_s.ogg
229,192,59166,1,0,0:0:0:62:G4S_s.ogg
448,192,59166,1,0,0:0:0:62:E5S_s.ogg
375,192,59583,1,0,0:0:0:62:E4S_s.ogg
10,192,59999,1,0,0:0:0:62:B2S_s.ogg
83,192,59999,1,0,0:0:0:62:B3S_s.ogg
156,192,59999,1,0,0:0:0:62:F#4S_Gb4S_s.ogg
302,192,59999,1,0,0:0:0:62:D5S.ogg
448,192,60416,1,0,0:0:0:62:D4S_s.ogg
156,192,60833,1,0,0:0:0:62:B3S_s.ogg
229,192,60833,1,0,0:0:0:62:F#4S_Gb4S_s.ogg
375,192,60833,1,0,0:0:0:62:D5S.ogg
302,192,61249,1,0,0:0:0:62:D4S_s.ogg
10,192,61666,1,0,0:0:0:62:E3S_s.ogg
83,192,61666,1,0,0:0:0:62:E4S_s.ogg
156,192,61666,1,0,0:0:0:62:B4S_s.ogg
448,192,61666,1,0,0:0:0:62:G5S_s.ogg
375,192,62083,1,0,0:0:0:62:G4S_s.ogg
83,192,62499,1,0,0:0:0:62:E4S_s.ogg
229,192,62499,1,0,0:0:0:62:B4S_s.ogg
302,192,62499,1,0,0:0:0:62:G5S_s.ogg
448,192,62916,1,0,0:0:0:62:G4S_s.ogg
10,192,63333,1,0,0:0:0:62:D3S_s.ogg
83,192,63333,1,0,0:0:0:62:D4S_s.ogg
156,192,63333,1,0,0:0:0:62:A4S_s.ogg
375,192,63333,1,0,0:0:0:62:F#5S_Gb5S_s.ogg
302,192,63749,1,0,0:0:0:62:F#4S_Gb4S_s.ogg
83,192,64166,1,0,0:0:0:62:D4S_s.ogg
229,192,64166,1,0,0:0:0:62:A4S_s.ogg
448,192,64166,1,0,0:0:0:62:F#5S_Gb5S_s.ogg
375,192,64583,1,0,0:0:0:62:F#4S_Gb4S_s.ogg
10,192,64999,1,0,0:0:0:62:C3S_s.ogg
83,192,64999,1,0,0:0:0:62:C4S_s.ogg
156,192,64999,1,0,0:0:0:62:G4S_s.ogg
302,192,64999,1,0,0:0:0:62:F#5S_Gb5S_s.ogg
229,192,65416,1,0,0:0:0:62:E4S_s.ogg
83,192,65833,1,0,0:0:0:62:C4S_s.ogg
375,192,65833,1,0,0:0:0:62:G4S_s.ogg
448,192,65833,1,0,0:0:0:62:E5S_s.ogg
302,192,66249,1,0,0:0:0:62:E4S_s.ogg
10,192,66666,1,0,0:0:0:62:E3S_s.ogg
156,192,66666,1,0,0:0:0:62:E4S_s.ogg
229,192,66666,1,0,0:0:0:62:B4S_s.ogg
448,192,66666,1,0,0:0:0:62:E5S_s.ogg
83,192,67083,1,0,0:0:0:62:G4S_s.ogg
156,192,67499,1,0,0:0:0:62:E4S_s.ogg
302,192,67499,1,0,0:0:0:62:B4S_s.ogg
375,192,67499,1,0,0:0:0:62:E5S_s.ogg
448,192,67916,1,0,0:0:0:62:G4S_s.ogg
10,192,68333,1,0,0:0:0:62:B2S_s.ogg
83,192,68333,1,0,0:0:0:62:B3S_s.ogg
229,192,68333,1,0,0:0:0:62:F#5S_Gb5S_s.ogg
302,192,68333,1,0,0:0:0:62:D6S_s.ogg
156,192,68749,1,0,0:0:0:62:D5S.ogg
83,192,69166,1,0,0:0:0:62:B3S_s.ogg
375,192,69166,1,0,0:0:0:62:F#5S_Gb5S_s.ogg
448,192,69166,1,0,0:0:0:62:D6S_s.ogg
302,192,69583,1,0,0:0:0:62:D5S.ogg
10,192,69999,1,0,0:0:0:62:G2S_s.ogg
156,192,69999,1,0,0:0:0:62:G3S_s.ogg
229,192,69999,1,0,0:0:0:62:G5S_s.ogg
448,192,69999,1,0,0:0:0:62:B5S_s.ogg
83,192,70416,1,0,0:0:0:62:D5S.ogg
156,192,70833,1,0,0:0:0:62:G3S_s.ogg
302,192,70833,1,0,0:0:0:62:G5S_s.ogg
375,192,70833,1,0,0:0:0:62:B5S_s.ogg
448,192,71249,1,0,0:0:0:62:D5S.ogg
10,192,71666,1,0,0:0:0:62:F#2S_Gb2S_s.ogg
83,192,71666,1,0,0:0:0:62:F#3S_Gb3S_s.ogg
229,192,71666,1,0,0:0:0:62:E5S_s.ogg
375,192,71666,1,0,0:0:0:62:B5S_s.ogg
156,192,72083,1,0,0:0:0:62:C#5S_Db5S_s.ogg
83,192,72499,1,0,0:0:0:62:F#3S_Gb3S_s.ogg
302,192,72499,1,0,0:0:0:62:E5S_s.ogg
448,192,72499,1,0,0:0:0:62:A5S.ogg
375,192,72916,1,0,0:0:0:62:C#5S_Db5S_s.ogg
10,192,73333,1,0,0:0:0:62:E3S_s.ogg
156,192,73333,1,0,0:0:0:62:E4S_s.ogg
229,192,73333,1,0,0:0:0:62:A5S.ogg
302,192,73333,1,0,0:0:0:62:A5S.ogg
83,192,73749,1,0,0:0:0:62:B4S_s.ogg
375,192,74166,1,0,0:0:0:62:E4S_s.ogg
448,192,74166,1,0,0:0:0:62:E5S_s.ogg
10,192,74583,1,0,0:0:0:62:B4S_s.ogg
83,192,74999,1,0,0:0:0:62:B2S_s.ogg
156,192,74999,1,0,0:0:0:62:B3S_s.ogg
229,192,74999,1,0,0:0:0:62:D5S.ogg
302,192,74999,1,0,0:0:0:62:F#5S_Gb5S_s.ogg
448,192,75416,1,0,0:0:0:62:B4S_s.ogg
10,192,75833,1,0,0:0:0:62:B3S_s.ogg
302,192,75833,1,0,0:0:0:62:D5S.ogg
375,192,75833,1,0,0:0:0:62:F#5S_Gb5S_s.ogg
156,192,76249,1,0,0:0:0:62:B4S_s.ogg
10,192,76666,1,0,0:0:0:62:G2S_s.ogg
83,192,76666,1,0,0:0:0:62:G3S_s.ogg
229,192,76666,1,0,0:0:0:62:D5S.ogg
448,192,76666,1,0,0:0:0:62:G5S_s.ogg
375,192,77083,1,0,0:0:0:62:B4S_s.ogg
156,192,77499,1,0,0:0:0:62:G3S_s.ogg
302,192,77499,1,0,0:0:0:62:D5S.ogg
448,192,77499,1,0,0:0:0:62:G5S_s.ogg
83,192,77916,1,0,0:0:0:62:B4S_s.ogg
10,192,78333,1,0,0:0:0:62:F#2S_Gb2S_s.ogg
156,192,78333,1,0,0:0:0:62:F#3S_Gb3S_s.ogg
229,192,78333,1,0,0:0:0:62:E5S_s.ogg
375,192,78333,1,0,0:0:0:62:B5S_s.ogg
448,192,78749,1,0,0:0:0:62:C#5S_Db5S_s.ogg
83,192,79166,1,0,0:0:0:62:F#3S_Gb3S_s.ogg
302,192,79166,1,0,0:0:0:62:E5S_s.ogg
375,192,79166,1,0,0:0:0:62:A5S.ogg
10,192,79583,1,0,0:0:0:62:C#5S_Db5S_s.ogg
156,192,79999,1,0,0:0:0:62:E3S.ogg
229,192,79999,1,0,0:0:0:62:E4S.ogg
448,192,79999,1,0,0:0:0:62:G5S.ogg
83,192,81666,1,0,0:0:0:62:B3S.ogg
302,192,81666,1,0,0:0:0:62:D4S.ogg
375,192,81666,1,0,0:0:0:62:D5S.ogg
10,192,83333,1,0,0:0:0:62:G3S.ogg
156,192,83333,1,0,0:0:0:62:D4S.ogg
448,192,83333,1,0,0:0:0:62:B5S.ogg
83,192,84999,1,0,0:0:0:62:F#3S_Gb3S.ogg
229,192,84999,1,0,0:0:0:62:C#4S_Db4S.ogg
302,192,84999,1,0,0:0:0:62:F#4S_Gb4S.ogg
375,192,84999,1,0,0:0:0:62:A5S.ogg
10,192,86666,1,0,0:0:0:62:E3S_s.ogg
156,192,86666,1,0,0:0:0:62:E4S_s.ogg
448,192,86666,1,0,0:0:0:62:G5S.ogg
375,192,87499,1,0,0:0:0:62:G4S_s.ogg
83,192,88333,1,0,0:0:0:62:B3S_s.ogg
229,192,88333,1,0,0:0:0:62:D4S_s.ogg
302,192,88333,1,0,0:0:0:62:D5S.ogg
10,192,89166,1,0,0:0:0:62:B3S_s.ogg
83,192,89999,1,0,0:0:0:62:G3S_s.ogg
156,192,89999,1,0,0:0:0:62:D4S_s.ogg
375,192,89999,1,0,0:0:0:62:G5S.ogg
448,192,89999,1,0,0:0:0:62:B5S.ogg
229,192,90833,1,0,0:0:0:62:G4S_s.ogg
302,192,90833,1,0,0:0:0:62:B4S_s.ogg
10,192,91666,1,0,0:0:0:62:C#4S_Db4S_s.ogg
156,192,91666,1,0,0:0:0:62:F#4S_Gb4S_s.ogg
375,192,91666,1,0,0:0:0:62:A4S_s.ogg
448,192,91666,1,0,0:0:0:62:F#5S_Gb5S.ogg
83,192,92499,1,0,0:0:0:62:F#3S_Gb3S_s.ogg
302,192,93124,1,0,0:0:0:62:F#3S_Gb3S_s.ogg
156,192,93333,1,0,0:0:0:62:B2S_s.ogg
229,192,93333,1,0,0:0:0:62:B3S_s.ogg
375,192,93333,1,0,0:0:0:62:F#4S_Gb4S_s.ogg
448,192,93333,1,0,0:0:0:62:D5S.ogg
10,192,93749,1,0,0:0:0:62:D4S_s.ogg
83,192,94166,1,0,0:0:0:62:B3S_s.ogg
156,192,94166,1,0,0:0:0:62:F#4S_Gb4S_s.ogg
302,192,94166,1,0,0:0:0:62:D5S.ogg
375,192,94583,1,0,0:0:0:62:D4S_s.ogg
10,192,94999,1,0,0:0:0:62:E3S_s.ogg
229,192,94999,1,0,0:0:0:62:E4S_s.ogg
302,192,94999,1,0,0:0:0:62:B4S_s.ogg
448,192,94999,1,0,0:0:0:62:G5S_s.ogg
83,192,95416,1,0,0:0:0:62:G4S_s.ogg
10,192,95833,1,0,0:0:0:62:E4S_s.ogg
156,192,95833,1,0,0:0:0:62:B4S_s.ogg
375,192,95833,1,0,0:0:0:62:G5S_s.ogg
229,192,96249,1,0,0:0:0:62:G4S_s.ogg
83,192,96666,1,0,0:0:0:62:D3S_s.ogg
302,192,96666,1,0,0:0:0:62:D4S_s.ogg
375,192,96666,1,0,0:0:0:62:A4S_s.ogg
448,192,96666,1,0,0:0:0:62:F#5S_Gb5S_s.ogg
156,192,97083,1,0,0:0:0:62:F#4S_Gb4S_s.ogg
10,192,97499,1,0,0:0:0:62:D4S_s.ogg
229,192,97499,1,0,0:0:0:62:A4S_s.ogg
375,192,97499,1,0,0:0:0:62:F#5S_Gb5S_s.ogg
83,192,97916,1,0,0:0:0:62:F#4S_Gb4S_s.ogg
156,192,98333,1,0,0:0:0:62:C3S_s.ogg
302,192,98333,1,0,0:0:0:62:C4S_s.ogg
375,192,98333,1,0,0:0:0:62:G4S_s.ogg
448,192,98333,1,0,0:0:0:62:F#5S_Gb5S_s.ogg
10,192,98749,1,0,0:0:0:62:E4S_s.ogg
83,192,99166,1,0,0:0:0:62:C4S_s.ogg
229,192,99166,1,0,0:0:0:62:G4S_s.ogg
448,192,99166,1,0,0:0:0:62:E5S_s.ogg
156,192,99583,1,0,0:0:0:62:E4S_s.ogg
10,192,99999,1,0,0:0:0:62:B2S_s.ogg
302,192,99999,1,0,0:0:0:62:B3S_s.ogg
375,192,99999,1,0,0:0:0:62:F#4S_Gb4S_s.ogg
448,192,99999,1,0,0:0:0:62:D5S.ogg
229,192,100416,1,0,0:0:0:62:D4S_s.ogg
83,192,100833,1,0,0:0:0:62:B3S_s.ogg
156,192,100833,1,0,0:0:0:62:F#4S_Gb4S_s.ogg
375,192,101249,1,0,0:0:0:62:D4S_s.ogg
10,192,101666,1,0,0:0:0:62:E3S_s.ogg
229,192,101666,1,0,0:0:0:62:E4S_s.ogg
302,192,101666,1,0,0:0:0:62:B4S_s.ogg
448,192,101666,1,0,0:0:0:62:G5S_s.ogg
156,192,102083,1,0,0:0:0:62:G4S_s.ogg
10,192,102499,1,0,0:0:0:62:E4S_s.ogg
83,192,102499,1,0,0:0:0:62:B4S_s.ogg
375,192,102499,1,0,0:0:0:62:G5S_s.ogg
302,192,102916,1,0,0:0:0:62:G4S_s.ogg
156,192,103333,1,0,0:0:0:62:D3S_s.ogg
229,192,103333,1,0,0:0:0:62:D4S_s.ogg
375,192,103333,1,0,0:0:0:62:A4S_s.ogg
448,192,103333,1,0,0:0:0:62:F#5S_Gb5S_s.ogg
10,192,103749,1,0,0:0:0:62:F#4S_Gb4S_s.ogg
83,192,104166,1,0,0:0:0:62:D4S_s.ogg
156,192,104166,1,0,0:0:0:62:A4S_s.ogg
302,192,104166,1,0,0:0:0:62:F#5S_Gb5S_s.ogg
375,192,104583,1,0,0:0:0:62:F#4S_Gb4S_s.ogg
10,192,104999,1,0,0:0:0:62:C3S_s.ogg
229,192,104999,1,0,0:0:0:62:C4S_s.ogg
302,192,104999,1,0,0:0:0:62:G4S_s.ogg
448,192,104999,1,0,0:0:0:62:F#5S_Gb5S_s.ogg
83,192,105416,1,0,0:0:0:62:E4S_s.ogg
10,192,105833,1,0,0:0:0:62:C4S_s.ogg
156,192,105833,1,0,0:0:0:62:G4S_s.ogg
375,192,105833,1,0,0:0:0:62:E5S_s.ogg
302,192,106249,1,0,0:0:0:62:E4S_s.ogg
83,192,106666,1,0,0:0:0:62:E3S_s.ogg
229,192,106666,1,0,0:0:0:62:E4S_s.ogg
375,192,106666,1,0,0:0:0:62:B5S_s.ogg
448,192,106666,1,0,0:0:0:62:E6S_s.ogg
156,192,107083,1,0,0:0:0:62:G5S_s.ogg
10,192,107499,1,0,0:0:0:62:B4S_s.ogg
83,192,107499,1,0,0:0:0:62:E5S_s.ogg
302,192,107499,1,0,0:0:0:62:B5S_s.ogg
375,192,107499,1,0,0:0:0:62:E6S_s.ogg
448,192,107916,1,0,0:0:0:62:G5S_s.ogg
10,192,108333,1,0,0:0:0:62:B2S_s.ogg
156,192,108333,1,0,0:0:0:62:B3S_s.ogg
229,192,108333,1,0,0:0:0:62:F#6S_Gb6S_s.ogg
375,192,108333,1,0,0:0:0:62:D7S_s.ogg
302,192,108749,1,0,0:0:0:62:D6S_s.ogg
83,192,109166,1,0,0:0:0:62:F#4S_Gb4S_s.ogg
156,192,109166,1,0,0:0:0:62:B4S_s.ogg
375,192,109166,1,0,0:0:0:62:F#6S_Gb6S_s.ogg
448,192,109166,1,0,0:0:0:62:D7S_s.ogg
10,192,109583,1,0,0:0:0:62:D6S_s.ogg
83,192,109999,1,0,0:0:0:62:G2S_s.ogg
229,192,109999,1,0,0:0:0:62:G3S_s.ogg
302,192,109999,1,0,0:0:0:62:G6S_s.ogg
448,192,109999,1,0,0:0:0:62:B6S_s.ogg
156,192,110416,1,0,0:0:0:62:D6S_s.ogg
10,192,110833,1,0,0:0:0:62:D4S_s.ogg
83,192,110833,1,0,0:0:0:62:G4S_s.ogg
302,192,110833,1,0,0:0:0:62:G6S_s.ogg
375,192,110833,1,0,0:0:0:62:B6S_s.ogg
229,192,111249,1,0,0:0:0:62:D6S_s.ogg
83,192,111666,1,0,0:0:0:62:F#2S_Gb2S_s.ogg
156,192,111666,1,0,0:0:0:62:F#3S_Gb3S_s.ogg
302,192,111666,1,0,0:0:0:62:E6S_s.ogg
448,192,111666,1,0,0:0:0:62:B6S_s.ogg
375,192,112083,1,0,0:0:0:62:C#6S_Db6S_s.ogg
10,192,112499,1,0,0:0:0:62:C#4S_Db4S_s.ogg
156,192,112499,1,0,0:0:0:62:F#4S_Gb4S_s.ogg
229,192,112499,1,0,0:0:0:62:E6S_s.ogg
448,192,112499,1,0,0:0:0:62:A6S_s.ogg
83,192,112916,1,0,0:0:0:62:C#6S_Db6S_s.ogg
156,192,113333,1,0,0:0:0:62:E3S_s.ogg
302,192,113333,1,0,0:0:0:62:E4S_s.ogg
375,192,113333,1,0,0:0:0:62:A6S.ogg
448,192,113333,1,0,0:0:0:62:A6S.ogg
229,192,113749,1,0,0:0:0:62:B5S_s.ogg
10,192,114166,1,0,0:0:0:62:E4S_s.ogg
83,192,114166,1,0,0:0:0:62:B4S_s.ogg
156,192,114166,1,0,0:0:0:62:E5S_s.ogg
448,192,114166,1,0,0:0:0:62:E6S_s.ogg
302,192,114583,1,0,0:0:0:62:B5S_s.ogg
156,192,114999,1,0,0:0:0:62:B2S_s.ogg
229,192,114999,1,0,0:0:0:62:B3S_s.ogg
375,192,114999,1,0,0:0:0:62:D6S_s.ogg
448,192,114999,1,0,0:0:0:62:F#6S_Gb6S_s.ogg
83,192,115416,1,0,0:0:0:62:B5S_s.ogg
10,192,115833,1,0,0:0:0:62:F#4S_Gb4S_s.ogg
156,192,115833,1,0,0:0:0:62:B4S_s.ogg
302,192,115833,1,0,0:0:0:62:D6S_s.ogg
375,192,115833,1,0,0:0:0:62:F#6S_Gb6S_s.ogg
229,192,116249,1,0,0:0:0:62:B5S_s.ogg
10,192,116666,1,0,0:0:0:62:G2S_s.ogg
83,192,116666,1,0,0:0:0:62:G3S_s.ogg
375,192,116666,1,0,0:0:0:62:D6S_s.ogg
448,192,116666,1,0,0:0:0:62:G6S_s.ogg
302,192,117083,1,0,0:0:0:62:B5S_s.ogg
10,192,117499,1,0,0:0:0:62:D4S_s.ogg
156,192,117499,1,0,0:0:0:62:G4S_s.ogg
229,192,117499,1,0,0:0:0:62:D6S_s.ogg
448,192,117499,1,0,0:0:0:62:G6S_s.ogg
83,192,117916,1,0,0:0:0:62:B5S_s.ogg
10,192,118333,1,0,0:0:0:62:F#2S_Gb2S_s.ogg
302,192,118333,1,0,0:0:0:62:F#3S_Gb3S_s.ogg
375,192,118333,1,0,0:0:0:62:E6S_s.ogg
448,192,118333,1,0,0:0:0:62:B6S_s.ogg
229,192,118749,1,0,0:0:0:62:C#6S_Db6S_s.ogg
10,192,119166,1,0,0:0:0:62:F#3S_Gb3S_s.ogg
83,192,119166,1,0,0:0:0:62:C#4S_Db4S_s.ogg
156,192,119166,1,0,0:0:0:62:F#4S_Gb4S_s.ogg
448,192,119166,1,0,0:0:0:62:E6S_s.ogg
302,192,119583,1,0,0:0:0:62:C#6S_Db6S_s.ogg
156,192,119999,1,0,0:0:0:62:B4S.ogg
229,192,119999,1,0,0:0:0:62:F#5S_Gb5S.ogg
375,192,119999,1,0,0:0:0:62:F#6S_Gb6S_s.ogg
448,192,120416,1,0,0:0:0:62:B6S_s.ogg
83,192,120624,1,0,0:0:0:62:C#7S_Db7S_s.ogg
10,192,120833,1,0,0:0:0:62:D7S_s.ogg
156,192,121666,1,0,0:0:0:62:E5S.ogg
229,192,121666,1,0,0:0:0:62:B5S.ogg
302,192,121666,1,0,0:0:0:62:F#7S_Gb7S_s.ogg
375,192,122499,1,0,0:0:0:62:B6S_s.ogg
10,192,123333,1,0,0:0:0:62:D5S.ogg
83,192,123333,1,0,0:0:0:62:A5S.ogg
448,192,123333,1,0,0:0:0:62:F#6S_Gb6S_s.ogg
302,192,123611,1,0,0:0:0:62:B6S_s.ogg
229,192,124166,1,0,0:0:0:62:C#7S_Db7S_s.ogg
156,192,124444,1,0,0:0:0:62:D7S_s.ogg
375,192,124722,1,0,0:0:0:62:E7S_s.ogg
10,192,124999,1,0,0:0:0:62:C5S.ogg
83,192,124999,1,0,0:0:0:62:G5S.ogg
448,192,124999,1,0,0:0:0:62:C#7S_Db7S.ogg
156,192,126666,1,0,0:0:0:62:B4S.ogg
229,192,126666,1,0,0:0:0:62:F#5S_Gb5S.ogg
302,192,126666,1,0,0:0:0:62:F#6S_Gb6S_s.ogg
375,192,127083,1,0,0:0:0:62:B6S_s.ogg
83,192,127291,1,0,0:0:0:62:C#7S_Db7S_s.ogg
448,192,127499,1,0,0:0:0:62:D7S_s.ogg
10,192,128333,1,0,0:0:0:62:E5S.ogg
156,192,128333,1,0,0:0:0:62:B5S.ogg
302,192,128333,1,0,0:0:0:62:F#7S_Gb7S_s.ogg
229,192,129166,1,0,0:0:0:62:B6S_s.ogg
83,192,129999,1,0,0:0:0:62:D5S.ogg
375,192,129999,1,0,0:0:0:62:A5S.ogg
448,192,129999,1,0,0:0:0:62:F#6S_Gb6S_s.ogg
10,192,130277,1,0,0:0:0:62:B6S_s.ogg
302,192,130833,1,0,0:0:0:62:C#7S_Db7S_s.ogg
156,192,131111,1,0,0:0:0:62:D7S_s.ogg
229,192,131388,1,0,0:0:0:62:E7S_s.ogg
83,192,131666,1,0,0:0:0:62:C5S.ogg
375,192,131666,1,0,0:0:0:62:G5S.ogg
448,192,131666,1,0,0:0:0:62:C#7S_Db7S.ogg
10,192,133333,1,0,0:0:0:62:E5S.ogg
156,192,133333,1,0,0:0:0:62:B5S.ogg
302,192,133333,1,0,0:0:0:62:F#7S_Gb7S_s.ogg
229,192,134166,1,0,0:0:0:62:G7S_s.ogg
83,192,134999,1,0,0:0:0:62:B4S.ogg
375,192,134999,1,0,0:0:0:62:F#5S_Gb5S.ogg
448,192,134999,1,0,0:0:0:62:F#7S_Gb7S.ogg
10,192,136666,1,0,0:0:0:62:G5S.ogg
156,192,136666,1,0,0:0:0:62:D6S.ogg
302,192,136666,1,0,0:0:0:62:B6S_s.ogg
229,192,136874,1,0,0:0:0:62:C#7S_Db7S_s.ogg
448,192,137083,1,0,0:0:0:62:D7S_s.ogg
83,192,137916,1,0,0:0:0:62:E7S_s.ogg
375,192,138124,1,0,0:0:0:62:C#7S_Db7S.ogg
10,192,138333,1,0,0:0:0:62:F#5S_Gb5S.ogg
302,192,138333,1,0,0:0:0:62:C#6S_Db6S.ogg
156,192,139999,1,0,0:0:0:62:E5S.ogg
229,192,139999,1,0,0:0:0:62:B5S.ogg
448,192,139999,1,0,0:0:0:62:F#7S_Gb7S_s.ogg
83,192,140833,1,0,0:0:0:62:G7S_s.ogg
10,192,141666,1,0,0:0:0:62:B4S.ogg
302,192,141666,1,0,0:0:0:62:F#5S_Gb5S.ogg
375,192,141666,1,0,0:0:0:62:F#7S_Gb7S.ogg
156,192,143333,1,0,0:0:0:62:G5S.ogg
229,192,143333,1,0,0:0:0:62:D6S.ogg
448,192,143333,1,0,0:0:0:62:B6S_s.ogg
83,192,143541,1,0,0:0:0:62:C#7S_Db7S_s.ogg
302,192,143749,1,0,0:0:0:62:D7S_s.ogg
10,192,144583,1,0,0:0:0:62:E7S_s.ogg
375,192,144791,1,0,0:0:0:62:C#7S_Db7S.ogg
156,192,144999,1,0,0:0:0:62:F#5S_Gb5S.ogg
448,192,144999,1,0,0:0:0:62:C#6S_Db6S.ogg
