osu file format v14

[General]
AudioFilename: audio.mp3
AudioLeadIn: 0
PreviewTime: -1
Countdown: 0
SampleSet: None
StackLeniency: 0.7
Mode: 3
LetterboxInBreaks: 0
SpecialStyle: 0
WidescreenStoryboard: 0

[Editor]
DistanceSpacing: 1.2
BeatDivisor: 16
GridSize: 4
TimelineZoom: 1

[Metadata]
Title:Eternal Pack 2
TitleUnicode:Eternal Pack 2
Artist:Various Artists
ArtistUnicode:Various Artists
Creator:[Shana Lesus]
Version:Rammstein - Seemann
Source:
Tags:
BeatmapID:2193327
BeatmapSetID:1049301

[Difficulty]
HPDrainRate:8
CircleSize:7
OverallDifficulty:8
ApproachRate:5
SliderMultiplier:1.4
SliderTickRate:1

[Events]
//Background and Video events
0,0,"seemann.jpg",0,0
//Break Periods
//Storyboard Layer 0 (Background)
//Storyboard Layer 1 (Fail)
//Storyboard Layer 2 (Pass)
//Storyboard Layer 3 (Foreground)
//Storyboard Layer 4 (Overlay)
//Storyboard Sound Samples
Sample,41143,0,"null_s.ogg",75
Sample,42000,0,"A2S_s.ogg",62
Sample,42000,0,"E3S_s.ogg",62
Sample,42857,0,"A2S_s.ogg",62
Sample,42857,0,"E3S_s.ogg",62
Sample,43714,0,"A2S_s.ogg",62
Sample,44571,0,"G#2S_Ab2S_s.ogg",75
Sample,44571,0,"D#3S_Eb3S_s.ogg",75
Sample,45428,0,"G#2S_Ab2S_s.ogg",62
Sample,45428,0,"D#3S_Eb3S_s.ogg",62
Sample,46286,0,"G#2S_Ab2S_s.ogg",62
Sample,46286,0,"D#3S_Eb3S_s.ogg",62
Sample,47143,0,"G#2S_Ab2S_s.ogg",62
Sample,47143,0,"D#3S_Eb3S_s.ogg",62
Sample,48000,0,"F#2S_Gb2S_s.ogg",75
Sample,48000,0,"C#3S_Db3S_s.ogg",75
Sample,48857,0,"F#2S_Gb2S_s.ogg",62
Sample,48857,0,"C#3S_Db3S_s.ogg",62
Sample,49714,0,"F#2S_Gb2S_s.ogg",62
Sample,49714,0,"C#3S_Db3S_s.ogg",62
Sample,50571,0,"F#2S_Gb2S_s.ogg",62
Sample,50571,0,"C#3S_Db3S_s.ogg",62
Sample,51428,0,"C#2S_Db2S_s.ogg",75
Sample,51428,0,"G#2S_Ab2S_s.ogg",75
Sample,52286,0,"C#2S_Db2S_s.ogg",62
Sample,52286,0,"G#2S_Ab2S_s.ogg",62
Sample,53143,0,"C#2S_Db2S_s.ogg",62
Sample,53143,0,"G#2S_Ab2S_s.ogg",62
Sample,54000,0,"C#2S_Db2S_s.ogg",62
Sample,54000,0,"G#2S_Ab2S_s.ogg",62
Sample,82285,0,"null_s.ogg",75
Sample,83143,0,"A2S_s.ogg",62
Sample,83143,0,"E3S_s.ogg",62
Sample,84000,0,"A2S_s.ogg",62
Sample,84000,0,"E3S_s.ogg",62
Sample,84857,0,"A2S_s.ogg",62
Sample,85714,0,"G#2S_Ab2S_s.ogg",75
Sample,85714,0,"D#3S_Eb3S_s.ogg",75
Sample,86571,0,"G#2S_Ab2S_s.ogg",62
Sample,86571,0,"D#3S_Eb3S_s.ogg",62
Sample,87428,0,"G#2S_Ab2S_s.ogg",62
Sample,87428,0,"D#3S_Eb3S_s.ogg",62
Sample,88285,0,"G#2S_Ab2S_s.ogg",62
Sample,88285,0,"D#3S_Eb3S_s.ogg",62
Sample,89143,0,"F#2S_Gb2S_s.ogg",75
Sample,89143,0,"C#3S_Db3S_s.ogg",75
Sample,90000,0,"F#2S_Gb2S_s.ogg",62
Sample,90000,0,"C#3S_Db3S_s.ogg",62
Sample,90857,0,"F#2S_Gb2S_s.ogg",62
Sample,90857,0,"C#3S_Db3S_s.ogg",62
Sample,91714,0,"F#2S_Gb2S_s.ogg",62
Sample,91714,0,"C#3S_Db3S_s.ogg",62
Sample,92571,0,"C#2S_Db2S_s.ogg",75
Sample,92571,0,"G#2S_Ab2S_s.ogg",75
Sample,93428,0,"C#2S_Db2S_s.ogg",62
Sample,93428,0,"G#2S_Ab2S_s.ogg",62
Sample,94285,0,"C#2S_Db2S_s.ogg",62
Sample,94285,0,"G#2S_Ab2S_s.ogg",62
Sample,96857,0,"A2S_s.ogg",62
Sample,98571,0,"A2S_s.ogg",62
Sample,100285,0,"G#2S_Ab2S_s.ogg",62
Sample,102857,0,"F#2S_Gb2S_s.ogg",75
Sample,103714,0,"F#2S_Gb2S_s.ogg",62
Sample,105428,0,"F#2S_Gb2S_s.ogg",62
Sample,106285,0,"C#2S_Db2S_s.ogg",75
Sample,107143,0,"C#2S_Db2S_s.ogg",62
Sample,108000,0,"C#2S_Db2S_s.ogg",62
Sample,110571,0,"A2S_s.ogg",62
Sample,112285,0,"A2S_s.ogg",62
Sample,114000,0,"G#2S_Ab2S_s.ogg",62
Sample,116571,0,"F#2S_Gb2S_s.ogg",75
Sample,117428,0,"F#2S_Gb2S_s.ogg",62
Sample,119142,0,"F#2S_Gb2S_s.ogg",62
Sample,120000,0,"C#2S_Db2S_s.ogg",75
Sample,120857,0,"C#2S_Db2S_s.ogg",61
Sample,121714,0,"C#2S_Db2S_s.ogg",59
Sample,122571,0,"C#2S_Db2S_s.ogg",58
Sample,155142,0,"A2S_s.ogg",62
Sample,156857,0,"A2S_s.ogg",62
Sample,158571,0,"G#2S_Ab2S_s.ogg",62
Sample,161142,0,"F#2S_Gb2S_s.ogg",75
Sample,161999,0,"F#2S_Gb2S_s.ogg",62
Sample,163714,0,"F#2S_Gb2S_s.ogg",62
Sample,164571,0,"C#2S_Db2S_s.ogg",75
Sample,165428,0,"C#2S_Db2S_s.ogg",62
Sample,166285,0,"C#2S_Db2S_s.ogg",62
Sample,167142,0,"C#2S_Db2S_s.ogg",62
Sample,168857,0,"A2S_s.ogg",62
Sample,170571,0,"A2S_s.ogg",62
Sample,172285,0,"G#2S_Ab2S_s.ogg",62
Sample,174857,0,"F#2S_Gb2S_s.ogg",75
Sample,175714,0,"F#2S_Gb2S_s.ogg",62
Sample,177428,0,"F#2S_Gb2S_s.ogg",62
Sample,178285,0,"C#2S_Db2S_s.ogg",75
Sample,179142,0,"C#2S_Db2S_s.ogg",60
Sample,179999,0,"C#2S_Db2S_s.ogg",57
Sample,180857,0,"C#2S_Db2S_s.ogg",54

[TimingPoints]
0,857.14,4,1,1,100,1,0

[HitObjects]
302,192,0,5,0,0:0:0:59:A3S_s.ogg
83,192,214,1,0,0:0:0:50:E4S_s.ogg
448,192,428,1,0,0:0:0:50:C#5S_Db5S_s.ogg
156,192,642,1,0,0:0:0:50:E4S_s.ogg
375,192,857,1,0,0:0:0:59:A3S_s.ogg
10,192,1071,1,0,0:0:0:50:E4S_s.ogg
229,192,1285,1,0,0:0:0:50:B4S_s.ogg
302,192,1499,1,0,0:0:0:50:E4S_s.ogg
83,192,1714,1,0,0:0:0:59:A3S_s.ogg
448,192,1928,1,0,0:0:0:50:E4S_s.ogg
156,192,2142,1,0,0:0:0:50:A4S_s.ogg
375,192,2357,1,0,0:0:0:50:E4S_s.ogg
10,192,2571,1,0,0:0:0:59:A3S_s.ogg
229,192,2785,1,0,0:0:0:50:E4S_s.ogg
302,192,2999,1,0,0:0:0:50:G#4S_Ab4S_s.ogg
83,192,3214,1,0,0:0:0:50:E4S_s.ogg
448,192,3428,1,0,0:0:0:59:G#3S_Ab3S_s.ogg
156,192,3642,1,0,0:0:0:50:B3S_s.ogg
375,192,3857,1,0,0:0:0:50:F#4S_Gb4S_s.ogg
10,192,4071,1,0,0:0:0:50:B3S_s.ogg
229,192,4285,1,0,0:0:0:59:G#3S_Ab3S_s.ogg
302,192,4499,1,0,0:0:0:50:B3S_s.ogg
83,192,4714,1,0,0:0:0:50:F#4S_Gb4S_s.ogg
448,192,4928,1,0,0:0:0:50:B3S_s.ogg
156,192,5142,1,0,0:0:0:59:G#3S_Ab3S_s.ogg
375,192,5357,1,0,0:0:0:50:B3S_s.ogg
10,192,5571,1,0,0:0:0:50:G#4S_Ab4S_s.ogg
229,192,5785,1,0,0:0:0:50:B3S_s.ogg
302,192,5999,1,0,0:0:0:59:G#3S_Ab3S_s.ogg
83,192,6214,1,0,0:0:0:50:B3S_s.ogg
448,192,6428,1,0,0:0:0:50:G#4S_Ab4S_s.ogg
156,192,6642,1,0,0:0:0:50:B3S_s.ogg
375,192,6857,1,0,0:0:0:59:F#3S_Gb3S_s.ogg
10,192,7071,1,0,0:0:0:50:C#4S_Db4S_s.ogg
229,192,7285,1,0,0:0:0:50:A4S_s.ogg
302,192,7499,1,0,0:0:0:50:C#4S_Db4S_s.ogg
83,192,7714,1,0,0:0:0:59:F#3S_Gb3S_s.ogg
448,192,7928,1,0,0:0:0:50:C#4S_Db4S_s.ogg
156,192,8142,1,0,0:0:0:50:G#4S_Ab4S_s.ogg
375,192,8357,1,0,0:0:0:50:C#4S_Db4S_s.ogg
10,192,8571,1,0,0:0:0:59:F#3S_Gb3S_s.ogg
229,192,8785,1,0,0:0:0:50:C#4S_Db4S_s.ogg
302,192,8999,1,0,0:0:0:50:F#4S_Gb4S_s.ogg
83,192,9214,1,0,0:0:0:50:C#4S_Db4S_s.ogg
448,192,9428,1,0,0:0:0:59:F#3S_Gb3S_s.ogg
156,192,9642,1,0,0:0:0:50:C#4S_Db4S_s.ogg
375,192,9857,1,0,0:0:0:50:E4S_s.ogg
10,192,10071,1,0,0:0:0:50:C#4S_Db4S_s.ogg
229,192,10285,1,0,0:0:0:59:C#3S_Db3S_s.ogg
302,192,10499,1,0,0:0:0:50:G#3S_Ab3S_s.ogg
83,192,10714,1,0,0:0:0:50:C#4S_Db4S_s.ogg
448,192,10928,1,0,0:0:0:50:G#3S_Ab3S_s.ogg
156,192,11142,1,0,0:0:0:59:C#3S_Db3S_s.ogg
375,192,11357,1,0,0:0:0:50:G#3S_Ab3S_s.ogg
10,192,11571,1,0,0:0:0:50:C4S_s.ogg
229,192,11785,1,0,0:0:0:50:G#3S_Ab3S_s.ogg
302,192,11999,1,0,0:0:0:59:C#3S_Db3S_s.ogg
83,192,12214,1,0,0:0:0:50:G#3S_Ab3S_s.ogg
448,192,12428,1,0,0:0:0:50:C#4S_Db4S_s.ogg
156,192,12642,1,0,0:0:0:50:G#3S_Ab3S_s.ogg
375,192,12857,1,0,0:0:0:59:C#3S_Db3S_s.ogg
10,192,13071,1,0,0:0:0:50:G#3S_Ab3S_s.ogg
229,192,13285,1,0,0:0:0:50:C#4S_Db4S_s.ogg
302,192,13499,1,0,0:0:0:50:G#3S_Ab3S_s.ogg
83,192,13714,1,0,0:0:0:59:A3S_s.ogg
448,192,13714,1,0,0:0:0:50:C#6S_Db6S.ogg
156,192,13928,1,0,0:0:0:50:E4S_s.ogg
375,192,14142,1,0,0:0:0:50:C#5S_Db5S_s.ogg
10,192,14357,1,0,0:0:0:50:E4S_s.ogg
229,192,14571,1,0,0:0:0:59:A3S_s.ogg
302,192,14785,1,0,0:0:0:50:E4S_s.ogg
83,192,14999,1,0,0:0:0:50:B4S_s.ogg
448,192,15214,1,0,0:0:0:50:E4S_s.ogg
156,192,15428,1,0,0:0:0:59:A3S_s.ogg
375,192,15642,1,0,0:0:0:50:E4S_s.ogg
10,192,15857,1,0,0:0:0:50:A4S_s.ogg
229,192,16071,1,0,0:0:0:50:E4S_s.ogg
83,192,16285,1,0,0:0:0:59:A3S_s.ogg
302,192,16285,1,0,0:0:0:50:B5S_s.ogg
448,192,16499,1,0,0:0:0:50:E4S_s.ogg
156,192,16714,1,0,0:0:0:50:G#4S_Ab4S_s.ogg
10,192,16928,1,0,0:0:0:50:E4S_s.ogg
375,192,16928,1,0,0:0:0:50:A5S_s.ogg
229,192,17142,1,0,0:0:0:59:G#3S_Ab3S_s.ogg
302,192,17142,1,0,0:0:0:50:B5S.ogg
83,192,17357,1,0,0:0:0:50:B3S_s.ogg
448,192,17571,1,0,0:0:0:50:F#4S_Gb4S_s.ogg
156,192,17785,1,0,0:0:0:50:B3S_s.ogg
375,192,17999,1,0,0:0:0:59:G#3S_Ab3S_s.ogg
10,192,18214,1,0,0:0:0:50:B3S_s.ogg
302,192,18428,1,0,0:0:0:50:F#4S_Gb4S_s.ogg
229,192,18642,1,0,0:0:0:50:B3S_s.ogg
83,192,18857,1,0,0:0:0:59:G#3S_Ab3S_s.ogg
448,192,19071,1,0,0:0:0:50:B3S_s.ogg
156,192,19285,1,0,0:0:0:50:G#4S_Ab4S_s.ogg
375,192,19499,1,0,0:0:0:50:B3S_s.ogg
10,192,19714,1,0,0:0:0:59:G#3S_Ab3S_s.ogg
302,192,19928,1,0,0:0:0:50:B3S_s.ogg
229,192,20142,1,0,0:0:0:50:G#4S_Ab4S_s.ogg
83,192,20357,1,0,0:0:0:50:B3S_s.ogg
448,192,20357,1,0,0:0:0:50:B5S_s.ogg
156,192,20571,1,0,0:0:0:59:F#3S_Gb3S_s.ogg
375,192,20571,1,0,0:0:0:50:A5S_s.ogg
10,192,20785,1,0,0:0:0:50:C#4S_Db4S_s.ogg
229,192,20999,1,0,0:0:0:50:A4S_s.ogg
302,192,20999,1,0,0:0:0:50:A5S_s.ogg
83,192,21214,1,0,0:0:0:50:C#4S_Db4S_s.ogg
448,192,21214,1,0,0:0:0:50:A5S.ogg
156,192,21428,1,0,0:0:0:59:F#3S_Gb3S_s.ogg
375,192,21642,1,0,0:0:0:50:C#4S_Db4S_s.ogg
10,192,21857,1,0,0:0:0:50:G#4S_Ab4S_s.ogg
229,192,22071,1,0,0:0:0:50:C#4S_Db4S_s.ogg
302,192,22285,1,0,0:0:0:59:F#3S_Gb3S_s.ogg
83,192,22499,1,0,0:0:0:50:C#4S_Db4S_s.ogg
156,192,22714,1,0,0:0:0:50:F#4S_Gb4S_s.ogg
448,192,22714,1,0,0:0:0:50:A5S_s.ogg
375,192,22928,1,0,0:0:0:50:C#4S_Db4S_s.ogg
10,192,23142,1,0,0:0:0:59:F#3S_Gb3S_s.ogg
229,192,23142,1,0,0:0:0:50:A5S_s.ogg
83,192,23357,1,0,0:0:0:50:C#4S_Db4S_s.ogg
302,192,23357,1,0,0:0:0:50:A5S_s.ogg
448,192,23571,1,0,0:0:0:50:E4S_s.ogg
156,192,23785,1,0,0:0:0:50:C#4S_Db4S_s.ogg
10,192,23999,1,0,0:0:0:59:C#3S_Db3S_s.ogg
375,192,23999,1,0,0:0:0:50:G#5S_Ab5S.ogg
229,192,24214,1,0,0:0:0:50:G#3S_Ab3S_s.ogg
302,192,24428,1,0,0:0:0:50:C#4S_Db4S_s.ogg
83,192,24642,1,0,0:0:0:50:G#3S_Ab3S_s.ogg
448,192,24857,1,0,0:0:0:59:C#3S_Db3S_s.ogg
156,192,25071,1,0,0:0:0:50:G#3S_Ab3S_s.ogg
375,192,25285,1,0,0:0:0:50:C4S_s.ogg
10,192,25499,1,0,0:0:0:50:G#3S_Ab3S_s.ogg
229,192,25714,1,0,0:0:0:59:C#3S_Db3S_s.ogg
302,192,25928,1,0,0:0:0:50:G#3S_Ab3S_s.ogg
83,192,26142,1,0,0:0:0:50:C#4S_Db4S_s.ogg
448,192,26357,1,0,0:0:0:50:G#3S_Ab3S_s.ogg
156,192,26571,1,0,0:0:0:59:C#3S_Db3S_s.ogg
375,192,26785,1,0,0:0:0:50:G#3S_Ab3S_s.ogg
10,192,26999,1,0,0:0:0:50:C#4S_Db4S_s.ogg
229,192,27214,1,0,0:0:0:50:G#3S_Ab3S_s.ogg
83,192,27428,1,0,0:0:0:59:A3S_s.ogg
302,192,27428,1,0,0:0:0:50:C#6S_Db6S.ogg
448,192,27642,1,0,0:0:0:50:E4S_s.ogg
156,192,27857,1,0,0:0:0:50:C#5S_Db5S_s.ogg
375,192,28071,1,0,0:0:0:50:E4S_s.ogg
10,192,28285,1,0,0:0:0:59:A3S_s.ogg
229,192,28499,1,0,0:0:0:50:E4S_s.ogg
83,192,28714,1,0,0:0:0:50:B4S_s.ogg
302,192,28928,1,0,0:0:0:50:E4S_s.ogg
448,192,29142,1,0,0:0:0:59:A3S_s.ogg
156,192,29357,1,0,0:0:0:50:E4S_s.ogg
10,192,29571,1,0,0:0:0:50:A4S_s.ogg
375,192,29571,1,0,0:0:0:50:C#6S_Db6S_s.ogg
229,192,29785,1,0,0:0:0:50:E4S_s.ogg
83,192,29999,1,0,0:0:0:59:A3S_s.ogg
302,192,29999,1,0,0:0:0:50:C#6S_Db6S_s.ogg
448,192,30214,1,0,0:0:0:50:E4S_s.ogg
156,192,30428,1,0,0:0:0:50:G#4S_Ab4S_s.ogg
10,192,30642,1,0,0:0:0:50:E4S_s.ogg
375,192,30642,1,0,0:0:0:50:A5S_s.ogg
229,192,30857,1,0,0:0:0:59:G#3S_Ab3S_s.ogg
302,192,30857,1,0,0:0:0:50:B5S.ogg
83,192,31071,1,0,0:0:0:50:B3S_s.ogg
448,192,31285,1,0,0:0:0:50:F#4S_Gb4S_s.ogg
156,192,31499,1,0,0:0:0:50:B3S_s.ogg
375,192,31714,1,0,0:0:0:59:G#3S_Ab3S_s.ogg
10,192,31928,1,0,0:0:0:50:B3S_s.ogg
229,192,32142,1,0,0:0:0:50:F#4S_Gb4S_s.ogg
302,192,32357,1,0,0:0:0:50:B3S_s.ogg
83,192,32571,1,0,0:0:0:59:G#3S_Ab3S_s.ogg
448,192,32785,1,0,0:0:0:50:B3S_s.ogg
156,192,32999,1,0,0:0:0:50:G#4S_Ab4S_s.ogg
375,192,33214,1,0,0:0:0:50:B3S_s.ogg
10,192,33428,1,0,0:0:0:59:G#3S_Ab3S_s.ogg
229,192,33642,1,0,0:0:0:50:B3S_s.ogg
302,192,33857,1,0,0:0:0:50:G#4S_Ab4S_s.ogg
83,192,34071,1,0,0:0:0:50:B3S_s.ogg
448,192,34071,1,0,0:0:0:50:B5S_s.ogg
156,192,34285,1,0,0:0:0:59:F#3S_Gb3S_s.ogg
375,192,34285,1,0,0:0:0:50:A5S_s.ogg
10,192,34499,1,0,0:0:0:50:C#4S_Db4S_s.ogg
229,192,34499,1,0,0:0:0:50:A5S_s.ogg
302,192,34714,1,0,0:0:0:50:A4S_s.ogg
83,192,34928,1,0,0:0:0:50:C#4S_Db4S_s.ogg
448,192,34928,1,0,0:0:0:50:A5S.ogg
156,192,35142,1,0,0:0:0:59:F#3S_Gb3S_s.ogg
375,192,35357,1,0,0:0:0:50:C#4S_Db4S_s.ogg
229,192,35571,1,0,0:0:0:50:G#4S_Ab4S_s.ogg
10,192,35785,1,0,0:0:0:50:C#4S_Db4S_s.ogg
302,192,35999,1,0,0:0:0:59:F#3S_Gb3S_s.ogg
83,192,36214,1,0,0:0:0:50:C#4S_Db4S_s.ogg
156,192,36428,1,0,0:0:0:50:F#4S_Gb4S_s.ogg
448,192,36428,1,0,0:0:0:50:A5S_s.ogg
375,192,36642,1,0,0:0:0:50:C#4S_Db4S_s.ogg
10,192,36857,1,0,0:0:0:59:F#3S_Gb3S_s.ogg
229,192,36857,1,0,0:0:0:50:A5S_s.ogg
302,192,37071,1,0,0:0:0:50:C#4S_Db4S_s.ogg
83,192,37285,1,0,0:0:0:50:E4S_s.ogg
156,192,37499,1,0,0:0:0:50:C#4S_Db4S_s.ogg
448,192,37499,1,0,0:0:0:50:G#5S_Ab5S_s.ogg
10,192,37714,1,0,0:0:0:75:C#3S_Db3S_s.ogg
375,192,37714,1,0,0:0:0:62:G#5S_Ab5S.ogg
229,192,37928,1,0,0:0:0:62:G#3S_Ab3S_s.ogg
302,192,38142,1,0,0:0:0:62:C#4S_Db4S_s.ogg
83,192,38357,1,0,0:0:0:62:G#3S_Ab3S_s.ogg
448,192,38571,1,0,0:0:0:75:C#3S_Db3S_s.ogg
156,192,38785,1,0,0:0:0:62:G#3S_Ab3S_s.ogg
375,192,38999,1,0,0:0:0:62:C4S_s.ogg
10,192,39214,1,0,0:0:0:62:G#3S_Ab3S_s.ogg
229,192,39428,1,0,0:0:0:75:C#3S_Db3S_s.ogg
302,192,39642,1,0,0:0:0:62:G#3S_Ab3S_s.ogg
83,192,39857,1,0,0:0:0:62:C#4S_Db4S_s.ogg
448,192,40071,1,0,0:0:0:62:G#3S_Ab3S_s.ogg
156,192,40285,1,0,0:0:0:75:C#3S_Db3S_s.ogg
375,192,40499,1,0,0:0:0:62:G#3S_Ab3S_s.ogg
10,192,40714,1,0,0:0:0:62:C#4S_Db4S_s.ogg
229,192,40928,1,0,0:0:0:62:G#3S_Ab3S_s.ogg
83,192,41142,1,0,0:0:0:75:A2S_s.ogg
156,192,41142,1,0,0:0:0:75:E4S_s.ogg
302,192,41142,1,0,0:0:0:75:A4S_s.ogg
448,192,41142,1,0,0:0:0:75:C#5S_Db5S_s.ogg
10,192,41571,1,0,0:0:0:62:A2S_s.ogg
229,192,41571,1,0,0:0:0:62:A3S_s.ogg
375,192,41571,1,0,0:0:0:62:E4S_s.ogg
448,192,41571,1,0,0:0:0:62:A4S_s.ogg
156,192,41785,1,0,0:0:0:62:A2S_s.ogg
302,192,41785,1,0,0:0:0:62:A3S_s.ogg
10,192,41999,1,0,0:0:0:62:A3S_s.ogg
83,192,41999,1,0,0:0:0:62:E4S_s.ogg
229,192,41999,1,0,0:0:0:62:A4S_s.ogg
448,192,41999,1,0,0:0:0:62:C#5S_Db5S_s.ogg
83,192,42428,1,0,0:0:0:62:A2S_s.ogg
156,192,42428,1,0,0:0:0:62:A3S_s.ogg
302,192,42428,1,0,0:0:0:62:E4S_s.ogg
375,192,42428,1,0,0:0:0:62:A4S_s.ogg
10,192,42642,1,0,0:0:0:62:A2S_s.ogg
448,192,42642,1,0,0:0:0:62:A3S_s.ogg
83,192,42857,1,0,0:0:0:62:A3S_s.ogg
156,192,42857,1,0,0:0:0:62:E4S_s.ogg
229,192,42857,1,0,0:0:0:62:A4S_s.ogg
302,192,42857,1,0,0:0:0:62:C#5S_Db5S_s.ogg
10,192,43285,1,0,0:0:0:62:A2S_s.ogg
83,192,43285,1,0,0:0:0:62:A3S_s.ogg
375,192,43285,1,0,0:0:0:62:E4S_s.ogg
448,192,43285,1,0,0:0:0:62:A4S_s.ogg
156,192,43499,1,0,0:0:0:62:A2S_s.ogg
302,192,43499,1,0,0:0:0:62:A3S_s.ogg
10,192,43714,1,0,0:0:0:62:E3S_s.ogg
83,192,43714,1,0,0:0:0:62:A3S_s.ogg
229,192,43714,1,0,0:0:0:62:E4S_s.ogg
448,192,43714,1,0,0:0:0:62:A4S_s.ogg
83,192,44142,1,0,0:0:0:62:A2S_s.ogg
156,192,44142,1,0,0:0:0:62:A3S_s.ogg
302,192,44142,1,0,0:0:0:62:E4S_s.ogg
375,192,44142,1,0,0:0:0:62:A4S_s.ogg
10,192,44356,1,0,0:0:0:62:A2S_s.ogg
229,192,44356,1,0,0:0:0:62:A3S_s.ogg
302,192,44356,1,0,0:0:0:62:E4S_s.ogg
448,192,44356,1,0,0:0:0:62:A4S_s.ogg
83,192,44571,1,0,0:0:0:75:G#3S_Ab3S_s.ogg
156,192,44571,1,0,0:0:0:75:G#4S_Ab4S_s.ogg
375,192,44571,1,0,0:0:0:75:B4S_s.ogg
448,192,44571,1,0,0:0:0:75:D#5S_Eb5S_s.ogg
10,192,44999,1,0,0:0:0:62:G#2S_Ab2S_s.ogg
83,192,44999,1,0,0:0:0:62:G#3S_Ab3S_s.ogg
229,192,44999,1,0,0:0:0:62:G#4S_Ab4S_s.ogg
302,192,44999,1,0,0:0:0:62:B4S_s.ogg
156,192,45214,1,0,0:0:0:62:G#2S_Ab2S_s.ogg
375,192,45214,1,0,0:0:0:62:G#3S_Ab3S_s.ogg
10,192,45428,1,0,0:0:0:62:G#3S_Ab3S_s.ogg
229,192,45428,1,0,0:0:0:62:G#4S_Ab4S_s.ogg
302,192,45428,1,0,0:0:0:62:B4S_s.ogg
448,192,45428,1,0,0:0:0:62:D#5S_Eb5S_s.ogg
83,192,45856,1,0,0:0:0:62:G#2S_Ab2S_s.ogg
156,192,45856,1,0,0:0:0:62:G#3S_Ab3S_s.ogg
375,192,45856,1,0,0:0:0:62:G#4S_Ab4S_s.ogg
448,192,45856,1,0,0:0:0:62:B4S_s.ogg
10,192,46071,1,0,0:0:0:62:G#2S_Ab2S_s.ogg
229,192,46071,1,0,0:0:0:62:G#3S_Ab3S_s.ogg
83,192,46285,1,0,0:0:0:62:G#3S_Ab3S_s.ogg
156,192,46285,1,0,0:0:0:62:D#4S_Eb4S_s.ogg
302,192,46285,1,0,0:0:0:62:G#4S_Ab4S_s.ogg
375,192,46285,1,0,0:0:0:62:B4S_s.ogg
10,192,46714,1,0,0:0:0:62:G#2S_Ab2S_s.ogg
229,192,46714,1,0,0:0:0:62:G#3S_Ab3S_s.ogg
375,192,46714,1,0,0:0:0:62:G#4S_Ab4S_s.ogg
448,192,46714,1,0,0:0:0:62:B4S_s.ogg
83,192,46928,1,0,0:0:0:62:G#2S_Ab2S_s.ogg
302,192,46928,1,0,0:0:0:62:G#3S_Ab3S_s.ogg
10,192,47142,1,0,0:0:0:62:G#3S_Ab3S_s.ogg
156,192,47142,1,0,0:0:0:62:D#4S_Eb4S_s.ogg
229,192,47142,1,0,0:0:0:62:G#4S_Ab4S_s.ogg
448,192,47142,1,0,0:0:0:62:B4S_s.ogg
10,192,47571,1,0,0:0:0:62:G#2S_Ab2S_s.ogg
83,192,47571,1,0,0:0:0:62:G#3S_Ab3S_s.ogg
302,192,47571,1,0,0:0:0:62:G#4S_Ab4S_s.ogg
375,192,47571,1,0,0:0:0:62:B4S_s.ogg
156,192,47785,1,0,0:0:0:62:G#2S_Ab2S_s.ogg
229,192,47785,1,0,0:0:0:62:G#3S_Ab3S_s.ogg
302,192,47785,1,0,0:0:0:62:G#4S_Ab4S_s.ogg
448,192,47785,1,0,0:0:0:62:B4S_s.ogg
10,192,47999,1,0,0:0:0:75:F#3S_Gb3S_s.ogg
83,192,47999,1,0,0:0:0:62:C#4S_Db4S_s.ogg
302,192,47999,1,0,0:0:0:62:F#4S_Gb4S_s.ogg
375,192,47999,1,0,0:0:0:62:A#4S_Bb4S_s.ogg
83,192,48428,1,0,0:0:0:62:F#2S_Gb2S_s.ogg
156,192,48428,1,0,0:0:0:62:F#3S_Gb3S_s.ogg
229,192,48428,1,0,0:0:0:62:C#4S_Db4S_s.ogg
448,192,48428,1,0,0:0:0:62:F#4S_Gb4S_s.ogg
10,192,48642,1,0,0:0:0:62:F#2S_Gb2S_s.ogg
302,192,48642,1,0,0:0:0:62:F#3S_Gb3S_s.ogg
83,192,48856,1,0,0:0:0:62:F#3S_Gb3S_s.ogg
156,192,48856,1,0,0:0:0:62:C#4S_Db4S_s.ogg
375,192,48856,1,0,0:0:0:62:F#4S_Gb4S_s.ogg
448,192,48856,1,0,0:0:0:62:A#4S_Bb4S_s.ogg
10,192,49285,1,0,0:0:0:62:F#2S_Gb2S_s.ogg
156,192,49285,1,0,0:0:0:62:F#3S_Gb3S_s.ogg
229,192,49285,1,0,0:0:0:62:C#4S_Db4S_s.ogg
302,192,49285,1,0,0:0:0:62:F#4S_Gb4S_s.ogg
83,192,49499,1,0,0:0:0:62:F#2S_Gb2S_s.ogg
375,192,49499,1,0,0:0:0:62:F#3S_Gb3S_s.ogg
156,192,49714,1,0,0:0:0:62:F#3S_Gb3S_s.ogg
229,192,49714,1,0,0:0:0:62:C#4S_Db4S_s.ogg
302,192,49714,1,0,0:0:0:62:F#4S_Gb4S_s.ogg
448,192,49714,1,0,0:0:0:62:A#4S_Bb4S_s.ogg
10,192,50142,1,0,0:0:0:62:F#2S_Gb2S_s.ogg
83,192,50142,1,0,0:0:0:62:F#3S_Gb3S_s.ogg
375,192,50142,1,0,0:0:0:62:C#4S_Db4S_s.ogg
448,192,50142,1,0,0:0:0:62:F#4S_Gb4S_s.ogg
156,192,50356,1,0,0:0:0:62:F#2S_Gb2S_s.ogg
229,192,50356,1,0,0:0:0:62:F#3S_Gb3S_s.ogg
10,192,50571,1,0,0:0:0:62:F#3S_Gb3S_s.ogg
83,192,50571,1,0,0:0:0:62:C#4S_Db4S_s.ogg
302,192,50571,1,0,0:0:0:62:F#4S_Gb4S_s.ogg
448,192,50571,1,0,0:0:0:62:A#4S_Bb4S_s.ogg
83,192,50999,1,0,0:0:0:62:F#2S_Gb2S_s.ogg
156,192,50999,1,0,0:0:0:62:F#3S_Gb3S_s.ogg
229,192,50999,1,0,0:0:0:62:C#4S_Db4S_s.ogg
375,192,50999,1,0,0:0:0:62:F#4S_Gb4S_s.ogg
10,192,51214,1,0,0:0:0:62:F#2S_Gb2S_s.ogg
156,192,51214,1,0,0:0:0:62:F#3S_Gb3S_s.ogg
302,192,51214,1,0,0:0:0:62:C#4S_Db4S_s.ogg
448,192,51214,1,0,0:0:0:62:F#4S_Gb4S_s.ogg
83,192,51428,1,0,0:0:0:75:C#3S_Db3S_s.ogg
229,192,51428,1,0,0:0:0:75:G#3S_Ab3S_s.ogg
302,192,51428,1,0,0:0:0:75:C#4S_Db4S_s.ogg
375,192,51428,1,0,0:0:0:75:G#4S_Ab4S_s.ogg
10,192,51856,1,0,0:0:0:62:C#2S_Db2S_s.ogg
156,192,51856,1,0,0:0:0:62:C#3S_Db3S_s.ogg
375,192,51856,1,0,0:0:0:62:C#4S_Db4S_s.ogg
448,192,51856,1,0,0:0:0:62:G#4S_Ab4S_s.ogg
83,192,52071,1,0,0:0:0:62:C#2S_Db2S_s.ogg
302,192,52071,1,0,0:0:0:62:C#3S_Db3S_s.ogg
10,192,52285,1,0,0:0:0:62:C#3S_Db3S_s.ogg
156,192,52285,1,0,0:0:0:62:G#3S_Ab3S_s.ogg
229,192,52285,1,0,0:0:0:62:C#4S_Db4S_s.ogg
375,192,52285,1,0,0:0:0:62:G#4S_Ab4S_s.ogg
10,192,52714,1,0,0:0:0:62:C#2S_Db2S_s.ogg
83,192,52714,1,0,0:0:0:62:C#3S_Db3S_s.ogg
302,192,52714,1,0,0:0:0:62:C#4S_Db4S_s.ogg
448,192,52714,1,0,0:0:0:62:G#4S_Ab4S_s.ogg
156,192,52928,1,0,0:0:0:62:C#2S_Db2S_s.ogg
375,192,52928,1,0,0:0:0:62:C#3S_Db3S_s.ogg
10,192,53142,1,0,0:0:0:62:C#3S_Db3S_s.ogg
83,192,53142,1,0,0:0:0:62:G#3S_Ab3S_s.ogg
229,192,53142,1,0,0:0:0:62:C#4S_Db4S_s.ogg
302,192,53142,1,0,0:0:0:62:G#4S_Ab4S_s.ogg
83,192,53571,1,0,0:0:0:62:C#2S_Db2S_s.ogg
156,192,53571,1,0,0:0:0:62:C#3S_Db3S_s.ogg
375,192,53571,1,0,0:0:0:62:C#4S_Db4S_s.ogg
448,192,53571,1,0,0:0:0:62:G#4S_Ab4S_s.ogg
229,192,53785,1,0,0:0:0:62:C#2S_Db2S_s.ogg
302,192,53785,1,0,0:0:0:62:C#3S_Db3S_s.ogg
10,192,53999,1,0,0:0:0:62:C#3S_Db3S_s.ogg
83,192,53999,1,0,0:0:0:62:G#3S_Ab3S_s.ogg
375,192,53999,1,0,0:0:0:62:C#4S_Db4S_s.ogg
448,192,53999,1,0,0:0:0:62:G#4S_Ab4S_s.ogg
156,192,54428,1,0,0:0:0:62:C#2S_Db2S_s.ogg
302,192,54428,1,0,0:0:0:62:C#3S_Db3S_s.ogg
83,192,54642,1,0,0:0:0:62:C#2S_Db2S_s.ogg
229,192,54642,1,0,0:0:0:62:C#3S_Db3S_s.ogg
10,192,54856,1,0,0:0:0:59:A3S_s.ogg
448,192,54856,1,0,0:0:0:50:C#6S_Db6S.ogg
375,192,55071,1,0,0:0:0:50:E4S_s.ogg
156,192,55285,1,0,0:0:0:50:C#5S_Db5S_s.ogg
302,192,55499,1,0,0:0:0:50:E4S_s.ogg
229,192,55714,1,0,0:0:0:59:A3S_s.ogg
83,192,55928,1,0,0:0:0:50:E4S_s.ogg
448,192,56142,1,0,0:0:0:50:B4S_s.ogg
10,192,56356,1,0,0:0:0:50:E4S_s.ogg
375,192,56571,1,0,0:0:0:59:A3S_s.ogg
156,192,56785,1,0,0:0:0:50:E4S_s.ogg
302,192,56999,1,0,0:0:0:50:A4S_s.ogg
229,192,57214,1,0,0:0:0:50:E4S_s.ogg
83,192,57428,1,0,0:0:0:59:A3S_s.ogg
448,192,57428,1,0,0:0:0:50:B5S_s.ogg
10,192,57642,1,0,0:0:0:50:E4S_s.ogg
375,192,57856,1,0,0:0:0:50:G#4S_Ab4S_s.ogg
156,192,58071,1,0,0:0:0:50:E4S_s.ogg
302,192,58071,1,0,0:0:0:50:A5S_s.ogg
83,192,58285,1,0,0:0:0:59:G#3S_Ab3S_s.ogg
229,192,58285,1,0,0:0:0:50:B5S.ogg
448,192,58499,1,0,0:0:0:50:B3S_s.ogg
10,192,58714,1,0,0:0:0:50:F#4S_Gb4S_s.ogg
375,192,58928,1,0,0:0:0:50:B3S_s.ogg
156,192,59142,1,0,0:0:0:59:G#3S_Ab3S_s.ogg
302,192,59356,1,0,0:0:0:50:B3S_s.ogg
83,192,59571,1,0,0:0:0:50:F#4S_Gb4S_s.ogg
229,192,59785,1,0,0:0:0:50:B3S_s.ogg
448,192,59999,1,0,0:0:0:59:G#3S_Ab3S_s.ogg
10,192,60214,1,0,0:0:0:50:B3S_s.ogg
375,192,60428,1,0,0:0:0:50:G#4S_Ab4S_s.ogg
156,192,60642,1,0,0:0:0:50:B3S_s.ogg
302,192,60856,1,0,0:0:0:59:G#3S_Ab3S_s.ogg
83,192,61071,1,0,0:0:0:50:B3S_s.ogg
229,192,61285,1,0,0:0:0:50:G#4S_Ab4S_s.ogg
10,192,61499,1,0,0:0:0:50:B3S_s.ogg
448,192,61499,1,0,0:0:0:50:B5S_s.ogg
156,192,61714,1,0,0:0:0:59:F#3S_Gb3S_s.ogg
375,192,61714,1,0,0:0:0:50:A5S_s.ogg
302,192,61928,1,0,0:0:0:50:C#4S_Db4S_s.ogg
83,192,62142,1,0,0:0:0:50:A4S_s.ogg
229,192,62142,1,0,0:0:0:50:A5S_s.ogg
10,192,62356,1,0,0:0:0:50:C#4S_Db4S_s.ogg
448,192,62356,1,0,0:0:0:50:A5S.ogg
156,192,62571,1,0,0:0:0:59:F#3S_Gb3S_s.ogg
375,192,62785,1,0,0:0:0:50:C#4S_Db4S_s.ogg
302,192,62999,1,0,0:0:0:50:G#4S_Ab4S_s.ogg
83,192,63214,1,0,0:0:0:50:C#4S_Db4S_s.ogg
229,192,63428,1,0,0:0:0:59:F#3S_Gb3S_s.ogg
448,192,63642,1,0,0:0:0:50:C#4S_Db4S_s.ogg
10,192,63856,1,0,0:0:0:50:F#4S_Gb4S_s.ogg
156,192,63856,1,0,0:0:0:50:A5S_s.ogg
375,192,64071,1,0,0:0:0:50:C#4S_Db4S_s.ogg
83,192,64285,1,0,0:0:0:59:F#3S_Gb3S_s.ogg
302,192,64285,1,0,0:0:0:50:C#6S_Db6S_s.ogg
229,192,64499,1,0,0:0:0:50:C#4S_Db4S_s.ogg
448,192,64714,1,0,0:0:0:50:E4S_s.ogg
10,192,64928,1,0,0:0:0:50:C#4S_Db4S_s.ogg
156,192,64928,1,0,0:0:0:50:A5S_s.ogg
83,192,65142,1,0,0:0:0:59:C#3S_Db3S_s.ogg
375,192,65142,1,0,0:0:0:50:G#5S_Ab5S.ogg
302,192,65356,1,0,0:0:0:50:G#3S_Ab3S_s.ogg
229,192,65571,1,0,0:0:0:50:C#4S_Db4S_s.ogg
448,192,65785,1,0,0:0:0:50:G#3S_Ab3S_s.ogg
156,192,65999,1,0,0:0:0:59:C#3S_Db3S_s.ogg
10,192,66214,1,0,0:0:0:50:G#3S_Ab3S_s.ogg
375,192,66428,1,0,0:0:0:50:C4S_s.ogg
83,192,66642,1,0,0:0:0:50:G#3S_Ab3S_s.ogg
302,192,66856,1,0,0:0:0:59:C#3S_Db3S_s.ogg
229,192,67071,1,0,0:0:0:50:G#3S_Ab3S_s.ogg
448,192,67285,1,0,0:0:0:50:C#4S_Db4S_s.ogg
156,192,67499,1,0,0:0:0:50:G#3S_Ab3S_s.ogg
10,192,67714,1,0,0:0:0:59:C#3S_Db3S_s.ogg
375,192,67928,1,0,0:0:0:50:G#3S_Ab3S_s.ogg
83,192,68142,1,0,0:0:0:50:C#4S_Db4S_s.ogg
302,192,68356,1,0,0:0:0:50:G#3S_Ab3S_s.ogg
229,192,68571,1,0,0:0:0:59:A3S_s.ogg
448,192,68571,1,0,0:0:0:50:C#6S_Db6S.ogg
156,192,68785,1,0,0:0:0:50:E4S_s.ogg
10,192,68999,1,0,0:0:0:50:C#5S_Db5S_s.ogg
375,192,69214,1,0,0:0:0:50:E4S_s.ogg
83,192,69428,1,0,0:0:0:59:A3S_s.ogg
302,192,69642,1,0,0:0:0:50:E4S_s.ogg
229,192,69856,1,0,0:0:0:50:B4S_s.ogg
448,192,70071,1,0,0:0:0:50:E4S_s.ogg
156,192,70285,1,0,0:0:0:59:A3S_s.ogg
10,192,70499,1,0,0:0:0:50:E4S_s.ogg
83,192,70714,1,0,0:0:0:50:A4S_s.ogg
375,192,70714,1,0,0:0:0:50:C#6S_Db6S_s.ogg
302,192,70928,1,0,0:0:0:50:E4S_s.ogg
229,192,71142,1,0,0:0:0:59:A3S_s.ogg
448,192,71142,1,0,0:0:0:50:C#6S_Db6S_s.ogg
156,192,71356,1,0,0:0:0:50:E4S_s.ogg
10,192,71571,1,0,0:0:0:50:G#4S_Ab4S_s.ogg
83,192,71785,1,0,0:0:0:50:E4S_s.ogg
375,192,71785,1,0,0:0:0:50:A5S_s.ogg
302,192,71999,1,0,0:0:0:59:G#3S_Ab3S_s.ogg
448,192,71999,1,0,0:0:0:50:B5S.ogg
229,192,72214,1,0,0:0:0:50:B3S_s.ogg
156,192,72428,1,0,0:0:0:50:F#4S_Gb4S_s.ogg
10,192,72642,1,0,0:0:0:50:B3S_s.ogg
375,192,72856,1,0,0:0:0:59:G#3S_Ab3S_s.ogg
83,192,73071,1,0,0:0:0:50:B3S_s.ogg
302,192,73285,1,0,0:0:0:50:F#4S_Gb4S_s.ogg
448,192,73499,1,0,0:0:0:50:B3S_s.ogg
229,192,73714,1,0,0:0:0:59:G#3S_Ab3S_s.ogg
156,192,73928,1,0,0:0:0:50:B3S_s.ogg
10,192,74142,1,0,0:0:0:50:G#4S_Ab4S_s.ogg
375,192,74356,1,0,0:0:0:50:B3S_s.ogg
83,192,74571,1,0,0:0:0:59:G#3S_Ab3S_s.ogg
302,192,74785,1,0,0:0:0:50:B3S_s.ogg
448,192,74999,1,0,0:0:0:50:G#4S_Ab4S_s.ogg
156,192,75214,1,0,0:0:0:50:B3S_s.ogg
229,192,75214,1,0,0:0:0:50:B5S_s.ogg
10,192,75428,1,0,0:0:0:59:F#3S_Gb3S_s.ogg
375,192,75428,1,0,0:0:0:50:A5S_s.ogg
83,192,75642,1,0,0:0:0:50:C#4S_Db4S_s.ogg
302,192,75642,1,0,0:0:0:50:A5S_s.ogg
448,192,75856,1,0,0:0:0:50:A4S_s.ogg
156,192,76071,1,0,0:0:0:50:C#4S_Db4S_s.ogg
229,192,76071,1,0,0:0:0:50:A5S.ogg
375,192,76285,1,0,0:0:0:59:F#3S_Gb3S_s.ogg
10,192,76499,1,0,0:0:0:50:C#4S_Db4S_s.ogg
302,192,76714,1,0,0:0:0:50:G#4S_Ab4S_s.ogg
83,192,76928,1,0,0:0:0:50:C#4S_Db4S_s.ogg
448,192,77142,1,0,0:0:0:59:F#3S_Gb3S_s.ogg
229,192,77356,1,0,0:0:0:50:C#4S_Db4S_s.ogg
156,192,77571,1,0,0:0:0:50:F#4S_Gb4S_s.ogg
375,192,77571,1,0,0:0:0:50:A5S_s.ogg
10,192,77785,1,0,0:0:0:50:C#4S_Db4S_s.ogg
83,192,77999,1,0,0:0:0:59:F#3S_Gb3S_s.ogg
302,192,77999,1,0,0:0:0:50:A5S_s.ogg
448,192,78214,1,0,0:0:0:50:C#4S_Db4S_s.ogg
229,192,78428,1,0,0:0:0:50:E4S_s.ogg
156,192,78642,1,0,0:0:0:50:C#4S_Db4S_s.ogg
375,192,78642,1,0,0:0:0:50:G#5S_Ab5S_s.ogg
10,192,78856,1,0,0:0:0:75:C#3S_Db3S_s.ogg
302,192,78856,1,0,0:0:0:62:G#5S_Ab5S.ogg
83,192,79071,1,0,0:0:0:62:G#3S_Ab3S_s.ogg
448,192,79285,1,0,0:0:0:62:C#4S_Db4S_s.ogg
229,192,79499,1,0,0:0:0:62:G#3S_Ab3S_s.ogg
156,192,79714,1,0,0:0:0:75:C#3S_Db3S_s.ogg
375,192,79928,1,0,0:0:0:62:G#3S_Ab3S_s.ogg
10,192,80142,1,0,0:0:0:62:C4S_s.ogg
302,192,80356,1,0,0:0:0:62:G#3S_Ab3S_s.ogg
83,192,80571,1,0,0:0:0:75:C#3S_Db3S_s.ogg
448,192,80785,1,0,0:0:0:62:G#3S_Ab3S_s.ogg
229,192,80999,1,0,0:0:0:62:C#4S_Db4S_s.ogg
156,192,81214,1,0,0:0:0:62:G#3S_Ab3S_s.ogg
375,192,81428,1,0,0:0:0:75:C#3S_Db3S_s.ogg
10,192,81642,1,0,0:0:0:62:G#3S_Ab3S_s.ogg
302,192,81856,1,0,0:0:0:62:C#4S_Db4S_s.ogg
83,192,82071,1,0,0:0:0:62:G#3S_Ab3S_s.ogg
156,192,82285,1,0,0:0:0:75:A2S_s.ogg
229,192,82285,1,0,0:0:0:75:E4S_s.ogg
375,192,82285,1,0,0:0:0:75:A4S_s.ogg
448,192,82285,1,0,0:0:0:75:C#5S_Db5S_s.ogg
10,192,82714,1,0,0:0:0:62:A2S_s.ogg
83,192,82714,1,0,0:0:0:62:A3S_s.ogg
302,192,82714,1,0,0:0:0:62:E4S_s.ogg
448,192,82714,1,0,0:0:0:62:A4S_s.ogg
156,192,82928,1,0,0:0:0:62:A2S_s.ogg
375,192,82928,1,0,0:0:0:62:A3S_s.ogg
10,192,83142,1,0,0:0:0:62:A3S_s.ogg
229,192,83142,1,0,0:0:0:62:E4S_s.ogg
302,192,83142,1,0,0:0:0:62:A4S_s.ogg
448,192,83142,1,0,0:0:0:62:C#5S_Db5S_s.ogg
83,192,83571,1,0,0:0:0:62:A2S_s.ogg
156,192,83571,1,0,0:0:0:62:A3S_s.ogg
302,192,83571,1,0,0:0:0:62:E4S_s.ogg
375,192,83571,1,0,0:0:0:62:A4S_s.ogg
10,192,83785,1,0,0:0:0:62:A2S_s.ogg
448,192,83785,1,0,0:0:0:62:A3S_s.ogg
83,192,83999,1,0,0:0:0:62:A3S_s.ogg
156,192,83999,1,0,0:0:0:62:E4S_s.ogg
229,192,83999,1,0,0:0:0:62:A4S_s.ogg
375,192,83999,1,0,0:0:0:62:C#5S_Db5S_s.ogg
10,192,84428,1,0,0:0:0:62:A2S_s.ogg
83,192,84428,1,0,0:0:0:62:A3S_s.ogg
302,192,84428,1,0,0:0:0:62:E4S_s.ogg
448,192,84428,1,0,0:0:0:62:A4S_s.ogg
156,192,84642,1,0,0:0:0:62:A2S_s.ogg
375,192,84642,1,0,0:0:0:62:A3S_s.ogg
10,192,84856,1,0,0:0:0:62:E3S_s.ogg
83,192,84856,1,0,0:0:0:62:A3S_s.ogg
229,192,84856,1,0,0:0:0:62:E4S_s.ogg
302,192,84856,1,0,0:0:0:62:A4S_s.ogg
10,192,85285,1,0,0:0:0:62:A2S_s.ogg
156,192,85285,1,0,0:0:0:62:A3S_s.ogg
375,192,85285,1,0,0:0:0:62:E4S_s.ogg
448,192,85285,1,0,0:0:0:62:A4S_s.ogg
83,192,85499,1,0,0:0:0:62:A2S_s.ogg
229,192,85499,1,0,0:0:0:62:A3S_s.ogg
302,192,85499,1,0,0:0:0:62:E4S_s.ogg
375,192,85499,1,0,0:0:0:62:A4S_s.ogg
10,192,85714,1,0,0:0:0:75:G#3S_Ab3S_s.ogg
156,192,85714,1,0,0:0:0:75:G#4S_Ab4S_s.ogg
302,192,85714,1,0,0:0:0:75:B4S_s.ogg
448,192,85714,1,0,0:0:0:75:D#5S_Eb5S_s.ogg
83,192,86142,1,0,0:0:0:62:G#2S_Ab2S_s.ogg
156,192,86142,1,0,0:0:0:62:G#3S_Ab3S_s.ogg
229,192,86142,1,0,0:0:0:62:G#4S_Ab4S_s.ogg
375,192,86142,1,0,0:0:0:62:B4S_s.ogg
10,192,86356,1,0,0:0:0:62:G#2S_Ab2S_s.ogg
302,192,86356,1,0,0:0:0:62:G#3S_Ab3S_s.ogg
156,192,86571,1,0,0:0:0:62:G#3S_Ab3S_s.ogg
229,192,86571,1,0,0:0:0:62:G#4S_Ab4S_s.ogg
375,192,86571,1,0,0:0:0:62:B4S_s.ogg
448,192,86571,1,0,0:0:0:62:D#5S_Eb5S_s.ogg
10,192,86999,1,0,0:0:0:62:G#2S_Ab2S_s.ogg
83,192,86999,1,0,0:0:0:62:G#3S_Ab3S_s.ogg
302,192,86999,1,0,0:0:0:62:G#4S_Ab4S_s.ogg
448,192,86999,1,0,0:0:0:62:B4S_s.ogg
156,192,87213,1,0,0:0:0:62:G#2S_Ab2S_s.ogg
229,192,87213,1,0,0:0:0:62:G#3S_Ab3S_s.ogg
10,192,87428,1,0,0:0:0:62:G#3S_Ab3S_s.ogg
83,192,87428,1,0,0:0:0:62:D#4S_Eb4S_s.ogg
375,192,87428,1,0,0:0:0:62:G#4S_Ab4S_s.ogg
448,192,87428,1,0,0:0:0:62:B4S_s.ogg
156,192,87856,1,0,0:0:0:62:G#2S_Ab2S_s.ogg
229,192,87856,1,0,0:0:0:62:G#3S_Ab3S_s.ogg
302,192,87856,1,0,0:0:0:62:G#4S_Ab4S_s.ogg
448,192,87856,1,0,0:0:0:62:B4S_s.ogg
83,192,88071,1,0,0:0:0:62:G#2S_Ab2S_s.ogg
375,192,88071,1,0,0:0:0:62:G#3S_Ab3S_s.ogg
10,192,88285,1,0,0:0:0:62:G#3S_Ab3S_s.ogg
156,192,88285,1,0,0:0:0:62:D#4S_Eb4S_s.ogg
229,192,88285,1,0,0:0:0:62:G#4S_Ab4S_s.ogg
448,192,88285,1,0,0:0:0:62:B4S_s.ogg
83,192,88713,1,0,0:0:0:62:G#2S_Ab2S_s.ogg
156,192,88713,1,0,0:0:0:62:G#3S_Ab3S_s.ogg
302,192,88713,1,0,0:0:0:62:G#4S_Ab4S_s.ogg
375,192,88713,1,0,0:0:0:62:B4S_s.ogg
10,192,88928,1,0,0:0:0:62:G#2S_Ab2S_s.ogg
229,192,88928,1,0,0:0:0:62:G#3S_Ab3S_s.ogg
375,192,88928,1,0,0:0:0:62:G#4S_Ab4S_s.ogg
448,192,88928,1,0,0:0:0:62:B4S_s.ogg
83,192,89142,1,0,0:0:0:75:F#3S_Gb3S_s.ogg
156,192,89142,1,0,0:0:0:75:F#4S_Gb4S_s.ogg
302,192,89142,1,0,0:0:0:75:A4S_s.ogg
375,192,89142,1,0,0:0:0:75:D5S_s.ogg
10,192,89571,1,0,0:0:0:62:F#2S_Gb2S_s.ogg
83,192,89571,1,0,0:0:0:62:F#3S_Gb3S_s.ogg
229,192,89571,1,0,0:0:0:62:F#4S_Gb4S_s.ogg
448,192,89571,1,0,0:0:0:62:A4S_s.ogg
156,192,89785,1,0,0:0:0:62:F#2S_Gb2S_s.ogg
375,192,89785,1,0,0:0:0:62:F#3S_Gb3S_s.ogg
10,192,89999,1,0,0:0:0:62:F#3S_Gb3S_s.ogg
83,192,89999,1,0,0:0:0:62:F#4S_Gb4S_s.ogg
302,192,89999,1,0,0:0:0:62:A4S_s.ogg
448,192,89999,1,0,0:0:0:62:D5S_s.ogg
10,192,90428,1,0,0:0:0:62:F#2S_Gb2S_s.ogg
156,192,90428,1,0,0:0:0:62:F#3S_Gb3S_s.ogg
229,192,90428,1,0,0:0:0:62:F#4S_Gb4S_s.ogg
375,192,90428,1,0,0:0:0:62:A4S_s.ogg
83,192,90642,1,0,0:0:0:62:F#2S_Gb2S_s.ogg
302,192,90642,1,0,0:0:0:62:F#3S_Gb3S_s.ogg
10,192,90856,1,0,0:0:0:62:F#3S_Gb3S_s.ogg
156,192,90856,1,0,0:0:0:62:F#4S_Gb4S_s.ogg
375,192,90856,1,0,0:0:0:62:A4S_s.ogg
448,192,90856,1,0,0:0:0:62:D5S_s.ogg
83,192,91285,1,0,0:0:0:62:F#2S_Gb2S_s.ogg
229,192,91285,1,0,0:0:0:62:F#3S_Gb3S_s.ogg
302,192,91285,1,0,0:0:0:62:F#4S_Gb4S_s.ogg
448,192,91285,1,0,0:0:0:62:A4S_s.ogg
10,192,91499,1,0,0:0:0:62:F#2S_Gb2S_s.ogg
375,192,91499,1,0,0:0:0:62:F#3S_Gb3S_s.ogg
83,192,91713,1,0,0:0:0:62:F#3S_Gb3S_s.ogg
156,192,91713,1,0,0:0:0:62:F#4S_Gb4S_s.ogg
302,192,91713,1,0,0:0:0:62:A4S_s.ogg
448,192,91713,1,0,0:0:0:62:D5S_s.ogg
10,192,92142,1,0,0:0:0:62:F#2S_Gb2S_s.ogg
83,192,92142,1,0,0:0:0:62:F#3S_Gb3S_s.ogg
229,192,92142,1,0,0:0:0:62:F#4S_Gb4S_s.ogg
375,192,92142,1,0,0:0:0:62:A4S_s.ogg
10,192,92356,1,0,0:0:0:62:F#2S_Gb2S_s.ogg
156,192,92356,1,0,0:0:0:62:F#3S_Gb3S_s.ogg
302,192,92356,1,0,0:0:0:62:F#4S_Gb4S_s.ogg
448,192,92356,1,0,0:0:0:62:A4S_s.ogg
83,192,92571,1,0,0:0:0:75:C#3S_Db3S_s.ogg
229,192,92571,1,0,0:0:0:75:E4S_s.ogg
375,192,92571,1,0,0:0:0:75:G#4S_Ab4S_s.ogg
448,192,92571,1,0,0:0:0:75:C#5S_Db5S_s.ogg
10,192,92999,1,0,0:0:0:62:C#2S_Db2S_s.ogg
156,192,92999,1,0,0:0:0:62:C#3S_Db3S_s.ogg
302,192,92999,1,0,0:0:0:62:E4S_s.ogg
448,192,92999,1,0,0:0:0:62:G#4S_Ab4S_s.ogg
83,192,93213,1,0,0:0:0:62:C#2S_Db2S_s.ogg
229,192,93213,1,0,0:0:0:62:C#3S_Db3S_s.ogg
10,192,93428,1,0,0:0:0:62:C#3S_Db3S_s.ogg
156,192,93428,1,0,0:0:0:62:E4S_s.ogg
302,192,93428,1,0,0:0:0:62:G#4S_Ab4S_s.ogg
375,192,93428,1,0,0:0:0:62:C#5S_Db5S_s.ogg
83,192,93856,1,0,0:0:0:62:C#2S_Db2S_s.ogg
229,192,93856,1,0,0:0:0:62:C#3S_Db3S_s.ogg
375,192,93856,1,0,0:0:0:62:E4S_s.ogg
448,192,93856,1,0,0:0:0:62:G#4S_Ab4S_s.ogg
10,192,94071,1,0,0:0:0:62:C#2S_Db2S_s.ogg
302,192,94071,1,0,0:0:0:62:C#3S_Db3S_s.ogg
83,192,94285,1,0,0:0:0:62:C#3S_Db3S_s.ogg
156,192,94285,1,0,0:0:0:62:E4S.ogg
375,192,94285,1,0,0:0:0:62:G#4S_Ab4S.ogg
448,192,94285,1,0,0:0:0:62:C#5S_Db5S.ogg
10,192,94713,1,0,0:0:0:62:C#2S_Db2S_s.ogg
229,192,94713,1,0,0:0:0:62:C#3S_Db3S_s.ogg
83,192,94928,1,0,0:0:0:62:C#2S_Db2S_s.ogg
302,192,94928,1,0,0:0:0:62:C#3S_Db3S_s.ogg
156,192,95142,1,0,0:0:0:62:C#2S_Db2S_s.ogg
375,192,95142,1,0,0:0:0:62:G#2S_Ab2S_s.ogg
448,192,95142,1,0,0:0:0:62:C#3S_Db3S_s.ogg
10,192,95571,1,0,0:0:0:62:C#2S_Db2S_s.ogg
83,192,95571,1,0,0:0:0:62:C#3S_Db3S_s.ogg
229,192,95571,1,0,0:0:0:62:C#4S_Db4S_s.ogg
302,192,95571,1,0,0:0:0:62:C#5S_Db5S_s.ogg
156,192,95785,1,0,0:0:0:62:C#2S_Db2S_s.ogg
375,192,95785,1,0,0:0:0:62:C#3S_Db3S_s.ogg
10,192,95999,1,0,0:0:0:75:null_s.ogg
83,192,95999,1,0,0:0:0:75:A2S_s.ogg
302,192,95999,1,0,0:0:0:75:C#4S_Db4S_s.ogg
448,192,95999,1,0,0:0:0:75:C#5S_Db5S_s.ogg
156,192,96428,1,0,0:0:0:62:A2S_s.ogg
229,192,96428,1,0,0:0:0:62:A3S_s.ogg
10,192,96642,1,0,0:0:0:62:A2S_s.ogg
83,192,96642,1,0,0:0:0:62:A3S_s.ogg
302,192,96642,1,0,0:0:0:62:C#4S_Db4S_s.ogg
375,192,96642,1,0,0:0:0:62:C#5S_Db5S_s.ogg
10,192,96856,1,0,0:0:0:62:E3S_s.ogg
156,192,96856,1,0,0:0:0:62:A3S_s.ogg
229,192,96856,1,0,0:0:0:62:C#4S_Db4S_s.ogg
448,192,96856,1,0,0:0:0:62:C#5S_Db5S_s.ogg
83,192,97285,1,0,0:0:0:62:A2S_s.ogg
375,192,97285,1,0,0:0:0:62:A3S_s.ogg
156,192,97499,1,0,0:0:0:62:A2S_s.ogg
302,192,97499,1,0,0:0:0:62:A3S_s.ogg
10,192,97713,1,0,0:0:0:62:A2S_s.ogg
229,192,97713,1,0,0:0:0:62:E3S_s.ogg
448,192,97713,1,0,0:0:0:62:A3S_s.ogg
83,192,98142,1,0,0:0:0:62:A2S_s.ogg
156,192,98142,1,0,0:0:0:62:A3S_s.ogg
302,192,98142,1,0,0:0:0:62:C#4S_Db4S_s.ogg
375,192,98142,1,0,0:0:0:62:C#5S_Db5S_s.ogg
10,192,98356,1,0,0:0:0:62:A2S_s.ogg
448,192,98356,1,0,0:0:0:62:A3S_s.ogg
156,192,98571,1,0,0:0:0:62:E3S_s.ogg
229,192,98571,1,0,0:0:0:62:A3S_s.ogg
302,192,98571,1,0,0:0:0:62:D#4S_Eb4S_s.ogg
375,192,98571,1,0,0:0:0:62:D#5S_Eb5S_s.ogg
83,192,98999,1,0,0:0:0:62:A2S_s.ogg
448,192,98999,1,0,0:0:0:62:A3S_s.ogg
10,192,99213,1,0,0:0:0:62:A2S_s.ogg
156,192,99213,1,0,0:0:0:62:A3S_s.ogg
229,192,99213,1,0,0:0:0:62:E4S_s.ogg
302,192,99213,1,0,0:0:0:62:E5S_s.ogg
83,192,99428,1,0,0:0:0:75:G#2S_Ab2S_s.ogg
156,192,99428,1,0,0:0:0:75:G#3S_Ab3S_s.ogg
375,192,99428,1,0,0:0:0:75:D#4S_Eb4S_s.ogg
448,192,99428,1,0,0:0:0:75:D#5S_Eb5S_s.ogg
10,192,99856,1,0,0:0:0:62:G#2S_Ab2S_s.ogg
302,192,99856,1,0,0:0:0:62:G#3S_Ab3S_s.ogg
229,192,100071,1,0,0:0:0:62:G#2S_Ab2S_s.ogg
448,192,100071,1,0,0:0:0:62:G#3S_Ab3S_s.ogg
83,192,100285,1,0,0:0:0:62:D#3S_Eb3S_s.ogg
156,192,100285,1,0,0:0:0:62:G#3S_Ab3S_s.ogg
302,192,100285,1,0,0:0:0:62:B3S_s.ogg
375,192,100285,1,0,0:0:0:62:B4S_s.ogg
10,192,100713,1,0,0:0:0:62:G#2S_Ab2S_s.ogg
448,192,100713,1,0,0:0:0:62:G#3S_Ab3S_s.ogg
229,192,100928,1,0,0:0:0:62:G#2S_Ab2S_s.ogg
302,192,100928,1,0,0:0:0:62:G#3S_Ab3S_s.ogg
83,192,101142,1,0,0:0:0:62:G#2S_Ab2S_s.ogg
156,192,101142,1,0,0:0:0:62:D#3S_Eb3S_s.ogg
375,192,101142,1,0,0:0:0:62:G#3S_Ab3S_s.ogg
10,192,101571,1,0,0:0:0:62:G#2S_Ab2S_s.ogg
448,192,101571,1,0,0:0:0:62:G#3S_Ab3S_s.ogg
229,192,101785,1,0,0:0:0:62:G#2S_Ab2S_s.ogg
302,192,101785,1,0,0:0:0:62:G#3S_Ab3S_s.ogg
83,192,101999,1,0,0:0:0:62:G#2S_Ab2S_s.ogg
156,192,101999,1,0,0:0:0:62:D#3S_Eb3S_s.ogg
375,192,101999,1,0,0:0:0:62:G#3S_Ab3S_s.ogg
10,192,102428,1,0,0:0:0:62:G#2S_Ab2S_s.ogg
229,192,102428,1,0,0:0:0:62:G#3S_Ab3S_s.ogg
302,192,102428,1,0,0:0:0:62:F#4S_Gb4S_s.ogg
448,192,102428,1,0,0:0:0:62:F#5S_Gb5S_s.ogg
83,192,102642,1,0,0:0:0:62:G#2S_Ab2S_s.ogg
375,192,102642,1,0,0:0:0:62:G#3S_Ab3S_s.ogg
10,192,102856,1,0,0:0:0:75:C#3S_Db3S_s.ogg
156,192,102856,1,0,0:0:0:75:F#3S_Gb3S_s.ogg
302,192,102856,1,0,0:0:0:75:F#4S_Gb4S_s.ogg
448,192,102856,1,0,0:0:0:75:F#5S_Gb5S_s.ogg
229,192,103285,1,0,0:0:0:62:F#2S_Gb2S_s.ogg
375,192,103285,1,0,0:0:0:62:F#3S_Gb3S_s.ogg
10,192,103499,1,0,0:0:0:62:F#2S_Gb2S_s.ogg
83,192,103499,1,0,0:0:0:62:F#3S_Gb3S_s.ogg
302,192,103499,1,0,0:0:0:62:F#4S_Gb4S_s.ogg
448,192,103499,1,0,0:0:0:62:F#5S_Gb5S_s.ogg
10,192,103713,1,0,0:0:0:62:C#3S_Db3S_s.ogg
156,192,103713,1,0,0:0:0:62:F#3S_Gb3S_s.ogg
229,192,103713,1,0,0:0:0:62:F#4S_Gb4S_s.ogg
375,192,103713,1,0,0:0:0:62:F#5S_Gb5S_s.ogg
83,192,104142,1,0,0:0:0:62:F#2S_Gb2S_s.ogg
448,192,104142,1,0,0:0:0:62:F#3S_Gb3S_s.ogg
10,192,104356,1,0,0:0:0:62:F#2S_Gb2S_s.ogg
302,192,104356,1,0,0:0:0:62:F#3S_Gb3S_s.ogg
156,192,104571,1,0,0:0:0:62:F#2S_Gb2S_s.ogg
229,192,104571,1,0,0:0:0:62:C#3S_Db3S_s.ogg
375,192,104571,1,0,0:0:0:62:F#3S_Gb3S_s.ogg
10,192,104999,1,0,0:0:0:62:F#2S_Gb2S_s.ogg
83,192,104999,1,0,0:0:0:62:F#3S_Gb3S_s.ogg
302,192,104999,1,0,0:0:0:62:E4S_s.ogg
448,192,104999,1,0,0:0:0:62:E5S_s.ogg
229,192,105213,1,0,0:0:0:62:F#2S_Gb2S_s.ogg
375,192,105213,1,0,0:0:0:62:F#3S_Gb3S_s.ogg
10,192,105428,1,0,0:0:0:62:C#3S_Db3S_s.ogg
156,192,105428,1,0,0:0:0:62:F#3S_Gb3S_s.ogg
302,192,105428,1,0,0:0:0:62:E4S_s.ogg
448,192,105428,1,0,0:0:0:62:E5S_s.ogg
83,192,105856,1,0,0:0:0:62:F#2S_Gb2S_s.ogg
375,192,105856,1,0,0:0:0:62:F#3S_Gb3S_s.ogg
156,192,106071,1,0,0:0:0:62:F#2S_Gb2S_s.ogg
229,192,106071,1,0,0:0:0:62:F#3S_Gb3S_s.ogg
302,192,106071,1,0,0:0:0:62:D#4S_Eb4S_s.ogg
448,192,106071,1,0,0:0:0:62:D#5S_Eb5S_s.ogg
10,192,106285,1,0,0:0:0:75:G#2S_Ab2S_s.ogg
83,192,106285,1,0,0:0:0:75:C#3S_Db3S_s.ogg
302,192,106285,1,0,0:0:0:75:E4S_s.ogg
375,192,106285,1,0,0:0:0:75:E5S_s.ogg
156,192,106713,1,0,0:0:0:62:C#2S_Db2S_s.ogg
229,192,106713,1,0,0:0:0:62:C#3S_Db3S_s.ogg
83,192,106928,1,0,0:0:0:62:C#2S_Db2S_s.ogg
448,192,106928,1,0,0:0:0:62:C#3S_Db3S_s.ogg
10,192,107142,1,0,0:0:0:62:G#2S_Ab2S_s.ogg
156,192,107142,1,0,0:0:0:62:C#3S_Db3S_s.ogg
302,192,107142,1,0,0:0:0:62:G#3S_Ab3S_s.ogg
375,192,107142,1,0,0:0:0:62:C#4S_Db4S_s.ogg
229,192,107571,1,0,0:0:0:62:C#2S_Db2S_s.ogg
448,192,107571,1,0,0:0:0:62:C#3S_Db3S_s.ogg
83,192,107785,1,0,0:0:0:62:C#2S_Db2S_s.ogg
375,192,107785,1,0,0:0:0:62:C#3S_Db3S_s.ogg
10,192,107999,1,0,0:0:0:62:G#2S_Ab2S_s.ogg
156,192,107999,1,0,0:0:0:62:C#3S_Db3S_s.ogg
302,192,107999,1,0,0:0:0:62:G#3S_Ab3S_s.ogg
448,192,107999,1,0,0:0:0:62:C#4S_Db4S_s.ogg
229,192,108428,1,0,0:0:0:62:C#2S_Db2S_s.ogg
375,192,108428,1,0,0:0:0:62:C#3S_Db3S_s.ogg
83,192,108642,1,0,0:0:0:62:C#2S_Db2S_s.ogg
302,192,108642,1,0,0:0:0:62:C#3S_Db3S_s.ogg
10,192,108856,1,0,0:0:0:62:C#2S_Db2S_s.ogg
156,192,108856,1,0,0:0:0:62:G#2S_Ab2S_s.ogg
448,192,108856,1,0,0:0:0:62:C#3S_Db3S_s.ogg
83,192,109285,1,0,0:0:0:62:C#2S_Db2S_s.ogg
229,192,109285,1,0,0:0:0:62:C#3S_Db3S_s.ogg
302,192,109285,1,0,0:0:0:75:C#4S_Db4S_s.ogg
375,192,109285,1,0,0:0:0:75:C#5S_Db5S_s.ogg
156,192,109499,1,0,0:0:0:62:C#2S_Db2S_s.ogg
448,192,109499,1,0,0:0:0:62:C#3S_Db3S_s.ogg
10,192,109713,1,0,0:0:0:75:null_s.ogg
83,192,109713,1,0,0:0:0:75:A2S_s.ogg
229,192,109713,1,0,0:0:0:75:C#4S_Db4S_s.ogg
375,192,109713,1,0,0:0:0:75:C#5S_Db5S_s.ogg
156,192,110142,1,0,0:0:0:62:A2S_s.ogg
302,192,110142,1,0,0:0:0:62:A3S_s.ogg
10,192,110356,1,0,0:0:0:62:A2S_s.ogg
229,192,110356,1,0,0:0:0:62:A3S_s.ogg
375,192,110356,1,0,0:0:0:62:C#4S_Db4S_s.ogg
448,192,110356,1,0,0:0:0:62:C#5S_Db5S_s.ogg
83,192,110571,1,0,0:0:0:62:E3S_s.ogg
156,192,110571,1,0,0:0:0:62:A3S_s.ogg
302,192,110571,1,0,0:0:0:62:C#4S_Db4S_s.ogg
448,192,110571,1,0,0:0:0:62:C#5S_Db5S_s.ogg
10,192,110999,1,0,0:0:0:62:A2S_s.ogg
229,192,110999,1,0,0:0:0:62:A3S_s.ogg
156,192,111213,1,0,0:0:0:62:A2S_s.ogg
375,192,111213,1,0,0:0:0:62:A3S_s.ogg
83,192,111428,1,0,0:0:0:62:A2S_s.ogg
302,192,111428,1,0,0:0:0:62:E3S_s.ogg
448,192,111428,1,0,0:0:0:62:A3S_s.ogg
10,192,111856,1,0,0:0:0:62:A2S_s.ogg
156,192,111856,1,0,0:0:0:62:A3S_s.ogg
229,192,111856,1,0,0:0:0:62:C#4S_Db4S_s.ogg
375,192,111856,1,0,0:0:0:62:C#5S_Db5S_s.ogg
83,192,112071,1,0,0:0:0:62:A2S_s.ogg
302,192,112071,1,0,0:0:0:62:A3S_s.ogg
156,192,112285,1,0,0:0:0:62:E3S_s.ogg
229,192,112285,1,0,0:0:0:62:A3S_s.ogg
375,192,112285,1,0,0:0:0:62:D#4S_Eb4S_s.ogg
448,192,112285,1,0,0:0:0:62:D#5S_Eb5S_s.ogg
10,192,112713,1,0,0:0:0:62:A2S_s.ogg
302,192,112713,1,0,0:0:0:62:A3S_s.ogg
83,192,112928,1,0,0:0:0:62:A2S_s.ogg
156,192,112928,1,0,0:0:0:62:A3S_s.ogg
375,192,112928,1,0,0:0:0:62:E4S_s.ogg
448,192,112928,1,0,0:0:0:62:E5S_s.ogg
10,192,113142,1,0,0:0:0:75:G#2S_Ab2S_s.ogg
156,192,113142,1,0,0:0:0:75:G#3S_Ab3S_s.ogg
229,192,113142,1,0,0:0:0:75:D#4S_Eb4S_s.ogg
302,192,113142,1,0,0:0:0:75:D#5S_Eb5S_s.ogg
83,192,113571,1,0,0:0:0:62:G#2S_Ab2S_s.ogg
375,192,113571,1,0,0:0:0:62:G#3S_Ab3S_s.ogg
10,192,113785,1,0,0:0:0:62:G#2S_Ab2S_s.ogg
448,192,113785,1,0,0:0:0:62:G#3S_Ab3S_s.ogg
156,192,113999,1,0,0:0:0:62:D#3S_Eb3S_s.ogg
229,192,113999,1,0,0:0:0:62:G#3S_Ab3S_s.ogg
302,192,113999,1,0,0:0:0:62:B3S_s.ogg
375,192,113999,1,0,0:0:0:62:B4S_s.ogg
83,192,114428,1,0,0:0:0:62:G#2S_Ab2S_s.ogg
448,192,114428,1,0,0:0:0:62:G#3S_Ab3S_s.ogg
10,192,114642,1,0,0:0:0:62:G#2S_Ab2S_s.ogg
302,192,114642,1,0,0:0:0:62:G#3S_Ab3S_s.ogg
156,192,114856,1,0,0:0:0:62:G#2S_Ab2S_s.ogg
229,192,114856,1,0,0:0:0:62:D#3S_Eb3S_s.ogg
375,192,114856,1,0,0:0:0:62:G#3S_Ab3S_s.ogg
83,192,115285,1,0,0:0:0:62:G#2S_Ab2S_s.ogg
448,192,115285,1,0,0:0:0:62:G#3S_Ab3S_s.ogg
10,192,115499,1,0,0:0:0:62:G#2S_Ab2S_s.ogg
302,192,115499,1,0,0:0:0:62:G#3S_Ab3S_s.ogg
156,192,115713,1,0,0:0:0:62:G#2S_Ab2S_s.ogg
229,192,115713,1,0,0:0:0:62:D#3S_Eb3S_s.ogg
375,192,115713,1,0,0:0:0:62:G#3S_Ab3S_s.ogg
10,192,116142,1,0,0:0:0:62:G#2S_Ab2S_s.ogg
83,192,116142,1,0,0:0:0:62:G#3S_Ab3S_s.ogg
302,192,116142,1,0,0:0:0:62:F#4S_Gb4S_s.ogg
448,192,116142,1,0,0:0:0:62:F#5S_Gb5S_s.ogg
156,192,116356,1,0,0:0:0:62:G#2S_Ab2S_s.ogg
375,192,116356,1,0,0:0:0:62:G#3S_Ab3S_s.ogg
10,192,116571,1,0,0:0:0:75:C#3S_Db3S_s.ogg
83,192,116571,1,0,0:0:0:75:F#3S_Gb3S_s.ogg
229,192,116571,1,0,0:0:0:75:F#4S_Gb4S_s.ogg
448,192,116571,1,0,0:0:0:75:F#5S_Gb5S_s.ogg
156,192,116999,1,0,0:0:0:62:F#2S_Gb2S_s.ogg
302,192,116999,1,0,0:0:0:62:F#3S_Gb3S_s.ogg
10,192,117213,1,0,0:0:0:62:F#2S_Gb2S_s.ogg
229,192,117213,1,0,0:0:0:62:F#3S_Gb3S_s.ogg
375,192,117213,1,0,0:0:0:62:F#4S_Gb4S_s.ogg
448,192,117213,1,0,0:0:0:62:F#5S_Gb5S_s.ogg
83,192,117428,1,0,0:0:0:62:C#3S_Db3S_s.ogg
156,192,117428,1,0,0:0:0:62:F#3S_Gb3S_s.ogg
302,192,117428,1,0,0:0:0:62:F#4S_Gb4S_s.ogg
375,192,117428,1,0,0:0:0:62:F#5S_Gb5S_s.ogg
10,192,117856,1,0,0:0:0:62:F#2S_Gb2S_s.ogg
229,192,117856,1,0,0:0:0:62:F#3S_Gb3S_s.ogg
156,192,118071,1,0,0:0:0:62:F#2S_Gb2S_s.ogg
448,192,118071,1,0,0:0:0:62:F#3S_Gb3S_s.ogg
83,192,118285,1,0,0:0:0:62:F#2S_Gb2S_s.ogg
302,192,118285,1,0,0:0:0:62:C#3S_Db3S_s.ogg
375,192,118285,1,0,0:0:0:62:F#3S_Gb3S_s.ogg
10,192,118713,1,0,0:0:0:62:F#2S_Gb2S_s.ogg
156,192,118713,1,0,0:0:0:62:F#3S_Gb3S_s.ogg
229,192,118713,1,0,0:0:0:62:E4S_s.ogg
448,192,118713,1,0,0:0:0:62:E5S_s.ogg
83,192,118928,1,0,0:0:0:62:F#2S_Gb2S_s.ogg
302,192,118928,1,0,0:0:0:62:F#3S_Gb3S_s.ogg
10,192,119142,1,0,0:0:0:62:C#3S_Db3S_s.ogg
229,192,119142,1,0,0:0:0:62:F#3S_Gb3S_s.ogg
375,192,119142,1,0,0:0:0:62:E4S_s.ogg
448,192,119142,1,0,0:0:0:62:E5S_s.ogg
156,192,119571,1,0,0:0:0:62:F#2S_Gb2S_s.ogg
302,192,119571,1,0,0:0:0:62:F#3S_Gb3S_s.ogg
10,192,119785,1,0,0:0:0:62:F#2S_Gb2S_s.ogg
83,192,119785,1,0,0:0:0:62:F#3S_Gb3S_s.ogg
229,192,119785,1,0,0:0:0:62:D#4S_Eb4S_s.ogg
375,192,119785,1,0,0:0:0:62:D#5S_Eb5S_s.ogg
83,192,119999,1,0,0:0:0:75:G#2S_Ab2S_s.ogg
156,192,119999,1,0,0:0:0:75:C#3S_Db3S_s.ogg
302,192,119999,1,0,0:0:0:75:E4S_s.ogg
448,192,119999,1,0,0:0:0:75:E5S_s.ogg
10,192,120428,1,0,0:0:0:62:C#2S_Db2S_s.ogg
375,192,120428,1,0,0:0:0:62:C#3S_Db3S_s.ogg
156,192,120642,1,0,0:0:0:62:C#2S_Db2S_s.ogg
229,192,120642,1,0,0:0:0:62:C#3S_Db3S_s.ogg
10,192,120856,1,0,0:0:0:61:G#2S_Ab2S_s.ogg
83,192,120856,1,0,0:0:0:61:C#3S_Db3S_s.ogg
302,192,120856,1,0,0:0:0:61:G#3S_Ab3S_s.ogg
448,192,120856,1,0,0:0:0:61:C#4S_Db4S_s.ogg
156,192,121285,1,0,0:0:0:60:C#2S_Db2S_s.ogg
375,192,121285,1,0,0:0:0:60:C#3S_Db3S_s.ogg
229,192,121499,1,0,0:0:0:60:C#2S_Db2S_s.ogg
448,192,121499,1,0,0:0:0:60:C#3S_Db3S_s.ogg
10,192,121713,1,0,0:0:0:59:G#2S_Ab2S_s.ogg
83,192,121713,1,0,0:0:0:59:C#3S_Db3S_s.ogg
302,192,121713,1,0,0:0:0:59:G#3S_Ab3S_s.ogg
375,192,121713,1,0,0:0:0:59:C#4S_Db4S_s.ogg
156,192,122142,1,0,0:0:0:59:C#2S_Db2S_s.ogg
229,192,122142,1,0,0:0:0:59:C#3S_Db3S_s.ogg
83,192,122356,1,0,0:0:0:59:C#2S_Db2S_s.ogg
448,192,122356,1,0,0:0:0:59:C#3S_Db3S_s.ogg
10,192,122571,1,0,0:0:0:58:G#2S_Ab2S_s.ogg
156,192,122571,1,0,0:0:0:58:C#3S_Db3S_s.ogg
302,192,122571,1,0,0:0:0:58:G#3S_Ab3S_s.ogg
375,192,122571,1,0,0:0:0:58:C#4S_Db4S_s.ogg
83,192,122999,1,0,0:0:0:57:C#2S_Db2S_s.ogg
229,192,122999,1,0,0:0:0:57:C#3S_Db3S_s.ogg
375,192,122999,1,0,0:0:0:57:G#3S_Ab3S_s.ogg
448,192,122999,1,0,0:0:0:57:C#4S_Db4S_s.ogg
10,192,123213,1,0,0:0:0:57:C#2S_Db2S_s.ogg
302,192,123213,1,0,0:0:0:57:C#3S_Db3S_s.ogg
83,192,123428,1,0,0:0:0:56:E2S_s.ogg
156,192,123428,1,0,0:0:0:56:E3S_s.ogg
375,192,123428,1,0,0:0:0:56:B3S_s.ogg
448,192,123428,1,0,0:0:0:56:E4S_s.ogg
229,192,123856,1,0,0:0:0:55:E2S_s.ogg
302,192,123856,1,0,0:0:0:55:E3S_s.ogg
10,192,124071,1,0,0:0:0:55:E2S_s.ogg
448,192,124071,1,0,0:0:0:55:E3S_s.ogg
83,192,124285,1,0,0:0:0:55:E2S_s.ogg
156,192,124285,1,0,0:0:0:55:E3S_s.ogg
302,192,124285,1,0,0:0:0:55:B3S_s.ogg
375,192,124285,1,0,0:0:0:55:E4S_s.ogg
10,192,124713,1,0,0:0:0:54:E2S_s.ogg
229,192,124713,1,0,0:0:0:54:E3S_s.ogg
156,192,124928,1,0,0:0:0:54:E2S_s.ogg
448,192,124928,1,0,0:0:0:54:E3S_s.ogg
83,192,125142,1,0,0:0:0:53:E2S_s.ogg
229,192,125142,1,0,0:0:0:53:E3S_s.ogg
302,192,125142,1,0,0:0:0:53:B3S_s.ogg
375,192,125142,1,0,0:0:0:53:E4S_s.ogg
10,192,125571,1,0,0:0:0:52:E2S_s.ogg
448,192,125571,1,0,0:0:0:52:E3S_s.ogg
156,192,125785,1,0,0:0:0:52:E2S_s.ogg
302,192,125785,1,0,0:0:0:52:E3S_s.ogg
10,192,125999,1,0,0:0:0:51:E2S_s.ogg
83,192,125999,1,0,0:0:0:51:E3S_s.ogg
229,192,125999,1,0,0:0:0:51:B3S_s.ogg
375,192,125999,1,0,0:0:0:51:E4S_s.ogg
156,192,126428,1,0,0:0:0:51:E2S_s.ogg
448,192,126428,1,0,0:0:0:51:E3S_s.ogg
10,192,126642,1,0,0:0:0:51:E2S_s.ogg
302,192,126642,1,0,0:0:0:51:E3S_s.ogg
229,192,126856,1,0,0:0:0:59:A3S_s.ogg
375,192,126856,1,0,0:0:0:50:C#6S_Db6S.ogg
83,192,127071,1,0,0:0:0:50:E4S_s.ogg
448,192,127285,1,0,0:0:0:50:C#5S_Db5S_s.ogg
156,192,127499,1,0,0:0:0:50:E4S_s.ogg
302,192,127713,1,0,0:0:0:59:A3S_s.ogg
10,192,127928,1,0,0:0:0:50:E4S_s.ogg
375,192,128142,1,0,0:0:0:50:B4S_s.ogg
229,192,128356,1,0,0:0:0:50:E4S_s.ogg
83,192,128571,1,0,0:0:0:59:A3S_s.ogg
448,192,128785,1,0,0:0:0:50:E4S_s.ogg
156,192,128999,1,0,0:0:0:50:A4S_s.ogg
302,192,129213,1,0,0:0:0:50:E4S_s.ogg
10,192,129428,1,0,0:0:0:59:A3S_s.ogg
375,192,129428,1,0,0:0:0:50:B5S_s.ogg
229,192,129642,1,0,0:0:0:50:E4S_s.ogg
83,192,129856,1,0,0:0:0:50:G#4S_Ab4S_s.ogg
156,192,130070,1,0,0:0:0:50:E4S_s.ogg
448,192,130070,1,0,0:0:0:50:A5S_s.ogg
10,192,130285,1,0,0:0:0:59:G#3S_Ab3S_s.ogg
302,192,130285,1,0,0:0:0:50:B5S.ogg
375,192,130499,1,0,0:0:0:50:B3S_s.ogg
229,192,130713,1,0,0:0:0:50:F#4S_Gb4S_s.ogg
83,192,130928,1,0,0:0:0:50:B3S_s.ogg
448,192,131142,1,0,0:0:0:59:G#3S_Ab3S_s.ogg
156,192,131356,1,0,0:0:0:50:B3S_s.ogg
302,192,131570,1,0,0:0:0:50:F#4S_Gb4S_s.ogg
10,192,131785,1,0,0:0:0:50:B3S_s.ogg
375,192,131999,1,0,0:0:0:59:G#3S_Ab3S_s.ogg
229,192,132213,1,0,0:0:0:50:B3S_s.ogg
83,192,132428,1,0,0:0:0:50:G#4S_Ab4S_s.ogg
448,192,132642,1,0,0:0:0:50:B3S_s.ogg
156,192,132856,1,0,0:0:0:59:G#3S_Ab3S_s.ogg
302,192,133070,1,0,0:0:0:50:B3S_s.ogg
10,192,133285,1,0,0:0:0:50:G#4S_Ab4S_s.ogg
229,192,133499,1,0,0:0:0:50:B3S_s.ogg
375,192,133499,1,0,0:0:0:50:B5S_s.ogg
83,192,133713,1,0,0:0:0:59:F#3S_Gb3S_s.ogg
448,192,133713,1,0,0:0:0:50:A5S_s.ogg
156,192,133928,1,0,0:0:0:50:C#4S_Db4S_s.ogg
10,192,134142,1,0,0:0:0:50:A4S_s.ogg
302,192,134142,1,0,0:0:0:50:A5S_s.ogg
229,192,134356,1,0,0:0:0:50:C#4S_Db4S_s.ogg
375,192,134356,1,0,0:0:0:50:A5S.ogg
83,192,134570,1,0,0:0:0:59:F#3S_Gb3S_s.ogg
448,192,134785,1,0,0:0:0:50:C#4S_Db4S_s.ogg
156,192,134999,1,0,0:0:0:50:G#4S_Ab4S_s.ogg
302,192,135213,1,0,0:0:0:50:C#4S_Db4S_s.ogg
10,192,135428,1,0,0:0:0:59:F#3S_Gb3S_s.ogg
229,192,135642,1,0,0:0:0:50:C#4S_Db4S_s.ogg
83,192,135856,1,0,0:0:0:50:F#4S_Gb4S_s.ogg
375,192,135856,1,0,0:0:0:50:A5S_s.ogg
448,192,136070,1,0,0:0:0:50:C#4S_Db4S_s.ogg
156,192,136285,1,0,0:0:0:59:F#3S_Gb3S_s.ogg
302,192,136285,1,0,0:0:0:50:A5S_s.ogg
10,192,136499,1,0,0:0:0:50:C#4S_Db4S_s.ogg
229,192,136499,1,0,0:0:0:50:A5S_s.ogg
375,192,136713,1,0,0:0:0:50:E4S_s.ogg
83,192,136928,1,0,0:0:0:50:C#4S_Db4S_s.ogg
156,192,137142,1,0,0:0:0:59:C#3S_Db3S_s.ogg
448,192,137142,1,0,0:0:0:50:G#5S_Ab5S.ogg
302,192,137356,1,0,0:0:0:50:G#3S_Ab3S_s.ogg
229,192,137570,1,0,0:0:0:50:C#4S_Db4S_s.ogg
10,192,137785,1,0,0:0:0:50:G#3S_Ab3S_s.ogg
375,192,137999,1,0,0:0:0:59:C#3S_Db3S_s.ogg
83,192,138213,1,0,0:0:0:50:G#3S_Ab3S_s.ogg
448,192,138428,1,0,0:0:0:50:C4S_s.ogg
156,192,138642,1,0,0:0:0:50:G#3S_Ab3S_s.ogg
302,192,138856,1,0,0:0:0:59:C#3S_Db3S_s.ogg
229,192,139070,1,0,0:0:0:50:G#3S_Ab3S_s.ogg
10,192,139285,1,0,0:0:0:50:C#4S_Db4S_s.ogg
375,192,139499,1,0,0:0:0:50:G#3S_Ab3S_s.ogg
83,192,139713,1,0,0:0:0:59:C#3S_Db3S_s.ogg
448,192,139928,1,0,0:0:0:50:G#3S_Ab3S_s.ogg
156,192,140142,1,0,0:0:0:50:C#4S_Db4S_s.ogg
302,192,140356,1,0,0:0:0:50:G#3S_Ab3S_s.ogg
10,192,140570,1,0,0:0:0:59:A3S_s.ogg
229,192,140570,1,0,0:0:0:50:C#6S_Db6S.ogg
375,192,140785,1,0,0:0:0:50:E4S_s.ogg
83,192,140999,1,0,0:0:0:50:C#5S_Db5S_s.ogg
448,192,141213,1,0,0:0:0:50:E4S_s.ogg
156,192,141428,1,0,0:0:0:59:A3S_s.ogg
302,192,141642,1,0,0:0:0:50:E4S_s.ogg
10,192,141856,1,0,0:0:0:50:B4S_s.ogg
229,192,142070,1,0,0:0:0:50:E4S_s.ogg
375,192,142285,1,0,0:0:0:59:A3S_s.ogg
83,192,142499,1,0,0:0:0:50:E4S_s.ogg
156,192,142713,1,0,0:0:0:50:A4S_s.ogg
448,192,142713,1,0,0:0:0:50:C#6S_Db6S_s.ogg
302,192,142928,1,0,0:0:0:50:E4S_s.ogg
10,192,143142,1,0,0:0:0:59:A3S_s.ogg
229,192,143142,1,0,0:0:0:50:C#6S_Db6S_s.ogg
375,192,143356,1,0,0:0:0:50:E4S_s.ogg
83,192,143570,1,0,0:0:0:50:G#4S_Ab4S_s.ogg
156,192,143785,1,0,0:0:0:50:E4S_s.ogg
448,192,143785,1,0,0:0:0:50:A5S_s.ogg
10,192,143999,1,0,0:0:0:59:G#3S_Ab3S_s.ogg
302,192,143999,1,0,0:0:0:50:B5S.ogg
229,192,144213,1,0,0:0:0:50:B3S_s.ogg
375,192,144428,1,0,0:0:0:50:F#4S_Gb4S_s.ogg
83,192,144642,1,0,0:0:0:50:B3S_s.ogg
448,192,144856,1,0,0:0:0:59:G#3S_Ab3S_s.ogg
156,192,145070,1,0,0:0:0:50:B3S_s.ogg
302,192,145285,1,0,0:0:0:50:F#4S_Gb4S_s.ogg
10,192,145499,1,0,0:0:0:50:B3S_s.ogg
229,192,145713,1,0,0:0:0:59:G#3S_Ab3S_s.ogg
375,192,145928,1,0,0:0:0:50:B3S_s.ogg
83,192,146142,1,0,0:0:0:50:G#4S_Ab4S_s.ogg
448,192,146356,1,0,0:0:0:50:B3S_s.ogg
156,192,146570,1,0,0:0:0:59:G#3S_Ab3S_s.ogg
302,192,146785,1,0,0:0:0:50:B3S_s.ogg
10,192,146999,1,0,0:0:0:50:G#4S_Ab4S_s.ogg
229,192,147213,1,0,0:0:0:50:B3S_s.ogg
375,192,147213,1,0,0:0:0:50:B5S_s.ogg
83,192,147428,1,0,0:0:0:59:F#3S_Gb3S_s.ogg
448,192,147428,1,0,0:0:0:50:A5S_s.ogg
156,192,147642,1,0,0:0:0:50:C#4S_Db4S_s.ogg
302,192,147642,1,0,0:0:0:50:A5S_s.ogg
10,192,147856,1,0,0:0:0:50:A4S_s.ogg
229,192,148070,1,0,0:0:0:50:C#4S_Db4S_s.ogg
375,192,148070,1,0,0:0:0:50:A5S.ogg
448,192,148285,1,0,0:0:0:59:F#3S_Gb3S_s.ogg
83,192,148499,1,0,0:0:0:50:C#4S_Db4S_s.ogg
302,192,148713,1,0,0:0:0:50:G#4S_Ab4S_s.ogg
156,192,148928,1,0,0:0:0:50:C#4S_Db4S_s.ogg
10,192,149142,1,0,0:0:0:59:F#3S_Gb3S_s.ogg
229,192,149356,1,0,0:0:0:50:C#4S_Db4S_s.ogg
375,192,149570,1,0,0:0:0:50:F#4S_Gb4S_s.ogg
448,192,149570,1,0,0:0:0:50:A5S_s.ogg
83,192,149785,1,0,0:0:0:50:C#4S_Db4S_s.ogg
156,192,149999,1,0,0:0:0:59:F#3S_Gb3S_s.ogg
302,192,149999,1,0,0:0:0:50:A5S_s.ogg
10,192,150213,1,0,0:0:0:50:C#4S_Db4S_s.ogg
229,192,150428,1,0,0:0:0:50:E4S_s.ogg
375,192,150642,1,0,0:0:0:50:C#4S_Db4S_s.ogg
448,192,150642,1,0,0:0:0:50:G#5S_Ab5S_s.ogg
83,192,150856,1,0,0:0:0:59:C#3S_Db3S_s.ogg
302,192,150856,1,0,0:0:0:50:G#5S_Ab5S.ogg
156,192,151070,1,0,0:0:0:51:G#3S_Ab3S_s.ogg
10,192,151285,1,0,0:0:0:51:C#4S_Db4S_s.ogg
229,192,151499,1,0,0:0:0:52:G#3S_Ab3S_s.ogg
375,192,151713,1,0,0:0:0:63:C#3S_Db3S_s.ogg
448,192,151928,1,0,0:0:0:54:G#3S_Ab3S_s.ogg
83,192,152142,1,0,0:0:0:55:C4S_s.ogg
302,192,152356,1,0,0:0:0:55:G#3S_Ab3S_s.ogg
156,192,152570,1,0,0:0:0:67:C#3S_Db3S_s.ogg
10,192,152785,1,0,0:0:0:57:G#3S_Ab3S_s.ogg
229,192,152999,1,0,0:0:0:58:C#4S_Db4S_s.ogg
375,192,153213,1,0,0:0:0:59:G#3S_Ab3S_s.ogg
448,192,153428,1,0,0:0:0:71:C#3S_Db3S_s.ogg
83,192,153642,1,0,0:0:0:60:G#3S_Ab3S_s.ogg
10,192,153856,1,0,0:0:0:61:C#4S_Db4S.ogg
156,192,153856,1,0,0:0:0:61:C#4S_Db4S_s.ogg
302,192,153856,1,0,0:0:0:61:C#5S_Db5S_s.ogg
229,192,154070,1,0,0:0:0:62:G#3S_Ab3S_s.ogg
83,192,154285,1,0,0:0:0:75:null_s.ogg
302,192,154285,1,0,0:0:0:75:A2S_s.ogg
375,192,154285,1,0,0:0:0:75:C#4S_Db4S_s.ogg
448,192,154285,1,0,0:0:0:75:C#5S_Db5S_s.ogg
10,192,154713,1,0,0:0:0:62:A2S_s.ogg
156,192,154713,1,0,0:0:0:62:A3S_s.ogg
83,192,154928,1,0,0:0:0:62:A2S_s.ogg
229,192,154928,1,0,0:0:0:62:A3S_s.ogg
302,192,154928,1,0,0:0:0:62:C#4S_Db4S.ogg
448,192,154928,1,0,0:0:0:62:C#5S_Db5S_s.ogg
10,192,155142,1,0,0:0:0:62:E3S_s.ogg
156,192,155142,1,0,0:0:0:62:A3S_s.ogg
302,192,155142,1,0,0:0:0:62:C#4S_Db4S.ogg
375,192,155142,1,0,0:0:0:62:C#5S_Db5S_s.ogg
83,192,155570,1,0,0:0:0:62:A2S_s.ogg
229,192,155570,1,0,0:0:0:62:A3S_s.ogg
10,192,155785,1,0,0:0:0:62:A2S_s.ogg
448,192,155785,1,0,0:0:0:62:A3S_s.ogg
156,192,155999,1,0,0:0:0:62:A2S_s.ogg
302,192,155999,1,0,0:0:0:62:E3S_s.ogg
375,192,155999,1,0,0:0:0:62:A3S_s.ogg
10,192,156428,1,0,0:0:0:62:A2S_s.ogg
83,192,156428,1,0,0:0:0:62:A3S_s.ogg
229,192,156428,1,0,0:0:0:62:C#4S_Db4S.ogg
448,192,156428,1,0,0:0:0:62:C#5S_Db5S_s.ogg
156,192,156642,1,0,0:0:0:62:A2S_s.ogg
375,192,156642,1,0,0:0:0:62:A3S_s.ogg
10,192,156856,1,0,0:0:0:62:E3S_s.ogg
83,192,156856,1,0,0:0:0:62:A3S_s.ogg
302,192,156856,1,0,0:0:0:62:D#4S_Eb4S_s.ogg
448,192,156856,1,0,0:0:0:62:D#5S_Eb5S_s.ogg
156,192,157285,1,0,0:0:0:62:A2S_s.ogg
229,192,157285,1,0,0:0:0:62:A3S_s.ogg
10,192,157499,1,0,0:0:0:62:A2S_s.ogg
83,192,157499,1,0,0:0:0:62:A3S_s.ogg
375,192,157499,1,0,0:0:0:62:E4S_s.ogg
448,192,157499,1,0,0:0:0:62:E5S_s.ogg
10,192,157713,1,0,0:0:0:75:G#2S_Ab2S_s.ogg
156,192,157713,1,0,0:0:0:75:G#3S_Ab3S_s.ogg
229,192,157713,1,0,0:0:0:75:D#4S_Eb4S_s.ogg
302,192,157713,1,0,0:0:0:75:D#5S_Eb5S_s.ogg
83,192,158142,1,0,0:0:0:62:G#2S_Ab2S_s.ogg
448,192,158142,1,0,0:0:0:62:G#3S_Ab3S_s.ogg
10,192,158356,1,0,0:0:0:62:G#2S_Ab2S_s.ogg
375,192,158356,1,0,0:0:0:62:G#3S_Ab3S_s.ogg
83,192,158570,1,0,0:0:0:62:D#3S_Eb3S_s.ogg
156,192,158570,1,0,0:0:0:62:G#3S_Ab3S_s.ogg
229,192,158570,1,0,0:0:0:62:B3S_s.ogg
302,192,158570,1,0,0:0:0:62:B4S_s.ogg
10,192,158999,1,0,0:0:0:62:G#2S_Ab2S_s.ogg
448,192,158999,1,0,0:0:0:62:G#3S_Ab3S_s.ogg
156,192,159213,1,0,0:0:0:62:G#2S_Ab2S_s.ogg
375,192,159213,1,0,0:0:0:62:G#3S_Ab3S_s.ogg
83,192,159428,1,0,0:0:0:62:G#2S_Ab2S_s.ogg
229,192,159428,1,0,0:0:0:62:D#3S_Eb3S_s.ogg
302,192,159428,1,0,0:0:0:62:G#3S_Ab3S_s.ogg
10,192,159856,1,0,0:0:0:62:G#2S_Ab2S_s.ogg
448,192,159856,1,0,0:0:0:62:G#3S_Ab3S_s.ogg
156,192,160070,1,0,0:0:0:62:G#2S_Ab2S_s.ogg
375,192,160070,1,0,0:0:0:62:G#3S_Ab3S_s.ogg
83,192,160285,1,0,0:0:0:62:G#2S_Ab2S_s.ogg
229,192,160285,1,0,0:0:0:62:D#3S_Eb3S_s.ogg
302,192,160285,1,0,0:0:0:62:G#3S_Ab3S_s.ogg
10,192,160713,1,0,0:0:0:62:G#2S_Ab2S_s.ogg
156,192,160713,1,0,0:0:0:62:G#3S_Ab3S_s.ogg
375,192,160713,1,0,0:0:0:62:F#4S_Gb4S_s.ogg
448,192,160713,1,0,0:0:0:62:F#5S_Gb5S_s.ogg
83,192,160928,1,0,0:0:0:62:G#2S_Ab2S_s.ogg
302,192,160928,1,0,0:0:0:62:G#3S_Ab3S_s.ogg
10,192,161142,1,0,0:0:0:75:C#3S_Db3S_s.ogg
229,192,161142,1,0,0:0:0:75:F#3S_Gb3S_s.ogg
375,192,161142,1,0,0:0:0:75:F#4S_Gb4S_s.ogg
448,192,161142,1,0,0:0:0:75:F#5S_Gb5S_s.ogg
156,192,161570,1,0,0:0:0:62:F#2S_Gb2S_s.ogg
302,192,161570,1,0,0:0:0:62:F#3S_Gb3S_s.ogg
10,192,161785,1,0,0:0:0:62:F#2S_Gb2S_s.ogg
83,192,161785,1,0,0:0:0:62:F#3S_Gb3S_s.ogg
375,192,161785,1,0,0:0:0:62:F#4S_Gb4S_s.ogg
448,192,161785,1,0,0:0:0:62:F#5S_Gb5S_s.ogg
156,192,161999,1,0,0:0:0:62:C#3S_Db3S_s.ogg
229,192,161999,1,0,0:0:0:62:F#3S_Gb3S_s.ogg
302,192,161999,1,0,0:0:0:62:F#4S_Gb4S_s.ogg
375,192,161999,1,0,0:0:0:62:F#5S_Gb5S_s.ogg
10,192,162428,1,0,0:0:0:62:F#2S_Gb2S_s.ogg
448,192,162428,1,0,0:0:0:62:F#3S_Gb3S_s.ogg
83,192,162642,1,0,0:0:0:62:F#2S_Gb2S_s.ogg
302,192,162642,1,0,0:0:0:62:F#3S_Gb3S_s.ogg
156,192,162856,1,0,0:0:0:62:F#2S_Gb2S_s.ogg
229,192,162856,1,0,0:0:0:62:C#3S_Db3S_s.ogg
375,192,162856,1,0,0:0:0:62:F#3S_Gb3S_s.ogg
10,192,163285,1,0,0:0:0:62:F#2S_Gb2S_s.ogg
83,192,163285,1,0,0:0:0:62:F#3S_Gb3S_s.ogg
302,192,163285,1,0,0:0:0:62:F#4S_Gb4S_s.ogg
448,192,163285,1,0,0:0:0:62:F#5S_Gb5S_s.ogg
156,192,163499,1,0,0:0:0:62:F#2S_Gb2S_s.ogg
375,192,163499,1,0,0:0:0:62:F#3S_Gb3S_s.ogg
10,192,163713,1,0,0:0:0:62:C#3S_Db3S_s.ogg
229,192,163713,1,0,0:0:0:62:F#3S_Gb3S_s.ogg
302,192,163713,1,0,0:0:0:62:E4S_s.ogg
448,192,163713,1,0,0:0:0:62:E5S_s.ogg
83,192,164142,1,0,0:0:0:62:F#2S_Gb2S_s.ogg
375,192,164142,1,0,0:0:0:62:F#3S_Gb3S_s.ogg
10,192,164356,1,0,0:0:0:62:F#2S_Gb2S_s.ogg
156,192,164356,1,0,0:0:0:62:F#3S_Gb3S_s.ogg
229,192,164356,1,0,0:0:0:62:D#4S_Eb4S_s.ogg
302,192,164356,1,0,0:0:0:62:D#5S_Eb5S_s.ogg
83,192,164570,1,0,0:0:0:75:G#2S_Ab2S_s.ogg
156,192,164570,1,0,0:0:0:75:C#3S_Db3S_s.ogg
375,192,164570,1,0,0:0:0:75:E4S_s.ogg
448,192,164570,1,0,0:0:0:75:E5S_s.ogg
229,192,164999,1,0,0:0:0:62:C#2S_Db2S_s.ogg
302,192,164999,1,0,0:0:0:62:C#3S_Db3S_s.ogg
10,192,165213,1,0,0:0:0:62:C#2S_Db2S_s.ogg
375,192,165213,1,0,0:0:0:62:C#3S_Db3S_s.ogg
83,192,165428,1,0,0:0:0:62:G#2S_Ab2S_s.ogg
156,192,165428,1,0,0:0:0:62:C#3S_Db3S_s.ogg
302,192,165428,1,0,0:0:0:62:G#3S_Ab3S_s.ogg
448,192,165428,1,0,0:0:0:62:C#4S_Db4S.ogg
10,192,165856,1,0,0:0:0:62:C#2S_Db2S_s.ogg
156,192,165856,1,0,0:0:0:62:C#3S_Db3S_s.ogg
229,192,165856,1,0,0:0:0:62:D#5S_Eb5S_s.ogg
375,192,165856,1,0,0:0:0:62:D#6S_Eb6S_s.ogg
83,192,166070,1,0,0:0:0:62:C#2S_Db2S_s.ogg
156,192,166070,1,0,0:0:0:62:C#3S_Db3S_s.ogg
302,192,166070,1,0,0:0:0:62:C#5S_Db5S_s.ogg
448,192,166070,1,0,0:0:0:62:C#6S_Db6S_s.ogg
10,192,166285,1,0,0:0:0:62:G#2S_Ab2S_s.ogg
229,192,166285,1,0,0:0:0:62:C#3S_Db3S_s.ogg
375,192,166285,1,0,0:0:0:62:G#4S_Ab4S_s.ogg
448,192,166285,1,0,0:0:0:62:G#5S_Ab5S_s.ogg
83,192,166713,1,0,0:0:0:62:C#2S_Db2S_s.ogg
156,192,166713,1,0,0:0:0:62:C#3S_Db3S_s.ogg
302,192,166713,1,0,0:0:0:62:C#5S_Db5S_s.ogg
448,192,166713,1,0,0:0:0:62:C#6S_Db6S_s.ogg
10,192,166928,1,0,0:0:0:62:C#2S_Db2S_s.ogg
375,192,166928,1,0,0:0:0:62:C#3S_Db3S_s.ogg
83,192,167142,1,0,0:0:0:62:G#2S_Ab2S_s.ogg
229,192,167142,1,0,0:0:0:62:C#3S_Db3S_s.ogg
302,192,167142,1,0,0:0:0:62:D#5S_Eb5S_s.ogg
448,192,167142,1,0,0:0:0:62:D#6S_Eb6S_s.ogg
10,192,167570,1,0,0:0:0:62:C#2S_Db2S_s.ogg
156,192,167570,1,0,0:0:0:62:C#3S_Db3S_s.ogg
375,192,167570,1,0,0:0:0:62:E5S_s.ogg
448,192,167570,1,0,0:0:0:62:E6S_s.ogg
83,192,167785,1,0,0:0:0:62:C#2S_Db2S_s.ogg
302,192,167785,1,0,0:0:0:62:C#3S_Db3S_s.ogg
156,192,167999,1,0,0:0:0:75:null_s.ogg
229,192,167999,1,0,0:0:0:75:A2S_s.ogg
375,192,167999,1,0,0:0:0:75:C#4S_Db4S_s.ogg
448,192,167999,1,0,0:0:0:75:C#5S_Db5S_s.ogg
10,192,168428,1,0,0:0:0:62:A2S_s.ogg
302,192,168428,1,0,0:0:0:62:A3S_s.ogg
83,192,168642,1,0,0:0:0:62:A2S_s.ogg
156,192,168642,1,0,0:0:0:62:A3S_s.ogg
229,192,168642,1,0,0:0:0:62:C#4S_Db4S.ogg
375,192,168642,1,0,0:0:0:62:C#5S_Db5S_s.ogg
10,192,168856,1,0,0:0:0:62:E3S_s.ogg
156,192,168856,1,0,0:0:0:62:A3S_s.ogg
302,192,168856,1,0,0:0:0:62:C#4S_Db4S.ogg
448,192,168856,1,0,0:0:0:62:C#5S_Db5S_s.ogg
83,192,169285,1,0,0:0:0:62:A2S_s.ogg
375,192,169285,1,0,0:0:0:62:A3S_s.ogg
229,192,169499,1,0,0:0:0:62:A2S_s.ogg
448,192,169499,1,0,0:0:0:62:A3S_s.ogg
10,192,169713,1,0,0:0:0:62:A2S_s.ogg
156,192,169713,1,0,0:0:0:62:E3S_s.ogg
302,192,169713,1,0,0:0:0:62:A3S_s.ogg
83,192,170142,1,0,0:0:0:62:A2S_s.ogg
229,192,170142,1,0,0:0:0:62:A3S_s.ogg
375,192,170142,1,0,0:0:0:62:C#4S_Db4S.ogg
448,192,170142,1,0,0:0:0:62:C#5S_Db5S_s.ogg
10,192,170356,1,0,0:0:0:62:A2S_s.ogg
302,192,170356,1,0,0:0:0:62:A3S_s.ogg
83,192,170570,1,0,0:0:0:62:E3S_s.ogg
156,192,170570,1,0,0:0:0:62:A3S_s.ogg
229,192,170570,1,0,0:0:0:62:D#4S_Eb4S_s.ogg
375,192,170570,1,0,0:0:0:62:D#5S_Eb5S_s.ogg
10,192,170999,1,0,0:0:0:62:A2S_s.ogg
448,192,170999,1,0,0:0:0:62:A3S_s.ogg
156,192,171213,1,0,0:0:0:62:A2S_s.ogg
229,192,171213,1,0,0:0:0:62:A3S_s.ogg
302,192,171213,1,0,0:0:0:62:E4S_s.ogg
375,192,171213,1,0,0:0:0:62:E5S_s.ogg
10,192,171428,1,0,0:0:0:75:G#2S_Ab2S_s.ogg
83,192,171428,1,0,0:0:0:75:G#3S_Ab3S_s.ogg
302,192,171428,1,0,0:0:0:75:D#4S_Eb4S_s.ogg
448,192,171428,1,0,0:0:0:75:D#5S_Eb5S_s.ogg
156,192,171856,1,0,0:0:0:62:G#2S_Ab2S_s.ogg
229,192,171856,1,0,0:0:0:62:G#3S_Ab3S_s.ogg
83,192,172070,1,0,0:0:0:62:G#2S_Ab2S_s.ogg
375,192,172070,1,0,0:0:0:62:G#3S_Ab3S_s.ogg
10,192,172285,1,0,0:0:0:62:D#3S_Eb3S_s.ogg
156,192,172285,1,0,0:0:0:62:G#3S_Ab3S_s.ogg
302,192,172285,1,0,0:0:0:62:B3S_s.ogg
448,192,172285,1,0,0:0:0:62:B4S_s.ogg
229,192,172713,1,0,0:0:0:62:G#2S_Ab2S_s.ogg
375,192,172713,1,0,0:0:0:62:G#3S_Ab3S_s.ogg
83,192,172927,1,0,0:0:0:62:G#2S_Ab2S_s.ogg
448,192,172927,1,0,0:0:0:62:G#3S_Ab3S_s.ogg
10,192,173142,1,0,0:0:0:62:G#2S_Ab2S_s.ogg
156,192,173142,1,0,0:0:0:62:D#3S_Eb3S_s.ogg
302,192,173142,1,0,0:0:0:62:G#3S_Ab3S_s.ogg
229,192,173570,1,0,0:0:0:62:G#2S_Ab2S_s.ogg
375,192,173570,1,0,0:0:0:62:G#3S_Ab3S_s.ogg
83,192,173785,1,0,0:0:0:62:G#2S_Ab2S_s.ogg
448,192,173785,1,0,0:0:0:62:G#3S_Ab3S_s.ogg
10,192,173999,1,0,0:0:0:62:G#2S_Ab2S_s.ogg
156,192,173999,1,0,0:0:0:62:D#3S_Eb3S_s.ogg
302,192,173999,1,0,0:0:0:62:G#3S_Ab3S_s.ogg
83,192,174427,1,0,0:0:0:62:G#2S_Ab2S_s.ogg
229,192,174427,1,0,0:0:0:62:G#3S_Ab3S_s.ogg
375,192,174427,1,0,0:0:0:62:F#4S_Gb4S_s.ogg
448,192,174427,1,0,0:0:0:62:F#5S_Gb5S_s.ogg
10,192,174642,1,0,0:0:0:62:G#2S_Ab2S_s.ogg
302,192,174642,1,0,0:0:0:62:G#3S_Ab3S_s.ogg
83,192,174856,1,0,0:0:0:75:C#3S_Db3S_s.ogg
156,192,174856,1,0,0:0:0:75:F#3S_Gb3S_s.ogg
229,192,174856,1,0,0:0:0:75:F#4S_Gb4S_s.ogg
375,192,174856,1,0,0:0:0:75:F#5S_Gb5S_s.ogg
10,192,175285,1,0,0:0:0:62:F#2S_Gb2S_s.ogg
448,192,175285,1,0,0:0:0:62:F#3S_Gb3S_s.ogg
156,192,175499,1,0,0:0:0:62:F#2S_Gb2S_s.ogg
229,192,175499,1,0,0:0:0:62:F#3S_Gb3S_s.ogg
302,192,175499,1,0,0:0:0:62:F#4S_Gb4S_s.ogg
375,192,175499,1,0,0:0:0:62:F#5S_Gb5S_s.ogg
10,192,175713,1,0,0:0:0:62:C#3S_Db3S_s.ogg
83,192,175713,1,0,0:0:0:62:F#3S_Gb3S_s.ogg
375,192,175713,1,0,0:0:0:62:F#4S_Gb4S_s.ogg
448,192,175713,1,0,0:0:0:62:F#5S_Gb5S_s.ogg
156,192,176142,1,0,0:0:0:62:F#2S_Gb2S_s.ogg
229,192,176142,1,0,0:0:0:62:F#3S_Gb3S_s.ogg
83,192,176356,1,0,0:0:0:62:F#2S_Gb2S_s.ogg
302,192,176356,1,0,0:0:0:62:F#3S_Gb3S_s.ogg
10,192,176570,1,0,0:0:0:62:F#2S_Gb2S_s.ogg
375,192,176570,1,0,0:0:0:62:C#3S_Db3S_s.ogg
448,192,176570,1,0,0:0:0:62:F#3S_Gb3S_s.ogg
83,192,176999,1,0,0:0:0:62:F#2S_Gb2S_s.ogg
156,192,176999,1,0,0:0:0:62:F#3S_Gb3S_s.ogg
229,192,176999,1,0,0:0:0:62:F#4S_Gb4S_s.ogg
302,192,176999,1,0,0:0:0:62:F#5S_Gb5S_s.ogg
10,192,177213,1,0,0:0:0:62:F#2S_Gb2S_s.ogg
448,192,177213,1,0,0:0:0:62:F#3S_Gb3S_s.ogg
156,192,177427,1,0,0:0:0:62:C#3S_Db3S_s.ogg
229,192,177427,1,0,0:0:0:62:F#3S_Gb3S_s.ogg
302,192,177427,1,0,0:0:0:62:E4S_s.ogg
375,192,177427,1,0,0:0:0:62:E5S_s.ogg
83,192,177856,1,0,0:0:0:62:F#2S_Gb2S_s.ogg
448,192,177856,1,0,0:0:0:62:F#3S_Gb3S_s.ogg
10,192,178070,1,0,0:0:0:62:F#2S_Gb2S_s.ogg
156,192,178070,1,0,0:0:0:62:F#3S_Gb3S_s.ogg
229,192,178070,1,0,0:0:0:62:D#4S_Eb4S_s.ogg
375,192,178070,1,0,0:0:0:62:D#5S_Eb5S_s.ogg
83,192,178285,1,0,0:0:0:75:G#2S_Ab2S_s.ogg
156,192,178285,1,0,0:0:0:75:C#3S_Db3S_s.ogg
302,192,178285,1,0,0:0:0:75:E4S_s.ogg
448,192,178285,1,0,0:0:0:75:E5S_s.ogg
229,192,178713,1,0,0:0:0:62:C#2S_Db2S_s.ogg
375,192,178713,1,0,0:0:0:62:C#3S_Db3S_s.ogg
10,192,178927,1,0,0:0:0:61:C#2S_Db2S_s.ogg
302,192,178927,1,0,0:0:0:61:C#3S_Db3S_s.ogg
83,192,179142,1,0,0:0:0:60:G#2S_Ab2S_s.ogg
156,192,179142,1,0,0:0:0:60:C#3S_Db3S_s.ogg
375,192,179142,1,0,0:0:0:60:G#3S_Ab3S_s.ogg
448,192,179142,1,0,0:0:0:60:C#4S_Db4S.ogg
229,192,179570,1,0,0:0:0:59:C#2S_Db2S_s.ogg
302,192,179570,1,0,0:0:0:59:C#3S_Db3S_s.ogg
10,192,179785,1,0,0:0:0:58:C#2S_Db2S_s.ogg
448,192,179785,1,0,0:0:0:58:C#3S_Db3S_s.ogg
83,192,179999,1,0,0:0:0:57:G#2S_Ab2S_s.ogg
156,192,179999,1,0,0:0:0:57:C#3S_Db3S_s.ogg
229,192,179999,1,0,0:0:0:57:G#3S_Ab3S_s.ogg
375,192,179999,1,0,0:0:0:57:C#4S_Db4S.ogg
10,192,180427,1,0,0:0:0:55:C#2S_Db2S_s.ogg
302,192,180427,1,0,0:0:0:55:C#3S_Db3S_s.ogg
156,192,180642,1,0,0:0:0:55:C#2S_Db2S_s.ogg
448,192,180642,1,0,0:0:0:55:C#3S_Db3S_s.ogg
83,192,180856,1,0,0:0:0:54:G#2S_Ab2S_s.ogg
229,192,180856,1,0,0:0:0:54:C#3S_Db3S_s.ogg
302,192,180856,1,0,0:0:0:54:G#3S_Ab3S_s.ogg
375,192,180856,1,0,0:0:0:54:C#4S_Db4S_s.ogg
10,192,181285,1,0,0:0:0:52:C#2S_Db2S_s.ogg
156,192,181285,1,0,0:0:0:52:C#3S_Db3S_s.ogg
448,192,181285,1,0,0:0:0:52:G#3S_Ab3S_s.ogg
83,192,181499,1,0,0:0:0:51:C#2S_Db2S_s.ogg
375,192,181499,1,0,0:0:0:51:C#3S_Db3S_s.ogg
10,192,181713,1,0,0:0:0:51:E2S_s.ogg
229,192,181713,1,0,0:0:0:51:E3S_s.ogg
302,192,181713,1,0,0:0:0:51:B3S_s.ogg
448,192,181713,1,0,0:0:0:51:E4S_s.ogg
156,192,182142,1,0,0:0:0:49:E2S_s.ogg
375,192,182142,1,0,0:0:0:49:E3S_s.ogg
83,192,182356,1,0,0:0:0:48:E2S_s.ogg
302,192,182356,1,0,0:0:0:48:E3S_s.ogg
10,192,182570,1,0,0:0:0:48:E2S_s.ogg
229,192,182570,1,0,0:0:0:48:E3S_s.ogg
375,192,182570,1,0,0:0:0:48:B3S_s.ogg
448,192,182570,1,0,0:0:0:48:E4S_s.ogg
156,192,182999,1,0,0:0:0:46:E2S_s.ogg
302,192,182999,1,0,0:0:0:46:E3S_s.ogg
83,192,183213,1,0,0:0:0:45:E2S_s.ogg
448,192,183213,1,0,0:0:0:45:E3S_s.ogg
10,192,183427,1,0,0:0:0:44:E2S_s.ogg
156,192,183427,1,0,0:0:0:44:E3S_s.ogg
229,192,183427,1,0,0:0:0:44:B3S_s.ogg
375,192,183427,1,0,0:0:0:44:E4S_s.ogg
83,192,183856,1,0,0:0:0:43:E2S_s.ogg
302,192,183856,1,0,0:0:0:43:E3S_s.ogg
156,192,184070,1,0,0:0:0:42:E2S_s.ogg
448,192,184070,1,0,0:0:0:42:E3S_s.ogg
10,192,184285,1,0,0:0:0:41:E2S_s.ogg
229,192,184285,1,0,0:0:0:41:E3S_s.ogg
302,192,184285,1,0,0:0:0:41:B3S_s.ogg
375,192,184285,1,0,0:0:0:41:E4S_s.ogg
83,192,184713,1,0,0:0:0:40:E2S_s.ogg
448,192,184713,1,0,0:0:0:40:E3S_s.ogg
156,192,184927,1,0,0:0:0:39:E2S_s.ogg
302,192,184927,1,0,0:0:0:39:E3S_s.ogg
10,192,185142,1,0,0:0:0:45:A3S_s.ogg
229,192,185356,1,0,0:0:0:38:E4S_s.ogg
375,192,185570,1,0,0:0:0:38:C#5S_Db5S_s.ogg
83,192,185785,1,0,0:0:0:38:E4S_s.ogg
448,192,185999,1,0,0:0:0:45:A3S_s.ogg
156,192,186213,1,0,0:0:0:38:E4S_s.ogg
302,192,186427,1,0,0:0:0:38:B4S_s.ogg
10,192,186642,1,0,0:0:0:38:E4S_s.ogg
229,192,186856,1,0,0:0:0:45:A3S_s.ogg
375,192,187070,1,0,0:0:0:38:E4S_s.ogg
83,192,187285,1,0,0:0:0:38:A4S_s.ogg
448,192,187499,1,0,0:0:0:38:E4S_s.ogg
156,192,187713,1,0,0:0:0:45:A3S_s.ogg
302,192,187927,1,0,0:0:0:38:E4S_s.ogg
10,192,188142,1,0,0:0:0:38:G#4S_Ab4S_s.ogg
229,192,188356,1,0,0:0:0:38:E4S_s.ogg
375,192,188570,1,0,0:0:0:45:G#3S_Ab3S_s.ogg
83,192,188785,1,0,0:0:0:38:B3S_s.ogg
448,192,188999,1,0,0:0:0:38:F#4S_Gb4S_s.ogg
156,192,189213,1,0,0:0:0:38:B3S_s.ogg
302,192,189427,1,0,0:0:0:45:G#3S_Ab3S_s.ogg
10,192,189642,1,0,0:0:0:38:B3S_s.ogg
229,192,189856,1,0,0:0:0:38:F#4S_Gb4S_s.ogg
375,192,190070,1,0,0:0:0:38:B3S_s.ogg
83,192,190285,1,0,0:0:0:45:G#3S_Ab3S_s.ogg
448,192,190499,1,0,0:0:0:38:B3S_s.ogg
156,192,190713,1,0,0:0:0:38:G#4S_Ab4S_s.ogg
302,192,190927,1,0,0:0:0:38:B3S_s.ogg
10,192,191142,1,0,0:0:0:45:G#3S_Ab3S_s.ogg
229,192,191356,1,0,0:0:0:38:B3S_s.ogg
375,192,191570,1,0,0:0:0:38:G#4S_Ab4S_s.ogg
83,192,191785,1,0,0:0:0:38:B3S_s.ogg
448,192,191999,1,0,0:0:0:45:F#3S_Gb3S_s.ogg
156,192,192213,1,0,0:0:0:38:C#4S_Db4S_s.ogg
302,192,192427,1,0,0:0:0:38:A4S_s.ogg
10,192,192642,1,0,0:0:0:38:C#4S_Db4S_s.ogg
229,192,192856,1,0,0:0:0:45:F#3S_Gb3S_s.ogg
375,192,193070,1,0,0:0:0:38:C#4S_Db4S_s.ogg
83,192,193285,1,0,0:0:0:38:G#4S_Ab4S_s.ogg
448,192,193499,1,0,0:0:0:38:C#4S_Db4S_s.ogg
156,192,193713,1,0,0:0:0:45:F#3S_Gb3S_s.ogg
302,192,193927,1,0,0:0:0:38:C#4S_Db4S_s.ogg
10,192,194142,1,0,0:0:0:38:F#4S_Gb4S_s.ogg
229,192,194356,1,0,0:0:0:38:C#4S_Db4S_s.ogg
375,192,194570,1,0,0:0:0:45:F#3S_Gb3S_s.ogg
83,192,194785,1,0,0:0:0:38:C#4S_Db4S_s.ogg
448,192,194999,1,0,0:0:0:38:E4S_s.ogg
156,192,195213,1,0,0:0:0:38:C#4S_Db4S_s.ogg
302,192,195427,1,0,0:0:0:45:C#3S_Db3S_s.ogg
10,192,195642,1,0,0:0:0:38:G#3S_Ab3S_s.ogg
229,192,195856,1,0,0:0:0:38:C#4S_Db4S_s.ogg
375,192,196070,1,0,0:0:0:38:G#3S_Ab3S_s.ogg
83,192,196285,1,0,0:0:0:45:C#3S_Db3S_s.ogg
448,192,196499,1,0,0:0:0:38:G#3S_Ab3S_s.ogg
156,192,196713,1,0,0:0:0:38:C4S_s.ogg
302,192,196927,1,0,0:0:0:38:G#3S_Ab3S_s.ogg
10,192,197142,1,0,0:0:0:45:C#3S_Db3S_s.ogg
229,192,197356,1,0,0:0:0:38:G#3S_Ab3S_s.ogg
375,192,197570,1,0,0:0:0:38:C#4S_Db4S_s.ogg
83,192,197785,1,0,0:0:0:38:G#3S_Ab3S_s.ogg
448,192,197999,1,0,0:0:0:45:C#3S_Db3S_s.ogg
156,192,198213,1,0,0:0:0:38:G#3S_Ab3S_s.ogg
302,192,198427,1,0,0:0:0:38:C#4S_Db4S_s.ogg
10,192,198642,1,0,0:0:0:38:G#3S_Ab3S_s.ogg
