osu file format v14

[General]
AudioFilename: audio.mp3
AudioLeadIn: 0
PreviewTime: -1
Countdown: 0
SampleSet: None
StackLeniency: 0.7
Mode: 3
LetterboxInBreaks: 0
SpecialStyle: 0
WidescreenStoryboard: 0

[Editor]
DistanceSpacing: 1.2
BeatDivisor: 4
GridSize: 4
TimelineZoom: 1

[Metadata]
Title:Eternal Pack 2
TitleUnicode:Eternal Pack 2
Artist:Various Artists
ArtistUnicode:Various Artists
Creator:[Shana Lesus]
Version:Keith Power - We All Lift Together
Source:
Tags:
BeatmapID:2193154
BeatmapSetID:1049301

[Difficulty]
HPDrainRate:8
CircleSize:7
OverallDifficulty:8
ApproachRate:5
SliderMultiplier:1.4
SliderTickRate:1

[Events]
//Background and Video events
0,0,"we all.jpg",0,0
//Break Periods
//Storyboard Layer 0 (Background)
//Storyboard Layer 1 (Fail)
//Storyboard Layer 2 (Pass)
//Storyboard Layer 3 (Foreground)
//Storyboard Layer 4 (Overlay)
//Storyboard Sound Samples
Sample,26667,0,"A2S.ogg",62
Sample,30000,0,"F#2S_Gb2S.ogg",62
Sample,33333,0,"C#3S_Db3S.ogg",62
Sample,36667,0,"B2S.ogg",62
Sample,66667,0,"A2S_s.ogg",62
Sample,66667,0,"A3S_s.ogg",62
Sample,67500,0,"A2S_s.ogg",62
Sample,67500,0,"A3S_s.ogg",62
Sample,68333,0,"A2S_s.ogg",62
Sample,68333,0,"A3S_s.ogg",62
Sample,69167,0,"A2S_s.ogg",62
Sample,69167,0,"A3S_s.ogg",62
Sample,70000,0,"F#2S_Gb2S_s.ogg",62
Sample,70000,0,"F#3S_Gb3S_s.ogg",62
Sample,70833,0,"F#2S_Gb2S_s.ogg",62
Sample,70833,0,"F#3S_Gb3S_s.ogg",62
Sample,71667,0,"F#2S_Gb2S_s.ogg",62
Sample,71667,0,"F#3S_Gb3S_s.ogg",62
Sample,72500,0,"F#2S_Gb2S_s.ogg",62
Sample,72500,0,"F#3S_Gb3S_s.ogg",62
Sample,73333,0,"C#3S_Db3S_s.ogg",62
Sample,73333,0,"C#4S_Db4S_s.ogg",62
Sample,74167,0,"C#3S_Db3S_s.ogg",62
Sample,74167,0,"C#4S_Db4S_s.ogg",62
Sample,75000,0,"C#3S_Db3S_s.ogg",62
Sample,75000,0,"C#4S_Db4S_s.ogg",62
Sample,75833,0,"C#3S_Db3S_s.ogg",62
Sample,75833,0,"C#4S_Db4S_s.ogg",62
Sample,76667,0,"B2S_s.ogg",62
Sample,76667,0,"B3S_s.ogg",62
Sample,77500,0,"B2S_s.ogg",62
Sample,77500,0,"B3S_s.ogg",62
Sample,78333,0,"B2S_s.ogg",62
Sample,78333,0,"B3S_s.ogg",62
Sample,79167,0,"B2S_s.ogg",62
Sample,79167,0,"B3S_s.ogg",62
Sample,80000,0,"A2S_s.ogg",62
Sample,80000,0,"A3S_s.ogg",62
Sample,80833,0,"A2S_s.ogg",62
Sample,80833,0,"A3S_s.ogg",62
Sample,81667,0,"A2S_s.ogg",62
Sample,81667,0,"A3S_s.ogg",62
Sample,82500,0,"A2S_s.ogg",62
Sample,82500,0,"A3S_s.ogg",62
Sample,83333,0,"F#2S_Gb2S_s.ogg",62
Sample,83333,0,"F#3S_Gb3S_s.ogg",62
Sample,84167,0,"F#2S_Gb2S_s.ogg",62
Sample,84167,0,"F#3S_Gb3S_s.ogg",62
Sample,85000,0,"F#2S_Gb2S_s.ogg",62
Sample,85000,0,"F#3S_Gb3S_s.ogg",62
Sample,85833,0,"F#2S_Gb2S_s.ogg",62
Sample,85833,0,"F#3S_Gb3S_s.ogg",62
Sample,86667,0,"C#3S_Db3S_s.ogg",62
Sample,86667,0,"C#4S_Db4S_s.ogg",62
Sample,87500,0,"C#3S_Db3S_s.ogg",62
Sample,87500,0,"C#4S_Db4S_s.ogg",62
Sample,88333,0,"C#3S_Db3S_s.ogg",62
Sample,88333,0,"C#4S_Db4S_s.ogg",62
Sample,89167,0,"C#3S_Db3S_s.ogg",62
Sample,89167,0,"C#4S_Db4S_s.ogg",62
Sample,90000,0,"B2S_s.ogg",62
Sample,90000,0,"B3S_s.ogg",62
Sample,90833,0,"B2S_s.ogg",62
Sample,90833,0,"B3S_s.ogg",62
Sample,91667,0,"B2S_s.ogg",62
Sample,91667,0,"B3S_s.ogg",62
Sample,92500,0,"B2S_s.ogg",62
Sample,92500,0,"B3S_s.ogg",62
Sample,93333,0,"A2S_s.ogg",62
Sample,93333,0,"A2S.ogg",62
Sample,93333,0,"A3S_s.ogg",62
Sample,94167,0,"A3S_s.ogg",62
Sample,94167,0,"C#4S_Db4S_s.ogg",62
Sample,94167,0,"A2S.ogg",62
Sample,94583,0,"A3S_s.ogg",62
Sample,95000,0,"A3S_s.ogg",62
Sample,95000,0,"C#5S_Db5S_s.ogg",62
Sample,95000,0,"A4S_s.ogg",62
Sample,95000,0,"E4S.ogg",62
Sample,95000,0,"C#4S_Db4S_s.ogg",62
Sample,95000,0,"A2S.ogg",62
Sample,95000,0,"E4S_s.ogg",62
Sample,95833,0,"E4S_s.ogg",62
Sample,95833,0,"A2S.ogg",62
Sample,95833,0,"C#4S_Db4S_s.ogg",62
Sample,95833,0,"A3S_s.ogg",62
Sample,95833,0,"E4S.ogg",62
Sample,95833,0,"A4S_s.ogg",62
Sample,95833,0,"C#5S_Db5S_s.ogg",62
Sample,96667,0,"F#2S_Gb2S_s.ogg",62
Sample,97500,0,"F#2S_Gb2S.ogg",62
Sample,97500,0,"F#3S_Gb3S_s.ogg",62
Sample,97500,0,"A3S_s.ogg",62
Sample,97917,0,"F#3S_Gb3S_s.ogg",62
Sample,98333,0,"C#4S_Db4S_s.ogg",62
Sample,98333,0,"F#2S_Gb2S.ogg",62
Sample,98333,0,"A3S_s.ogg",62
Sample,98333,0,"F#3S_Gb3S_s.ogg",62
Sample,98333,0,"F#4S_Gb4S_s.ogg",62
Sample,98333,0,"G#4S_Ab4S_s.ogg",62
Sample,98333,0,"A4S_s.ogg",62
Sample,99167,0,"F#3S_Gb3S_s.ogg",62
Sample,99167,0,"A4S_s.ogg",62
Sample,99167,0,"G#4S_Ab4S_s.ogg",62
Sample,99167,0,"F#4S_Gb4S_s.ogg",62
Sample,99167,0,"A3S_s.ogg",62
Sample,99167,0,"F#2S_Gb2S.ogg",62
Sample,99167,0,"C#4S_Db4S_s.ogg",62
Sample,100000,0,"G#4S_Ab4S_s.ogg",62
Sample,100000,0,"C#3S_Db3S_s.ogg",62
Sample,100000,0,"C#4S_Db4S_s.ogg",62
Sample,100000,0,"C#3S_Db3S.ogg",62
Sample,100000,0,"E5S_s.ogg",62
Sample,100417,0,"C#4S_Db4S_s.ogg",62
Sample,100833,0,"C#3S_Db3S.ogg",62
Sample,100833,0,"C#4S_Db4S_s.ogg",62
Sample,100833,0,"E4S.ogg",62
Sample,101667,0,"C#4S_Db4S_s.ogg",62
Sample,101667,0,"E4S.ogg",62
Sample,101667,0,"C#3S_Db3S.ogg",62
Sample,102500,0,"C#3S_Db3S.ogg",62
Sample,102500,0,"C#4S_Db4S_s.ogg",62
Sample,102500,0,"E4S.ogg",62
Sample,103333,0,"B2S_s.ogg",62
Sample,103333,0,"F#4S_Gb4S_s.ogg",62
Sample,103333,0,"B3S_s.ogg",62
Sample,103333,0,"E5S_s.ogg",62
Sample,103333,0,"B2S.ogg",62
Sample,103750,0,"B3S_s.ogg",62
Sample,104167,0,"B3S_s.ogg",62
Sample,104167,0,"E4S.ogg",62
Sample,104167,0,"B2S.ogg",62
Sample,105000,0,"B2S.ogg",62
Sample,105000,0,"B3S_s.ogg",62
Sample,105000,0,"D#4S_Eb4S_s.ogg",62
Sample,105833,0,"B2S_s.ogg",62
Sample,105833,0,"C#3S_Db3S.ogg",62
Sample,106667,0,"A2S_s.ogg",62
Sample,107500,0,"A2S.ogg",62
Sample,107500,0,"A3S_s.ogg",62
Sample,107500,0,"C#4S_Db4S_s.ogg",62
Sample,107917,0,"A3S_s.ogg",62
Sample,108333,0,"E4S_s.ogg",62
Sample,108333,0,"A2S.ogg",62
Sample,108333,0,"C#4S_Db4S_s.ogg",62
Sample,108333,0,"A3S_s.ogg",62
Sample,108333,0,"E4S.ogg",62
Sample,108333,0,"A4S_s.ogg",62
Sample,108333,0,"C#5S_Db5S_s.ogg",62
Sample,109167,0,"A3S_s.ogg",62
Sample,109167,0,"E4S.ogg",62
Sample,109167,0,"E4S_s.ogg",62
Sample,109167,0,"A4S_s.ogg",62
Sample,109167,0,"C#4S_Db4S_s.ogg",62
Sample,109167,0,"C#5S_Db5S_s.ogg",62
Sample,110000,0,"F#2S_Gb2S_s.ogg",62
Sample,110833,0,"F#2S_Gb2S.ogg",62
Sample,110833,0,"F#3S_Gb3S_s.ogg",62
Sample,110833,0,"A3S_s.ogg",62
Sample,111667,0,"F#3S_Gb3S_s.ogg",62
Sample,111667,0,"A4S_s.ogg",62
Sample,111667,0,"G#4S_Ab4S.ogg",62
Sample,111667,0,"F#4S_Gb4S.ogg",62
Sample,111667,0,"A3S_s.ogg",62
Sample,111667,0,"F#2S_Gb2S.ogg",62
Sample,111667,0,"C#4S_Db4S_s.ogg",62
Sample,112500,0,"F#4S_Gb4S.ogg",62
Sample,112500,0,"F#3S_Gb3S_s.ogg",62
Sample,112500,0,"C#4S_Db4S_s.ogg",62
Sample,112500,0,"A3S_s.ogg",62
Sample,112500,0,"G#4S_Ab4S.ogg",62
Sample,112500,0,"A4S_s.ogg",62
Sample,113333,0,"G#4S_Ab4S.ogg",62
Sample,113333,0,"C#3S_Db3S_s.ogg",62
Sample,113333,0,"C#4S_Db4S_s.ogg",62
Sample,113333,0,"C#3S_Db3S.ogg",62
Sample,113333,0,"E5S_s.ogg",62
Sample,113750,0,"C#4S_Db4S_s.ogg",62
Sample,114167,0,"C#3S_Db3S.ogg",62
Sample,114167,0,"C#4S_Db4S_s.ogg",62
Sample,114167,0,"E4S.ogg",62
Sample,115000,0,"C#4S_Db4S_s.ogg",62
Sample,115000,0,"E4S.ogg",62
Sample,115000,0,"C#3S_Db3S.ogg",62
Sample,115833,0,"C#3S_Db3S.ogg",62
Sample,115833,0,"C#4S_Db4S_s.ogg",62
Sample,116667,0,"F#4S_Gb4S.ogg",62
Sample,116667,0,"B2S_s.ogg",62
Sample,116667,0,"B3S_s.ogg",62
Sample,116667,0,"B2S.ogg",62
Sample,116667,0,"E5S_s.ogg",62
Sample,117083,0,"B3S_s.ogg",62
Sample,117500,0,"B2S.ogg",62
Sample,117500,0,"B3S_s.ogg",62
Sample,118333,0,"B2S.ogg",62
Sample,118333,0,"B3S_s.ogg",62
Sample,118333,0,"D#4S_Eb4S_s.ogg",62
Sample,119167,0,"B2S_s.ogg",62

[TimingPoints]
0,833.333,4,1,1,100,1,0

[HitObjects]
83,192,0,5,0,0:0:0:62:C#4S_Db4S_s.ogg
302,192,0,1,0,0:0:0:62:G#4S_Ab4S_s.ogg
375,192,0,1,0,0:0:0:62:C#6S_Db6S_s.ogg
156,192,416,1,0,0:0:0:62:C#4S_Db4S.ogg
229,192,416,1,0,0:0:0:62:G#4S_Ab4S.ogg
448,192,416,1,0,0:0:0:62:B4S.ogg
10,192,624,1,0,0:0:0:62:G#5S_Ab5S_s.ogg
302,192,833,1,0,0:0:0:62:B5S_s.ogg
83,192,1249,1,0,0:0:0:62:C#6S_Db6S_s.ogg
375,192,1666,1,0,0:0:0:62:D#6S_Eb6S_s.ogg
156,192,1736,1,0,0:0:0:62:E6S_s.ogg
448,192,2083,1,0,0:0:0:62:D#6S_Eb6S_s.ogg
229,192,2499,1,0,0:0:0:62:C#6S_Db6S_s.ogg
10,192,2708,1,0,0:0:0:62:G#5S_Ab5S_s.ogg
83,192,3333,1,0,0:0:0:62:C#4S_Db4S_s.ogg
302,192,3333,1,0,0:0:0:62:G#4S_Ab4S_s.ogg
375,192,3333,1,0,0:0:0:62:C#6S_Db6S_s.ogg
156,192,3749,1,0,0:0:0:62:C#4S_Db4S.ogg
229,192,3749,1,0,0:0:0:62:G#4S_Ab4S.ogg
448,192,3749,1,0,0:0:0:62:A#4S_Bb4S.ogg
10,192,3958,1,0,0:0:0:62:G#5S_Ab5S_s.ogg
375,192,4166,1,0,0:0:0:62:B5S_s.ogg
83,192,4583,1,0,0:0:0:62:C#6S_Db6S_s.ogg
302,192,4999,1,0,0:0:0:62:E6S_s.ogg
156,192,5208,1,0,0:0:0:62:F#6S_Gb6S_s.ogg
448,192,5833,1,0,0:0:0:62:C#6S_Db6S_s.ogg
10,192,6666,1,0,0:0:0:62:C#4S_Db4S_s.ogg
229,192,6666,1,0,0:0:0:62:G#4S_Ab4S_s.ogg
375,192,6666,1,0,0:0:0:62:C#6S_Db6S_s.ogg
83,192,7083,1,0,0:0:0:62:C#4S_Db4S.ogg
156,192,7083,1,0,0:0:0:62:G#4S_Ab4S.ogg
302,192,7083,1,0,0:0:0:62:A4S.ogg
448,192,7291,1,0,0:0:0:62:G#5S_Ab5S_s.ogg
10,192,7499,1,0,0:0:0:62:B5S_s.ogg
229,192,7916,1,0,0:0:0:62:C#6S_Db6S_s.ogg
375,192,8333,1,0,0:0:0:62:G#6S_Ab6S_s.ogg
156,192,8749,1,0,0:0:0:62:F#6S_Gb6S_s.ogg
302,192,9166,1,0,0:0:0:62:E6S_s.ogg
83,192,9374,1,0,0:0:0:62:C#6S_Db6S_s.ogg
10,192,9999,1,0,0:0:0:62:C#4S_Db4S_s.ogg
229,192,9999,1,0,0:0:0:62:G#4S_Ab4S_s.ogg
448,192,9999,1,0,0:0:0:62:B6S_s.ogg
375,192,10208,1,0,0:0:0:62:A6S_s.ogg
83,192,10416,1,0,0:0:0:62:C#4S_Db4S.ogg
156,192,10416,1,0,0:0:0:62:E4S.ogg
302,192,10416,1,0,0:0:0:62:G#4S_Ab4S.ogg
448,192,10833,1,0,0:0:0:62:G#6S_Ab6S_s.ogg
10,192,11041,1,0,0:0:0:62:F#6S_Gb6S_s.ogg
229,192,11666,1,0,0:0:0:62:E6S_s.ogg
375,192,11874,1,0,0:0:0:62:D#6S_Eb6S_s.ogg
83,192,12499,1,0,0:0:0:62:C#6S_Db6S_s.ogg
302,192,12916,1,0,0:0:0:62:B5S_s.ogg
10,192,13333,1,0,0:0:0:62:C#3S_Db3S.ogg
156,192,13333,1,0,0:0:0:62:C#4S_Db4S_s.ogg
448,192,13333,1,0,0:0:0:62:C#5S_Db5S_s.ogg
229,192,13958,1,0,0:0:0:62:G#3S_Ab3S_s.ogg
375,192,13958,1,0,0:0:0:62:G#4S_Ab4S_s.ogg
83,192,14166,1,0,0:0:0:62:B3S_s.ogg
302,192,14166,1,0,0:0:0:62:B4S_s.ogg
156,192,14583,1,0,0:0:0:62:C#4S_Db4S_s.ogg
448,192,14583,1,0,0:0:0:62:C#5S_Db5S_s.ogg
10,192,14999,1,0,0:0:0:62:E4S_s.ogg
229,192,14999,1,0,0:0:0:62:E5S_s.ogg
83,192,15416,1,0,0:0:0:62:D#4S_Eb4S_s.ogg
375,192,15416,1,0,0:0:0:62:D#5S_Eb5S_s.ogg
156,192,15833,1,0,0:0:0:62:C#4S_Db4S_s.ogg
302,192,15833,1,0,0:0:0:62:C#5S_Db5S_s.ogg
10,192,16041,1,0,0:0:0:62:G#3S_Ab3S_s.ogg
448,192,16041,1,0,0:0:0:62:G#4S_Ab4S_s.ogg
83,192,16666,1,0,0:0:0:62:C#3S_Db3S.ogg
229,192,16666,1,0,0:0:0:62:C#4S_Db4S_s.ogg
375,192,16666,1,0,0:0:0:62:C#5S_Db5S_s.ogg
156,192,17291,1,0,0:0:0:62:G#3S_Ab3S_s.ogg
302,192,17291,1,0,0:0:0:62:G#4S_Ab4S_s.ogg
10,192,17499,1,0,0:0:0:62:B3S_s.ogg
448,192,17499,1,0,0:0:0:62:B4S_s.ogg
83,192,17916,1,0,0:0:0:62:C#4S_Db4S_s.ogg
229,192,17916,1,0,0:0:0:62:C#5S_Db5S_s.ogg
156,192,18333,1,0,0:0:0:62:E4S_s.ogg
375,192,18333,1,0,0:0:0:62:E5S_s.ogg
10,192,18541,1,0,0:0:0:62:F#4S_Gb4S_s.ogg
302,192,18541,1,0,0:0:0:62:F#5S_Gb5S_s.ogg
83,192,19166,1,0,0:0:0:62:C#4S_Db4S_s.ogg
448,192,19166,1,0,0:0:0:62:C#5S_Db5S_s.ogg
156,192,19999,1,0,0:0:0:62:C#3S_Db3S.ogg
229,192,19999,1,0,0:0:0:62:C#4S_Db4S_s.ogg
375,192,19999,1,0,0:0:0:62:C#5S_Db5S_s.ogg
10,192,20624,1,0,0:0:0:62:G#3S_Ab3S_s.ogg
302,192,20624,1,0,0:0:0:62:G#4S_Ab4S_s.ogg
83,192,20833,1,0,0:0:0:62:B3S_s.ogg
448,192,20833,1,0,0:0:0:62:B4S_s.ogg
156,192,21249,1,0,0:0:0:62:C#4S_Db4S_s.ogg
375,192,21249,1,0,0:0:0:62:C#5S_Db5S_s.ogg
229,192,21666,1,0,0:0:0:62:G#4S_Ab4S_s.ogg
302,192,21666,1,0,0:0:0:62:G#5S_Ab5S_s.ogg
10,192,22083,1,0,0:0:0:62:F#4S_Gb4S_s.ogg
448,192,22083,1,0,0:0:0:62:F#5S_Gb5S_s.ogg
83,192,22499,1,0,0:0:0:62:E4S_s.ogg
375,192,22499,1,0,0:0:0:62:E5S_s.ogg
156,192,22708,1,0,0:0:0:62:C#4S_Db4S_s.ogg
302,192,22708,1,0,0:0:0:62:C#5S_Db5S_s.ogg
10,192,23333,1,0,0:0:0:62:C#3S_Db3S.ogg
229,192,23333,1,0,0:0:0:62:B4S_s.ogg
448,192,23333,1,0,0:0:0:62:B5S_s.ogg
83,192,23541,1,0,0:0:0:62:A4S_s.ogg
375,192,23541,1,0,0:0:0:62:A5S_s.ogg
156,192,24166,1,0,0:0:0:62:G#4S_Ab4S_s.ogg
302,192,24166,1,0,0:0:0:62:G#5S_Ab5S_s.ogg
229,192,24374,1,0,0:0:0:62:F#4S_Gb4S_s.ogg
448,192,24374,1,0,0:0:0:62:F#5S_Gb5S_s.ogg
10,192,24999,1,0,0:0:0:62:E4S_s.ogg
375,192,24999,1,0,0:0:0:62:E5S_s.ogg
83,192,25208,1,0,0:0:0:62:D#4S_Eb4S_s.ogg
302,192,25208,1,0,0:0:0:62:D#5S_Eb5S_s.ogg
156,192,25833,1,0,0:0:0:62:C#4S_Db4S_s.ogg
229,192,25833,1,0,0:0:0:62:C#5S_Db5S_s.ogg
10,192,26249,1,0,0:0:0:62:B3S_s.ogg
448,192,26249,1,0,0:0:0:62:B4S_s.ogg
83,192,26666,1,0,0:0:0:62:A3S.ogg
156,192,26666,1,0,0:0:0:62:C#4S_Db4S.ogg
302,192,26666,1,0,0:0:0:62:C#4S_Db4S.ogg
375,192,26666,1,0,0:0:0:62:C#5S_Db5S_s.ogg
229,192,27291,1,0,0:0:0:62:G#3S_Ab3S_s.ogg
448,192,27291,1,0,0:0:0:62:G#4S_Ab4S_s.ogg
10,192,27499,1,0,0:0:0:62:B3S_s.ogg
375,192,27499,1,0,0:0:0:62:B4S_s.ogg
83,192,27916,1,0,0:0:0:62:C#4S_Db4S.ogg
302,192,27916,1,0,0:0:0:62:C#5S_Db5S_s.ogg
156,192,28333,1,0,0:0:0:62:E4S_s.ogg
229,192,28333,1,0,0:0:0:62:E5S_s.ogg
10,192,28749,1,0,0:0:0:62:D#4S_Eb4S_s.ogg
448,192,28749,1,0,0:0:0:62:D#5S_Eb5S_s.ogg
83,192,29166,1,0,0:0:0:62:C#4S_Db4S.ogg
375,192,29166,1,0,0:0:0:62:C#5S_Db5S_s.ogg
156,192,29374,1,0,0:0:0:62:G#3S_Ab3S_s.ogg
302,192,29374,1,0,0:0:0:62:G#4S_Ab4S_s.ogg
10,192,29999,1,0,0:0:0:62:F#3S_Gb3S.ogg
229,192,29999,1,0,0:0:0:62:A3S.ogg
375,192,29999,1,0,0:0:0:62:C#4S_Db4S.ogg
448,192,29999,1,0,0:0:0:62:C#5S_Db5S_s.ogg
83,192,30624,1,0,0:0:0:62:G#3S_Ab3S_s.ogg
302,192,30624,1,0,0:0:0:62:G#4S_Ab4S_s.ogg
156,192,30833,1,0,0:0:0:62:B3S_s.ogg
448,192,30833,1,0,0:0:0:62:B4S_s.ogg
10,192,31249,1,0,0:0:0:62:C#4S_Db4S.ogg
229,192,31249,1,0,0:0:0:62:C#5S_Db5S_s.ogg
83,192,31666,1,0,0:0:0:62:E4S_s.ogg
375,192,31666,1,0,0:0:0:62:E5S_s.ogg
156,192,31874,1,0,0:0:0:62:F#4S_Gb4S_s.ogg
302,192,31874,1,0,0:0:0:62:F#5S_Gb5S_s.ogg
10,192,32499,1,0,0:0:0:62:C#4S_Db4S.ogg
448,192,32499,1,0,0:0:0:62:C#5S_Db5S_s.ogg
83,192,33333,1,0,0:0:0:62:C#4S_Db4S.ogg
229,192,33333,1,0,0:0:0:62:C#4S_Db4S.ogg
302,192,33333,1,0,0:0:0:62:E4S.ogg
375,192,33333,1,0,0:0:0:62:C#5S_Db5S_s.ogg
156,192,33958,1,0,0:0:0:62:G#3S_Ab3S_s.ogg
448,192,33958,1,0,0:0:0:62:G#4S_Ab4S_s.ogg
10,192,34166,1,0,0:0:0:62:B3S_s.ogg
302,192,34166,1,0,0:0:0:62:B4S_s.ogg
83,192,34583,1,0,0:0:0:62:C#4S_Db4S.ogg
375,192,34583,1,0,0:0:0:62:C#5S_Db5S_s.ogg
156,192,34999,1,0,0:0:0:62:G#4S_Ab4S_s.ogg
229,192,34999,1,0,0:0:0:62:G#5S_Ab5S_s.ogg
10,192,35416,1,0,0:0:0:62:F#4S_Gb4S_s.ogg
448,192,35416,1,0,0:0:0:62:F#5S_Gb5S_s.ogg
83,192,35833,1,0,0:0:0:62:E4S_s.ogg
302,192,35833,1,0,0:0:0:62:E5S_s.ogg
229,192,36041,1,0,0:0:0:62:C#4S_Db4S.ogg
375,192,36041,1,0,0:0:0:62:C#5S_Db5S_s.ogg
10,192,36666,1,0,0:0:0:62:B3S.ogg
156,192,36666,1,0,0:0:0:62:E4S.ogg
302,192,36666,1,0,0:0:0:62:B4S_s.ogg
448,192,36666,1,0,0:0:0:62:B5S_s.ogg
83,192,36874,1,0,0:0:0:62:A4S_s.ogg
229,192,36874,1,0,0:0:0:62:A5S_s.ogg
156,192,37499,1,0,0:0:0:62:G#4S_Ab4S_s.ogg
375,192,37499,1,0,0:0:0:62:G#5S_Ab5S_s.ogg
10,192,37708,1,0,0:0:0:62:F#4S_Gb4S_s.ogg
302,192,37708,1,0,0:0:0:62:F#5S_Gb5S_s.ogg
83,192,38333,1,0,0:0:0:62:D#4S_Eb4S_s.ogg
229,192,38333,1,0,0:0:0:62:E4S_s.ogg
448,192,38333,1,0,0:0:0:62:E5S_s.ogg
156,192,38541,1,0,0:0:0:62:D#4S_Eb4S.ogg
375,192,38541,1,0,0:0:0:62:D#5S_Eb5S_s.ogg
10,192,39166,1,0,0:0:0:62:C#4S_Db4S.ogg
302,192,39166,1,0,0:0:0:62:C#5S_Db5S_s.ogg
83,192,39583,1,0,0:0:0:62:B3S_s.ogg
229,192,39583,1,0,0:0:0:62:B4S_s.ogg
156,192,39999,1,0,0:0:0:62:C#4S_Db4S_s.ogg
375,192,39999,1,0,0:0:0:62:G#4S_Ab4S_s.ogg
448,192,39999,1,0,0:0:0:62:C#5S_Db5S_s.ogg
10,192,40624,1,0,0:0:0:62:G#4S_Ab4S_s.ogg
83,192,40833,1,0,0:0:0:62:C#4S_Db4S_s.ogg
229,192,40833,1,0,0:0:0:62:G#4S_Ab4S_s.ogg
302,192,40833,1,0,0:0:0:62:B4S_s.ogg
448,192,41249,1,0,0:0:0:62:C#5S_Db5S_s.ogg
10,192,41666,1,0,0:0:0:62:C#4S_Db4S_s.ogg
156,192,41666,1,0,0:0:0:62:G#4S_Ab4S_s.ogg
375,192,41666,1,0,0:0:0:62:D#5S_Eb5S_s.ogg
302,192,41736,1,0,0:0:0:62:E5S_s.ogg
229,192,42083,1,0,0:0:0:62:D#5S_Eb5S_s.ogg
83,192,42499,1,0,0:0:0:62:C#4S_Db4S_s.ogg
156,192,42499,1,0,0:0:0:62:G#4S_Ab4S_s.ogg
448,192,42499,1,0,0:0:0:62:C#5S_Db5S_s.ogg
375,192,42708,1,0,0:0:0:62:G#4S_Ab4S_s.ogg
10,192,43333,1,0,0:0:0:62:C#4S_Db4S_s.ogg
229,192,43333,1,0,0:0:0:62:G#4S_Ab4S_s.ogg
302,192,43333,1,0,0:0:0:62:C#5S_Db5S_s.ogg
156,192,43958,1,0,0:0:0:62:G#4S_Ab4S_s.ogg
83,192,44166,1,0,0:0:0:62:C#4S_Db4S_s.ogg
375,192,44166,1,0,0:0:0:62:G#4S_Ab4S_s.ogg
448,192,44166,1,0,0:0:0:62:B4S_s.ogg
10,192,44583,1,0,0:0:0:62:C#5S_Db5S_s.ogg
156,192,44999,1,0,0:0:0:62:C#4S_Db4S_s.ogg
229,192,44999,1,0,0:0:0:62:G#4S_Ab4S_s.ogg
302,192,44999,1,0,0:0:0:62:E5S_s.ogg
375,192,45208,1,0,0:0:0:62:F#5S_Gb5S_s.ogg
10,192,45833,1,0,0:0:0:62:C#4S_Db4S_s.ogg
83,192,45833,1,0,0:0:0:62:G#4S_Ab4S_s.ogg
448,192,45833,1,0,0:0:0:62:C#5S_Db5S_s.ogg
156,192,46666,1,0,0:0:0:62:C#4S_Db4S_s.ogg
229,192,46666,1,0,0:0:0:62:G#4S_Ab4S_s.ogg
302,192,46666,1,0,0:0:0:62:C#5S_Db5S_s.ogg
375,192,47291,1,0,0:0:0:62:G#4S_Ab4S_s.ogg
10,192,47499,1,0,0:0:0:62:C#4S_Db4S_s.ogg
83,192,47499,1,0,0:0:0:62:G#4S_Ab4S_s.ogg
448,192,47499,1,0,0:0:0:62:B4S_s.ogg
302,192,47916,1,0,0:0:0:62:C#5S_Db5S_s.ogg
156,192,48333,1,0,0:0:0:62:C#4S_Db4S_s.ogg
229,192,48333,1,0,0:0:0:62:G#4S_Ab4S_s.ogg
375,192,48333,1,0,0:0:0:62:D#5S_Eb5S_s.ogg
83,192,48402,1,0,0:0:0:62:E5S_s.ogg
448,192,48749,1,0,0:0:0:62:D#5S_Eb5S_s.ogg
10,192,49166,1,0,0:0:0:62:C#4S_Db4S_s.ogg
156,192,49166,1,0,0:0:0:62:G#4S_Ab4S_s.ogg
302,192,49166,1,0,0:0:0:62:C#5S_Db5S_s.ogg
229,192,49374,1,0,0:0:0:62:G#4S_Ab4S_s.ogg
83,192,49999,1,0,0:0:0:62:C#4S_Db4S_s.ogg
375,192,49999,1,0,0:0:0:62:G#4S_Ab4S_s.ogg
448,192,49999,1,0,0:0:0:62:G#5S_Ab5S_s.ogg
156,192,50624,1,0,0:0:0:62:F#5S_Gb5S_s.ogg
10,192,50833,1,0,0:0:0:62:C#4S_Db4S_s.ogg
229,192,50833,1,0,0:0:0:62:G#4S_Ab4S_s.ogg
302,192,50833,1,0,0:0:0:62:E5S_s.ogg
448,192,51249,1,0,0:0:0:62:C#5S_Db5S_s.ogg
83,192,51666,1,0,0:0:0:62:C#4S_Db4S_s.ogg
156,192,51666,1,0,0:0:0:62:G#4S_Ab4S_s.ogg
375,192,51666,1,0,0:0:0:62:E5S_s.ogg
302,192,51874,1,0,0:0:0:62:F#5S_Gb5S_s.ogg
10,192,52499,1,0,0:0:0:62:C#4S_Db4S_s.ogg
229,192,52499,1,0,0:0:0:62:G#4S_Ab4S_s.ogg
448,192,52499,1,0,0:0:0:62:C#5S_Db5S_s.ogg
83,192,53333,1,0,0:0:0:62:A3S_s.ogg
156,192,53333,1,0,0:0:0:62:E4S_s.ogg
375,192,53333,1,0,0:0:0:62:C#5S_Db5S_s.ogg
302,192,53958,1,0,0:0:0:62:G#4S_Ab4S_s.ogg
10,192,54166,1,0,0:0:0:62:A3S_s.ogg
229,192,54166,1,0,0:0:0:62:E4S_s.ogg
448,192,54166,1,0,0:0:0:62:B4S_s.ogg
375,192,54583,1,0,0:0:0:62:C#5S_Db5S_s.ogg
83,192,54999,1,0,0:0:0:62:A3S_s.ogg
156,192,54999,1,0,0:0:0:62:E4S_s.ogg
302,192,54999,1,0,0:0:0:62:D#5S_Eb5S_s.ogg
10,192,55069,1,0,0:0:0:62:E5S_s.ogg
229,192,55416,1,0,0:0:0:62:D#5S_Eb5S_s.ogg
83,192,55833,1,0,0:0:0:62:A3S_s.ogg
375,192,55833,1,0,0:0:0:62:E4S_s.ogg
448,192,55833,1,0,0:0:0:62:C#5S_Db5S_s.ogg
302,192,56041,1,0,0:0:0:62:G#4S_Ab4S_s.ogg
10,192,56666,1,0,0:0:0:62:F#3S_Gb3S_s.ogg
156,192,56666,1,0,0:0:0:62:C#4S_Db4S_s.ogg
229,192,56666,1,0,0:0:0:62:C#5S_Db5S_s.ogg
448,192,57291,1,0,0:0:0:62:G#4S_Ab4S_s.ogg
83,192,57499,1,0,0:0:0:62:F#3S_Gb3S_s.ogg
302,192,57499,1,0,0:0:0:62:C#4S_Db4S_s.ogg
375,192,57499,1,0,0:0:0:62:B4S_s.ogg
156,192,57916,1,0,0:0:0:62:C#5S_Db5S_s.ogg
10,192,58333,1,0,0:0:0:62:F#3S_Gb3S_s.ogg
229,192,58333,1,0,0:0:0:62:C#4S_Db4S_s.ogg
448,192,58333,1,0,0:0:0:62:E5S_s.ogg
83,192,58541,1,0,0:0:0:62:F#5S_Gb5S_s.ogg
156,192,59166,1,0,0:0:0:62:F#3S_Gb3S_s.ogg
302,192,59166,1,0,0:0:0:62:C#4S_Db4S_s.ogg
375,192,59166,1,0,0:0:0:62:C#5S_Db5S_s.ogg
10,192,59999,1,0,0:0:0:62:C#4S_Db4S_s.ogg
229,192,59999,1,0,0:0:0:62:G#4S_Ab4S_s.ogg
448,192,59999,1,0,0:0:0:62:C#5S_Db5S_s.ogg
83,192,60208,1,0,0:0:0:62:G#4S_Ab4S_s.ogg
156,192,60833,1,0,0:0:0:62:C#4S_Db4S_s.ogg
302,192,60833,1,0,0:0:0:62:G#4S_Ab4S_s.ogg
375,192,60833,1,0,0:0:0:62:B4S_s.ogg
10,192,61249,1,0,0:0:0:62:C#5S_Db5S_s.ogg
83,192,61666,1,0,0:0:0:62:C#4S_Db4S_s.ogg
229,192,61666,1,0,0:0:0:62:G#4S_Ab4S_s.ogg
448,192,61666,1,0,0:0:0:62:G#5S_Ab5S_s.ogg
302,192,61874,1,0,0:0:0:62:F#5S_Gb5S_s.ogg
10,192,62499,1,0,0:0:0:62:C#4S_Db4S_s.ogg
156,192,62499,1,0,0:0:0:62:G#4S_Ab4S_s.ogg
375,192,62499,1,0,0:0:0:62:E5S_s.ogg
448,192,62708,1,0,0:0:0:62:C#5S_Db5S_s.ogg
83,192,63333,1,0,0:0:0:62:B3S_s.ogg
229,192,63333,1,0,0:0:0:62:F#4S_Gb4S_s.ogg
302,192,63333,1,0,0:0:0:62:G#5S_Ab5S_s.ogg
10,192,63749,1,0,0:0:0:62:F#5S_Gb5S_s.ogg
156,192,64166,1,0,0:0:0:62:B3S_s.ogg
375,192,64166,1,0,0:0:0:62:F#4S_Gb4S_s.ogg
448,192,64166,1,0,0:0:0:62:E5S_s.ogg
83,192,64583,1,0,0:0:0:62:D#5S_Eb5S_s.ogg
10,192,64999,1,0,0:0:0:62:B3S_s.ogg
229,192,64999,1,0,0:0:0:62:F#4S_Gb4S_s.ogg
302,192,64999,1,0,0:0:0:62:E5S_s.ogg
375,192,65416,1,0,0:0:0:62:D#5S_Eb5S_s.ogg
83,192,65833,1,0,0:0:0:62:B3S_s.ogg
156,192,65833,1,0,0:0:0:62:F#4S_Gb4S_s.ogg
448,192,65833,1,0,0:0:0:62:C#5S_Db5S_s.ogg
302,192,66249,1,0,0:0:0:62:B4S_s.ogg
10,192,66666,1,0,0:0:0:62:E4S_s.ogg
83,192,66666,1,0,0:0:0:62:C#5S_Db5S.ogg
229,192,66666,1,0,0:0:0:62:C#5S_Db5S_s.ogg
375,192,66666,1,0,0:0:0:62:C#6S_Db6S_s.ogg
156,192,67291,1,0,0:0:0:62:G#4S_Ab4S_s.ogg
448,192,67291,1,0,0:0:0:62:G#5S_Ab5S_s.ogg
83,192,67499,1,0,0:0:0:62:E4S_s.ogg
229,192,67499,1,0,0:0:0:62:B4S_s.ogg
302,192,67499,1,0,0:0:0:62:C#5S_Db5S_s.ogg
375,192,67499,1,0,0:0:0:62:B5S_s.ogg
10,192,67916,1,0,0:0:0:62:C#5S_Db5S.ogg
448,192,67916,1,0,0:0:0:62:C#6S_Db6S_s.ogg
83,192,68333,1,0,0:0:0:62:E4S_s.ogg
156,192,68333,1,0,0:0:0:62:C#5S_Db5S_s.ogg
302,192,68333,1,0,0:0:0:62:E5S_s.ogg
375,192,68333,1,0,0:0:0:62:E6S_s.ogg
229,192,68749,1,0,0:0:0:62:D#5S_Eb5S_s.ogg
448,192,68749,1,0,0:0:0:62:D#6S_Eb6S_s.ogg
10,192,69166,1,0,0:0:0:62:E4S_s.ogg
83,192,69166,1,0,0:0:0:62:C#5S_Db5S.ogg
302,192,69166,1,0,0:0:0:62:C#5S_Db5S_s.ogg
375,192,69166,1,0,0:0:0:62:C#6S_Db6S_s.ogg
156,192,69374,1,0,0:0:0:62:G#4S_Ab4S_s.ogg
448,192,69374,1,0,0:0:0:62:G#5S_Ab5S_s.ogg
10,192,69999,1,0,0:0:0:62:C#4S_Db4S_s.ogg
229,192,69999,1,0,0:0:0:62:A4S_s.ogg
302,192,69999,1,0,0:0:0:62:C#5S_Db5S.ogg
375,192,69999,1,0,0:0:0:62:C#6S_Db6S_s.ogg
83,192,70624,1,0,0:0:0:62:G#4S_Ab4S_s.ogg
448,192,70624,1,0,0:0:0:62:G#5S_Ab5S_s.ogg
10,192,70833,1,0,0:0:0:62:C#4S_Db4S_s.ogg
156,192,70833,1,0,0:0:0:62:A4S_s.ogg
229,192,70833,1,0,0:0:0:62:B4S_s.ogg
375,192,70833,1,0,0:0:0:62:B5S_s.ogg
83,192,71249,1,0,0:0:0:62:C#5S_Db5S.ogg
302,192,71249,1,0,0:0:0:62:C#6S_Db6S_s.ogg
10,192,71666,1,0,0:0:0:62:C#4S_Db4S_s.ogg
156,192,71666,1,0,0:0:0:62:A4S_s.ogg
375,192,71666,1,0,0:0:0:62:E5S_s.ogg
448,192,71666,1,0,0:0:0:62:E6S_s.ogg
83,192,71874,1,0,0:0:0:62:F#5S_Gb5S_s.ogg
229,192,71874,1,0,0:0:0:62:F#6S_Gb6S_s.ogg
10,192,72499,1,0,0:0:0:62:C#4S_Db4S_s.ogg
156,192,72499,1,0,0:0:0:62:A4S_s.ogg
302,192,72499,1,0,0:0:0:62:C#5S_Db5S.ogg
375,192,72499,1,0,0:0:0:62:C#6S_Db6S_s.ogg
83,192,73333,1,0,0:0:0:62:G#4S_Ab4S_s.ogg
229,192,73333,1,0,0:0:0:62:C#5S_Db5S.ogg
375,192,73333,1,0,0:0:0:62:E5S_s.ogg
448,192,73333,1,0,0:0:0:62:C#6S_Db6S_s.ogg
10,192,73958,1,0,0:0:0:62:G#4S_Ab4S_s.ogg
302,192,73958,1,0,0:0:0:62:G#5S_Ab5S_s.ogg
83,192,74166,1,0,0:0:0:62:G#4S_Ab4S_s.ogg
156,192,74166,1,0,0:0:0:62:B4S_s.ogg
229,192,74166,1,0,0:0:0:62:E5S_s.ogg
448,192,74166,1,0,0:0:0:62:B5S_s.ogg
10,192,74583,1,0,0:0:0:62:C#5S_Db5S.ogg
375,192,74583,1,0,0:0:0:62:C#6S_Db6S_s.ogg
156,192,74999,1,0,0:0:0:62:G#4S_Ab4S_s.ogg
229,192,74999,1,0,0:0:0:62:E5S.ogg
302,192,74999,1,0,0:0:0:62:E5S_s.ogg
448,192,74999,1,0,0:0:0:62:E6S_s.ogg
83,192,75416,1,0,0:0:0:62:D#5S_Eb5S_s.ogg
375,192,75416,1,0,0:0:0:62:D#6S_Eb6S_s.ogg
10,192,75833,1,0,0:0:0:62:G#4S_Ab4S_s.ogg
156,192,75833,1,0,0:0:0:62:C#5S_Db5S.ogg
229,192,75833,1,0,0:0:0:62:E5S_s.ogg
302,192,75833,1,0,0:0:0:62:C#6S_Db6S_s.ogg
83,192,76041,1,0,0:0:0:62:G#4S_Ab4S_s.ogg
448,192,76041,1,0,0:0:0:62:G#5S_Ab5S_s.ogg
10,192,76666,1,0,0:0:0:62:F#4S_Gb4S_s.ogg
156,192,76666,1,0,0:0:0:62:D#5S_Eb5S_s.ogg
302,192,76666,1,0,0:0:0:62:G#5S_Ab5S_s.ogg
375,192,76666,1,0,0:0:0:62:G#6S_Ab6S_s.ogg
83,192,77291,1,0,0:0:0:62:F#5S_Gb5S_s.ogg
229,192,77291,1,0,0:0:0:62:F#6S_Gb6S_s.ogg
10,192,77499,1,0,0:0:0:62:F#4S_Gb4S_s.ogg
156,192,77499,1,0,0:0:0:62:D#5S_Eb5S_s.ogg
302,192,77499,1,0,0:0:0:62:E5S.ogg
448,192,77499,1,0,0:0:0:62:E6S_s.ogg
83,192,77916,1,0,0:0:0:62:C#5S_Db5S.ogg
375,192,77916,1,0,0:0:0:62:C#6S_Db6S_s.ogg
156,192,78333,1,0,0:0:0:62:F#4S_Gb4S_s.ogg
229,192,78333,1,0,0:0:0:62:D#5S_Eb5S_s.ogg
302,192,78333,1,0,0:0:0:62:E5S.ogg
448,192,78333,1,0,0:0:0:62:E6S_s.ogg
10,192,78541,1,0,0:0:0:62:F#5S_Gb5S_s.ogg
375,192,78541,1,0,0:0:0:62:F#6S_Gb6S_s.ogg
83,192,79166,1,0,0:0:0:62:F#4S_Gb4S_s.ogg
156,192,79166,1,0,0:0:0:62:C#5S_Db5S.ogg
229,192,79166,1,0,0:0:0:62:D#5S_Eb5S_s.ogg
448,192,79166,1,0,0:0:0:62:C#6S_Db6S_s.ogg
10,192,79999,1,0,0:0:0:62:E4S_s.ogg
83,192,79999,1,0,0:0:0:62:C#5S_Db5S.ogg
302,192,79999,1,0,0:0:0:62:C#5S_Db5S_s.ogg
375,192,79999,1,0,0:0:0:62:C#6S_Db6S_s.ogg
156,192,80624,1,0,0:0:0:62:G#4S_Ab4S_s.ogg
448,192,80624,1,0,0:0:0:62:G#5S_Ab5S_s.ogg
10,192,80833,1,0,0:0:0:62:E4S_s.ogg
83,192,80833,1,0,0:0:0:62:B4S_s.ogg
229,192,80833,1,0,0:0:0:62:C#5S_Db5S_s.ogg
375,192,80833,1,0,0:0:0:62:B5S_s.ogg
156,192,81249,1,0,0:0:0:62:C#5S_Db5S.ogg
302,192,81249,1,0,0:0:0:62:C#6S_Db6S_s.ogg
10,192,81666,1,0,0:0:0:62:E4S_s.ogg
229,192,81666,1,0,0:0:0:62:C#5S_Db5S_s.ogg
375,192,81666,1,0,0:0:0:62:E5S.ogg
448,192,81666,1,0,0:0:0:62:E6S_s.ogg
83,192,82083,1,0,0:0:0:62:D#5S_Eb5S_s.ogg
302,192,82083,1,0,0:0:0:62:D#6S_Eb6S_s.ogg
10,192,82499,1,0,0:0:0:62:E4S_s.ogg
156,192,82499,1,0,0:0:0:62:C#5S_Db5S.ogg
229,192,82499,1,0,0:0:0:62:C#5S_Db5S_s.ogg
448,192,82499,1,0,0:0:0:62:C#6S_Db6S_s.ogg
83,192,82708,1,0,0:0:0:62:G#4S_Ab4S_s.ogg
375,192,82708,1,0,0:0:0:62:G#5S_Ab5S_s.ogg
156,192,83333,1,0,0:0:0:62:C#4S_Db4S_s.ogg
229,192,83333,1,0,0:0:0:62:A4S_s.ogg
302,192,83333,1,0,0:0:0:62:C#5S_Db5S.ogg
448,192,83333,1,0,0:0:0:62:C#6S_Db6S_s.ogg
10,192,83958,1,0,0:0:0:62:G#4S_Ab4S_s.ogg
375,192,83958,1,0,0:0:0:62:G#5S_Ab5S_s.ogg
83,192,84166,1,0,0:0:0:62:C#4S_Db4S_s.ogg
156,192,84166,1,0,0:0:0:62:A4S_s.ogg
302,192,84166,1,0,0:0:0:62:B4S_s.ogg
448,192,84166,1,0,0:0:0:62:B5S_s.ogg
10,192,84583,1,0,0:0:0:62:C#5S_Db5S.ogg
229,192,84583,1,0,0:0:0:62:C#6S_Db6S_s.ogg
83,192,84999,1,0,0:0:0:62:C#4S_Db4S_s.ogg
156,192,84999,1,0,0:0:0:62:A4S_s.ogg
375,192,84999,1,0,0:0:0:62:E5S.ogg
448,192,84999,1,0,0:0:0:62:E6S_s.ogg
10,192,85208,1,0,0:0:0:62:F#5S_Gb5S_s.ogg
302,192,85208,1,0,0:0:0:62:F#6S_Gb6S_s.ogg
83,192,85833,1,0,0:0:0:62:C#4S_Db4S_s.ogg
156,192,85833,1,0,0:0:0:62:A4S_s.ogg
229,192,85833,1,0,0:0:0:62:C#5S_Db5S.ogg
375,192,85833,1,0,0:0:0:62:C#6S_Db6S_s.ogg
10,192,86666,1,0,0:0:0:62:G#4S_Ab4S_s.ogg
83,192,86666,1,0,0:0:0:62:C#5S_Db5S.ogg
302,192,86666,1,0,0:0:0:62:E5S_s.ogg
448,192,86666,1,0,0:0:0:62:C#6S_Db6S_s.ogg
156,192,86874,1,0,0:0:0:62:G#4S_Ab4S_s.ogg
375,192,86874,1,0,0:0:0:62:G#5S_Ab5S_s.ogg
83,192,87499,1,0,0:0:0:62:G#4S_Ab4S_s.ogg
229,192,87499,1,0,0:0:0:62:B4S_s.ogg
302,192,87499,1,0,0:0:0:62:E5S_s.ogg
448,192,87499,1,0,0:0:0:62:B5S_s.ogg
10,192,87916,1,0,0:0:0:62:C#5S_Db5S.ogg
375,192,87916,1,0,0:0:0:62:C#6S_Db6S_s.ogg
83,192,88333,1,0,0:0:0:62:G#4S_Ab4S_s.ogg
156,192,88333,1,0,0:0:0:62:E5S_s.ogg
229,192,88333,1,0,0:0:0:62:G#5S_Ab5S_s.ogg
302,192,88333,1,0,0:0:0:62:G#6S_Ab6S_s.ogg
10,192,88541,1,0,0:0:0:62:F#5S_Gb5S_s.ogg
448,192,88541,1,0,0:0:0:62:F#6S_Gb6S_s.ogg
156,192,89166,1,0,0:0:0:62:G#4S_Ab4S_s.ogg
229,192,89166,1,0,0:0:0:62:E5S.ogg
302,192,89166,1,0,0:0:0:62:E5S_s.ogg
375,192,89166,1,0,0:0:0:62:E6S_s.ogg
83,192,89374,1,0,0:0:0:62:C#5S_Db5S.ogg
448,192,89374,1,0,0:0:0:62:C#6S_Db6S_s.ogg
10,192,89999,1,0,0:0:0:62:F#4S_Gb4S_s.ogg
156,192,89999,1,0,0:0:0:62:D#5S_Eb5S_s.ogg
229,192,89999,1,0,0:0:0:62:G#5S_Ab5S_s.ogg
302,192,89999,1,0,0:0:0:62:G#6S_Ab6S_s.ogg
83,192,90416,1,0,0:0:0:62:F#5S_Gb5S_s.ogg
375,192,90416,1,0,0:0:0:62:F#6S_Gb6S_s.ogg
156,192,90833,1,0,0:0:0:62:F#4S_Gb4S_s.ogg
229,192,90833,1,0,0:0:0:62:D#5S_Eb5S_s.ogg
302,192,90833,1,0,0:0:0:62:E5S.ogg
448,192,90833,1,0,0:0:0:62:E6S_s.ogg
10,192,91249,1,0,0:0:0:62:D#5S_Eb5S_s.ogg
375,192,91249,1,0,0:0:0:62:D#6S_Eb6S_s.ogg
83,192,91666,1,0,0:0:0:62:F#4S_Gb4S_s.ogg
156,192,91666,1,0,0:0:0:62:D#5S_Eb5S_s.ogg
229,192,91666,1,0,0:0:0:62:E5S.ogg
448,192,91666,1,0,0:0:0:62:E6S_s.ogg
10,192,92083,1,0,0:0:0:62:D#5S_Eb5S_s.ogg
302,192,92083,1,0,0:0:0:62:D#6S_Eb6S_s.ogg
83,192,92499,1,0,0:0:0:62:F#4S_Gb4S_s.ogg
156,192,92499,1,0,0:0:0:62:C#5S_Db5S.ogg
375,192,92499,1,0,0:0:0:62:D#5S_Eb5S_s.ogg
448,192,92499,1,0,0:0:0:62:C#6S_Db6S_s.ogg
229,192,92916,1,0,0:0:0:62:B4S_s.ogg
302,192,92916,1,0,0:0:0:62:B5S_s.ogg
10,192,93333,1,0,0:0:0:62:E4S_s.ogg
83,192,93333,1,0,0:0:0:62:C#5S_Db5S.ogg
375,192,93333,1,0,0:0:0:62:C#5S_Db5S_s.ogg
448,192,93333,1,0,0:0:0:62:C#6S_Db6S_s.ogg
156,192,93749,1,0,0:0:0:62:A3S_s.ogg
83,192,94166,1,0,0:0:0:62:E4S_s.ogg
229,192,94166,1,0,0:0:0:62:E4S.ogg
302,192,94166,1,0,0:0:0:62:A4S_s.ogg
375,192,94166,1,0,0:0:0:62:C#5S_Db5S_s.ogg
10,192,94583,1,0,0:0:0:62:C#5S_Db5S.ogg
156,192,94583,1,0,0:0:0:62:E5S.ogg
375,192,94583,1,0,0:0:0:62:A5S_s.ogg
448,192,94583,1,0,0:0:0:62:C#6S_Db6S_s.ogg
83,192,94791,1,0,0:0:0:62:D#5S_Eb5S_s.ogg
229,192,94791,1,0,0:0:0:62:A5S_s.ogg
302,192,94791,1,0,0:0:0:62:C#6S_Db6S_s.ogg
375,192,94791,1,0,0:0:0:62:D#6S_Eb6S_s.ogg
10,192,94999,1,0,0:0:0:62:E5S.ogg
156,192,94999,1,0,0:0:0:62:A5S_s.ogg
329,192,94999,1,0,0:0:0:62:C#6S_Db6S_s.ogg
448,192,94999,1,0,0:0:0:62:E6S_s.ogg
83,192,95416,1,0,0:0:0:62:A3S_s.ogg
10,192,95833,1,0,0:0:0:62:F#5S_Gb5S_s.ogg
229,192,95833,1,0,0:0:0:62:A5S_s.ogg
302,192,95833,1,0,0:0:0:62:C#6S_Db6S_s.ogg
448,192,95833,1,0,0:0:0:62:F#6S_Gb6S_s.ogg
375,192,96249,1,0,0:0:0:62:G#2S_Ab2S_s.ogg
10,192,96666,1,0,0:0:0:62:F#2S_Gb2S.ogg
83,192,96666,1,0,0:0:0:62:F#3S_Gb3S_s.ogg
156,192,96666,1,0,0:0:0:62:G#4S_Ab4S_s.ogg
448,192,96666,1,0,0:0:0:62:A4S_s.ogg
302,192,97083,1,0,0:0:0:62:F#3S_Gb3S_s.ogg
156,192,97499,1,0,0:0:0:62:C#4S_Db4S_s.ogg
229,192,97499,1,0,0:0:0:62:F#4S_Gb4S_s.ogg
375,192,97499,1,0,0:0:0:62:G#4S_Ab4S_s.ogg
448,192,97499,1,0,0:0:0:62:A4S_s.ogg
10,192,97916,1,0,0:0:0:62:D#5S_Eb5S_s.ogg
83,192,97916,1,0,0:0:0:62:E5S_s.ogg
156,192,97916,1,0,0:0:0:62:A5S_s.ogg
302,192,97916,1,0,0:0:0:62:D#6S_Eb6S_s.ogg
156,192,98124,1,0,0:0:0:62:E5S.ogg
229,192,98124,1,0,0:0:0:62:A5S_s.ogg
375,192,98124,1,0,0:0:0:62:C#6S_Db6S_s.ogg
448,192,98124,1,0,0:0:0:62:E6S_s.ogg
10,192,98333,1,0,0:0:0:62:F#5S_Gb5S_s.ogg
83,192,98333,1,0,0:0:0:62:A5S_s.ogg
302,192,98333,1,0,0:0:0:62:C#6S_Db6S_s.ogg
375,192,98333,1,0,0:0:0:62:F#6S_Gb6S_s.ogg
156,192,98749,1,0,0:0:0:62:F#3S_Gb3S_s.ogg
10,192,98958,1,0,0:0:0:62:E5S.ogg
229,192,98958,1,0,0:0:0:62:A5S_s.ogg
302,192,98958,1,0,0:0:0:62:C#6S_Db6S_s.ogg
448,192,98958,1,0,0:0:0:62:E6S_s.ogg
83,192,99166,1,0,0:0:0:62:F#5S_Gb5S_s.ogg
156,192,99166,1,0,0:0:0:62:A5S_s.ogg
302,192,99166,1,0,0:0:0:62:C#6S_Db6S_s.ogg
375,192,99166,1,0,0:0:0:62:F#6S_Gb6S_s.ogg
10,192,99583,1,0,0:0:0:62:F#3S_Gb3S_s.ogg
156,192,99791,1,0,0:0:0:62:E5S.ogg
229,192,99791,1,0,0:0:0:62:A5S_s.ogg
375,192,99791,1,0,0:0:0:62:C#6S_Db6S_s.ogg
448,192,99791,1,0,0:0:0:62:E6S_s.ogg
10,192,99999,1,0,0:0:0:62:F#5S_Gb5S_s.ogg
83,192,99999,1,0,0:0:0:62:C#6S_Db6S_s.ogg
302,192,99999,1,0,0:0:0:62:E6S_s.ogg
375,192,99999,1,0,0:0:0:62:F#6S_Gb6S_s.ogg
10,192,100416,1,0,0:0:0:62:G#5S_Ab5S.ogg
156,192,100416,1,0,0:0:0:62:C#6S_Db6S.ogg
229,192,100416,1,0,0:0:0:62:E6S.ogg
448,192,100416,1,0,0:0:0:62:G#6S_Ab6S.ogg
10,192,100833,1,0,0:0:0:62:G#4S_Ab4S_s.ogg
83,192,100833,1,0,0:0:0:62:G#4S_Ab4S.ogg
302,192,100833,1,0,0:0:0:62:C#5S_Db5S_s.ogg
375,192,100833,1,0,0:0:0:62:E5S_s.ogg
448,192,101249,1,0,0:0:0:62:C#4S_Db4S_s.ogg
83,192,101666,1,0,0:0:0:62:G#4S_Ab4S_s.ogg
156,192,101666,1,0,0:0:0:62:G#4S_Ab4S.ogg
229,192,101666,1,0,0:0:0:62:C#5S_Db5S_s.ogg
375,192,101666,1,0,0:0:0:62:E5S_s.ogg
302,192,102083,1,0,0:0:0:62:C#4S_Db4S_s.ogg
10,192,102499,1,0,0:0:0:62:G#4S_Ab4S_s.ogg
156,192,102499,1,0,0:0:0:62:G#4S_Ab4S.ogg
375,192,102499,1,0,0:0:0:62:C#5S_Db5S_s.ogg
448,192,102499,1,0,0:0:0:62:E5S_s.ogg
229,192,102916,1,0,0:0:0:62:C#4S_Db4S_s.ogg
10,192,103124,1,0,0:0:0:62:G#5S_Ab5S_s.ogg
83,192,103124,1,0,0:0:0:62:C#6S_Db6S_s.ogg
302,192,103124,1,0,0:0:0:62:E6S_s.ogg
375,192,103124,1,0,0:0:0:62:G#6S_Ab6S_s.ogg
83,192,103333,1,0,0:0:0:62:F#5S_Gb5S_s.ogg
156,192,103333,1,0,0:0:0:62:B5S_s.ogg
229,192,103333,1,0,0:0:0:62:D#6S_Eb6S_s.ogg
448,192,103333,1,0,0:0:0:62:F#6S_Gb6S_s.ogg
10,192,103749,1,0,0:0:0:62:D#5S_Eb5S.ogg
156,192,103749,1,0,0:0:0:62:F#5S_Gb5S.ogg
302,192,103749,1,0,0:0:0:62:B5S.ogg
375,192,103749,1,0,0:0:0:62:D#6S_Eb6S.ogg
83,192,104166,1,0,0:0:0:62:F#4S_Gb4S_s.ogg
229,192,104166,1,0,0:0:0:62:F#4S_Gb4S.ogg
375,192,104166,1,0,0:0:0:62:B4S_s.ogg
448,192,104166,1,0,0:0:0:62:E5S_s.ogg
10,192,104583,1,0,0:0:0:62:B3S_s.ogg
83,192,104999,1,0,0:0:0:62:F#4S_Gb4S_s.ogg
156,192,104999,1,0,0:0:0:62:F#4S_Gb4S.ogg
302,192,104999,1,0,0:0:0:62:B4S_s.ogg
375,192,104999,1,0,0:0:0:62:D#5S_Eb5S.ogg
10,192,105833,1,0,0:0:0:62:B3S_s.ogg
229,192,105833,1,0,0:0:0:62:C#4S_Db4S_s.ogg
302,192,105833,1,0,0:0:0:62:F#4S_Gb4S.ogg
448,192,105833,1,0,0:0:0:62:D#5S_Eb5S_s.ogg
156,192,106249,1,0,0:0:0:62:B2S.ogg
375,192,106249,1,0,0:0:0:62:B3S_s.ogg
10,192,106666,1,0,0:0:0:62:A2S.ogg
83,192,106666,1,0,0:0:0:62:A3S_s.ogg
229,192,106666,1,0,0:0:0:62:E4S.ogg
448,192,106666,1,0,0:0:0:62:C#5S_Db5S_s.ogg
302,192,107083,1,0,0:0:0:62:A3S_s.ogg
83,192,107499,1,0,0:0:0:62:E4S_s.ogg
156,192,107499,1,0,0:0:0:62:E4S.ogg
375,192,107499,1,0,0:0:0:62:A4S_s.ogg
448,192,107499,1,0,0:0:0:62:C#5S_Db5S_s.ogg
10,192,107916,1,0,0:0:0:62:C#5S_Db5S.ogg
83,192,107916,1,0,0:0:0:62:E5S.ogg
229,192,107916,1,0,0:0:0:62:A5S_s.ogg
302,192,107916,1,0,0:0:0:62:C#6S_Db6S_s.ogg
10,192,108124,1,0,0:0:0:62:D#5S_Eb5S_s.ogg
156,192,108124,1,0,0:0:0:62:A5S_s.ogg
375,192,108124,1,0,0:0:0:62:C#6S_Db6S_s.ogg
448,192,108124,1,0,0:0:0:62:D#6S_Eb6S_s.ogg
10,192,108333,1,0,0:0:0:62:E5S.ogg
83,192,108333,1,0,0:0:0:62:A5S_s.ogg
229,192,108333,1,0,0:0:0:62:C#6S_Db6S_s.ogg
302,192,108333,1,0,0:0:0:62:E6S_s.ogg
375,192,108749,1,0,0:0:0:62:A3S_s.ogg
10,192,109166,1,0,0:0:0:62:F#5S_Gb5S_s.ogg
156,192,109166,1,0,0:0:0:62:A5S_s.ogg
302,192,109166,1,0,0:0:0:62:C#6S_Db6S_s.ogg
448,192,109166,1,0,0:0:0:62:F#6S_Gb6S_s.ogg
83,192,109583,1,0,0:0:0:62:G#2S_Ab2S_s.ogg
156,192,109999,1,0,0:0:0:62:F#2S_Gb2S.ogg
229,192,109999,1,0,0:0:0:62:F#3S_Gb3S_s.ogg
375,192,109999,1,0,0:0:0:62:G#4S_Ab4S.ogg
448,192,109999,1,0,0:0:0:62:A4S_s.ogg
10,192,110416,1,0,0:0:0:62:F#3S_Gb3S_s.ogg
83,192,110833,1,0,0:0:0:62:C#4S_Db4S_s.ogg
156,192,110833,1,0,0:0:0:62:F#4S_Gb4S.ogg
302,192,110833,1,0,0:0:0:62:G#4S_Ab4S.ogg
375,192,110833,1,0,0:0:0:62:A4S_s.ogg
10,192,111111,1,0,0:0:0:62:D#5S_Eb5S_s.ogg
229,192,111111,1,0,0:0:0:62:E5S_s.ogg
302,192,111111,1,0,0:0:0:62:A5S_s.ogg
448,192,111111,1,0,0:0:0:62:D#6S_Eb6S_s.ogg
156,192,111249,1,0,0:0:0:62:F#3S_Gb3S_s.ogg
10,192,111388,1,0,0:0:0:62:E5S.ogg
83,192,111388,1,0,0:0:0:62:A5S_s.ogg
375,192,111388,1,0,0:0:0:62:C#6S_Db6S_s.ogg
448,192,111388,1,0,0:0:0:62:E6S_s.ogg
156,192,111666,1,0,0:0:0:62:F#5S_Gb5S_s.ogg
229,192,111666,1,0,0:0:0:62:A5S_s.ogg
302,192,111666,1,0,0:0:0:62:C#6S_Db6S_s.ogg
448,192,111666,1,0,0:0:0:62:F#6S_Gb6S_s.ogg
83,192,112083,1,0,0:0:0:62:F#3S_Gb3S_s.ogg
10,192,112291,1,0,0:0:0:62:E5S.ogg
156,192,112291,1,0,0:0:0:62:A5S_s.ogg
302,192,112291,1,0,0:0:0:62:C#6S_Db6S_s.ogg
375,192,112291,1,0,0:0:0:62:E6S_s.ogg
83,192,112499,1,0,0:0:0:62:F#5S_Gb5S_s.ogg
229,192,112499,1,0,0:0:0:62:A5S_s.ogg
302,192,112499,1,0,0:0:0:62:C#6S_Db6S_s.ogg
448,192,112499,1,0,0:0:0:62:F#6S_Gb6S_s.ogg
156,192,112916,1,0,0:0:0:62:F#3S_Gb3S_s.ogg
10,192,113124,1,0,0:0:0:62:E5S.ogg
83,192,113124,1,0,0:0:0:62:A5S_s.ogg
375,192,113124,1,0,0:0:0:62:C#6S_Db6S_s.ogg
448,192,113124,1,0,0:0:0:62:E6S_s.ogg
156,192,113333,1,0,0:0:0:62:F#5S_Gb5S_s.ogg
229,192,113333,1,0,0:0:0:62:C#6S_Db6S_s.ogg
302,192,113333,1,0,0:0:0:62:E6S_s.ogg
448,192,113333,1,0,0:0:0:62:F#6S_Gb6S_s.ogg
10,192,113749,1,0,0:0:0:62:G#5S_Ab5S.ogg
83,192,113749,1,0,0:0:0:62:C#6S_Db6S.ogg
375,192,113749,1,0,0:0:0:62:E6S.ogg
448,192,113749,1,0,0:0:0:62:G#6S_Ab6S.ogg
10,192,114166,1,0,0:0:0:62:G#4S_Ab4S_s.ogg
156,192,114166,1,0,0:0:0:62:G#4S_Ab4S.ogg
229,192,114166,1,0,0:0:0:62:C#5S_Db5S_s.ogg
302,192,114166,1,0,0:0:0:62:E5S_s.ogg
448,192,114583,1,0,0:0:0:62:C#4S_Db4S_s.ogg
10,192,114999,1,0,0:0:0:62:G#4S_Ab4S_s.ogg
83,192,114999,1,0,0:0:0:62:G#4S_Ab4S.ogg
302,192,114999,1,0,0:0:0:62:C#5S_Db5S_s.ogg
375,192,114999,1,0,0:0:0:62:E5S_s.ogg
229,192,115416,1,0,0:0:0:62:C#4S_Db4S_s.ogg
10,192,115833,1,0,0:0:0:62:E4S.ogg
156,192,115833,1,0,0:0:0:62:G#4S_Ab4S_s.ogg
375,192,115833,1,0,0:0:0:62:C#5S_Db5S_s.ogg
448,192,115833,1,0,0:0:0:62:E5S_s.ogg
83,192,116249,1,0,0:0:0:62:C#4S_Db4S_s.ogg
10,192,116458,1,0,0:0:0:62:G#5S_Ab5S_s.ogg
229,192,116458,1,0,0:0:0:62:C#6S_Db6S_s.ogg
302,192,116458,1,0,0:0:0:62:E6S_s.ogg
375,192,116458,1,0,0:0:0:62:G#6S_Ab6S_s.ogg
83,192,116666,1,0,0:0:0:62:F#5S_Gb5S_s.ogg
156,192,116666,1,0,0:0:0:62:B5S_s.ogg
375,192,116666,1,0,0:0:0:62:D#6S_Eb6S_s.ogg
448,192,116666,1,0,0:0:0:62:F#6S_Gb6S_s.ogg
10,192,117083,1,0,0:0:0:62:D#5S_Eb5S.ogg
229,192,117083,1,0,0:0:0:62:F#5S_Gb5S.ogg
302,192,117083,1,0,0:0:0:62:B5S.ogg
375,192,117083,1,0,0:0:0:62:D#6S_Eb6S.ogg
83,192,117499,1,0,0:0:0:62:F#4S_Gb4S_s.ogg
156,192,117499,1,0,0:0:0:62:F#4S_Gb4S.ogg
302,192,117499,1,0,0:0:0:62:B4S_s.ogg
448,192,117499,1,0,0:0:0:62:E5S_s.ogg
10,192,117916,1,0,0:0:0:62:B3S_s.ogg
156,192,118333,1,0,0:0:0:62:F#4S_Gb4S_s.ogg
229,192,118333,1,0,0:0:0:62:F#4S_Gb4S.ogg
302,192,118333,1,0,0:0:0:62:B4S_s.ogg
375,192,118333,1,0,0:0:0:62:D#5S_Eb5S.ogg
10,192,119166,1,0,0:0:0:62:C#3S_Db3S.ogg
83,192,119166,1,0,0:0:0:62:B3S_s.ogg
302,192,119166,1,0,0:0:0:62:C#4S_Db4S_s.ogg
448,192,119166,1,0,0:0:0:62:D#5S_Eb5S_s.ogg
156,192,119583,1,0,0:0:0:62:B3S_s.ogg
10,192,119999,1,0,0:0:0:62:C#3S_Db3S.ogg
229,192,119999,1,0,0:0:0:62:C#4S_Db4S.ogg
375,192,119999,1,0,0:0:0:62:C#4S_Db4S.ogg
448,192,119999,1,0,0:0:0:62:C#5S_Db5S.ogg
83,192,120624,1,0,0:0:0:62:G#3S_Ab3S_s.ogg
302,192,120624,1,0,0:0:0:62:G#4S_Ab4S_s.ogg
156,192,120833,1,0,0:0:0:62:B3S_s.ogg
448,192,120833,1,0,0:0:0:62:B4S_s.ogg
10,192,121249,1,0,0:0:0:62:C#4S_Db4S.ogg
375,192,121249,1,0,0:0:0:62:C#5S_Db5S.ogg
229,192,121666,1,0,0:0:0:62:E4S_s.ogg
302,192,121666,1,0,0:0:0:62:E5S.ogg
83,192,122083,1,0,0:0:0:62:D#4S_Eb4S_s.ogg
448,192,122083,1,0,0:0:0:62:D#5S_Eb5S_s.ogg
156,192,122499,1,0,0:0:0:62:C#4S_Db4S.ogg
375,192,122499,1,0,0:0:0:62:C#5S_Db5S.ogg
10,192,122708,1,0,0:0:0:62:G#3S_Ab3S_s.ogg
302,192,122708,1,0,0:0:0:62:G#4S_Ab4S_s.ogg
83,192,123333,1,0,0:0:0:62:C#3S_Db3S.ogg
156,192,123333,1,0,0:0:0:62:C#4S_Db4S.ogg
229,192,123333,1,0,0:0:0:62:C#4S_Db4S.ogg
448,192,123333,1,0,0:0:0:62:C#5S_Db5S.ogg
10,192,123958,1,0,0:0:0:62:G#3S_Ab3S_s.ogg
375,192,123958,1,0,0:0:0:62:G#4S_Ab4S_s.ogg
83,192,124166,1,0,0:0:0:62:B3S_s.ogg
302,192,124166,1,0,0:0:0:62:B4S_s.ogg
229,192,124583,1,0,0:0:0:62:C#4S_Db4S.ogg
448,192,124583,1,0,0:0:0:62:C#5S_Db5S.ogg
156,192,124999,1,0,0:0:0:62:E4S_s.ogg
375,192,124999,1,0,0:0:0:62:E5S.ogg
10,192,125208,1,0,0:0:0:62:F#4S_Gb4S_s.ogg
302,192,125208,1,0,0:0:0:62:F#5S_Gb5S_s.ogg
83,192,125833,1,0,0:0:0:62:C#4S_Db4S.ogg
448,192,125833,1,0,0:0:0:62:C#5S_Db5S.ogg
10,192,126666,1,0,0:0:0:62:C#3S_Db3S.ogg
156,192,126666,1,0,0:0:0:62:C#4S_Db4S.ogg
229,192,126666,1,0,0:0:0:62:C#4S_Db4S.ogg
375,192,126666,1,0,0:0:0:62:C#5S_Db5S.ogg
83,192,127291,1,0,0:0:0:62:G#3S_Ab3S_s.ogg
302,192,127291,1,0,0:0:0:62:G#4S_Ab4S_s.ogg
156,192,127499,1,0,0:0:0:62:B3S_s.ogg
448,192,127499,1,0,0:0:0:62:B4S_s.ogg
229,192,127916,1,0,0:0:0:62:C#4S_Db4S.ogg
375,192,127916,1,0,0:0:0:62:C#5S_Db5S.ogg
10,192,128333,1,0,0:0:0:62:G#4S_Ab4S_s.ogg
302,192,128333,1,0,0:0:0:62:G#5S_Ab5S_s.ogg
83,192,128749,1,0,0:0:0:62:F#4S_Gb4S_s.ogg
448,192,128749,1,0,0:0:0:62:F#5S_Gb5S_s.ogg
156,192,129166,1,0,0:0:0:62:E4S_s.ogg
229,192,129166,1,0,0:0:0:62:E5S.ogg
10,192,129374,1,0,0:0:0:62:C#4S_Db4S.ogg
375,192,129374,1,0,0:0:0:62:C#5S_Db5S.ogg
83,192,129999,1,0,0:0:0:62:C#3S_Db3S.ogg
156,192,129999,1,0,0:0:0:62:C#4S_Db4S.ogg
302,192,129999,1,0,0:0:0:62:B4S_s.ogg
448,192,129999,1,0,0:0:0:62:B5S_s.ogg
10,192,130208,1,0,0:0:0:62:A4S_s.ogg
229,192,130208,1,0,0:0:0:62:A5S_s.ogg
83,192,130833,1,0,0:0:0:62:G#4S_Ab4S_s.ogg
375,192,130833,1,0,0:0:0:62:G#5S_Ab5S_s.ogg
156,192,131041,1,0,0:0:0:62:F#4S_Gb4S_s.ogg
448,192,131041,1,0,0:0:0:62:F#5S_Gb5S_s.ogg
302,192,131666,1,0,0:0:0:62:E4S_s.ogg
10,192,131874,1,0,0:0:0:62:D#4S_Eb4S_s.ogg
229,192,131874,1,0,0:0:0:62:D#5S_Eb5S_s.ogg
83,192,132499,1,0,0:0:0:62:C#4S_Db4S.ogg
375,192,132499,1,0,0:0:0:62:C#5S_Db5S.ogg
156,192,132916,1,0,0:0:0:62:B3S_s.ogg
448,192,132916,1,0,0:0:0:62:B4S_s.ogg
302,192,133333,1,0,0:0:0:62:C#4S_Db4S.ogg
