osu file format v14

[General]
AudioFilename: audio.mp3
AudioLeadIn: 0
PreviewTime: -1
Countdown: 0
SampleSet: Normal
StackLeniency: 0.7
Mode: 3
LetterboxInBreaks: 0
SpecialStyle: 0
WidescreenStoryboard: 0

[Editor]
DistanceSpacing: 1.2
BeatDivisor: 4
GridSize: 4
TimelineZoom: 1

[Metadata]
Title:Eternal Pack 2
TitleUnicode:Eternal Pack 2
Artist:Various Artists
ArtistUnicode:Various Artists
Creator:[Shana Lesus]
Version:Aion - The Still Sad World
Source:
Tags:
BeatmapID:2204318
BeatmapSetID:1049301

[Difficulty]
HPDrainRate:8
CircleSize:7
OverallDifficulty:8
ApproachRate:5
SliderMultiplier:1.4
SliderTickRate:1

[Events]
//Background and Video events
0,0,"Aion2.jpg",0,0
//Break Periods
//Storyboard Layer 0 (Background)
//Storyboard Layer 1 (Fail)
//Storyboard Layer 2 (Pass)
//Storyboard Layer 3 (Foreground)
//Storyboard Layer 4 (Overlay)
//Storyboard Sound Samples
Sample,5700,0,"F6S.ogg",66
Sample,19200,0,"D#3S_Eb3S_s.ogg",54
Sample,28800,0,"D#3S_Eb3S_s.ogg",49
Sample,30900,0,"C#5S_Db5S_s.ogg",71
Sample,31200,0,"G#2S_Ab2S_s.ogg",52
Sample,32400,0,"D#4S_Eb4S_s.ogg",63
Sample,35400,0,"A#4S_Bb4S.ogg",74
Sample,39600,0,"D#5S_Eb5S.ogg",51
Sample,39600,0,"A#5S_Bb5S.ogg",51
Sample,45600,0,"A#2S_Bb2S_s.ogg",59
Sample,45600,0,"A#3S_Bb3S_s.ogg",59
Sample,52800,0,"C#3S_Db3S_s.ogg",51
Sample,55200,0,"A#2S_Bb2S_s.ogg",49
Sample,57768,0,"B2S_s.ogg",51
Sample,57768,0,"F#5S_Gb5S_s.ogg",74
Sample,64509,0,"A#6S_Bb6S.ogg",55
Sample,64839,0,"F#5S_Gb5S_s.ogg",51
Sample,65139,0,"G#4S_Ab4S_s.ogg",50

[TimingPoints]
-2158,5000,4,1,1,100,1,0
-908,600,4,1,1,100,1,0
0,600,4,1,1,100,1,0
21142,600,4,1,1,100,1,0
22392,600,4,1,1,100,1,0
56400,600,4,1,1,100,1,0
56470,608.937,4,1,1,100,1,0
56541,618.145,4,1,1,100,1,0
56613,627.635,4,1,1,100,1,0
56687,637.422,4,1,1,100,1,0
56762,647.518,4,1,1,100,1,0
56838,657.939,4,1,1,100,1,0
56915,668.702,4,1,1,100,1,0
56993,679.822,4,1,1,100,1,0
57073,691.319,4,1,1,100,1,0
57154,703.21,4,1,1,100,1,0
57236,715.519,4,1,1,100,1,0
57320,728.266,4,1,1,100,1,0
57405,741.475,4,1,1,100,1,0
57492,755.172,4,1,1,100,1,0
57580,769.385,4,1,1,100,1,0
57670,784.143,4,1,1,100,1,0
57765,800,4,1,1,100,1,0
57768,800,4,1,1,100,1,0
57831,785.261,4,1,1,100,1,0
57892,771.057,4,1,1,100,1,0
57952,757.356,4,1,1,100,1,0
58011,744.135,4,1,1,100,1,0
58069,731.367,4,1,1,100,1,0
58126,719.03,4,1,1,100,1,0
58182,707.102,4,1,1,100,1,0
58237,695.563,4,1,1,100,1,0
58291,684.395,4,1,1,100,1,0
58344,673.58,4,1,1,100,1,0
58397,663.101,4,1,1,100,1,0
58449,652.943,4,1,1,100,1,0
58500,643.092,4,1,1,100,1,0
58550,633.534,4,1,1,100,1,0
58599,624.256,4,1,1,100,1,0
58648,615.245,4,1,1,100,1,0
58698,606.06,4,1,1,100,1,0
62739,600,4,1,1,100,1,0
67842,600,4,1,1,100,1,0
69092,600,4,1,1,100,1,0
79539,600,4,1,1,100,1,0
79750,608.919,4,1,1,100,1,0
79964,618.108,4,1,1,100,1,0
80181,627.579,4,1,1,100,1,0
80402,637.344,4,1,1,100,1,0
80626,647.418,4,1,1,100,1,0
80854,657.815,4,1,1,100,1,0
81085,668.552,4,1,1,100,1,0
81320,679.646,4,1,1,100,1,0
81559,691.113,4,1,1,100,1,0
81802,702.974,4,1,1,100,1,0
82296,727.962,4,1,1,100,1,0
82552,741.133,4,1,1,100,1,0
82813,754.791,4,1,1,100,1,0
83078,768.961,4,1,1,100,1,0
83348,783.673,4,1,1,100,1,0
83642,800,4,1,1,100,1,0

[HitObjects]
83,192,75,5,0,0:0:0:54:A#5S_Bb5S.ogg
448,192,75,1,0,0:0:0:53:F#6S_Gb6S.ogg
229,192,150,1,0,0:0:0:54:D#6S_Eb6S.ogg
375,192,150,1,0,0:0:0:53:D#7S_Eb7S.ogg
10,192,1725,1,0,0:0:0:41:F6S_s.ogg
302,192,1800,1,0,0:0:0:90:C#7S_Db7S_s.ogg
156,192,2100,1,0,0:0:0:57:C7S_s.ogg
83,192,2400,1,0,0:0:0:40:C#5S_Db5S_s.ogg
448,192,2400,1,0,0:0:0:53:G#6S_Ab6S.ogg
375,192,2700,1,0,0:0:0:69:G#5S_Ab5S_s.ogg
229,192,3000,1,0,0:0:0:67:A#5S_Bb5S_s.ogg
10,192,3300,1,0,0:0:0:66:C#6S_Db6S_s.ogg
302,192,3600,1,0,0:0:0:59:D#6S_Eb6S.ogg
156,192,4800,1,0,0:0:0:45:D#5S_Eb5S_s.ogg
448,192,4800,1,0,0:0:0:71:F6S.ogg
83,192,4875,1,0,0:0:0:71:F#6S_Gb6S.ogg
375,192,4950,1,0,0:0:0:71:D#7S_Eb7S.ogg
229,192,5100,1,0,0:0:0:66:A#5S_Bb5S_s.ogg
10,192,5400,1,0,0:0:0:70:D#6S_Eb6S_s.ogg
156,192,5700,1,0,0:0:0:63:F#6S_Gb6S.ogg
302,192,5700,1,0,0:0:0:63:A#6S_Bb6S.ogg
448,192,5700,1,0,0:0:0:63:F#7S_Gb7S.ogg
83,192,6300,1,0,0:0:0:55:D#6S_Eb6S.ogg
229,192,6600,1,0,0:0:0:76:G#6S_Ab6S_s.ogg
375,192,6600,1,0,0:0:0:76:F7S_s.ogg
10,192,6900,1,0,0:0:0:55:D#7S_Eb7S_s.ogg
156,192,7200,1,0,0:0:0:54:B4S_s.ogg
302,192,7200,1,0,0:0:0:56:F#6S_Gb6S.ogg
448,192,7200,1,0,0:0:0:56:D#7S_Eb7S.ogg
83,192,7500,1,0,0:0:0:68:F#5S_Gb5S_s.ogg
375,192,7800,1,0,0:0:0:67:B5S_s.ogg
229,192,8100,1,0,0:0:0:66:C#6S_Db6S_s.ogg
10,192,8400,1,0,0:0:0:62:D#6S_Eb6S_s.ogg
448,192,8700,1,0,0:0:0:62:F6S_s.ogg
156,192,9000,1,0,0:0:0:62:F#6S_Gb6S.ogg
302,192,9300,1,0,0:0:0:69:B6S_s.ogg
83,192,9600,1,0,0:0:0:51:D#5S_Eb5S.ogg
375,192,9600,1,0,0:0:0:59:F6S.ogg
10,192,9675,1,0,0:0:0:51:A#5S_Bb5S.ogg
229,192,9675,1,0,0:0:0:59:F#6S_Gb6S.ogg
156,192,9750,1,0,0:0:0:51:D#6S_Eb6S.ogg
448,192,9750,1,0,0:0:0:59:D#7S_Eb7S.ogg
302,192,11325,1,0,0:0:0:48:F#6S_Gb6S_s.ogg
83,192,11400,1,0,0:0:0:85:C#7S_Db7S_s.ogg
229,192,11700,1,0,0:0:0:59:F6S_s.ogg
375,192,11700,1,0,0:0:0:59:C7S_s.ogg
10,192,12000,1,0,0:0:0:46:G#4S_Ab4S_s.ogg
156,192,12000,1,0,0:0:0:54:D#6S_Eb6S.ogg
448,192,12000,1,0,0:0:0:54:A#6S_Bb6S.ogg
302,192,12300,1,0,0:0:0:76:G#5S_Ab5S_s.ogg
83,192,12600,1,0,0:0:0:66:A#5S_Bb5S_s.ogg
229,192,12900,1,0,0:0:0:64:C6S.ogg
375,192,12900,1,0,0:0:0:56:G#6S_Ab6S_s.ogg
156,192,13200,1,0,0:0:0:51:D#6S_Eb6S.ogg
448,192,14100,1,0,0:0:0:65:G#6S_Ab6S_s.ogg
10,192,14400,1,0,0:0:0:50:B3S_s.ogg
302,192,14400,1,0,0:0:0:81:G#6S_Ab6S_s.ogg
83,192,14475,1,0,0:0:0:59:A#6S_Bb6S.ogg
375,192,14550,1,0,0:0:0:57:F#4S_Gb4S_s.ogg
229,192,14700,1,0,0:0:0:62:B4S_s.ogg
156,192,14850,1,0,0:0:0:62:C#5S_Db5S_s.ogg
448,192,15000,1,0,0:0:0:67:D#5S_Eb5S_s.ogg
10,192,15150,1,0,0:0:0:62:F5S_s.ogg
302,192,15300,1,0,0:0:0:63:F#5S_Gb5S_s.ogg
83,192,15450,1,0,0:0:0:64:G#5S_Ab5S_s.ogg
375,192,15600,1,0,0:0:0:64:A#5S_Bb5S_s.ogg
229,192,15750,1,0,0:0:0:61:B5S_s.ogg
156,192,15900,1,0,0:0:0:68:C#6S_Db6S_s.ogg
448,192,16050,1,0,0:0:0:64:D#6S_Eb6S_s.ogg
10,192,16200,1,0,0:0:0:63:F6S_s.ogg
302,192,16350,1,0,0:0:0:66:F#6S_Gb6S_s.ogg
83,192,16500,1,0,0:0:0:60:G#6S_Ab6S_s.ogg
375,192,16650,1,0,0:0:0:62:A#6S_Bb6S_s.ogg
229,192,16800,1,0,0:0:0:60:B6S_s.ogg
156,192,16950,1,0,0:0:0:61:C#7S_Db7S_s.ogg
448,192,17100,1,0,0:0:0:59:D#7S_Eb7S_s.ogg
10,192,17250,1,0,0:0:0:64:F7S_s.ogg
302,192,17400,1,0,0:0:0:64:F#7S_Gb7S.ogg
83,192,18900,1,0,0:0:0:54:G#5S_Ab5S_s.ogg
156,192,19200,1,0,0:0:0:68:F#5S_Gb5S.ogg
229,192,19200,1,0,0:0:0:68:A#5S_Bb5S.ogg
375,192,19200,1,0,0:0:0:68:D#6S_Eb6S.ogg
448,192,19500,1,0,0:0:0:63:A#3S_Bb3S_s.ogg
10,192,19800,1,0,0:0:0:66:D#4S_Eb4S_s.ogg
302,192,20100,1,0,0:0:0:63:F4S_s.ogg
83,192,20400,1,0,0:0:0:61:F#4S_Gb4S_s.ogg
375,192,20700,1,0,0:0:0:62:A#4S_Bb4S_s.ogg
156,192,21000,1,0,0:0:0:59:F#4S_Gb4S.ogg
229,192,21000,1,0,0:0:0:77:F#5S_Gb5S_s.ogg
448,192,21000,1,0,0:0:0:77:C#6S_Db6S_s.ogg
302,192,21442,1,0,0:0:0:74:C6S.ogg
375,192,21442,1,0,0:0:0:53:G#2S_Ab2S_s.ogg
83,192,21442,1,0,0:0:0:74:F#5S_Gb5S.ogg
10,192,21442,1,0,0:0:0:74:C#5S_Db5S.ogg
156,192,21742,1,0,0:0:0:61:D#3S_Eb3S_s.ogg
448,192,22042,1,0,0:0:0:62:G#3S_Ab3S_s.ogg
229,192,22504,1,0,0:0:0:64:C4S_s.ogg
10,192,22804,1,0,0:0:0:62:D#4S_Eb4S.ogg
83,192,22804,1,0,0:0:0:50:C5S.ogg
302,192,22804,1,0,0:0:0:50:G#5S_Ab5S.ogg
375,192,23704,1,0,0:0:0:55:F5S_s.ogg
156,192,24004,1,0,0:0:0:46:D#3S_Eb3S_s.ogg
229,192,24004,1,0,0:0:0:62:A#4S_Bb4S.ogg
448,192,24004,1,0,0:0:0:62:F#5S_Gb5S.ogg
10,192,24304,1,0,0:0:0:66:A#3S_Bb3S_s.ogg
302,192,24604,1,0,0:0:0:69:D#4S_Eb4S.ogg
83,192,24904,1,0,0:0:0:56:A#4S_Bb4S.ogg
375,192,24904,1,0,0:0:0:56:D#5S_Eb5S.ogg
156,192,25429,1,0,0:0:0:54:D#5S_Eb5S_s.ogg
229,192,25504,1,0,0:0:0:85:G#5S_Ab5S_s.ogg
448,192,25804,1,0,0:0:0:55:F#5S_Gb5S_s.ogg
10,192,26104,1,0,0:0:0:55:F5S_s.ogg
83,192,26404,1,0,0:0:0:49:B2S_s.ogg
302,192,26404,1,0,0:0:0:53:B4S.ogg
375,192,26404,1,0,0:0:0:53:D#5S_Eb5S.ogg
156,192,26704,1,0,0:0:0:64:F#3S_Gb3S_s.ogg
229,192,27004,1,0,0:0:0:62:B3S_s.ogg
448,192,27304,1,0,0:0:0:62:D#4S_Eb4S_s.ogg
10,192,27604,1,0,0:0:0:63:F4S_s.ogg
302,192,27904,1,0,0:0:0:58:F#4S_Gb4S_s.ogg
83,192,28204,1,0,0:0:0:55:F4S_s.ogg
156,192,28504,1,0,0:0:0:56:D#4S_Eb4S_s.ogg
375,192,28504,1,0,0:0:0:51:G#5S_Ab5S_s.ogg
10,192,28804,1,0,0:0:0:63:D#5S_Eb5S.ogg
229,192,28804,1,0,0:0:0:63:A#5S_Bb5S.ogg
448,192,28804,1,0,0:0:0:63:D#6S_Eb6S.ogg
302,192,29104,1,0,0:0:0:62:A#3S_Bb3S_s.ogg
83,192,29404,1,0,0:0:0:61:D#4S_Eb4S_s.ogg
375,192,29704,1,0,0:0:0:64:F4S_s.ogg
156,192,30004,1,0,0:0:0:61:F#4S_Gb4S_s.ogg
448,192,30304,1,0,0:0:0:62:A#4S_Bb4S_s.ogg
229,192,30604,1,0,0:0:0:57:F#4S_Gb4S_s.ogg
10,192,30904,1,0,0:0:0:55:G#5S_Ab5S_s.ogg
83,192,30904,1,0,0:0:0:55:C#6S_Db6S_s.ogg
302,192,30904,1,0,0:0:0:55:F6S_s.ogg
156,192,31204,1,0,0:0:0:59:F#5S_Gb5S.ogg
375,192,31204,1,0,0:0:0:59:C6S.ogg
448,192,31204,1,0,0:0:0:59:F#6S_Gb6S.ogg
229,192,31504,1,0,0:0:0:63:D#3S_Eb3S_s.ogg
83,192,31804,1,0,0:0:0:62:G#3S_Ab3S_s.ogg
302,192,32104,1,0,0:0:0:61:C4S_s.ogg
10,192,32404,1,0,0:0:0:56:D#5S_Eb5S.ogg
156,192,32404,1,0,0:0:0:56:G#5S_Ab5S.ogg
448,192,32404,1,0,0:0:0:56:D#6S_Eb6S.ogg
375,192,32704,1,0,0:0:0:53:G#3S_Ab3S_s.ogg
229,192,33004,1,0,0:0:0:64:C4S_s.ogg
83,192,33304,1,0,0:0:0:63:D#4S_Eb4S_s.ogg
302,192,33304,1,0,0:0:0:68:G#6S_Ab6S_s.ogg
10,192,33604,1,0,0:0:0:50:D#3S_Eb3S_s.ogg
156,192,33604,1,0,0:0:0:56:A#5S_Bb5S.ogg
448,192,33604,1,0,0:0:0:56:F#6S_Gb6S.ogg
375,192,33904,1,0,0:0:0:65:A#3S_Bb3S_s.ogg
229,192,34204,1,0,0:0:0:65:D#4S_Eb4S.ogg
83,192,34504,1,0,0:0:0:54:F#5S_Gb5S.ogg
302,192,34504,1,0,0:0:0:54:D#6S_Eb6S.ogg
448,192,35104,1,0,0:0:0:74:F6S_s.ogg
10,192,35404,1,0,0:0:0:74:D#5S_Eb5S.ogg
156,192,35404,1,0,0:0:0:53:A#5S_Bb5S.ogg
375,192,35404,1,0,0:0:0:58:F#6S_Gb6S_s.ogg
229,192,35704,1,0,0:0:0:56:F6S_s.ogg
83,192,36004,1,0,0:0:0:54:B2S_s.ogg
302,192,36004,1,0,0:0:0:54:F#5S_Gb5S_s.ogg
448,192,36004,1,0,0:0:0:54:D#6S_Eb6S_s.ogg
10,192,36154,1,0,0:0:0:61:F6S_s.ogg
156,192,36304,1,0,0:0:0:65:F#3S_Gb3S_s.ogg
375,192,36304,1,0,0:0:0:58:D#6S_Eb6S.ogg
229,192,36604,1,0,0:0:0:62:B3S_s.ogg
302,192,36904,1,0,0:0:0:62:D#4S_Eb4S_s.ogg
83,192,37204,1,0,0:0:0:50:F4S_s.ogg
448,192,37504,1,0,0:0:0:61:F#4S_Gb4S_s.ogg
10,192,37804,1,0,0:0:0:61:B4S_s.ogg
375,192,38104,1,0,0:0:0:67:D#5S_Eb5S_s.ogg
156,192,38404,1,0,0:0:0:65:F5S_s.ogg
229,192,38554,1,0,0:0:0:64:F#5S_Gb5S_s.ogg
302,192,38704,1,0,0:0:0:65:B5S_s.ogg
83,192,38854,1,0,0:0:0:62:C#6S_Db6S_s.ogg
448,192,39004,1,0,0:0:0:66:D#6S_Eb6S_s.ogg
10,192,39154,1,0,0:0:0:65:F#6S_Gb6S_s.ogg
375,192,39304,1,0,0:0:0:65:A#6S_Bb6S_s.ogg
156,192,39454,1,0,0:0:0:70:D#7S_Eb7S_s.ogg
83,192,39604,1,0,0:0:0:51:D#6S_Eb6S.ogg
229,192,39604,1,0,0:0:0:63:G#6S_Ab6S.ogg
302,192,39604,1,0,0:0:0:63:F7S.ogg
10,192,40804,1,0,0:0:0:60:D#3S_Eb3S_s.ogg
375,192,40804,1,0,0:0:0:54:A#5S_Bb5S.ogg
448,192,40804,1,0,0:0:0:54:F#6S_Gb6S.ogg
156,192,41104,1,0,0:0:0:65:D#4S_Eb4S_s.ogg
302,192,41404,1,0,0:0:0:62:A#4S_Bb4S_s.ogg
83,192,41704,1,0,0:0:0:69:D#5S_Eb5S_s.ogg
229,192,41704,1,0,0:0:0:56:A#5S_Bb5S.ogg
375,192,41704,1,0,0:0:0:56:F6S.ogg
10,192,42004,1,0,0:0:0:66:F5S_s.ogg
156,192,42304,1,0,0:0:0:59:F#5S_Gb5S_s.ogg
302,192,42304,1,0,0:0:0:66:A#5S_Bb5S.ogg
448,192,42304,1,0,0:0:0:66:F#6S_Gb6S.ogg
83,192,42604,1,0,0:0:0:56:F5S_s.ogg
229,192,42904,1,0,0:0:0:56:D#5S_Eb5S_s.ogg
10,192,43204,1,0,0:0:0:59:C#3S_Db3S_s.ogg
302,192,43204,1,0,0:0:0:70:G#5S_Ab5S.ogg
375,192,43204,1,0,0:0:0:70:F6S.ogg
156,192,43504,1,0,0:0:0:67:C#4S_Db4S_s.ogg
448,192,43804,1,0,0:0:0:65:G#4S_Ab4S_s.ogg
10,192,44104,1,0,0:0:0:68:C#5S_Db5S_s.ogg
83,192,44104,1,0,0:0:0:54:G#5S_Ab5S.ogg
229,192,44104,1,0,0:0:0:54:D#6S_Eb6S.ogg
375,192,44404,1,0,0:0:0:67:D#5S_Eb5S_s.ogg
156,192,44704,1,0,0:0:0:63:F5S_s.ogg
302,192,44704,1,0,0:0:0:56:G#5S_Ab5S.ogg
448,192,44704,1,0,0:0:0:56:C#6S_Db6S.ogg
10,192,45004,1,0,0:0:0:55:D#5S_Eb5S_s.ogg
83,192,45304,1,0,0:0:0:55:C#5S_Db5S_s.ogg
156,192,45604,1,0,0:0:0:70:F5S.ogg
229,192,45604,1,0,0:0:0:70:A#5S_Bb5S.ogg
375,192,45604,1,0,0:0:0:70:C#6S_Db6S.ogg
448,192,45904,1,0,0:0:0:61:F4S_s.ogg
302,192,46204,1,0,0:0:0:60:A#4S_Bb4S_s.ogg
10,192,46504,1,0,0:0:0:52:F4S_s.ogg
83,192,46504,1,0,0:0:0:62:A#5S_Bb5S.ogg
375,192,46504,1,0,0:0:0:62:D#6S_Eb6S.ogg
229,192,46804,1,0,0:0:0:74:C#5S_Db5S.ogg
156,192,47104,1,0,0:0:0:66:F6S_s.ogg
448,192,47404,1,0,0:0:0:59:A#4S_Bb4S.ogg
302,192,47554,1,0,0:0:0:49:A#5S_Bb5S_s.ogg
10,192,47704,1,0,0:0:0:86:D#6S_Eb6S_s.ogg
375,192,47854,1,0,0:0:0:64:F6S_s.ogg
83,192,48004,1,0,0:0:0:50:B2S_s.ogg
156,192,48004,1,0,0:0:0:50:B3S_s.ogg
229,192,48004,1,0,0:0:0:57:D#6S_Eb6S.ogg
448,192,48304,1,0,0:0:0:62:F4S_s.ogg
302,192,48604,1,0,0:0:0:59:F#4S_Gb4S_s.ogg
10,192,48829,1,0,0:0:0:54:D#7S_Eb7S.ogg
229,192,48904,1,0,0:0:0:64:B4S_s.ogg
375,192,48904,1,0,0:0:0:72:D#8S_Eb8S.ogg
83,192,49204,1,0,0:0:0:66:C#5S_Db5S_s.ogg
156,192,49504,1,0,0:0:0:62:D#5S_Eb5S_s.ogg
448,192,49804,1,0,0:0:0:64:F#5S_Gb5S.ogg
302,192,50104,1,0,0:0:0:72:B5S_s.ogg
10,192,50404,1,0,0:0:0:55:D#3S_Eb3S_s.ogg
229,192,50404,1,0,0:0:0:79:A#5S_Bb5S.ogg
375,192,50404,1,0,0:0:0:79:F#6S_Gb6S.ogg
83,192,50704,1,0,0:0:0:70:D#4S_Eb4S_s.ogg
156,192,51004,1,0,0:0:0:64:A#4S_Bb4S_s.ogg
10,192,51304,1,0,0:0:0:68:D#5S_Eb5S_s.ogg
302,192,51304,1,0,0:0:0:56:A#5S_Bb5S.ogg
448,192,51304,1,0,0:0:0:56:F6S.ogg
375,192,51604,1,0,0:0:0:65:F5S_s.ogg
83,192,51904,1,0,0:0:0:64:F#5S_Gb5S_s.ogg
156,192,51904,1,0,0:0:0:59:A#5S_Bb5S.ogg
229,192,51904,1,0,0:0:0:59:F#6S_Gb6S.ogg
302,192,52204,1,0,0:0:0:53:F5S_s.ogg
10,192,52504,1,0,0:0:0:56:D#5S_Eb5S_s.ogg
83,192,52804,1,0,0:0:0:74:G#5S_Ab5S.ogg
375,192,52804,1,0,0:0:0:74:C#6S_Db6S.ogg
448,192,52804,1,0,0:0:0:74:G#6S_Ab6S.ogg
229,192,53104,1,0,0:0:0:62:C#4S_Db4S_s.ogg
156,192,53404,1,0,0:0:0:66:G#4S_Ab4S_s.ogg
10,192,53704,1,0,0:0:0:70:C#5S_Db5S_s.ogg
302,192,53704,1,0,0:0:0:53:G#5S_Ab5S.ogg
448,192,53704,1,0,0:0:0:53:F6S.ogg
83,192,54004,1,0,0:0:0:63:D#5S_Eb5S_s.ogg
156,192,54304,1,0,0:0:0:65:F5S_s.ogg
229,192,54304,1,0,0:0:0:49:G#5S_Ab5S.ogg
375,192,54304,1,0,0:0:0:49:C#6S_Db6S.ogg
302,192,54604,1,0,0:0:0:54:D#5S_Eb5S_s.ogg
10,192,54904,1,0,0:0:0:55:C#5S_Db5S_s.ogg
83,192,55204,1,0,0:0:0:72:F5S.ogg
375,192,55204,1,0,0:0:0:72:A#5S_Bb5S.ogg
448,192,55204,1,0,0:0:0:72:C#6S_Db6S.ogg
229,192,55504,1,0,0:0:0:68:A#3S_Bb3S_s.ogg
156,192,55804,1,0,0:0:0:68:F4S_s.ogg
10,192,56104,1,0,0:0:0:64:A#4S_Bb4S_s.ogg
302,192,56104,1,0,0:0:0:65:A#5S_Bb5S.ogg
375,192,56104,1,0,0:0:0:65:D#6S_Eb6S.ogg
83,192,56400,1,0,0:0:0:59:F4S_s.ogg
229,192,56726,1,0,0:0:0:62:A#4S_Bb4S_s.ogg
448,192,56726,1,0,0:0:0:68:F6S.ogg
156,192,57035,1,0,0:0:0:63:C#5S_Db5S_s.ogg
302,192,57365,1,0,0:0:0:55:A#4S_Bb4S_s.ogg
10,192,57768,1,0,0:0:0:74:B5S_s.ogg
83,192,57768,1,0,0:0:0:74:D#6S_Eb6S_s.ogg
375,192,57768,1,0,0:0:0:74:F#6S_Gb6S_s.ogg
448,192,57880,1,0,0:0:0:65:F#3S_Gb3S_s.ogg
229,192,57999,1,0,0:0:0:60:C#4S_Db4S_s.ogg
156,192,58114,1,0,0:0:0:63:D#4S_Eb4S_s.ogg
302,192,58280,1,0,0:0:0:61:F#4S_Gb4S_s.ogg
83,192,58386,1,0,0:0:0:70:C#5S_Db5S_s.ogg
375,192,58489,1,0,0:0:0:40:D#5S_Eb5S_s.ogg
10,192,58589,1,0,0:0:0:62:F#5S_Gb5S_s.ogg
448,192,58686,1,0,0:0:0:69:C#6S_Db6S_s.ogg
229,192,58811,1,0,0:0:0:64:D#6S_Eb6S_s.ogg
156,192,58887,1,0,0:0:0:66:F#6S_Gb6S_s.ogg
302,192,59001,1,0,0:0:0:69:C#7S_Db7S_s.ogg
83,192,59114,1,0,0:0:0:47:D#7S_Eb7S_s.ogg
375,192,59190,1,0,0:0:0:59:F#7S_Gb7S_s.ogg
10,192,59304,1,0,0:0:0:70:C#8S_Db8S_s.ogg
448,192,59417,1,0,0:0:0:70:F#8S_Gb8S.ogg
156,192,62739,1,0,0:0:0:53:D#4S_Eb4S_s.ogg
229,192,62739,1,0,0:0:0:53:D#7S_Eb7S.ogg
302,192,63039,1,0,0:0:0:62:A#4S_Bb4S_s.ogg
83,192,63339,1,0,0:0:0:66:D#5S_Eb5S_s.ogg
375,192,63639,1,0,0:0:0:64:F#5S_Gb5S_s.ogg
10,192,63939,1,0,0:0:0:66:A#5S_Bb5S_s.ogg
448,192,64239,1,0,0:0:0:63:C6S_s.ogg
156,192,64464,1,0,0:0:0:55:D#6S_Eb6S.ogg
229,192,64464,1,0,0:0:0:65:F#7S_Gb7S.ogg
302,192,64501,1,0,0:0:0:65:A#7S_Bb7S.ogg
83,192,64539,1,0,0:0:0:58:A#5S_Bb5S_s.ogg
375,192,64576,1,0,0:0:0:65:D#8S_Eb8S.ogg
10,192,64839,1,0,0:0:0:54:C#7S_Db7S_s.ogg
10,192,65139,1,0,0:0:0:54:C7S.ogg
83,192,65139,1,0,0:0:0:54:C7S.ogg
448,192,65139,1,0,0:0:0:61:C#7S_Db7S.ogg
448,192,65439,1,0,0:0:0:70:D#5S_Eb5S_s.ogg
83,192,65739,1,0,0:0:0:69:G#5S_Ab5S_s.ogg
10,192,66039,1,0,0:0:0:67:C6S.ogg
448,192,66039,1,0,0:0:0:54:G#6S_Ab6S_s.ogg
83,192,66339,1,0,0:0:0:55:F#6S_Gb6S.ogg
448,192,66639,1,0,0:0:0:57:G#5S_Ab5S.ogg
10,192,66939,1,0,0:0:0:53:D#6S_Eb6S.ogg
83,192,67239,1,0,0:0:0:53:D#5S_Eb5S_s.ogg
10,192,67539,1,0,0:0:0:48:D#4S_Eb4S_s.ogg
83,192,67539,1,0,0:0:0:70:G#6S_Ab6S.ogg
448,192,67539,1,0,0:0:0:70:D#7S_Eb7S.ogg
448,192,67839,1,0,0:0:0:64:A#4S_Bb4S_s.ogg
83,192,68142,1,0,0:0:0:69:D#5S_Eb5S_s.ogg
10,192,68442,1,0,0:0:0:67:F#5S_Gb5S_s.ogg
448,192,68442,1,0,0:0:0:66:F#7S_Gb7S.ogg
83,192,68779,1,0,0:0:0:67:A#5S_Bb5S_s.ogg
448,192,69092,1,0,0:0:0:67:D#6S_Eb6S_s.ogg
10,192,69342,1,0,0:0:0:66:F6S_s.ogg
83,192,69342,1,0,0:0:0:59:F7S_s.ogg
83,192,69642,1,0,0:0:0:66:F#6S_Gb6S_s.ogg
448,192,69642,1,0,0:0:0:55:D#7S_Eb7S_s.ogg
10,192,69942,1,0,0:0:0:52:B3S_s.ogg
83,192,69942,1,0,0:0:0:58:F#6S_Gb6S.ogg
448,192,69942,1,0,0:0:0:58:D#7S_Eb7S.ogg
10,192,70242,1,0,0:0:0:66:F#4S_Gb4S_s.ogg
448,192,70242,1,0,0:0:0:55:F5S_s.ogg
83,192,70542,1,0,0:0:0:64:B4S_s.ogg
448,192,70542,1,0,0:0:0:55:D#5S_Eb5S_s.ogg
10,192,70842,1,0,0:0:0:59:A#4S_Bb4S_s.ogg
448,192,70842,1,0,0:0:0:55:C#5S_Db5S_s.ogg
83,192,71142,1,0,0:0:0:57:F#4S_Gb4S_s.ogg
448,192,71142,1,0,0:0:0:61:D#5S_Eb5S_s.ogg
10,192,71442,1,0,0:0:0:57:F4S_s.ogg
448,192,71442,1,0,0:0:0:56:B4S_s.ogg
83,192,71742,1,0,0:0:0:62:F#4S_Gb4S_s.ogg
448,192,71742,1,0,0:0:0:59:A#4S_Bb4S_s.ogg
10,192,72042,1,0,0:0:0:59:F4S_s.ogg
448,192,72042,1,0,0:0:0:61:B4S_s.ogg
10,192,72342,1,0,0:0:0:56:D#4S_Eb4S_s.ogg
83,192,72342,1,0,0:0:0:63:F#6S_Gb6S.ogg
448,192,72342,1,0,0:0:0:63:D#7S_Eb7S.ogg
448,192,72642,1,0,0:0:0:66:A#4S_Bb4S_s.ogg
83,192,72942,1,0,0:0:0:67:D#5S_Eb5S_s.ogg
10,192,73242,1,0,0:0:0:67:F#5S_Gb5S_s.ogg
83,192,73542,1,0,0:0:0:73:A#5S_Bb5S_s.ogg
448,192,73542,1,0,0:0:0:73:D#6S_Eb6S_s.ogg
10,192,73842,1,0,0:0:0:64:C#6S_Db6S_s.ogg
448,192,73842,1,0,0:0:0:64:F6S_s.ogg
83,192,74142,1,0,0:0:0:56:A#5S_Bb5S_s.ogg
448,192,74142,1,0,0:0:0:56:D#6S_Eb6S_s.ogg
10,192,74442,1,0,0:0:0:55:F#5S_Gb5S_s.ogg
83,192,74442,1,0,0:0:0:55:C#6S_Db6S_s.ogg
448,192,74442,1,0,0:0:0:56:C7S.ogg
10,192,74742,1,0,0:0:0:52:G#3S_Ab3S_s.ogg
83,192,74742,1,0,0:0:0:61:C6S.ogg
448,192,74742,1,0,0:0:0:61:D#6S_Eb6S.ogg
448,192,75042,1,0,0:0:0:62:D#4S_Eb4S_s.ogg
83,192,75342,1,0,0:0:0:66:G#4S_Ab4S_s.ogg
10,192,75542,1,0,0:0:0:55:G#6S_Ab6S.ogg
10,192,75642,1,0,0:0:0:68:C5S_s.ogg
83,192,75642,1,0,0:0:0:68:D#5S_Eb5S_s.ogg
448,192,75642,1,0,0:0:0:77:G#7S_Ab7S.ogg
448,192,75942,1,0,0:0:0:56:G#4S_Ab4S_s.ogg
10,192,76242,1,0,0:0:0:70:C5S_s.ogg
83,192,76242,1,0,0:0:0:70:D#5S_Eb5S_s.ogg
10,192,76542,1,0,0:0:0:57:A#4S_Bb4S_s.ogg
448,192,76542,1,0,0:0:0:57:C#5S_Db5S_s.ogg
10,192,76842,1,0,0:0:0:55:G#4S_Ab4S_s.ogg
83,192,76842,1,0,0:0:0:55:C5S_s.ogg
448,192,76842,1,0,0:0:0:54:G#6S_Ab6S_s.ogg
10,192,77142,1,0,0:0:0:48:D#3S_Eb3S_s.ogg
448,192,77142,1,0,0:0:0:58:G#6S_Ab6S_s.ogg
83,192,77192,1,0,0:0:0:62:A#6S_Bb6S.ogg
448,192,77442,1,0,0:0:0:62:A#3S_Bb3S_s.ogg
10,192,77742,1,0,0:0:0:62:F4S_s.ogg
83,192,78042,1,0,0:0:0:62:F#4S_Gb4S_s.ogg
448,192,78042,1,0,0:0:0:45:D#6S_Eb6S_s.ogg
10,192,78342,1,0,0:0:0:62:A#4S_Bb4S.ogg
83,192,78342,1,0,0:0:0:45:D#5S_Eb5S_s.ogg
448,192,78342,1,0,0:0:0:56:D#6S_Eb6S.ogg
448,192,78642,1,0,0:0:0:60:F5S_s.ogg
10,192,78942,1,0,0:0:0:65:F#5S_Gb5S_s.ogg
83,192,79242,1,0,0:0:0:66:A#5S_Bb5S_s.ogg
448,192,79539,1,0,0:0:0:59:D#6S_Eb6S_s.ogg
10,192,79826,1,0,0:0:0:62:F6S_s.ogg
83,192,80157,1,0,0:0:0:62:F#6S_Gb6S_s.ogg
448,192,80481,1,0,0:0:0:66:A#6S_Bb6S_s.ogg
10,192,80787,1,0,0:0:0:48:D#7S_Eb7S_s.ogg
83,192,81126,1,0,0:0:0:60:F7S_s.ogg
448,192,81447,1,0,0:0:0:57:F#7S_Gb7S_s.ogg
10,192,81774,1,0,0:0:0:65:A#7S_Bb7S.ogg
83,192,83641,1,0,0:0:0:55:A#5S_Bb5S.ogg
448,192,83641,1,0,0:0:0:65:D#7S_Eb7S.ogg
