osu file format v14

[General]
AudioFilename: Gensui.mp3
AudioLeadIn: 0
PreviewTime: 810722
Countdown: 0
SampleSet: Normal
StackLeniency: 0.7
Mode: 0
LetterboxInBreaks: 0
WidescreenStoryboard: 1

[Editor]
Bookmarks: 794,95083,127013,169366,205095,249758,302998,343540,376484,408742,442687,472283,503365,557412,613780,664994,705210,745050,806852,861445,919221,988652,1030546
DistanceSpacing: 1.1
BeatDivisor: 8
GridSize: 4
TimelineZoom: 1.5

[Metadata]
Title:Eroge Songs Compilation
TitleUnicode:Eroge Songs Compilation
Artist:Various Artists
ArtistUnicode:Various Artists
Creator:Kitsuneko
Version:Marathon
Source:
Tags:Sakik Kitsuneko Quilt Laurier mayotyou Scarlet Sisters genso Patchouli
BeatmapID:898179
BeatmapSetID:414336

[Difficulty]
HPDrainRate:8
CircleSize:4
OverallDifficulty:8
ApproachRate:9
SliderMultiplier:1.9
SliderTickRate:1

[Events]
//Background and Video events
0,0,"BG.jpg",0,0
//Break Periods
2,91113,96733
2,123782,130413
2,163046,170344
2,203951,208066
2,246723,253501
2,299134,306187
2,337145,344940
2,373073,377217
2,404017,410352
2,438942,445515
2,469172,478314
2,499009,508165
2,556365,562169
2,608183,618553
2,658756,668503
2,702559,707968
2,737648,747950
2,802250,810768
2,858664,864400
2,916089,922621
2,984587,992052
2,1028018,1035220
//Storyboard Layer 0 (Background)
//Storyboard Layer 1 (Fail)
//Storyboard Layer 2 (Pass)
//Storyboard Layer 3 (Foreground)
//Storyboard Sound Samples

[TimingPoints]
794,398.671096345515,4,2,0,50,1,0
794,-166.666666666667,4,2,0,50,0,0
1292,-166.666666666667,4,2,0,10,0,0
1392,-166.666666666667,4,2,0,50,0,0
1890,-166.666666666667,4,2,0,10,0,0
1990,-166.666666666667,4,2,0,50,0,0
4481,-166.666666666667,4,2,0,10,0,0
4581,-166.666666666667,4,2,0,50,0,0
5079,-166.666666666667,4,2,0,10,0,0
5179,-166.666666666667,4,2,0,50,0,0
8787,398.671096345515,4,2,0,50,1,0
10382,-100,4,2,0,50,0,0
11976,-142.857142857143,4,2,0,50,0,0
50249,-111.111111111111,4,2,1,50,0,0
95083,375,4,2,0,60,1,0
122083,-133.333333333333,4,2,0,60,0,0
123583,-133.333333333333,4,2,0,30,0,0
127013,333.333333333333,4,1,27,70,1,0
131013,-125,4,1,27,70,0,0
140429,-125,4,1,27,5,0,0
140513,-125,4,1,27,70,0,0
140763,-125,4,1,27,5,0,0
140846,-125,4,1,27,70,0,0
141096,-125,4,1,27,5,0,0
141179,-125,4,1,27,70,0,0
141429,-125,4,1,27,5,0,0
141512,-125,4,1,27,70,0,0
146596,-125,4,1,27,5,0,0
146679,-125,4,1,27,70,0,0
146846,-125,4,1,27,5,0,0
147012,-125,4,1,27,70,0,0
169366,350.877192982456,4,2,0,50,1,0
172523,-133.333333333333,4,1,1,50,0,0
172874,-133.333333333333,4,1,1,50,0,0
181997,-100,4,1,1,50,0,0
183751,-133.333333333333,4,1,1,50,0,0
193927,-133.333333333333,4,1,1,25,0,0
194629,-133.333333333333,4,1,1,50,0,0
197260,-100,4,1,1,5,0,0
197611,-133.333333333333,4,1,1,50,0,0
197787,-133.333333333333,4,1,1,5,0,0
197962,-133.333333333333,4,1,1,50,0,0
203751,-133.333333333333,4,1,1,5,0,0
205095,357.142857142857,4,2,0,50,1,0
208666,-125,4,2,21,60,0,0
211523,-200,4,2,1,30,0,0
212234,-125,4,2,21,60,0,0
214380,-125,4,2,21,50,0,0
214737,-125,4,2,21,40,0,0
215095,-125,4,2,21,60,0,0
219737,-125,4,2,21,65,0,0
220095,-125,4,2,21,30,0,0
220809,-125,4,2,21,70,0,0
231523,-125,4,1,21,60,0,0
232237,-125,4,2,21,70,0,0
237237,-125,4,1,21,60,0,0
237595,-125,4,2,21,70,0,0
245184,-125,4,2,21,5,0,0
245273,-200,4,2,21,10,0,0
246166,-125,4,2,21,60,0,0
249768,333.333333333333,4,1,2,65,1,0
255101,-100,4,1,2,80,0,0
265559,-100,4,2,2,40,0,0
265768,-100,4,1,2,80,0,0
273601,-100,4,1,2,50,0,0
274434,-100,4,2,2,50,0,0
274768,-100,4,2,2,60,0,0
275101,-100,4,1,2,70,0,0
296434,-200,4,2,3,15,0,0
302998,315.789473684211,4,2,1,80,1,0
306787,-125,4,2,27,50,0,0
311840,-125,4,2,27,70,0,0
343540,333.333333333333,4,2,0,50,1,0
370206,-200,4,1,1,5,0,0
370873,-100,4,1,1,5,0,0
376484,333.333333333333,4,1,0,80,1,0
377817,-100,4,2,32,60,0,0
380484,-100,4,2,33,80,0,0
401817,-125,4,2,30,60,0,0
408742,315.789473684211,4,2,21,60,1,0
412215,-100,4,2,21,40,0,0
412531,-100,4,2,21,60,0,0
422320,-100,4,2,21,40,0,0
422636,-100,4,2,21,60,0,0
427215,-100,4,2,21,50,0,0
427768,-100,4,2,21,60,0,0
432742,-200,4,2,21,40,0,0
438742,-100,4,2,21,60,0,0
442687,285.714285714286,4,1,1,50,1,0
464401,-133.333333333333,4,1,1,50,0,0
472283,315.789473684211,4,2,27,80,1,0
503365,400,4,2,0,80,1,0
508765,-100,4,2,1,50,0,0
514565,-100,4,2,1,60,0,0
522565,-100,4,1,1,60,0,0
527365,-83.3333333333333,4,1,1,60,0,0
528565,-100,4,1,1,60,0,0
536965,-83.3333333333333,4,2,1,80,0,0
537365,-100,4,2,1,80,0,0
540165,-83.3333333333333,4,2,1,80,0,0
541165,-100,4,2,1,80,0,0
543365,-100,4,2,1,5,0,0
543765,-100,4,2,1,80,0,0
556165,-100,4,2,1,5,0,0
557412,428.571428571429,4,2,21,60,1,0
613780,447.761194029851,4,2,3,60,1,0
620944,-100,4,2,3,50,0,0
621615,-100,4,2,3,40,0,0
621839,-100,4,2,3,50,0,0
622735,-200,4,2,1,60,0,0
622847,-200,4,2,3,60,0,0
629899,-133.333333333333,4,2,1,50,0,0
630011,-133.333333333333,4,2,3,50,0,0
635272,-100,4,2,1,60,0,0
637063,-100,4,2,1,60,0,0
637175,-100,4,2,3,60,0,0
644227,-100,4,2,1,60,0,0
644339,-100,4,2,3,60,0,0
650944,-100,4,2,3,40,0,0
651056,-100,4,2,3,50,0,0
651391,-100,4,2,1,60,0,0
651503,-100,4,2,3,60,0,0
664989,342.857142857143,4,2,2,40,1,0
669103,-166.666666666667,4,2,3,50,0,0
669446,-166.666666666667,4,2,2,40,0,0
674074,-133.333333333333,4,1,2,60,0,0
674589,-111.111111111111,4,1,2,60,0,0
674674,-111.111111111111,4,1,2,70,0,0
680074,-133.333333333333,4,2,2,20,0,0
680589,-133.333333333333,4,1,2,40,0,0
680760,-100,4,1,2,60,0,0
682646,-100,4,1,2,70,0,0
689331,-100,4,1,2,60,0,0
689674,-100,4,1,2,70,0,0
691046,342.857142857143,3,1,2,80,1,0
692588,-100,3,1,2,60,0,0
693103,-133.333333333333,3,1,2,60,0,0
693788,-133.333333333333,3,1,2,70,0,0
694131,342.857142857143,4,1,2,60,1,0
698245,-100,4,1,2,70,0,0
705210,447.761194029851,4,1,0,80,1,0
708568,-100,4,1,27,40,0,0
710583,-100,4,2,27,60,0,0
745050,500,4,2,0,60,1,0
766550,-83.3333333333333,4,1,1,60,0,0
773237,-83.3333333333333,4,1,1,5,0,0
773300,-83.3333333333333,4,1,1,50,0,0
773487,-83.3333333333333,4,1,1,5,0,0
773550,-83.3333333333333,4,1,1,50,0,0
773737,-83.3333333333333,4,1,1,5,0,0
773800,-83.3333333333333,4,1,1,50,0,0
782550,-66.6666666666667,4,1,1,40,0,0
783050,-83.3333333333333,4,1,1,50,0,0
806852,645.161290322581,4,2,2,50,1,0
811368,-50,4,2,2,30,0,0
811610,-50,4,2,2,15,0,0
811690,-50,4,2,2,30,0,0
811932,-50,4,2,2,15,0,0
812013,-74.6268656716418,4,1,2,70,0,0
812658,-50,4,1,2,70,0,0
814593,-74.6268656716418,4,1,2,70,0,0
815239,-50,4,1,2,70,0,0
817174,-74.6268656716418,4,1,2,70,0,0
817658,-50,4,1,2,70,0,0
818464,-74.6268656716418,4,1,2,70,0,0
819110,-50,4,1,2,70,0,0
819755,-74.6268656716418,4,1,2,70,0,0
820239,-50,4,1,2,70,0,0
820884,-74.6268656716418,4,1,2,70,0,0
821368,-50,4,1,2,70,0,0
822335,-74.6268656716418,4,1,2,70,0,0
822981,-50,4,1,2,70,0,0
824916,-74.6268656716418,4,1,2,70,0,0
825561,-50,4,1,2,70,0,0
830077,-74.6268656716418,4,1,2,70,0,0
830561,-50,4,1,2,70,0,0
831206,-74.6268656716418,4,1,2,70,0,0
831690,-50,4,1,2,70,0,0
832174,-50,4,1,2,40,0,0
832658,-74.6268656716418,4,1,2,70,0,0
833303,-50,4,1,2,70,0,0
835239,-74.6268656716418,4,1,2,70,0,0
835884,-50,4,1,2,70,0,0
837819,-74.6268656716418,4,1,2,70,0,0
838303,-50,4,1,2,70,0,0
839110,-74.6268656716418,4,1,2,70,0,0
839755,-50,4,1,2,70,0,0
840400,-74.6268656716418,4,1,2,70,0,0
840884,-50,4,1,2,70,0,0
841529,-74.6268656716418,4,1,2,70,0,0
842013,-50,4,1,2,70,0,0
842981,-74.6268656716418,4,1,2,70,0,0
843626,-50,4,1,2,70,0,0
843948,-74.6268656716418,4,1,2,70,0,0
844593,-50,4,1,2,70,0,0
845561,-74.6268656716418,4,1,2,70,0,0
846206,-50,4,1,2,70,0,0
846529,-74.6268656716418,4,1,2,70,0,0
847174,-50,4,1,2,70,0,0
848142,-74.6268656716418,4,1,2,70,0,0
848787,-50,4,1,2,70,0,0
849110,-74.6268656716418,4,1,2,70,0,0
849755,-50,4,1,2,70,0,0
850722,-74.6268656716418,4,1,2,70,0,0
851368,-50,4,1,2,70,0,0
852013,-74.6268656716418,4,2,2,50,0,0
853303,-74.6268656716418,4,2,2,40,0,0
858464,-74.6268656716418,4,2,3,40,0,0
861445,444.444444444444,4,1,0,80,1,0
865000,-100,4,1,0,70,0,0
865445,-100,4,1,0,40,0,0
865889,-100,4,1,0,80,0,0
895667,-100,4,1,0,50,0,0
897000,-133.333333333333,4,2,0,60,0,0
919221,333.333333333333,4,1,0,80,1,0
923221,-200,4,2,1,60,0,0
935387,333.333333333333,4,2,21,60,1,0
946887,-100,4,2,21,40,0,0
947387,-100,4,2,21,60,0,0
956720,-100,4,2,21,40,0,0
958053,-100,4,2,21,60,0,0
968220,-100,4,2,21,40,0,0
968720,-100,4,2,21,60,0,0
978720,-100,4,1,21,40,0,0
979387,-100,4,2,21,60,0,0
980720,-133.333333333333,4,2,21,60,0,0
981387,-133.333333333333,4,1,21,40,0,0
982053,-133.333333333333,4,2,21,60,0,0
988652,333.333333333333,4,2,0,50,1,0
992652,-142.857142857143,4,2,30,80,0,0
994652,-142.857142857143,4,2,30,50,0,0
995318,-100,4,2,30,80,0,0
1017485,-100,4,2,30,60,0,0
1022485,-100,4,2,32,60,0,0
1023318,-100,4,2,30,60,0,0
1027318,-125,4,2,1,80,0,0
1027485,-125,4,2,1,60,0,0
1030546,329.67032967033,4,2,0,40,1,0
1035820,-133.333333333333,4,2,21,40,0,0
1037469,-133.333333333333,4,2,21,35,0,0
1038787,-133.333333333333,4,2,21,30,0,0
1039447,-100,4,2,21,50,0,0
1039776,-100,4,2,21,70,0,0
1045875,-100,4,2,21,55,0,0
1046370,-100,4,2,21,60,0,0
1067139,-100,4,2,21,50,0,0
1067221,-100,4,2,21,40,0,0
1067469,-100,4,2,21,50,0,0
1067551,-100,4,2,21,70,0,0
1077688,-100,4,2,21,50,0,0
1078018,-100,4,2,21,70,0,0
1083293,-100,4,2,21,50,0,0
1087249,-100,4,2,21,40,0,0
1088567,-100,4,2,21,70,0,0
1092524,-100,4,2,21,40,0,0
1093183,-100,4,2,21,50,0,0
1093842,-100,4,2,21,50,0,0
1098458,-100,4,2,21,30,0,0
1099117,-100,4,2,21,50,0,0
1109007,-100,4,2,21,30,0,0
1109666,-100,4,2,21,50,0,0
1113458,-100,4,2,0,20,0,0

[Colours]
Combo1 : 255,162,100
Combo2 : 255,255,255
Combo3 : 139,157,186
Combo4 : 231,69,73
Combo5 : 104,108,255
Combo6 : 141,196,250
Combo7 : 253,196,236
Combo8 : 156,241,135

[HitObjects]
443,192,794,6,0,P|373:192|319:237,1,142.499995651245,2|0,0:0|0:0,0:0:0:0:
286,315,1392,2,0,L|146:286,1,142.499995651245,2|0,0:0|0:0,0:0:0:0:
51,218,1990,2,0,P|107:216|152:183,1,113.999996520996,2|0,0:0|0:0,0:0:0:0:
168,106,2588,5,2,0:0:0:0:
167,100,2787,1,0,0:0:0:0:
166,94,2986,1,0,0:0:0:0:
165,88,3186,1,2,0:0:0:0:
163,82,3385,1,0,0:0:0:0:
162,76,3584,1,2,0:0:0:0:
498,57,3983,102,0,L|356:44,1,142.499995651245,2|0,0:0|0:0,0:0:0:0:
293,97,4581,2,0,P|259:158|275:226,1,142.499995651245,2|0,0:0|0:0,0:0:0:0:
340,267,5179,2,0,P|284:259|235:287,1,113.999996520996,2|0,0:0|0:0,0:0:0:0:
177,347,5777,5,2,0:0:0:0:
171,347,5976,1,0,0:0:0:0:
165,347,6176,1,0,0:0:0:0:
37,271,6375,1,2,0:0:0:0:
42,268,6574,1,0,0:0:0:0:
47,265,6774,1,2,0:0:0:0:
52,262,6973,1,0,0:0:0:0:
57,259,7172,5,2,0:0:0:0:
256,192,7272,12,2,8667,0:0:0:0:
256,192,8767,12,0,9983,0:0:0:0:
257,193,10182,85,0,1:0:0:0:
257,193,10282,1,0,1:0:0:0:
257,193,10382,5,0,1:0:0:0:
257,193,10780,1,0,1:0:0:0:
257,193,11179,1,0,1:0:0:0:
385,144,11378,1,0,1:0:0:0:
332,293,11578,1,0,1:0:0:0:
331,297,11677,1,0,1:0:0:0:
257,193,11877,1,0,1:0:0:0:
256,189,11976,102,0,L|256:52,1,132.999995941162,4|0,1:2|1:0,0:0:0:0:
150,43,12574,1,0,0:0:0:0:
149,43,12774,2,0,P|121:61|89:68,1,66.4999979705811,0|0,1:0|0:0,0:0:0:0:
0,151,13172,2,0,P|32:158|59:176,1,66.4999979705811,0|0,1:0|0:0,0:0:0:0:
157,278,13571,5,0,1:0:0:0:
153,283,13770,1,0,0:0:0:0:
150,288,13970,1,0,1:0:0:0:
147,293,14169,1,0,0:0:0:0:
144,299,14368,2,0,L|242:282,1,99.7499969558717,0|0,1:0|0:0,0:0:0:0:
326,270,14767,1,0,1:0:0:0:
326,270,15166,102,0,L|351:131,1,132.999995941162,0|0,1:0|1:0,0:0:0:0:
301,43,15764,1,0,0:0:0:0:
300,42,15963,2,0,P|268:38|235:41,1,66.4999979705811,0|0,1:0|0:0,0:0:0:0:
130,63,16362,2,0,P|142:93|161:120,1,66.4999979705811,0|0,1:0|0:0,0:0:0:0:
300,195,16760,5,0,1:0:0:0:
215,260,16960,1,0,0:0:0:0:
247,124,17159,1,0,1:0:0:0:
371,149,17358,2,0,P|381:180|381:213,2,66.4999979705811,0|0|0,0:0|1:0|0:0,0:0:0:0:
452,272,17956,2,0,P|421:282|397:304,1,66.4999979705811,0|0,1:0|0:0,0:0:0:0:
272,329,18355,102,0,P|209:347|150:320,1,132.999995941162,0|0,1:0|1:0,0:0:0:0:
104,224,18953,2,0,L|97:157,1,66.4999979705811,0|0,0:0|1:0,0:0:0:0:
195,44,19352,2,0,L|201:110,2,66.4999979705811,0|0|0,0:0|1:0|0:0,0:0:0:0:
284,164,19950,5,0,1:0:0:0:
98,60,20348,1,0,1:0:0:0:
174,327,20747,1,0,1:0:0:0:
379,139,21146,1,0,1:0:0:0:
379,138,21544,102,0,P|314:152|250:134,1,132.999995941162,0|0,1:0|1:0,0:0:0:0:
161,41,22142,2,0,P|128:45|97:59,1,66.4999979705811,0|0,0:0|1:0,0:0:0:0:
0,110,22541,2,0,P|20:135|47:155,1,66.4999979705811,0|0,0:0|1:0,0:0:0:0:
153,146,22940,1,0,0:0:0:0:
153,146,23139,6,0,L|137:218,1,66.4999979705811,0|0,1:0|0:0,0:0:0:0:
243,357,23538,2,0,L|257:292,1,66.4999979705811,0|0,1:0|0:0,0:0:0:0:
438,146,23936,2,0,L|423:210,1,66.4999979705811,0|0,1:0|0:0,0:0:0:0:
398,314,24335,1,0,1:0:0:0:
437,147,24534,1,0,1:0:0:0:
285,185,24734,102,0,P|219:190|162:157,1,132.999995941162,4|0,1:2|1:0,0:0:0:0:
61,124,25332,2,0,P|74:98|111:70,1,66.4999979705811,0|0,0:0|1:0,0:0:0:0:
188,12,25730,2,0,P|204:36|209:82,2,66.4999979705811,0|0|0,0:0|1:0|0:0,0:0:0:0:
324,68,26328,6,0,L|309:206,1,132.999995941162,0|0,1:0|1:0,0:0:0:0:
295,305,26926,1,0,0:0:0:0:
280,199,27126,1,0,1:0:0:0:
262,303,27325,1,0,0:0:0:0:
251,197,27524,1,0,1:0:0:0:
224,300,27724,1,0,0:0:0:0:
353,365,27923,102,0,P|368:336|374:303,1,66.4999979705811,0|0,1:0|0:0,0:0:0:0:
479,286,28322,2,0,P|469:254|450:227,1,66.4999979705811,0|0,1:0|0:0,0:0:0:0:
350,205,28720,2,0,L|250:196,1,99.7499969558717,0|0,1:0|0:0,0:0:0:0:
209,162,29119,2,0,L|275:166,1,66.4999979705811,0|0,1:0|0:0,0:0:0:0:
447,118,29518,5,0,1:0:0:0:
502,27,29717,1,0,0:0:0:0:
466,202,29916,1,0,1:0:0:0:
370,86,30116,1,0,0:0:0:0:
502,27,30315,2,0,L|480:137,1,99.7499969558717,0|0,1:0|0:0,0:0:0:0:
466,202,30714,2,0,L|466:276,1,66.4999979705811,0|0,1:0|0:0,0:0:0:0:
354,323,31113,102,0,P|304:320|257:336,1,99.7499969558717,4|0,1:2|0:0,0:0:0:0:
181,361,31511,2,0,P|148:365|115:360,1,66.4999979705811,0|0,1:0|0:0,0:0:0:0:
82,258,31910,2,0,L|73:122,1,132.999995941162,0|0,1:0|1:0,0:0:0:0:
269,180,32508,1,4,0:0:0:0:
269,179,32707,6,0,P|238:192|205:196,1,66.4999979705811,0|0,1:0|0:0,0:0:0:0:
134,68,33106,2,0,P|166:71|197:84,1,66.4999979705811,0|0,1:0|0:0,0:0:0:0:
361,107,33505,2,0,L|501:78,1,132.999995941162,0|0,1:0|1:0,0:0:0:0:
491,80,34103,1,4,0:0:0:0:
416,249,34302,101,0,1:0:0:0:
320,202,34501,1,0,0:0:0:0:
374,343,34701,1,0,1:0:0:0:
432,223,34900,1,0,0:0:0:0:
256,124,35099,2,0,P|226:163|218:212,1,99.7499969558717,4|0,1:2|0:0,0:0:0:0:
274,280,35498,1,4,1:2:0:0:
274,280,35598,1,0,0:0:0:0:
274,280,35697,1,0,0:0:0:0:
274,280,35797,1,0,0:0:0:0:
274,280,35897,6,0,L|136:258,1,132.999995941162,4|0,1:2|1:0,0:0:0:0:
58,197,36495,1,0,0:0:0:0:
57,196,36694,2,0,P|51:163|54:129,1,66.4999979705811,0|0,1:0|0:0,0:0:0:0:
142,259,37093,2,0,P|149:324|119:382,1,132.999995941162,0|0,1:0|1:0,0:0:0:0:
119,382,37691,101,0,0:0:0:0:
259,345,37890,2,0,L|324:331,1,66.4999979705811,0|0,1:0|0:0,0:0:0:0:
385,237,38289,2,0,L|319:223,1,66.4999979705811,0|0,1:0|0:0,0:0:0:0:
200,165,38687,2,0,P|187:117|194:68,1,99.7499969558717,0|0,1:0|0:0,0:0:0:0:
110,38,39086,6,0,B|21:29|21:29|47:63,1,132.999995941162,4|0,1:2|1:0,0:0:0:0:
92,160,39684,1,0,0:0:0:0:
92,160,39883,2,0,P|104:198|103:231,1,66.4999979705811,0|0,1:0|0:0,0:0:0:0:
231,281,40282,2,0,P|296:298|362:294,1,132.999995941162,4|0,1:2|1:0,0:0:0:0:
493,246,40880,101,0,0:0:0:0:
493,246,41079,2,0,L|506:166,1,66.4999979705811,0|0,1:0|0:0,0:0:0:0:
361,52,41478,2,0,L|350:117,1,66.4999979705811,0|0,1:0|0:0,0:0:0:0:
453,280,41877,2,0,L|463:214,1,66.4999979705811,0|0,1:0|0:0,0:0:0:0:
330,342,42275,6,0,L|197:315,1,132.999995941162,4|0,1:2|1:0,0:0:0:0:
96,289,42873,1,0,0:0:0:0:
96,289,43073,2,0,L|88:217,1,66.4999979705811,0|0,1:0|0:0,0:0:0:0:
119,71,43471,2,0,P|178:42|248:57,1,132.999995941162,4|0,1:2|1:0,0:0:0:0:
341,95,44069,101,0,0:0:0:0:
341,95,44269,2,0,L|332:161,1,66.4999979705811,0|0,1:0|0:0,0:0:0:0:
319,265,44667,2,0,L|310:331,1,66.4999979705811,0|0,1:0|0:0,0:0:0:0:
176,273,45066,2,0,L|159:163,1,99.7499969558717,0|0,1:0|0:0,0:0:0:0:
142,89,45465,6,0,P|76:80|17:107,1,132.999995941162,4|0,1:2|1:0,0:0:0:0:
160,174,46063,1,0,0:0:0:0:
159,174,46262,2,0,P|190:159|214:137,1,66.4999979705811,0|0,1:0|0:0,0:0:0:0:
256,24,46661,1,4,1:2:0:0:
256,24,47059,101,0,1:0:0:0:
299,99,47259,1,0,0:0:0:0:
381,124,47458,1,0,1:0:0:0:
466,113,47657,1,0,0:0:0:0:
349,83,47857,5,4,1:2:0:0:
267,170,48056,1,0,1:0:0:0:
302,284,48255,1,0,1:0:0:0:
420,304,48455,1,0,1:0:0:0:
420,304,49651,101,0,1:0:0:0:
338,216,49850,1,0,1:0:0:0:
338,216,49950,1,0,1:0:0:0:
338,216,50049,1,0,1:0:0:0:
338,216,50149,1,0,1:0:0:0:
338,216,50249,22,0,P|277:198|212:221,1,128.249996086121,4|0,1:2|0:0,0:0:0:0:
168,276,50647,2,0,L|152:360,1,85.4999973907472,0|0,1:0|0:0,0:0:0:0:
41,246,51046,2,0,L|57:162,1,85.4999973907472,0|0,1:0|0:0,0:0:0:0:
83,36,51445,1,0,1:0:0:0:
83,36,51544,1,0,0:0:0:0:
83,36,51644,1,0,0:0:0:0:
193,100,51843,6,0,P|231:116|274:117,1,85.4999973907472,0|0,1:0|0:0,0:0:0:0:
422,198,52242,2,0,P|379:198|340:215,1,85.4999973907472,0|0,1:0|0:0,0:0:0:0:
280,298,52641,2,0,L|128:280,1,128.249996086121,0|0,1:0|0:0,0:0:0:0:
72,311,53039,1,0,1:0:0:0:
152,190,53239,1,0,0:0:0:0:
210,291,53438,5,4,1:2:0:0:
153,102,53637,1,0,0:0:0:0:
153,102,53837,1,0,1:0:0:0:
65,212,54036,1,0,0:0:0:0:
154,15,54235,1,0,1:0:0:0:
236,150,54435,1,0,0:0:0:0:
77,60,54634,1,0,1:0:0:0:
152,190,54833,1,0,0:0:0:0:
235,56,55033,85,0,1:0:0:0:
151,278,55232,1,0,0:0:0:0:
153,102,55431,1,0,1:0:0:0:
236,240,55631,1,0,0:0:0:0:
77,60,55830,1,0,1:0:0:0:
236,150,56029,1,0,0:0:0:0:
151,278,56229,1,0,1:0:0:0:
153,102,56428,1,0,1:0:0:0:
316,195,56627,5,4,1:2:0:0:
316,195,56827,2,0,P|326:236|321:278,1,85.4999973907472,0|0,0:0|1:0,0:0:0:0:
172,373,57225,1,0,0:0:0:0:
172,373,57425,2,0,L|261:348,1,85.4999973907472,0|0,1:0|0:0,0:0:0:0:
491,270,57823,2,0,L|408:246,1,85.4999973907472,0|0,1:0|0:0,0:0:0:0:
315,195,58222,6,0,P|306:110|289:26,2,170.999994781494,0|0|0,1:0|1:0|1:0,0:0:0:0:
184,131,59219,1,0,0:0:0:0:
255,306,59418,1,0,1:0:0:0:
316,194,59617,1,0,0:0:0:0:
316,193,59817,86,0,P|276:209|233:214,1,85.4999973907472,4|0,1:2|0:0,0:0:0:0:
46,220,60215,1,0,1:0:0:0:
46,220,60415,2,0,P|52:177|68:138,1,85.4999973907472,0|0,0:0|1:0,0:0:0:0:
143,263,60814,2,0,P|159:302|165:344,2,85.4999973907472,0|0|0,0:0|1:0|0:0,0:0:0:0:
0,88,61412,6,0,P|80:107|151:63,1,170.999994781494,0|0,1:0|1:0,0:0:0:0:
282,124,62010,2,0,P|322:109|365:109,2,85.4999973907472,0|0|0,0:0|1:0|0:0,0:0:0:0:
176,196,62608,1,0,1:0:0:0:
260,292,62807,1,0,1:0:0:0:
260,292,62907,1,0,1:0:0:0:
260,292,63006,6,0,L|283:122,1,170.999994781494,4|8,1:2|1:0,0:0:0:0:
387,287,63604,2,0,P|370:325|362:367,1,85.4999973907472,0|0,0:0|1:0,0:0:0:0:
435,205,64003,1,0,0:0:0:0:
435,205,64202,2,0,P|452:167|459:124,1,85.4999973907472,8|0,1:0|0:0,0:0:0:0:
338,51,64601,86,0,P|276:36|221:65,1,128.249996086121,0|0,1:0|0:0,0:0:0:0:
202,146,65000,2,0,L|188:238,1,85.4999973907472,8|0,1:0|0:0,0:0:0:0:
43,291,65398,2,0,L|55:206,1,85.4999973907472,0|0,1:0|0:0,0:0:0:0:
90,20,65797,1,8,1:0:0:0:
90,20,66196,5,4,1:2:0:0:
120,117,66395,1,0,0:0:0:0:
220,138,66594,1,8,1:0:0:0:
308,85,66794,1,0,0:0:0:0:
206,98,66993,1,0,1:0:0:0:
170,193,67192,1,0,0:0:0:0:
230,275,67392,2,0,P|270:260|313:258,1,85.4999973907472,8|0,1:0|0:0,0:0:0:0:
390,356,67790,6,0,P|350:370|307:372,1,85.4999973907472,0|0,1:0|0:0,0:0:0:0:
146,322,68189,1,8,1:0:0:0:
230,189,68388,1,0,0:0:0:0:
51,117,68588,1,0,1:0:0:0:
272,30,68787,1,0,1:0:0:0:
230,189,68986,1,8,1:0:0:0:
383,133,69186,1,0,0:0:0:0:
383,133,69285,1,0,0:0:0:0:
383,133,69385,86,0,L|394:218,1,85.4999973907472,4|0,1:2|0:0,0:0:0:0:
287,290,69784,2,0,P|248:308|206:309,1,85.4999973907472,8|0,1:0|0:0,0:0:0:0:
27,210,70182,2,0,P|83:181|147:182,1,128.249996086121,0|0,1:0|0:0,0:0:0:0:
230,189,70581,2,0,L|245:89,1,85.4999973907472,8|0,1:0|0:0,0:0:0:0:
406,10,70980,6,0,P|381:68|382:132,1,128.249996086121,0|0,1:0|0:0,0:0:0:0:
457,188,71378,1,8,1:0:0:0:
457,188,71777,2,0,P|470:229|450:318,1,128.249996086121,0|0,1:0|0:0,0:0:0:0:
377,335,72176,1,8,1:0:0:0:
250,316,72375,1,0,0:0:0:0:
122,297,72574,6,0,P|81:308|45:329,1,85.4999973907472,4|0,1:2|0:0,0:0:0:0:
123,171,72973,2,0,P|159:192|200:203,1,85.4999973907472,8|0,1:0|0:0,0:0:0:0:
325,172,73372,1,0,1:0:0:0:
250,316,73571,1,8,1:0:0:0:
466,273,73770,1,8,1:0:0:0:
324,172,73969,86,0,L|333:268,1,85.4999973907472,4|0,0:0|1:0,0:0:0:0:
420,48,74368,2,0,L|429:144,2,85.4999973907472,0|8|0,0:0|1:0|0:0,0:0:0:0:
291,34,74966,2,0,P|259:29|203:50,1,85.4999973907472,0|0,1:0|1:0,0:0:0:0:
209,45,75265,1,0,1:0:0:0:
209,45,75365,1,8,1:0:0:0:
138,151,75564,1,0,1:0:0:0:
232,237,75764,6,0,P|238:320|184:382,1,170.999994781494,4|8,1:2|1:0,0:0:0:0:
59,297,76362,1,0,0:0:0:0:
58,297,76561,2,0,P|98:285|140:290,1,85.4999973907472,0|0,1:0|0:0,0:0:0:0:
344,320,76960,2,0,P|386:325|474:248,1,128.249996086121,12|0,1:2|0:0,0:0:0:0:
485,212,77358,5,0,1:0:0:0:
421,99,77558,1,0,0:0:0:0:
294,117,77757,1,8,1:0:0:0:
266,241,77956,1,0,0:0:0:0:
350,182,78156,1,0,1:0:0:0:
319,84,78355,1,0,0:0:0:0:
218,66,78554,1,8,1:0:0:0:
151,144,78754,1,0,1:0:0:0:
213,333,78953,86,0,P|297:335|363:283,1,170.999994781494,4|8,1:2|1:0,0:0:0:0:
144,245,79551,2,0,P|103:237|61:243,1,85.4999973907472,0|0,0:0|1:0,0:0:0:0:
61,243,79950,1,0,0:0:0:0:
10,349,80149,2,0,P|51:357|93:351,1,85.4999973907472,12|0,1:2|0:0,0:0:0:0:
145,246,80548,6,0,L|161:151,1,85.4999973907472,0|0,1:0|0:0,0:0:0:0:
290,90,80946,2,0,L|275:174,1,85.4999973907472,8|0,1:0|0:0,0:0:0:0:
255,275,81345,1,0,1:0:0:0:
290,89,81544,1,0,1:0:0:0:
419,193,81744,1,8,1:0:0:0:
388,290,81943,1,0,1:0:0:0:
175,212,82142,6,0,P|254:182|332:211,1,170.999994781494,4|8,1:2|1:0,0:0:0:0:
116,126,82740,2,0,P|74:123|38:102,1,85.4999973907472,0|0,0:0|1:0,0:0:0:0:
38,102,83139,1,0,0:0:0:0:
62,230,83338,2,0,P|82:274|50:352,1,128.249996086121,12|0,1:2|0:0,0:0:0:0:
151,347,83737,86,0,L|258:334,1,85.4999973907472,0|0,1:0|0:0,0:0:0:0:
347,215,84136,2,0,L|262:225,1,85.4999973907472,8|0,1:0|0:0,0:0:0:0:
184,158,84534,2,0,P|171:117|173:74,2,85.4999973907472,0|0|8,1:0|0:0|1:0,0:0:0:0:
310,310,85132,1,0,0:0:0:0:
427,153,85332,6,0,P|350:120|271:148,1,170.999994781494,4|8,1:2|1:0,0:0:0:0:
183,242,85930,1,0,0:0:0:0:
183,242,86129,2,0,P|145:251|88:237,1,85.4999973907472,0|8,1:0|1:0,0:0:0:0:
41,123,86528,2,0,B|37:1|37:1|72:40,1,170.999994781494,12|0,1:2|1:0,0:0:0:0:
142,109,87126,5,0,0:0:0:0:
142,108,87325,2,0,P|159:70|164:27,1,85.4999973907472,8|0,1:0|0:0,0:0:0:0:
99,197,87724,1,0,1:0:0:0:
140,299,87923,1,0,0:0:0:0:
246,331,88122,1,8,1:0:0:0:
347,284,88322,1,0,1:0:0:0:
256,192,88421,12,0,90913,0:0:0:0:
348,68,97333,6,0,P|296:52|244:48,1,95,0|0,1:0|1:0,1:0:0:0:
48,88,97708,2,0,L|24:46,1,47.5,0|0,1:0|1:0,1:0:0:0:
92,164,97895,2,0,L|140:136,1,47.5,0|0,1:0|1:0,1:0:0:0:
153,47,98083,6,0,P|138:92|132:139,1,95,4|0,0:0|0:0,1:0:0:0:
224,236,98458,2,0,P|261:264|293:300,1,95,0|0,1:0|0:0,1:0:0:0:
100,268,98833,2,0,P|56:286|9:295,1,95,0|0,0:0|0:0,1:0:0:0:
131,139,99208,1,0,1:0:0:0:
224,236,99395,2,0,P|316:268|428:284,1,190,0|0,0:0|0:2,0:0:0:0:
512,152,99958,1,0,1:2:0:0:
407,282,100145,5,0,0:0:0:0:
407,282,100239,1,0,0:0:0:0:
407,282,100333,1,4,0:0:0:0:
224,236,100520,1,0,0:0:0:0:
224,236,100614,1,0,0:0:0:0:
224,236,100708,1,4,1:2:0:0:
240,72,100895,2,0,P|284:54|331:45,1,95,0|0,0:0|0:0,1:0:0:0:
456,96,101270,5,0,0:0:0:0:
344,172,101458,1,0,1:0:0:0:
330,45,101645,1,0,0:0:0:0:
456,96,101833,2,0,P|474:140|483:187,1,95,0|0,0:0|0:0,1:0:0:0:
460,308,102208,2,0,P|416:326|369:335,1,95,0|0,1:0|0:0,1:0:0:0:
264,284,102583,53,0,0:0:0:0:
264,284,102770,1,0,0:0:0:0:
168,208,102958,2,0,P|124:190|77:181,1,95,0|0,1:0|0:0,1:0:0:0:
8,288,103333,1,0,1:0:0:0:
168,208,103520,1,0,1:0:0:0:
92,44,103708,1,0,1:0:0:0:
116,48,103801,1,0,1:0:0:0:
140,52,103895,1,0,1:0:0:0:
164,56,103989,1,0,1:0:0:0:
188,60,104083,6,4,P|232:42|279:33,1,95,4|0,0:0|0:0,0:0:0:0:
416,52,104458,2,4,P|434:96|442:143,1,95,0|0,1:0|0:0,0:0:0:0:
424,280,104833,2,0,P|380:298|333:306,1,95
196,288,105208,1,0,1:0:0:0:
192,144,105395,2,0,P|284:112|396:96,1,190,0|0,0:0|0:2,0:0:0:0:
484,208,105958,1,0,1:0:0:0:
333,305,106145,1,0,0:0:0:0:
333,305,106239,1,0,0:0:0:0:
333,305,106333,1,0,0:0:0:0:
142,268,106520,5,0,0:0:0:0:
142,268,106708,2,0,P|121:225|116:179,2,95,0|0|2,1:0|0:0|0:0,0:0:0:0:
333,305,107270,1,0,0:0:0:0:
333,305,107458,2,0,P|289:323|242:331,2,95,0|2|0,1:0|0:0|0:0,0:0:0:0:
369,115,108020,1,0,0:0:0:0:
369,115,108208,2,0,P|390:161|395:206,2,95,0|2|0,1:0|0:0|0:0,0:0:0:0:
179,79,108770,1,0,0:0:0:0:
179,79,108958,2,0,P|223:61|270:53,2,95,0|2|0,1:0|0:0|1:0,0:0:0:0:
60,56,109520,1,0,1:0:0:0:
32,160,109708,1,0,1:0:0:0:
28,192,109801,1,0,1:0:0:0:
32,224,109895,1,0,1:0:0:0:
40,256,109989,1,0,1:0:0:0:
56,284,110083,6,0,P|99:301|146:309,1,95,4|0,0:0|0:0,0:0:0:0:
252,360,110458,2,0,P|288:329|317:292,1,95,0|0,1:0|0:0,0:0:0:0:
404,220,110833,2,0,P|450:226|495:242,1,95
297,180,111208,1,0,1:0:0:0:
317,292,111395,2,0,P|228:325|134:343,1,190,0|0,0:0|0:2,0:0:0:0:
20,256,111958,1,0,1:0:0:0:
134,343,112145,5,0,0:0:0:0:
134,343,112239,1,0,0:0:0:0:
134,343,112333,1,4,0:0:0:0:
317,292,112520,1,0,0:0:0:0:
317,292,112614,1,0,0:0:0:0:
317,292,112708,1,4,1:2:0:0:
224,196,112895,2,0,P|207:151|201:104,1,95
360,164,113270,53,0,0:0:0:0:
317,292,113458,1,0,1:0:0:0:
224,196,113645,1,0,0:0:0:0:
360,164,113833,2,0,P|404:147|451:141,1,95
317,292,114208,2,0,P|272:308|225:314,1,95,0|0,1:0|0:0,0:0:0:0:
92,292,114583,5,0,0:0:0:0:
92,292,114770,1,0,0:0:0:0:
72,160,114958,2,0,P|55:115|49:68,1,95,0|0,1:0|0:0,0:0:0:0:
216,200,115333,1,0,1:0:0:0:
92,292,115520,1,0,1:0:0:0:
72,160,115708,1,0,1:0:0:0:
88,140,115801,1,0,1:0:0:0:
112,128,115895,1,0,1:0:0:0:
140,124,115989,1,0,1:0:0:0:
168,128,116083,6,0,P|214:121|259:105,1,95,4|0,0:2|0:0,0:0:0:0:
455,36,116458,2,0,P|408:43|364:60,1,95,0|4,0:0|1:2,0:0:0:0:
408,168,116833,2,0,P|424:212|431:259,2,95,0|0|4,0:0|0:0|1:2,0:0:0:0:
300,212,117395,2,0,P|211:245|117:262,1,190,0|4,0:0|1:2,0:0:0:0:
8,196,117958,1,0,0:0:0:0:
8,196,118145,1,4,1:2:0:0:
48,76,118333,2,0,P|94:84|138:101,1,95,0|4,0:0|1:2,0:0:0:0:
208,288,118708,2,0,P|161:279|117:262,1,95,0|4,0:0|1:2,0:0:0:0:
316,144,119458,6,0,P|362:152|406:169,1,95,0|0,1:0|0:0,0:0:0:0:
276,296,119833,2,0,P|245:332|208:361,1,95
162,193,120208,2,0,P|145:148|138:101,1,95,0|0,1:0|0:0,0:0:0:0:
408,168,120583,5,4,0:0:0:0:
208,361,121145,1,4,0:0:0:0:
208,361,121333,1,0,1:0:0:0:
96,252,121520,1,0,1:0:0:0:
140,256,121614,1,0,1:0:0:0:
184,252,121708,1,0,1:0:0:0:
224,236,121801,1,0,1:0:0:0:
256,208,121895,1,0,1:0:0:0:
292,116,122083,22,0,B|332:84|384:112|408:172|256:288|256:288|104:172|128:112|180:84|219:115,1,570.000021743775,4|0,0:0|0:0,0:0:0:0:
368,261,131013,6,0,P|332:265|292:257,1,76,4|0,0:0|0:0,0:0:0:0:
225,104,131346,2,0,P|231:142|228:179,1,76,8|0,0:0|0:0,0:0:0:0:
297,332,131679,2,0,P|290:293|293:256,1,76
317,131,132013,1,8,0:0:0:0:
208,266,132179,6,0,P|170:271|130:266,1,76
22,243,132513,1,0,0:0:0:0:
208,266,132679,1,8,0:0:0:0:
140,143,132846,1,0,0:0:0:0:
132,266,133013,2,0,P|132:317|125:360,1,76
60,302,133346,6,0,P|133:286|206:308,1,152,8|0,0:0|0:0,0:0:0:0:
295,343,133846,1,0,0:0:0:0:
270,246,134013,2,0,P|270:206|276:170,1,76,8|0,0:0|0:0,0:0:0:0:
301,79,134346,1,0,0:0:0:0:
301,79,134429,1,0,0:0:0:0:
301,79,134513,1,0,0:0:0:0:
362,223,134679,1,8,0:0:0:0:
276,170,134846,6,0,P|200:160|126:173,1,152
11,187,135346,2,0,P|0:150|0:112,1,76,8|0,0:0|0:0,0:0:0:0:
71,270,135679,2,0,P|68:307|58:344,1,76
78,135,136013,2,0,P|91:95|130:56,1,76,8|0,0:0|0:0,0:0:0:0:
213,21,136346,5,0,0:0:0:0:
213,21,136429,1,0,0:0:0:0:
213,21,136513,1,0,0:0:0:0:
158,140,136679,2,0,P|161:177|171:214,1,76,8|0,0:0|0:0,0:0:0:0:
219,332,137013,1,0,0:0:0:0:
233,168,137179,1,0,0:0:0:0:
126,330,137346,1,8,0:0:0:0:
279,252,137513,6,0,P|358:237|428:261,1,152
498,302,138013,1,8,0:0:0:0:
346,372,138179,1,0,0:0:0:0:
279,252,138346,2,0,P|267:214|271:159,1,76
447,82,138679,2,0,P|456:117|452:155,1,76,8|0,0:0|0:0,0:0:0:0:
330,327,139013,21,0,0:0:0:0:
441,252,139179,2,0,P|469:276|485:310,1,76,0|8,0:0|0:0,0:0:0:0:
330,327,139513,1,0,0:0:0:0:
331,187,139679,2,0,P|297:169|259:166,1,76
91,165,140013,1,8,0:0:0:0:
179,130,140179,6,0,P|196:77|201:18,1,114,8|0,0:0|0:0,0:0:0:0:
113,54,140513,2,0,P|96:107|90:165,1,114,8|0,0:0|0:0,0:0:0:0:
89,260,140846,2,0,P|38:246|-2:196,1,114,8|0,0:0|0:0,0:0:0:0:
90,164,141179,2,0,P|140:177|181:227,1,114,8|0,0:0|0:0,0:0:0:0:
195,261,141512,6,0,P|265:286|337:266,1,152,4|0,0:0|0:0,0:0:0:0:
359,254,141929,1,0,0:0:0:0:
359,254,142012,1,8,0:0:0:0:
275,141,142179,1,0,0:0:0:0:
413,193,142346,2,0,P|422:161|419:118,1,76
411,19,142679,1,8,0:0:0:0:
340,145,142846,6,0,P|265:147|200:111,1,152
94,43,143346,1,8,0:0:0:0:
201,17,143512,1,0,0:0:0:0:
100,145,143679,2,0,P|87:183|93:225,1,76
190,344,144012,2,0,P|174:309|146:284,1,76,8|0,0:0|0:0,0:0:0:0:
13,213,144346,5,0,0:0:0:0:
166,192,144512,2,0,P|191:154|199:114,1,76,0|8,0:0|0:0,0:0:0:0:
223,22,144846,1,0,0:0:0:0:
172,202,145012,1,0,0:0:0:0:
172,202,145096,1,0,0:0:0:0:
172,202,145179,1,0,0:0:0:0:
53,40,145346,1,8,0:0:0:0:
172,202,145512,6,8,P|241:230|317:228,1,152
434,198,146012,1,8,0:0:0:0:
352,104,146179,1,0,0:0:0:0:
318,228,146346,2,0,P|304:283|312:339,1,114
313,383,146679,2,0,P|275:389|237:378,1,76,8|0,0:0|0:0,0:0:0:0:
147,325,147012,6,0,P|73:309|0:328,1,152,4|8,0:0|0:0,0:0:0:0:
0,328,147512,1,0,0:0:0:0:
70,197,147679,2,0,P|83:161|84:123,1,76
87,25,148012,1,8,0:0:0:0:
10,142,148179,1,0,0:0:0:0:
10,142,148262,1,0,0:0:0:0:
10,142,148346,21,0,0:0:0:0:
87,25,148512,1,0,0:0:0:0:
15,152,148679,2,0,P|1:187|0:225,1,76,8|0,0:0|0:0,0:0:0:0:
79,319,149012,2,0,P|148:310|225:342,1,152,0|8,0:0|0:0,0:0:0:0:
320,365,149512,1,0,0:0:0:0:
304,199,149679,5,0,0:0:0:0:
222,340,149846,1,0,0:0:0:0:
210,182,150012,2,0,P|222:146|246:116,1,76,8|0,0:0|0:0,0:0:0:0:
366,124,150346,2,0,P|390:152|404:187,1,76
455,316,150679,1,8,0:0:0:0:
307,45,150846,1,0,0:0:0:0:
455,316,151179,5,8,0:0:0:0:
165,118,151512,1,8,0:0:0:0:
446,133,151846,1,8,0:0:0:0:
293,184,152179,1,0,0:0:0:0:
293,184,152262,1,0,0:0:0:0:
292,184,152346,6,0,P|285:220|288:258,1,76
274,359,152679,2,0,P|204:372|129:344,1,152,8|0,0:0|0:0,0:0:0:0:
32,281,153179,2,0,P|16:319|15:355,1,76,0|8,0:0|0:0,0:0:0:0:
134,262,153512,6,0,P|167:196|172:115,1,152
259,221,154012,2,0,P|226:287|221:368,1,152,8|0,0:0|0:0,0:0:0:0:
315,133,154512,1,0,0:0:0:0:
315,133,154596,1,0,0:0:0:0:
315,133,154679,1,8,0:0:0:0:
365,218,154846,6,0,P|403:226|440:219,1,76
400,60,155179,1,0,0:0:0:0:
314,133,155346,2,0,P|279:188|286:276,1,152,8|0,0:0|0:0,0:0:0:0:
283,271,155846,1,0,0:0:0:0:
404,196,156012,1,8,0:0:0:0:
352,319,156179,6,0,P|287:352|218:325,1,152
160,265,156679,1,8,0:0:0:0:
353,202,156846,2,0,P|284:174|218:208,1,152
160,265,157346,1,8,0:0:0:0:
75,296,157512,22,0,P|38:232|48:158,1,152
80,72,158012,1,8,0:0:0:0:
121,215,158179,1,0,0:0:0:0:
171,82,158346,1,8,0:0:0:0:
48,158,158512,1,0,0:0:0:0:
199,165,158679,1,8,0:0:0:0:
171,82,158846,6,0,P|168:44|178:7,1,76
296,184,159179,2,0,P|283:226|253:256,1,76,0|8,0:0|0:0,0:0:0:0:
154,321,159512,1,0,0:0:0:0:
215,193,159679,2,0,P|224:156|222:118,1,76
215,19,160012,1,8,0:0:0:0:
75,142,160179,6,0,P|60:236|93:306,1,152
197,359,160679,1,8,0:0:0:0:
198,221,160846,1,0,0:0:0:0:
79,287,161012,1,8,0:0:0:0:
197,359,161179,1,0,0:0:0:0:
313,286,161346,1,8,0:0:0:0:
302,158,161512,6,0,P|278:126|241:108,1,76
145,72,161846,1,0,0:0:0:0:
288,235,162012,1,8,0:0:0:0:
226,17,162179,1,0,0:0:0:0:
225,190,162346,1,0,0:0:0:0:
225,190,162429,1,0,0:0:0:0:
225,190,162512,1,0,0:0:0:0:
322,46,162679,1,8,0:0:0:0:
134,155,162846,1,4,0:0:0:0:
176,216,170944,69,0,0:0:0:0:
258,94,171120,1,0,0:0:0:0:
337,216,171295,1,0,0:0:0:0:
108,96,171471,1,0,0:0:0:0:
404,96,171646,1,0,0:0:0:0:
257,327,171822,1,0,0:0:0:0:
258,94,171997,1,0,0:0:0:0:
212,168,172523,6,0,L|156:232,1,71.2500027179719
315,55,172874,2,0,L|320:104,1,35.625001358986
318,90,173050,1,0,0:0:0:0:
315,55,173401,6,0,P|232:76|215:147,1,142.500005435944
352,272,173927,1,8,0:0:0:0:
348,100,174102,1,0,0:0:0:0:
128,88,174278,2,0,L|88:68,2,35.625001358986
284,164,174629,1,8,0:0:0:0:
456,120,174804,6,0,P|464:160|448:204,2,71.2500027179719
284,164,175330,2,0,P|295:208|328:236,1,71.2500027179719,8|0,0:0|0:0,0:0:0:0:
324,232,175594,1,0,0:0:0:0:
340,232,175681,1,0,0:0:0:0:
456,120,175857,1,0,0:0:0:0:
436,100,175944,1,0,0:0:0:0:
416,92,176032,2,0,P|369:80|328:84,1,71.2500027179719,8|0,0:0|0:0,0:0:0:0:
288,260,176383,6,0,P|236:267|176:208,1,142.500005435944,0|8,0:0|0:0,0:0:0:0:
340,40,176909,1,0,0:0:0:0:
288,260,177085,1,0,0:0:0:0:
152,128,177260,1,0,0:0:0:0:
352,148,177436,1,8,0:0:0:0:
212,296,177611,6,0,P|144:280|96:216,1,142.500005435944
96,204,178050,1,0,0:0:0:0:
100,184,178137,1,8,0:0:0:0:
264,36,178313,1,0,0:0:0:0:
212,296,178488,5,0,0:0:0:0:
264,36,178664,2,0,L|244:120,1,71.2500027179719
212,244,179015,1,0,0:0:0:0:
212,244,179102,1,0,0:0:0:0:
212,244,179190,1,0,0:0:0:0:
88,112,179366,5,0,0:0:0:0:
264,40,179541,1,8,0:0:0:0:
204,240,179716,2,0,B|236:144,1,71.2500027179719
264,40,180067,1,0,0:0:0:0:
356,248,180243,5,8,0:0:0:0:
356,248,180330,1,0,0:0:0:0:
356,248,180418,2,0,P|392:272|424:272,2,71.2500027179719
128,108,180944,1,8,0:0:0:0:
296,64,181120,21,0,0:0:0:0:
332,68,181208,1,0,0:0:0:0:
360,88,181295,1,0,0:0:0:0:
224,280,181471,2,0,P|200:236|204:204,1,71.2500027179719,0|8,0:0|0:0,0:0:0:0:
264,40,181822,1,0,0:0:0:0:
444,144,181997,6,0,L|320:112,1,95,4|0,0:0|0:0,0:0:0:0:
488,52,182348,1,0,0:0:0:0:
396,224,182523,2,0,L|272:192,1,95,4|0,0:0|0:0,0:0:0:0:
376,88,182874,1,0,0:0:0:0:
284,308,183050,1,0,0:0:0:0:
84,212,183225,2,0,P|144:172|260:152,1,190,4|0,0:0|0:0,0:0:0:0:
376,88,183751,5,4,0:0:0:0:
384,108,183839,1,0,0:0:0:0:
384,136,183927,1,0,0:0:0:0:
396,168,184015,1,0,0:0:0:0:
384,200,184102,2,4,L|360:232,1,35.625001358986
284,308,184278,1,0,0:0:0:0:
284,308,184629,22,0,B|265:325|265:325|259:301|259:301|233:331|233:331|221:315|221:315|204:287|157:300|129:260,1,213.750008153916,4|8,0:0|0:0,0:0:0:0:
88,144,185330,1,0,0:0:0:0:
200,80,185506,2,0,P|244:96|296:80,2,71.2500027179719,0|0|8,0:0|0:0|0:0,0:0:0:0:
88,144,186032,2,0,L|68:176,1,35.625001358986
92,196,186208,2,0,L|100:232,1,35.625001358986
128,240,186383,1,0,0:0:0:0:
267,93,186558,2,0,P|251:123|248:176,1,71.2500027179719,8|0,0:0|0:0,0:0:0:0:
252,180,186822,1,0,0:0:0:0:
260,200,186909,1,0,0:0:0:0:
452,216,187085,5,0,0:0:0:0:
344,76,187260,1,8,0:0:0:0:
256,248,187436,2,0,P|312:272|352:260,1,71.2500027179719
408,120,187787,1,0,0:0:0:0:
168,172,187962,1,8,0:0:0:0:
168,172,188313,1,0,0:0:0:0:
284,36,188488,1,0,0:0:0:0:
336,196,188664,1,8,0:0:0:0:
180,292,188839,6,0,P|128:304|96:296,2,71.2500027179719,8|0|0,0:0|0:0|0:0,0:0:0:0:
336,196,189366,1,8,0:0:0:0:
236,120,189541,2,0,L|136:104,1,71.2500027179719
88,272,189892,1,0,0:0:0:0:
296,196,190067,2,0,L|216:228,1,71.2500027179719,8|0,0:0|0:0,0:0:0:0:
72,160,190418,6,0,P|52:108|60:64,2,71.2500027179719,0|0|8,0:0|0:0|0:0,0:0:0:0:
188,220,190944,1,0,0:0:0:0:
312,60,191120,1,0,0:0:0:0:
126,105,191295,2,0,P|134:173|188:220,1,142.500005435944
376,196,191822,2,0,L|308:148,1,71.2500027179719
121,192,192173,2,0,L|217:232,1,71.2500027179719
368,264,192523,2,0,P|412:272|440:312,2,71.2500027179719
80,272,193225,6,0,P|64:200|92:120,1,142.500005435944
200,56,193751,1,0,0:0:0:0:
376,108,193927,2,0,L|408:152,1,35.625001358986
336,268,194102,2,0,L|272:248,1,35.625001358986
152,160,194278,2,0,L|208:164,1,35.625001358986
400,192,194453,2,0,L|368:208,1,35.625001358986
144,268,194629,2,0,P|144:216|164:184,1,71.2500027179719
260,64,194980,5,0,0:0:0:0:
260,64,195067,1,0,0:0:0:0:
260,64,195155,1,0,0:0:0:0:
408,140,195330,2,0,L|336:124,1,71.2500027179719
152,160,195681,2,0,P|144:208|164:244,1,71.2500027179719
336,264,196032,2,0,P|376:276|416:272,2,71.2500027179719,0|0|8,0:0|0:0|0:0,0:0:0:0:
56,204,196734,1,8,0:0:0:0:
328,116,197085,22,0,L|400:64,1,71.2500027179719,8|0,0:0|0:0,0:0:0:0:
328,116,197611,6,0,L|400:64,1,71.2500027179719
168,260,198137,2,0,P|208:288|248:288,3,71.2500027179719
372,268,198839,2,0,P|408:224|376:144,1,142.500005435944,4|0,0:0|0:0,0:0:0:0:
140,88,199366,1,0,0:0:0:0:
316,232,199541,2,0,P|340:160|296:92,1,142.500005435944,4|0,0:0|0:0,0:0:0:0:
104,200,200067,1,0,0:0:0:0:
404,132,200594,6,0,L|344:112,1,35.625001358986
292,192,200769,2,0,L|256:216,1,35.625001358986
144,168,200944,1,0,0:0:0:0:
40,272,201120,1,0,0:0:0:0:
256,192,201471,12,0,203751,0:0:0:0:
200,168,208666,54,8,P|192:204|152:240,1,76
112,168,209023,1,2,0:0:0:0:
156,88,209202,1,2,0:0:0:0:
248,96,209380,2,0,P|328:80|404:100,2,152,4|2|8,0:0|0:0|0:0,0:0:0:0:
200,168,210273,1,0,0:0:0:0:
200,168,210452,1,0,0:0:0:0:
156,248,210630,6,2,P|82:264|8:248,1,152,6|8,0:0|0:0,0:0:0:0:
156,88,211166,1,2,0:0:0:0:
240,240,211345,1,2,0:0:0:0:
80,152,211523,6,2,L|20:152,1,47.5,2|2,0:0|0:0,0:0:0:0:
240,56,211880,2,2,L|292:56,1,47.5,2|2,0:0|0:0,0:0:0:0:
286,179,212237,70,0,L|234:247,1,76,6|0,0:0|0:0,0:0:0:0:
164,328,212595,1,2,0:0:0:0:
184,160,212773,2,0,L|152:80,1,76,0|8,0:0|0:0,0:0:0:0:
240,56,213130,1,0,0:0:0:0:
108,208,213309,1,2,0:0:0:0:
232,252,213487,6,2,P|320:264|376:204,1,152,10|8,0:0|0:0,0:0:0:0:
452,152,214023,2,0,B|392:96|392:96|344:112,1,114,2|0,0:0|0:0,0:0:0:0:
292,144,214380,2,0,L|200:144,1,76,12|0,0:0|0:0,0:0:0:0:
144,76,214737,1,12,0:0:0:0:
232,252,214916,1,0,0:0:0:0:
328,68,215095,6,0,P|376:136|344:208,2,152,4|2|8,0:0|0:0|0:0,0:0:0:0:
88,164,215987,1,0,0:0:0:0:
232,252,216166,1,0,0:0:0:0:
144,76,216345,2,8,P|176:132|172:164,1,76,10|0,0:0|0:0,0:0:0:0:
164,288,216702,2,0,P|208:324|236:328,2,76,8|2|2,0:0|0:0|0:0,0:0:0:0:
240,168,217237,6,0,L|284:92,1,76,4|0,0:0|0:0,0:0:0:0:
348,60,217505,1,8,0:0:0:0:
348,60,217595,2,0,L|400:148,1,76,8|0,0:0|0:0,0:0:0:0:
432,200,217862,1,8,0:0:0:0:
432,200,217952,70,0,L|512:200,1,76,12|0,0:0|0:0,0:0:0:0:
344,296,218309,1,8,0:0:0:0:
240,168,218487,2,0,L|240:80,2,76
84,304,219023,1,8,0:0:0:0:
248,256,219202,2,2,P|316:208|320:132,1,152,8|8,0:0|0:0,0:0:0:0:
132,88,219737,1,8,0:0:0:0:
132,88,220095,5,8,0:0:0:0:
132,88,220184,1,8,0:0:0:0:
132,88,220273,1,8,0:0:0:0:
132,88,220362,1,8,0:0:0:0:
132,88,220452,1,8,0:0:0:0:
132,88,220541,1,8,0:0:0:0:
132,88,220630,1,8,0:0:0:0:
132,88,220720,1,8,0:0:0:0:
132,88,220809,6,0,P|64:152|48:224,1,152,4|8,0:0|0:0,0:0:0:0:
60,356,221345,2,0,P|128:292|144:220,1,152,0|0,0:0|0:0,0:0:0:0:
232,308,221880,1,8,0:0:0:0:
328,264,222059,2,0,L|440:264,2,76,0|0|0,0:0|0:0|0:0,0:0:0:0:
184,196,222595,5,8,0:0:0:0:
352,96,222773,1,0,0:0:0:0:
184,16,222952,1,0,0:0:0:0:
172,104,223130,2,0,L|248:104,1,76,0|8,0:0|0:0,0:0:0:0:
288,24,223487,1,0,0:0:0:0:
184,196,223666,70,0,P|100:156|84:88,1,152,0|8,0:0|0:0,0:0:0:0:
256,128,224202,2,0,P|287:215|250:275,1,152,0|0,0:0|0:0,0:0:0:0:
164,284,224737,1,8,0:0:0:0:
172,104,224916,2,0,P|204:64|240:48,1,76,0|0,0:0|0:0,0:0:0:0:
368,96,225273,1,0,0:0:0:0:
372,272,225452,1,8,0:0:0:0:
256,128,225630,1,0,0:0:0:0:
452,224,225809,6,0,P|368:184|328:192,1,114
300,240,226166,2,0,P|268:288|220:304,1,76,8|0,0:0|0:0,0:0:0:0:
164,284,226523,5,0,0:0:0:0:
64,144,226702,1,0,0:0:0:0:
64,324,226880,1,8,0:0:0:0:
168,152,227059,2,0,P|238:108|306:123,1,152,0|0,0:0|0:0,0:0:0:0:
248,200,227595,5,8,0:0:0:0:
92,228,227773,2,0,B|48:104|48:104|64:64,1,152,0|0,0:0|0:0,0:0:0:0:
156,36,228309,1,8,0:0:0:0:
168,152,228487,1,0,0:0:0:0:
260,80,228666,2,0,L|356:80,1,76,0|0,0:0|0:0,0:0:0:0:
376,244,229023,1,8,0:0:0:0:
184,244,229202,1,0,0:0:0:0:
348,156,229380,70,0,P|408:112|396:28,1,152,4|8,0:0|0:0,0:0:0:0:
248,192,229916,2,0,P|188:236|200:320,1,152,4|0,0:0|0:0,0:0:0:0:
376,244,230452,1,8,0:0:0:0:
188,124,230630,2,0,L|24:124,1,152,4|8,0:0|0:0,0:0:0:0:
120,244,231166,2,0,L|208:304,1,76,4|0,0:0|0:0,0:0:0:0:
332,320,231523,5,0,0:0:0:0:
367,306,231612,1,0,0:0:0:0:
396,282,231702,1,0,0:0:0:0:
417,250,231791,1,0,0:0:0:0:
427,214,231880,1,0,0:0:0:0:
408,180,231970,1,0,0:0:0:0:
386,149,232059,1,0,0:0:0:0:
377,112,232148,1,0,0:0:0:0:
382,75,232237,6,0,P|352:40|248:16,1,152,4|8,0:0|0:0,0:0:0:0:
188,184,232773,2,0,P|223:153|241:107,1,76,0|0,0:0|0:0,0:0:0:0:
128,16,233130,1,0,0:0:0:0:
24,136,233309,1,8,0:0:0:0:
188,184,233487,2,0,P|208:272|172:344,1,152,0|0,0:0|0:0,0:0:0:0:
32,220,234023,2,0,P|88:192|104:168,1,76,8|0,0:0|0:0,0:0:0:0:
136,104,234380,1,0,0:0:0:0:
268,160,234559,2,0,L|352:160,1,76,0|8,0:0|0:0,0:0:0:0:
148,264,234916,1,0,0:0:0:0:
224,80,235095,6,0,P|160:20|96:28,1,152,4|8,0:0|0:0,0:0:0:0:
136,104,235630,2,0,P|143:143|136:184,1,76,0|0,0:0|0:0,0:0:0:0:
232,340,235987,2,0,P|224:300|232:260,1,76,0|8,0:0|0:0,0:0:0:0:
248,168,236345,2,0,P|340:160|408:172,1,152,4|0,0:0|0:0,0:0:0:0:
308,292,236880,1,8,0:0:0:0:
308,292,237059,1,0,0:0:0:0:
88,244,237237,1,0,0:0:0:0:
88,244,237327,1,0,0:0:0:0:
88,244,237416,1,0,0:0:0:0:
88,244,237505,1,0,0:0:0:0:
88,244,237595,2,0,P|48:196|36:156,1,76,4|0,0:0|0:0,0:0:0:0:
156,92,237952,70,0,L|248:92,1,76,4|0,0:0|0:0,0:0:0:0:
332,136,238309,1,8,0:0:0:0:
216,248,238487,1,0,0:0:0:0:
388,228,238666,1,8,0:0:0:0:
184,168,238845,1,0,0:0:0:0:
304,244,239023,2,0,P|288:292|268:316,1,76,8|0,0:0|0:0,0:0:0:0:
332,136,239380,6,0,P|377:113|408:110,1,76,4|0,0:0|0:0,0:0:0:0:
436,136,239648,1,0,0:0:0:0:
436,136,239737,1,8,0:0:0:0:
264,60,239916,1,0,0:0:0:0:
388,228,240095,2,0,P|424:268|448:280,2,76,8|0|12,0:0|0:0|0:0,0:0:0:0:
384,56,240630,1,0,0:0:0:0:
240,144,240809,6,0,L|160:144,1,76,12|0,0:0|0:0,0:0:0:0:
116,144,241077,1,0,0:0:0:0:
116,144,241166,2,0,P|64:120|44:96,1,76,8|0,0:0|0:0,0:0:0:0:
168,0,241523,2,0,P|144:52|120:72,1,76,8|0,0:0|0:0,0:0:0:0:
12,208,241880,1,8,0:0:0:0:
52,288,242059,1,0,0:0:0:0:
140,256,242237,6,0,L|228:256,1,76,12|0,0:0|0:0,0:0:0:0:
248,272,242505,1,0,0:0:0:0:
248,272,242595,1,8,0:0:0:0:
292,140,242773,1,0,0:0:0:0:
212,184,242952,2,0,P|200:140|208:92,1,76,8|0,0:0|0:0,0:0:0:0:
320,224,243309,2,0,P|332:268|324:316,1,76,12|0,0:0|0:0,0:0:0:0:
140,256,243666,70,0,L|52:200,1,76,12|0,0:0|0:0,0:0:0:0:
56,180,243934,1,0,0:0:0:0:
56,140,244023,2,0,P|76:104|116:80,1,76,8|0,0:0|0:0,0:0:0:0:
280,88,244380,1,8,0:0:0:0:
280,88,244470,1,8,0:0:0:0:
280,88,244559,1,8,0:0:0:0:
280,88,244648,1,8,0:0:0:0:
280,88,244737,1,8,0:0:0:0:
416,188,244916,6,0,P|392:244|320:276,1,114,4|0,0:0|0:0,0:0:0:0:
312,248,245273,6,0,L|212:248,2,95,0|0|0,0:0|0:0|0:0,0:0:0:0:
312,248,246523,1,4,0:0:0:0:
152,56,254101,85,12,0:0:0:0:
120,196,254434,1,4,0:0:0:0:
88,336,254768,1,4,0:0:0:0:
28,212,255101,6,0,L|220:180,1,190,4|8,0:0|0:0,0:0:0:0:
384,156,255601,1,0,0:0:0:0:
348,344,255768,1,0,0:0:0:0:
348,344,255851,1,0,0:0:0:0:
348,344,255934,1,0,0:0:0:0:
216,180,256101,1,8,0:0:0:0:
456,80,256268,1,0,0:0:0:0:
384,156,256434,6,0,P|412:220|388:288,1,142.5
348,344,256768,2,0,B|336:360|336:360|248:372,1,95,8|0,0:0|0:0,0:0:0:0:
32,284,257101,2,0,L|144:268,1,95
240,104,257434,2,0,L|128:120,1,95,8|0,0:0|0:0,0:0:0:0:
67,43,257768,6,0,P|23:119|71:203,1,190,0|8,0:0|0:0,0:0:0:0:
240,104,258268,1,0,0:0:0:0:
69,202,258434,1,0,0:0:0:0:
69,202,258518,1,0,0:0:0:0:
69,202,258601,1,0,0:0:0:0:
261,246,258768,2,0,B|277:258|277:258|289:346,1,95,8|0,0:0|0:0,0:0:0:0:
432,348,259101,5,0,0:0:0:0:
428,324,259184,1,0,0:0:0:0:
424,300,259268,2,0,L|408:188,1,95,0|8,0:0|0:0,0:0:0:0:
261,246,259601,1,0,0:0:0:0:
257,222,259684,1,0,0:0:0:0:
253,198,259768,2,0,L|237:86,1,95
152,48,260101,1,8,0:0:0:0:
182,18,260184,1,0,0:0:0:0:
222,4,260268,1,0,0:0:0:0:
264,7,260351,1,0,0:0:0:0:
300,28,260434,38,0,L|404:44,1,95
504,168,260768,1,8,0:0:0:0:
352,224,260934,2,0,P|276:276|172:248,1,190
240,104,261434,1,8,0:0:0:0:
240,104,261518,1,0,0:0:0:0:
240,104,261601,1,0,0:0:0:0:
393,42,261768,5,0,0:0:0:0:
504,168,261934,1,0,0:0:0:0:
432,320,262101,1,8,0:0:0:0:
273,261,262268,1,0,0:0:0:0:
265,237,262351,1,0,0:0:0:0:
257,213,262434,2,0,L|361:225,1,95
504,168,262768,1,8,0:0:0:0:
504,168,263101,6,0,P|440:176|304:144,1,190,4|8,0:0|0:0,0:0:0:0:
328,112,263601,2,0,P|236:88|142:94,1,190,4|0,0:0|0:0,0:0:0:0:
88,20,264101,1,8,0:0:0:0:
54,46,264184,1,0,0:0:0:0:
40,86,264268,1,0,0:0:0:0:
43,128,264351,1,0,0:0:0:0:
68,160,264434,5,4,0:0:0:0:
208,268,264601,1,0,0:0:0:0:
240,88,264768,1,8,0:0:0:0:
68,160,264934,2,0,L|284:192,1,190,4|0,0:0|0:0,0:0:0:0:
443,215,265434,1,8,0:0:0:0:
443,215,265518,2,0,L|480:204,5,23.75
443,215,265768,6,0,L|227:183,1,190,4|8,0:0|0:0,0:0:0:0:
164,348,266268,1,0,0:0:0:0:
68,160,266434,1,0,0:0:0:0:
68,160,266518,1,0,0:0:0:0:
68,160,266601,1,0,0:0:0:0:
255,187,266768,1,8,0:0:0:0:
442,214,266934,1,0,0:0:0:0:
368,280,267101,6,0,P|344:216|364:148,1,142.5
404,88,267434,2,0,B|424:80|424:80|504:92,1,95,8|0,0:0|0:0,0:0:0:0:
368,280,267768,2,0,L|264:264,1,95
144,104,268101,2,0,L|248:120,1,95,8|0,0:0|0:0,0:0:0:0:
404,88,268434,38,0,P|401:182|339:249,1,190,0|8,0:0|0:0,0:0:0:0:
237,118,268934,1,0,0:0:0:0:
338,249,269101,1,0,0:0:0:0:
338,249,269184,1,0,0:0:0:0:
338,249,269268,1,0,0:0:0:0:
208,352,269434,2,0,B|188:360|188:360|108:348,1,95,8|0,0:0|0:0,0:0:0:0:
92,200,269768,5,0,0:0:0:0:
71,212,269851,1,0,0:0:0:0:
50,224,269934,2,0,L|143:236,1,95,0|8,0:0|0:0,0:0:0:0:
296,273,270268,1,0,0:0:0:0:
317,261,270351,1,0,0:0:0:0:
338,249,270434,2,0,L|431:261,1,95
432,261,270768,1,8,0:0:0:0:
432,261,271101,5,4,0:0:0:0:
324,148,271268,1,0,0:0:0:0:
472,108,271434,1,8,0:0:0:0:
432,261,271601,2,0,P|356:313|252:285,1,190
324,148,272101,1,8,0:0:0:0:
324,148,272184,1,0,0:0:0:0:
324,148,272268,1,0,0:0:0:0:
164,108,272434,5,4,0:0:0:0:
64,200,272601,1,0,0:0:0:0:
132,320,272768,1,8,0:0:0:0:
264,294,272934,1,0,0:0:0:0:
164,108,273101,2,0,L|140:268,1,142.5
132,320,273434,1,8,0:0:0:0:
164,108,273601,1,4,0:0:0:0:
164,108,274434,5,0,0:0:0:0:
152,200,274601,1,0,0:0:0:0:
140,292,274768,1,0,0:0:0:0:
128,384,274934,1,0,0:0:0:0:
6,318,275101,6,0,L|202:278,1,190,4|8,0:0|0:0,0:0:0:0:
280,192,275601,1,0,0:0:0:0:
292,208,275684,1,0,0:0:0:0:
304,224,275768,2,0,L|400:240,1,95
193,281,276101,2,0,L|97:265,1,95,8|0,0:0|0:0,0:0:0:0:
68,148,276434,37,0,0:0:0:0:
100,266,276601,1,0,0:0:0:0:
210,208,276768,2,0,L|306:224,1,95,8|0,0:0|0:0,0:0:0:0:
428,120,277101,1,0,0:0:0:0:
272,68,277268,1,0,0:0:0:0:
304,224,277434,1,8,0:0:0:0:
304,224,277768,6,0,P|224:184|128:208,1,190,0|8,0:0|0:0,0:0:0:0:
160,332,278268,1,0,0:0:0:0:
180,320,278351,1,0,0:0:0:0:
200,308,278434,2,0,L|220:200,1,95
410,213,278767,2,0,L|428:120,1,95,8|0,0:0|0:0,0:0:0:0:
428,120,279267,5,0,0:0:0:0:
480,240,279434,1,8,0:0:0:0:
356,344,279601,1,0,0:0:0:0:
304,224,279767,2,0,L|208:208,1,95
144,372,280101,2,0,L|48:356,1,95,8|0,0:0|0:0,0:0:0:0:
26,246,280434,6,0,P|120:238|210:207,1,190,0|8,0:0|0:0,0:0:0:0:
272,68,280934,1,0,0:0:0:0:
288,84,281017,1,0,0:0:0:0:
304,100,281101,2,0,L|400:116,1,95
396,300,281434,2,0,L|492:316,1,95,8|0,0:0|0:0,0:0:0:0:
471,208,281767,5,0,0:0:0:0:
396,300,281934,1,0,0:0:0:0:
304,224,282101,2,0,L|208:208,1,95,8|0,0:0|0:0,0:0:0:0:
111,137,282434,1,0,0:0:0:0:
132,347,282601,1,0,0:0:0:0:
304,224,282767,1,8,0:0:0:0:
304,224,283101,6,0,L|104:192,1,190,0|8,0:0|0:0,0:0:0:0:
62,369,283601,1,0,0:0:0:0:
50,349,283684,1,0,0:0:0:0:
38,330,283767,2,0,L|146:349,1,95
116,193,284101,2,0,L|8:173,1,95,8|4,0:0|0:0,0:0:0:0:
22,175,284601,37,0,0:0:0:0:
22,175,284684,1,0,0:0:0:0:
22,175,284767,1,0,0:0:0:0:
38,329,284934,1,0,0:0:0:0:
172,240,285101,1,0,0:0:0:0:
155,226,285184,1,0,0:0:0:0:
141,210,285267,1,0,0:0:0:0:
132,191,285351,1,0,0:0:0:0:
127,170,285434,1,0,0:0:0:0:
127,148,285517,1,0,0:0:0:0:
132,128,285601,1,0,0:0:0:0:
141,108,285684,1,0,0:0:0:0:
154,94,285767,6,0,B|176:80|176:80|360:104,1,190,4|8,0:0|0:0,0:0:0:0:
484,112,286267,1,0,0:0:0:0:
472,132,286351,1,0,0:0:0:0:
460,152,286434,2,0,L|444:56,1,95
356,224,286767,2,0,L|371:317,1,95,8|0,0:0|0:0,0:0:0:0:
460,152,287101,5,0,0:0:0:0:
356,224,287267,1,0,0:0:0:0:
244,88,287434,2,0,L|338:100,1,95,8|0,0:0|0:0,0:0:0:0:
355,223,287767,2,0,L|261:211,1,95
460,152,288101,1,8,0:0:0:0:
460,152,288434,6,0,P|480:242|436:328,1,190,0|8,0:0|0:0,0:0:0:0:
284,248,288934,1,0,0:0:0:0:
272,228,289017,1,0,0:0:0:0:
260,208,289101,2,0,L|368:227,1,95
225,361,289434,2,0,L|117:342,1,95,8|0,0:0|0:0,0:0:0:0:
131,344,289934,5,0,0:0:0:0:
260,208,290101,1,8,0:0:0:0:
125,79,290267,1,0,0:0:0:0:
0,216,290434,2,0,L|93:199,1,95
224,327,290767,2,0,L|130:343,1,95,8|0,0:0|0:0,0:0:0:0:
0,216,291101,6,0,B|14:194|14:194|182:166,1,190,0|8,0:0|0:0,0:0:0:0:
200,295,291601,1,0,0:0:0:0:
212,311,291684,1,0,0:0:0:0:
224,327,291767,2,0,L|320:343,1,95
352,224,292101,2,0,L|445:239,1,95,8|0,0:0|0:0,0:0:0:0:
317,342,292434,37,0,0:0:0:0:
448,240,292601,1,0,0:0:0:0:
346,109,292767,2,0,L|252:93,1,95,8|0,0:0|0:0,0:0:0:0:
215,211,293101,1,0,0:0:0:0:
193,47,293267,1,0,0:0:0:0:
346,109,293434,1,8,0:0:0:0:
346,109,293767,6,0,L|146:77,1,190,0|8,0:0|0:0,0:0:0:0:
80,212,294267,1,0,0:0:0:0:
100,204,294351,1,0,0:0:0:0:
121,195,294434,2,0,L|214:210,1,95
337,315,294767,1,8,0:0:0:0:
368,156,294934,1,4,0:0:0:0:
368,156,295267,5,0,0:0:0:0:
164,220,295434,1,0,0:0:0:0:
321,364,295601,1,0,0:0:0:0:
452,268,295767,5,0,0:0:0:0:
356,252,295934,1,0,0:0:0:0:
260,236,296101,1,0,0:0:0:0:
164,220,296267,1,0,0:0:0:0:
164,220,297767,21,2,0:0:0:0:
240,232,297934,1,0,0:0:0:0:
316,212,298101,1,0,0:0:0:0:
368,156,298267,69,2,0:0:0:0:
176,116,298601,1,2,0:0:0:0:
238,303,298934,1,6,0:0:0:0:
159,266,306787,5,2,0:0:0:0:
301,276,306945,1,0,0:0:0:0:
170,123,307103,1,0,0:0:0:0:
159,266,307261,2,0,P|142:192|170:123,1,152,4|0,0:0|0:0,0:0:0:0:
235,198,307734,1,2,0:0:0:0:
223,340,307892,6,0,P|250:270|234:197,1,152,4|0,0:0|0:0,0:0:0:0:
170,123,308366,1,2,0:0:0:0:
234,197,308524,2,0,P|271:206|309:202,1,76
404,185,308840,1,0,0:0:0:0:
404,185,308919,1,0,0:0:0:0:
404,185,308998,5,0,0:0:0:0:
276,114,309155,1,2,0:0:0:0:
367,271,309313,2,0,L|362:349,2,76,4|0|0,0:0|0:0|0:0,0:0:0:0:
276,114,309787,2,0,L|264:270,1,152,4|2,0:0|0:0,0:0:0:0:
253,353,310261,1,0,0:0:0:0:
182,280,310419,22,0,P|110:255|36:263,1,152,4|2,0:0|0:0,0:0:0:0:
35,263,310892,1,0,0:0:0:0:
172,188,311050,2,0,P|243:212|318:205,1,152,4|2,0:0|0:0,0:0:0:0:
318,204,311524,1,0,0:0:0:0:
318,204,311840,5,4,0:0:0:0:
363,91,311998,1,0,0:0:0:0:
215,184,312155,1,8,0:0:0:0:
291,31,312313,1,0,0:0:0:0:
318,204,312471,1,2,0:0:0:0:
258,115,312629,2,0,P|223:102|186:106,1,76,0|8,0:0|0:0,0:0:0:0:
60,181,312945,6,0,P|29:112|38:37,1,152,4|0,0:0|0:0,0:0:0:0:
38,37,313419,1,8,0:0:0:0:
186,106,313576,2,0,P|207:74|220:39,1,76
117,134,313892,1,2,0:0:0:0:
220,39,314050,1,8,0:0:0:0:
179,183,314208,6,0,P|172:256|208:327,1,152,4|0,0:0|0:0,0:0:0:0:
293,374,314682,1,8,0:0:0:0:
418,219,314840,1,0,0:0:0:0:
440,360,314998,1,2,0:0:0:0:
305,271,315155,1,0,0:0:0:0:
305,271,315234,1,0,0:0:0:0:
305,271,315313,1,8,0:0:0:0:
418,218,315471,6,0,P|461:161|470:76,1,152,4|0,0:0|0:0,0:0:0:0:
472,83,315945,1,10,0:0:0:0:
305,271,316103,1,0,0:0:0:0:
318,99,316261,1,0,0:0:0:0:
318,99,316340,1,0,0:0:0:0:
318,99,316419,1,0,0:0:0:0:
472,83,316576,1,8,0:0:0:0:
381,166,316734,6,0,P|310:190|243:155,1,152,4|0,0:0|0:0,0:0:0:0:
178,16,317208,2,0,P|194:59|198:96,1,76,8|0,0:0|0:0,0:0:0:0:
341,165,317524,2,0,P|326:204|294:233,1,76
111,75,317840,1,8,0:0:0:0:
163,227,317998,6,0,P|236:253|304:227,1,152
352,120,318471,2,0,P|370:77|405:50,1,76,8|0,0:0|0:0,0:0:0:0:
432,133,318787,2,0,P|438:179|462:219,1,76,2|0,0:0|0:0,0:0:0:0:
512,299,319103,1,8,0:0:0:0:
470,60,319261,1,4,0:0:0:0:
470,60,319340,1,0,0:0:0:0:
470,60,319419,21,0,0:0:0:0:
380,198,319576,2,0,P|342:203|304:199,1,76,0|8,0:0|0:0,0:0:0:0:
154,92,319892,1,4,0:0:0:0:
154,92,319971,1,0,0:0:0:0:
154,92,320050,1,0,0:0:0:0:
203,185,320208,2,0,P|204:222|191:260,1,76,0|8,0:0|0:0,0:0:0:0:
151,350,320524,1,4,0:0:0:0:
151,350,320603,1,0,0:0:0:0:
151,350,320682,5,0,0:0:0:0:
74,113,320840,2,0,P|72:75|86:37,1,76,0|8,0:0|0:0,0:0:0:0:
125,212,321155,1,4,0:0:0:0:
125,212,321234,1,0,0:0:0:0:
125,212,321313,1,0,0:0:0:0:
217,127,321471,2,0,P|189:101|153:91,1,76,0|8,0:0|0:0,0:0:0:0:
49,61,321787,1,0,0:0:0:0:
125,212,321945,6,0,P|123:253|112:286,1,76,4|0,0:0|0:0,0:0:0:0:
125,212,322261,2,0,P|161:200|199:199,1,76,8|0,0:0|0:0,0:0:0:0:
349,255,322576,2,0,P|312:266|274:267,1,76
419,215,322892,1,8,0:0:0:0:
354,157,323050,6,0,P|283:128|204:144,1,152,4|0,0:0|0:0,0:0:0:0:
106,192,323524,1,8,0:0:0:0:
175,63,323682,1,0,0:0:0:0:
177,233,323840,1,0,0:0:0:0:
40,145,323998,2,0,P|27:180|29:217,1,76,0|8,0:0|0:0,0:0:0:0:
116,299,324313,6,0,P|188:281|258:307,1,152,4|0,0:0|0:0,0:0:0:0:
343,352,324787,1,8,0:0:0:0:
184,360,324945,1,0,0:0:0:0:
368,247,325103,2,0,P|380:202|383:141,1,76,0|2,0:0|0:0,0:0:0:0:
383,148,325340,1,0,0:0:0:0:
383,148,325419,1,8,0:0:0:0:
271,288,325576,6,0,P|188:302|120:269,1,152,4|0,0:0|0:0,0:0:0:0:
59,163,326050,2,0,P|51:115|63:77,1,76,8|0,0:0|0:0,0:0:0:0:
6,220,326366,2,0,P|39:237|80:236,1,76
218,235,326682,2,0,P|184:217|143:218,1,76,8|0,0:0|0:0,0:0:0:0:
18,313,326998,5,0,0:0:0:0:
90,162,327155,1,0,0:0:0:0:
157,354,327313,2,0,P|193:289|189:214,1,152,8|0,0:0|0:0,0:0:0:0:
164,103,327787,2,0,P|155:65|158:28,1,76,0|8,0:0|0:0,0:0:0:0:
124,188,328103,22,0,P|54:214|-19:202,1,152,4|0,0:0|0:0,0:0:0:0:
235,139,328576,2,0,P|244:177|241:214,1,76,8|0,0:0|0:0,0:0:0:0:
131,326,328892,2,0,P|159:301|195:288,1,76
293,292,329208,1,8,0:0:0:0:
147,199,329366,6,0,P|132:124|154:50,1,152,4|0,0:0|0:0,0:0:0:0:
287,159,329840,2,0,P|301:233|279:307,1,152,8|0,0:0|0:0,0:0:0:0:
203,369,330313,1,0,0:0:0:0:
287,159,330471,1,10,0:0:0:0:
189,244,330629,6,0,P|114:258|40:236,1,152
81,66,331103,2,0,P|84:104|76:141,1,76,10|0,0:0|0:0,0:0:0:0:
42,238,331419,1,2,0:0:0:0:
174,98,331576,1,0,0:0:0:0:
14,99,331734,1,8,0:0:0:0:
166,229,331892,6,0,P|233:258|301:227,1,152,4|0,0:0|0:0,0:0:0:0:
309,127,332366,2,0,P|300:89|298:51,1,76,8|0,0:0|0:0,0:0:0:0:
396,200,332682,2,0,P|394:237|385:274,1,76
309,127,332998,1,8,0:0:0:0:
300,227,333155,6,0,P|228:250|157:226,1,152,4|0,0:0|0:0,0:0:0:0:
16,108,333629,2,0,P|51:99|88:110,1,76,8|0,0:0|0:0,0:0:0:0:
91,189,333945,2,0,P|83:226|91:263,1,76
175,225,334261,1,8,0:0:0:0:
27,145,334419,6,0,P|6:218|15:292,1,152,4|0,0:0|0:0,0:0:0:0:
155,309,334892,2,0,P|175:236|166:161,1,152,8|0,0:0|0:0,0:0:0:0:
111,63,335366,1,0,0:0:0:0:
155,309,335524,1,8,0:0:0:0:
166,160,335682,6,0,P|238:143|311:164,1,152,4|0,0:0|0:0,0:0:0:0:
381,318,336155,2,0,P|361:264|363:219,1,76,8|0,0:0|0:0,0:0:0:0:
325,86,336471,1,0,0:0:0:0:
325,86,336550,1,0,0:0:0:0:
325,86,336629,1,0,0:0:0:0:
438,265,336787,1,8,0:0:0:0:
493,86,336945,1,4,0:0:0:0:
224,164,345540,21,0,0:0:0:0:
260,160,345623,1,0,0:0:0:0:
276,196,345706,1,0,0:0:0:0:
312,188,345790,1,0,0:0:0:0:
328,224,345873,2,0,L|376:204,1,47.5
356,240,346040,2,0,L|396:272,1,47.5
432,272,346206,6,0,B|423:218|436:144|436:144|380:124|356:96,1,190,0|8,0:0|0:0,0:0:0:0:
212,100,346706,1,0,0:0:0:0:
180,264,346873,2,0,L|272:316,1,95
440,280,347206,1,8,0:0:0:0:
440,280,347373,1,0,0:0:0:0:
356,132,347540,6,0,B|296:176|296:176|236:176|236:176|192:228,1,190,0|8,0:0|0:0,0:0:0:0:
68,328,348040,2,0,L|120:224,1,95
240,24,348373,1,0,0:0:0:0:
300,184,348540,1,8,0:0:0:0:
372,28,348706,1,0,0:0:0:0:
424,240,348873,54,0,P|464:296|492:312,2,95,2|0|0,0:0|0:0|0:0,0:0:0:0:
300,184,349373,2,0,P|288:248|248:276,2,95,2|0|0,0:0|0:0|0:0,0:0:0:0:
180,60,349873,2,0,P|128:96|128:132,1,95,2|0,0:0|0:0,0:0:0:0:
196,280,350206,21,4,0:0:0:0:
196,280,350290,1,0,0:0:0:0:
196,280,350373,1,0,0:0:0:0:
356,104,350540,2,0,L|296:196,1,95
256,348,350873,1,4,0:0:0:0:
420,296,351040,1,0,0:0:0:0:
452,128,351206,1,0,0:0:0:0:
292,188,351373,1,0,0:0:0:0:
100,276,351623,6,0,L|56:188,1,95,4|0,0:0|0:0,0:0:0:0:
128,32,351873,1,8,0:0:0:0:
296,56,352040,1,0,0:0:0:0:
296,56,352123,1,0,0:0:0:0:
296,56,352206,1,0,0:0:0:0:
452,128,352373,2,0,P|476:176|464:228,2,95,0|8|0,0:0|0:0|0:0,0:0:0:0:
244,136,352873,5,0,0:0:0:0:
84,196,353040,1,0,0:0:0:0:
292,248,353206,1,8,0:0:0:0:
448,180,353373,2,0,P|452:112|444:80,2,95
328,308,353873,2,0,L|348:216,1,95,8|0,0:0|0:0,0:0:0:0:
376,88,354206,53,0,0:0:0:0:
104,240,354540,1,4,0:0:0:0:
196,36,354873,1,0,0:0:0:0:
196,36,354956,1,0,0:0:0:0:
196,36,355040,1,0,0:0:0:0:
376,88,355206,2,0,P|376:148|356:180,1,95
168,300,355540,21,0,0:0:0:0:
156,264,355623,1,0,0:0:0:0:
176,232,355706,1,0,0:0:0:0:
144,192,355790,1,0,0:0:0:0:
172,152,355873,1,4,0:0:0:0:
128,116,355956,1,0,0:0:0:0:
124,76,356040,2,0,L|176:20,1,47.5
260,48,356206,2,0,L|244:116,1,47.5,4|0,0:0|0:0,0:0:0:0:
172,152,356373,2,0,L|208:116,1,47.5
324,104,356540,2,4,P|332:172|316:208,1,95,4|0,0:0|0:0,0:0:0:0:
136,320,356873,6,0,P|116:264|132:220,1,95,4|0,0:0|0:0,0:0:0:0:
208,96,357206,1,8,0:0:0:0:
264,260,357373,1,0,0:0:0:0:
96,152,357540,2,0,P|76:96|76:56,2,95,0|0|8,0:0|0:0|0:0,0:0:0:0:
264,260,358040,1,0,0:0:0:0:
388,100,358206,5,0,0:0:0:0:
388,100,358290,1,0,0:0:0:0:
388,100,358373,1,0,0:0:0:0:
208,96,358540,1,8,0:0:0:0:
264,260,358706,1,0,0:0:0:0:
388,100,358873,2,0,P|408:44|448:28,2,95,0|0|8,0:0|0:0|0:0,0:0:0:0:
428,256,359373,1,0,0:0:0:0:
272,260,359540,54,0,P|212:248|176:256,1,95
160,244,359790,1,0,0:0:0:0:
176,224,359873,2,0,P|120:200|104:160,1,95,8|0,0:0|0:0,0:0:0:0:
84,168,360123,1,0,0:0:0:0:
96,148,360206,2,0,P|112:84|104:40,1,95
252,32,360540,2,0,P|240:104|252:136,1,95,8|0,0:0|0:0,0:0:0:0:
392,216,360873,22,0,P|444:192|464:152,2,95,0|0|8,0:0|0:0|0:0,0:0:0:0:
220,220,361373,1,0,0:0:0:0:
252,52,361540,2,0,P|312:68|340:96,1,95
392,216,361873,1,8,0:0:0:0:
244,304,362040,5,0,0:0:0:0:
244,304,362123,1,0,0:0:0:0:
244,304,362206,2,0,P|176:272|124:260,1,95,4|0,0:0|0:0,0:0:0:0:
88,108,362540,2,0,P|120:72|140:24,1,95,4|0,0:0|0:0,0:0:0:0:
211,216,362873,2,0,P|154:238|112:229,1,95,4|0,0:0|0:0,0:0:0:0:
178,96,363206,2,0,P|235:73|277:82,1,95,4|0,0:0|0:0,0:0:0:0:
344,260,363540,6,0,P|372:316|408:332,2,95,4|0|0,0:0|0:0|0:0,0:0:0:0:
356,76,364040,2,0,P|416:100|416:224,1,190
425,212,364456,1,0,0:0:0:0:
425,212,364540,1,0,0:0:0:0:
240,104,364706,1,0,0:0:0:0:
104,260,364873,54,0,P|188:284|288:240,1,190,0|8,0:0|0:0,0:0:0:0:
356,76,365373,1,0,0:0:0:0:
184,56,365540,2,0,P|132:60|80:88,2,95,8|0|8,0:0|0:0|0:0,0:0:0:0:
356,76,366040,1,0,0:0:0:0:
260,216,366206,22,0,P|248:268|248:312,1,95
176,188,366540,2,0,P|152:252|160:292,1,95
72,128,366873,1,0,0:0:0:0:
72,156,366956,2,0,P|84:208|100:224,1,47.5
247,309,367206,2,0,P|291:293|319:241,1,95
303,47,367540,6,0,P|244:33|185:73,1,95,4|0,0:0|0:0,0:0:0:0:
400,239,367873,2,4,P|414:180|374:121,1,95,4|0,0:0|0:0,0:0:0:0:
208,336,368206,2,0,P|267:350|326:310,1,95,4|0,0:0|0:0,0:0:0:0:
111,144,368540,2,0,P|97:203|137:262,1,95,4|0,0:0|0:0,0:0:0:0:
304,236,368873,2,0,P|312:180|288:128,2,95
136,316,369373,6,0,P|92:240|116:136,1,190
276,32,369873,2,0,L|216:112,1,95
240,196,370206,54,0,P|248:248|260:196,1,142.5
268,176,370790,1,0,0:0:0:0:
292,180,370873,2,0,P|260:312|232:176,1,380
256,192,371623,12,0,372873,0:0:0:0:
287,351,377817,70,0,P|311:351|332:339,1,47.5,6|0,0:0|0:0,0:0:0:0:
357,312,377984,2,0,P|367:290|368:266,1,47.5
351,232,378150,2,0,P|345:209|327:194,1,47.5
289,186,378317,2,0,P|265:185|244:174,1,47.5
219,145,378484,2,0,P|209:123|210:99,1,47.5
225,65,378650,2,0,P|244:49|265:40,1,47.5
302,31,378817,2,0,P|325:38|343:53,1,47.5
376,72,378984,2,0,P|373:95|365:117,1,47.5
263,156,379150,6,0,P|241:145|218:144,1,47.5
122,150,379317,2,0,P|101:161|85:179,1,47.5
47,266,379484,2,0,P|39:289|39:313,1,47.5
115,368,379650,2,0,P|139:372|162:370,1,47.5
221,295,379817,2,0,P|238:278|260:268,1,47.5
342,219,379984,2,0,P|352:198|357:174,1,47.5
302,31,380150,2,0,P|291:51|286:75,1,47.5,10|0,0:0|0:0,0:0:0:0:
415,49,380317,2,0,P|425:28|430:4,1,47.5
356,173,380484,6,0,P|336:241|352:309,1,142.5,6|0,0:0|0:0,0:0:0:0:
420,361,380817,1,8,0:0:0:0:
356,174,380984,1,0,0:0:0:0:
221,295,381150,38,0,P|159:261|122:201,1,142.5,2|0,0:0|0:0,0:0:0:0:
103,115,381484,1,8,0:0:0:0:
221,295,381650,1,0,0:0:0:0:
35,264,381817,37,2,0:0:0:0:
102,29,381984,1,0,0:0:0:0:
233,191,382150,1,8,0:0:0:0:
69,140,382317,1,0,0:0:0:0:
137,355,382484,1,2,0:0:0:0:
102,29,382650,1,2,0:0:0:0:
137,355,382817,2,0,L|127:258,1,95,8|0,0:0|0:0,0:0:0:0:
102,29,383150,6,0,L|116:178,1,142.5,6|0,0:0|0:0,0:0:0:0:
127,260,383484,1,8,0:0:0:0:
102,29,383650,1,0,0:0:0:0:
277,118,383817,2,0,P|346:101|410:129,1,142.5,2|0,0:0|0:0,0:0:0:0:
465,188,384150,1,8,0:0:0:0:
330,277,384317,1,0,0:0:0:0:
356,20,384484,5,2,0:0:0:0:
430,293,384650,1,0,0:0:0:0:
279,118,384817,1,8,0:0:0:0:
177,359,384984,1,0,0:0:0:0:
326,348,385150,2,0,L|336:205,1,142.5,2|0,0:0|0:0,0:0:0:0:
245,195,385484,2,0,P|223:185|208:166,1,47.5,8|0,0:0|0:0,0:0:0:0:
113,156,385650,2,0,P|91:165|76:184,1,47.5,8|0,0:0|0:0,0:0:0:0:
218,293,385817,38,0,P|288:285|335:234,1,142.5,6|0,0:0|0:0,0:0:0:0:
336,205,386150,2,0,L|326:348,1,142.5,8|0,0:0|0:0,0:0:0:0:
461,240,386484,2,0,L|457:95,1,142.5,2|0,0:0|0:0,0:0:0:0:
448,13,386817,1,8,0:0:0:0:
340,107,386984,1,0,0:0:0:0:
463,309,387150,38,0,L|459:164,1,142.5,2|0,0:0|0:0,0:0:0:0:
448,13,387484,1,8,0:0:0:0:
461,240,387650,1,0,0:0:0:0:
340,107,387817,1,2,0:0:0:0:
333,100,387900,1,0,0:0:0:0:
326,93,387984,1,2,0:0:0:0:
204,9,388150,2,0,P|164:35|139:75,1,95,8|0,0:0|0:0,0:0:0:0:
183,237,388484,5,6,0:0:0:0:
46,155,388650,1,0,0:0:0:0:
46,155,388734,1,0,0:0:0:0:
46,155,388817,1,8,0:0:0:0:
120,338,388984,1,0,0:0:0:0:
139,75,389150,1,2,0:0:0:0:
51,245,389317,1,0,0:0:0:0:
241,235,389484,1,8,0:0:0:0:
139,75,389650,1,0,0:0:0:0:
120,338,389817,6,0,L|123:286,1,47.5,2|0,0:0|0:0,0:0:0:0:
126,252,389984,2,0,L|129:200,1,47.5,2|0,0:0|0:0,0:0:0:0:
133,165,390150,2,0,L|136:113,1,47.5,8|0,0:0|0:0,0:0:0:0:
139,75,390317,1,0,0:0:0:0:
356,23,390484,1,2,0:0:0:0:
472,63,390650,1,0,0:0:0:0:
378,144,390817,1,8,0:0:0:0:
356,23,390984,1,0,0:0:0:0:
454,213,391150,38,0,P|388:238|320:221,1,142.5,6|0,0:0|0:0,0:0:0:0:
270,154,391484,2,0,L|253:46,1,95,8|0,0:0|0:0,0:0:0:0:
203,364,391817,2,0,L|243:227,1,142.5,2|0,0:0|0:0,0:0:0:0:
270,153,392150,1,8,0:0:0:0:
316,337,392317,1,0,0:0:0:0:
255,60,392484,37,2,0:0:0:0:
131,203,392650,1,0,0:0:0:0:
256,19,392817,1,8,0:0:0:0:
349,193,392984,1,0,0:0:0:0:
83,120,393150,2,0,L|225:97,1,142.5,2|0,0:0|0:0,0:0:0:0:
255,60,393484,2,0,L|191:68,1,47.5,8|0,0:0|0:0,0:0:0:0:
52,159,393650,2,0,L|99:153,1,47.5,8|0,0:0|0:0,0:0:0:0:
348,192,393817,6,0,P|373:258|349:324,1,142.5,6|0,0:0|0:0,0:0:0:0:
275,366,394150,2,0,L|171:352,1,95,8|0,0:0|0:0,0:0:0:0:
6,248,394484,2,0,P|75:247|130:202,1,142.5,2|0,0:0|0:0,0:0:0:0:
237,168,394817,2,0,L|224:262,1,95,8|0,0:0|0:0,0:0:0:0:
256,19,395150,5,6,0:0:0:0:
224,262,395317,1,0,0:0:0:0:
224,262,395400,1,0,0:0:0:0:
224,262,395484,1,8,0:0:0:0:
378,189,395650,1,0,0:0:0:0:
255,18,395817,2,0,P|320:45|385:20,1,142.5,2|0,0:0|0:0,0:0:0:0:
412,100,396150,2,0,L|376:193,1,95,8|0,0:0|0:0,0:0:0:0:
130,346,396484,38,0,L|114:204,1,142.5,6|0,0:0|0:0,0:0:0:0:
206,128,396817,2,0,L|215:222,1,95,8|0,0:0|0:0,0:0:0:0:
382,342,397150,2,0,P|451:345|502:298,1,142.5,2|0,0:0|0:0,0:0:0:0:
309,292,397484,2,0,P|261:294|219:315,1,95,8|0,0:0|0:0,0:0:0:0:
40,254,397817,38,0,P|8:192|32:127,1,142.5,2|0,0:0|0:0,0:0:0:0:
96,69,398150,2,0,L|194:47,1,95,8|0,0:0|0:0,0:0:0:0:
503,161,398484,2,0,L|365:194,1,142.5,2|0,0:0|0:0,0:0:0:0:
286,229,398817,2,0,L|267:324,1,95,8|0,0:0|0:0,0:0:0:0:
256,4,399150,6,0,L|273:156,1,142.5,6|0,0:0|0:0,0:0:0:0:
286,229,399484,1,8,0:0:0:0:
368,79,399650,1,0,0:0:0:0:
145,163,399817,1,2,0:0:0:0:
255,317,399984,1,0,0:0:0:0:
265,78,400150,1,8,0:0:0:0:
143,275,400317,1,0,0:0:0:0:
310,383,400484,6,0,P|340:320|317:254,1,142.5,2|0,0:0|0:0,0:0:0:0:
286,229,400817,1,8,0:0:0:0:
168,363,400984,1,8,0:0:0:0:
50,176,401150,2,0,L|144:162,1,95,2|0,0:0|0:0,0:0:0:0:
435,305,401484,2,0,L|340:318,1,95,2|0,0:0|0:0,0:0:0:0:
16,134,401817,38,0,P|90:138|157:103,1,152,6|0,0:0|0:0,0:0:0:0:
464,345,402484,2,0,P|389:340|322:375,1,152,6|0,0:0|0:0,0:0:0:0:
257,82,403150,37,2,0:0:0:0:
360,158,403317,1,2,0:0:0:0:
319,281,403484,1,8,0:0:0:0:
190,280,403650,1,8,0:0:0:0:
151,157,403817,1,8,0:0:0:0:
196,112,410952,117,8,0:0:0:0:
304,316,411110,1,8,0:0:0:0:
304,316,411584,6,0,P|240:304|152:324,1,142.5,0|0,0:0|0:0,0:0:0:0:
104,356,411899,2,8,P|40:312|32:280,1,95
92,152,412215,1,8,0:0:0:0:
116,132,412294,1,8,0:0:0:0:
140,120,412373,1,8,0:0:0:0:
168,112,412452,1,8,0:0:0:0:
196,112,412531,6,0,P|248:128|300:120,1,95,4|0,0:0|0:0,0:0:0:0:
380,28,412847,1,8,0:0:0:0:
300,204,413005,2,0,P|325:252|367:283,1,95,0|0,0:0|0:0,0:0:0:0:
287,123,413320,1,0,0:0:0:0:
224,296,413478,1,8,0:0:0:0:
364,148,413636,70,0,B|448:108|508:164|508:164|480:204,1,190
300,204,414110,1,8,0:0:0:0:
380,28,414268,1,0,0:0:0:0:
380,232,414426,2,0,P|340:276|304:288,1,95,0|0,0:0|0:0,0:0:0:0:
196,110,414742,2,0,P|255:107|289:124,1,95,8|0,0:0|0:0,0:0:0:0:
224,296,415057,6,0,P|120:300|40:256,1,190,0|8,0:0|0:0,0:0:0:0:
28,104,415531,1,0,0:0:0:0:
192,196,415689,2,0,P|264:172|288:144,1,95,0|0,0:0|0:0,0:0:0:0:
292,136,415926,1,0,0:0:0:0:
292,136,416005,1,8,0:0:0:0:
120,144,416163,2,0,P|104:212|128:256,1,95,0|0,0:0|0:0,0:0:0:0:
224,296,416478,1,0,0:0:0:0:
204,104,416636,2,0,P|232:62|272:40,1,95,8|0,0:0|0:0,0:0:0:0:
264,216,416952,1,0,0:0:0:0:
120,144,417110,1,0,0:0:0:0:
224,296,417268,2,0,P|196:338|156:360,1,95,8|0,0:0|0:0,0:0:0:0:
68,228,417584,6,0,P|12:156|16:56,2,190,4|8|0,0:0|0:0|0:0,0:0:0:0:
232,136,418373,1,0,0:0:0:0:
380,240,418531,2,0,P|404:284|407:331,1,95,8|0,0:0|0:0,0:0:0:0:
424,128,418847,1,0,0:0:0:0:
320,316,419005,1,0,0:0:0:0:
316,136,419163,2,0,P|291:91|288:44,1,95,8|0,0:0|0:0,0:0:0:0:
280,240,419478,2,0,P|251:282|211:306,1,95,0|0,0:0|0:0,0:0:0:0:
212,168,419794,1,8,0:0:0:0:
212,168,420110,6,0,P|132:152|112:152,1,95,4|0,0:0|0:0,0:0:0:0:
80,152,420347,1,0,0:0:0:0:
80,152,420426,1,8,0:0:0:0:
292,352,420584,2,0,P|348:312|368:284,1,95,12|0,0:0|0:0,0:0:0:0:
352,140,420899,1,8,0:0:0:0:
352,140,420978,1,0,0:0:0:0:
352,140,421057,1,8,0:0:0:0:
208,264,421215,70,0,P|116:264|24:232,1,190,4|0,0:0|0:0,0:0:0:0:
252,120,421689,1,8,0:0:0:0:
144,184,421847,1,8,0:0:0:0:
144,184,421926,1,8,0:0:0:0:
144,184,422005,1,8,0:0:0:0:
224,40,422163,1,8,0:0:0:0:
288,264,422320,1,2,0:0:0:0:
128,92,422478,1,2,0:0:0:0:
312,180,422636,6,0,P|344:128|348:72,1,95,4|0,0:0|0:0,0:0:0:0:
208,264,422952,2,0,P|260:352|344:372,2,190,8|0|8,0:0|0:0|0:0,0:0:0:0:
212,129,423742,2,0,P|159:97|103:93,1,95,0|0,0:0|0:0,0:0:0:0:
312,72,424057,1,0,0:0:0:0:
208,264,424215,2,0,P|280:248|312:220,1,95,8|0,0:0|0:0,0:0:0:0:
212,128,424531,1,0,0:0:0:0:
124,244,424689,1,0,0:0:0:0:
320,152,424847,2,0,P|363:187|382:231,1,95,8|0,0:0|0:0,0:0:0:0:
208,264,425163,6,0,P|100:228|52:168,1,190,4|8,0:0|0:0,0:0:0:0:
212,128,425636,1,0,0:0:0:0:
288,336,425794,2,0,P|336:288|356:240,1,95,0|0,0:0|0:0,0:0:0:0:
348,232,426031,1,0,0:0:0:0:
348,232,426110,1,8,0:0:0:0:
212,128,426268,6,0,P|144:120|36:180,1,190,0|0,0:0|0:0,0:0:0:0:
147,337,426742,2,0,L|219:249,1,95,8|0,0:0|0:0,0:0:0:0:
356,80,427057,2,0,P|384:115|407:178,1,95,2|8,0:0|0:0,0:0:0:0:
392,208,427294,1,8,0:0:0:0:
348,232,427373,1,8,0:0:0:0:
300,224,427452,1,8,0:0:0:0:
256,204,427531,1,8,0:0:0:0:
232,164,427610,1,8,0:0:0:0:
208,120,427689,70,0,P|152:92|96:84,1,95,12|0,0:0|0:0,0:0:0:0:
144,252,428005,1,8,0:0:0:0:
356,80,428163,1,0,0:0:0:0:
248,308,428320,2,0,P|312:328|344:324,1,95,8|0,0:0|0:0,0:0:0:0:
392,208,428636,1,8,0:0:0:0:
208,120,428794,1,0,0:0:0:0:
248,308,428952,5,8,0:0:0:0:
372,200,429110,1,0,0:0:0:0:
264,76,429268,1,8,0:0:0:0:
140,184,429426,2,0,P|83:152|52:119,1,95,0|8,0:0|0:0,0:0:0:0:
168,36,429742,1,0,0:0:0:0:
224,204,429899,1,8,0:0:0:0:
62,131,430057,1,0,0:0:0:0:
308,144,430215,6,0,P|356:120|396:60,1,95,8|0,0:0|0:0,0:0:0:0:
140,184,430531,2,8,P|112:272|140:372,1,190
296,264,431005,1,0,0:0:0:0:
368,96,431163,1,8,0:0:0:0:
224,204,431320,1,0,0:0:0:0:
392,204,431478,6,0,P|444:204|500:216,1,95,8|0,0:0|0:0,0:0:0:0:
296,264,431794,2,0,P|252:232|224:204,1,95,8|0,0:0|0:0,0:0:0:0:
368,96,432110,1,8,0:0:0:0:
384,312,432268,1,8,0:0:0:0:
184,272,432426,1,8,0:0:0:0:
392,204,432584,1,2,0:0:0:0:
248,144,432742,70,0,P|200:112|180:64,1,95,4|0,0:0|0:0,0:0:0:0:
120,48,433215,2,0,P|84:115|79:192,1,142.5
152,296,433847,1,0,0:0:0:0:
318,245,434005,2,0,P|273:217|210:213,1,95,0|0,0:0|0:0,0:0:0:0:
232,212,434636,1,0,0:0:0:0:
72,268,434794,1,2,0:0:0:0:
232,84,434952,1,2,0:0:0:0:
232,84,435268,6,0,P|292:84|344:104,2,95,4|0|0,0:0|0:0|0:0,0:0:0:0:
107,179,436215,1,8,0:0:0:0:
107,179,436531,2,0,L|67:279,1,95,0|0,0:0|0:0,0:0:0:0:
232,352,437005,1,0,0:0:0:0:
420,300,437163,2,8,P|396:288|380:276,1,47.5
256,192,437478,1,2,0:0:0:0:
256,192,437636,1,2,0:0:0:0:
256,192,437794,12,4,438742,0:0:0:0:
236,84,446115,69,0,0:0:0:0:
372,260,446258,1,0,0:0:0:0:
372,260,446544,2,0,P|284:236|172:224,1,190
64,260,446972,1,0,0:0:0:0:
56,240,447044,1,0,0:0:0:0:
48,220,447115,2,0,P|56:164|72:100,1,95,0|4,0:0|0:0,0:0:0:0:
136,52,447401,5,4,0:0:0:0:
236,80,447544,1,0,0:0:0:0:
332,36,447687,2,0,P|388:44|452:60,1,95,0|4,0:0|0:0,0:0:0:0:
488,144,447972,1,0,0:0:0:0:
493,167,448044,1,0,0:0:0:0:
497,190,448115,1,0,0:0:0:0:
500,214,448187,1,0,0:0:0:0:
500,237,448258,1,0,0:0:0:0:
496,260,448329,1,0,0:0:0:0:
489,281,448401,6,0,P|436:302|373:320,1,95,4|0,0:0|0:0,0:0:0:0:
300,272,448687,1,8,0:0:0:0:
300,272,448829,2,0,P|289:318|283:365,1,95
312,172,449115,2,0,P|276:140|239:110,1,95,0|8,0:0|0:0,0:0:0:0:
152,236,449401,1,0,0:0:0:0:
152,236,449687,6,0,P|107:253|62:268,1,95,0|8,0:0|0:0,0:0:0:0:
96,120,449972,1,0,0:0:0:0:
96,120,450115,2,0,P|102:72|112:26,1,95
239,110,450401,1,8,0:0:0:0:
239,110,450472,1,0,0:0:0:0:
239,110,450544,1,0,0:0:0:0:
239,110,450615,1,0,0:0:0:0:
239,110,450687,70,0,P|276:139|311:171,1,95
392,100,450972,1,8,0:0:0:0:
392,100,451115,2,0,P|437:85|481:68,1,95
416,208,451401,2,0,P|405:254|399:301,1,95,0|8,0:0|0:0,0:0:0:0:
222,203,451687,6,0,P|232:156|238:109,1,95
326,239,451972,2,0,P|361:271|398:300,1,95,0|8,0:0|0:0,0:0:0:0:
246,311,452258,1,0,0:0:0:0:
246,311,452401,2,0,P|200:325|156:342,1,95
222,203,452687,1,8,0:0:0:0:
222,203,452758,1,0,0:0:0:0:
222,203,452829,1,0,0:0:0:0:
326,239,452972,5,0,0:0:0:0:
456,200,453115,1,0,0:0:0:0:
417,70,453258,1,8,0:0:0:0:
287,109,453401,2,0,P|242:91|197:77,1,95
96,108,453687,2,0,P|78:152|64:197,1,95,0|8,0:0|0:0,0:0:0:0:
95,299,453972,2,0,P|139:316|184:330,1,95,0|4,0:0|0:0,0:0:0:0:
317,209,454258,5,0,0:0:0:0:
317,209,454401,1,12,0:0:0:0:
184,330,454544,2,0,P|138:340|91:348,1,95
63,197,454829,2,0,P|53:150|47:103,1,95,0|8,0:0|0:0,0:0:0:0:
197,77,455115,69,0,0:0:0:0:
197,77,455187,1,0,0:0:0:0:
197,77,455258,2,0,P|242:66|290:60,1,95,4|0,0:0|0:0,0:0:0:0:
412,96,455544,1,8,0:0:0:0:
316,184,455687,2,0,P|305:278|280:369,1,190
124,244,456115,1,8,0:0:0:0:
316,184,456258,1,0,0:0:0:0:
316,184,456544,5,0,0:0:0:0:
316,184,456687,2,0,P|410:194|501:219,2,190,8|0|8,0:0|0:0|0:0,0:0:0:0:
24,76,457544,2,0,P|29:123|41:169,1,95,4|0,0:0|0:0,0:0:0:0:
124,244,457829,1,8,0:0:0:0:
124,244,457972,2,0,P|171:238|217:226,1,95
316,184,458258,1,0,0:0:0:0:
296,288,458401,6,0,P|324:325|357:360,2,95,8|0|0,0:0|0:0|0:0,0:0:0:0:
316,184,458829,1,0,0:0:0:0:
316,184,458972,2,0,P|334:140|347:94,1,95,8|0,0:0|0:0,0:0:0:0:
217,226,459258,2,0,P|173:207|127:194,1,95
48,268,459544,1,8,0:0:0:0:
48,268,459615,1,0,0:0:0:0:
48,268,459687,1,0,0:0:0:0:
56,88,459829,6,0,P|102:76|149:70,1,95
254,111,460115,1,8,0:0:0:0:
254,111,460258,2,0,P|301:105|347:93,1,95
436,168,460544,2,0,P|454:124|467:78,1,95,0|8,0:0|0:0,0:0:0:0:
384,268,460829,70,0,P|427:286|473:299,1,95
284,216,461115,2,0,P|265:259|252:305,1,95,0|8,0:0|0:0,0:0:0:0:
254,111,461401,1,0,0:0:0:0:
254,111,461544,2,0,P|210:92|164:79,1,95
64,120,461829,1,8,0:0:0:0:
64,120,461901,1,0,0:0:0:0:
64,120,461972,1,0,0:0:0:0:
12,256,462115,5,4,0:0:0:0:
12,256,462258,2,0,P|56:275|102:288,1,95,0|8,0:0|0:0,0:0:0:0:
179,366,462544,2,0,P|217:337|251:304,1,95
368,248,462829,2,0,P|379:294|385:341,2,95,0|8|0,0:0|0:0|0:0,0:0:0:0:
440,148,463258,6,0,P|396:129|350:116,1,95
212,8,463544,2,0,P|194:52|181:97,1,95,8|0,0:0|0:0,0:0:0:0:
72,235,463829,2,0,P|116:253|161:266,1,95
299,375,464115,2,0,P|317:331|330:286,1,95,8|0,0:0|0:0,0:0:0:0:
283,129,464401,5,4,0:0:0:0:
193,164,464544,1,0,0:0:0:0:
228,256,464687,1,8,0:0:0:0:
318,219,464829,1,0,0:0:0:0:
181,97,465115,1,8,0:0:0:0:
161,266,465401,1,8,0:0:0:0:
330,287,465687,69,0,0:0:0:0:
161,266,465829,2,0,P|126:274|92:285,1,71.2500027179719,0|8,0:0|0:0,0:0:0:0:
181,97,466115,1,0,0:0:0:0:
350,118,466258,2,0,P|385:110|419:99,2,71.2500027179719
228,254,466687,5,4,0:0:0:0:
193,164,466829,1,0,0:0:0:0:
284,128,466972,1,8,0:0:0:0:
318,219,467115,1,0,0:0:0:0:
161,266,467401,1,8,0:0:0:0:
181,97,467687,1,8,0:0:0:0:
351,117,467972,5,0,0:0:0:0:
328,312,468115,2,0,P|338:345|346:380,1,71.2500027179719,0|8,0:0|0:0,0:0:0:0:
161,266,468401,1,0,0:0:0:0:
182,97,468544,2,0,P|171:63|163:28,2,71.2500027179719
256,192,468972,1,4,0:0:0:0:
279,167,478914,6,0,P|245:133|196:118,1,95,8|0,0:0|0:0,0:0:0:0:
356,190,479230,2,0,P|356:141|331:96,1,95
353,268,479546,1,8,0:0:0:0:
273,57,479704,6,0,P|145:53|85:93,1,190
175,294,480177,2,0,P|303:298|363:258,1,190,8|0,0:0|0:0,0:0:0:0:
303,78,480651,2,0,P|291:122|293:173,1,95,0|8,0:0|0:0,0:0:0:0:
315,366,480967,1,0,0:0:0:0:
378,134,481125,5,0,0:0:0:0:
378,134,481204,1,0,0:0:0:0:
378,134,481283,1,0,0:0:0:0:
476,45,481440,1,8,0:0:0:0:
378,133,481598,2,0,P|331:139|281:130,1,95
23,121,481914,2,0,P|69:115|120:124,1,95,0|8,0:0|0:0,0:0:0:0:
200,181,482230,6,0,P|214:275|192:367,1,190
84,198,482704,1,8,0:0:0:0:
192,367,482861,1,0,0:0:0:0:
303,196,483019,1,0,0:0:0:0:
303,196,483098,1,0,0:0:0:0:
303,196,483177,1,0,0:0:0:0:
190,263,483335,1,8,0:0:0:0:
362,290,483493,22,0,P|392:198|372:107,1,190
192,85,483967,2,0,P|285:72|372:109,1,190,8|0,0:0|0:0,0:0:0:0:
488,273,484440,1,0,0:0:0:0:
431,27,484598,1,8,0:0:0:0:
504,145,484756,1,0,0:0:0:0:
504,145,484835,1,0,0:0:0:0:
504,145,484914,5,0,0:0:0:0:
431,27,485072,1,0,0:0:0:0:
339,211,485230,2,0,P|247:228|166:182,1,190,8|0,0:0|0:0,0:0:0:0:
46,59,485704,1,0,0:0:0:0:
46,229,485861,1,8,0:0:0:0:
220,53,486019,1,0,0:0:0:0:
166,182,486177,5,4,0:0:0:0:
166,182,486256,1,0,0:0:0:0:
166,182,486335,1,0,0:0:0:0:
220,53,486493,1,8,0:0:0:0:
46,59,486651,1,0,0:0:0:0:
136,278,486809,1,4,0:0:0:0:
136,278,486888,1,0,0:0:0:0:
136,278,486967,1,0,0:0:0:0:
302,168,487125,1,8,0:0:0:0:
130,16,487283,1,12,0:0:0:0:
130,16,487361,1,0,0:0:0:0:
130,16,487440,5,0,0:0:0:0:
166,182,487598,1,8,0:0:0:0:
166,182,487677,1,0,0:0:0:0:
166,182,487756,1,0,0:0:0:0:
130,16,487914,1,8,0:0:0:0:
324,214,488072,1,8,0:0:0:0:
289,59,488230,1,0,0:0:0:0:
207,286,488388,1,8,0:0:0:0:
167,301,488467,1,8,0:0:0:0:
125,300,488546,1,8,0:0:0:0:
86,283,488625,1,8,0:0:0:0:
56,253,488704,6,0,P|20:167|41:75,1,190,4|8,0:0|0:0,0:0:0:0:
147,225,489177,1,0,0:0:0:0:
41,75,489335,1,0,0:0:0:0:
164,151,489493,2,0,P|220:162|282:148,1,95,0|8,0:0|0:0,0:0:0:0:
489,91,489809,6,0,P|401:67|302:96,1,190
119,218,490283,2,0,P|207:242|306:213,1,190,8|0,0:0|0:0,0:0:0:0:
388,140,490756,2,0,P|417:103|430:51,1,95,0|8,0:0|0:0,0:0:0:0:
405,259,491072,1,0,0:0:0:0:
345,65,491230,5,0,0:0:0:0:
345,65,491309,1,0,0:0:0:0:
345,65,491388,1,0,0:0:0:0:
473,161,491546,1,8,0:0:0:0:
327,214,491704,2,0,P|317:275|341:332,1,95
282,137,492019,2,0,P|245:86|188:63,1,95,0|8,0:0|0:0,0:0:0:0:
20,163,492335,22,0,P|99:196|195:162,1,190
316,41,492809,1,8,0:0:0:0:
138,274,492967,1,0,0:0:0:0:
217,70,493125,2,0,P|257:96|282:137,1,95,8|0,0:0|0:0,0:0:0:0:
375,298,493440,2,0,P|335:271|310:231,1,95,8|0,0:0|0:0,0:0:0:0:
440,45,493756,6,0,P|433:161|387:225,1,190,4|8,0:0|0:0,0:0:0:0:
235,227,494230,2,0,P|187:226|138:249,1,95
296,321,494546,2,0,P|315:278|311:232,1,95,0|8,0:0|0:0,0:0:0:0:
214,48,494861,6,0,P|198:144|242:235,1,190
296,321,495335,1,8,0:0:0:0:
381,105,495493,1,0,0:0:0:0:
295,178,495651,2,0,P|271:139|275:83,1,95
370,210,495967,2,0,P|320:253|273:264,1,95,8|0,0:0|0:0,0:0:0:0:
148,286,496283,5,8,0:0:0:0:
166,145,496440,1,8,0:0:0:0:
264,205,496598,2,8,P|275:166|271:102,1,95
235,3,496914,1,8,0:0:0:0:
166,145,497072,1,8,0:0:0:0:
103,23,497230,2,8,P|64:49|44:92,1,95
5,232,497546,5,8,0:0:0:0:
235,3,497704,1,8,0:0:0:0:
225,318,497861,1,8,0:0:0:0:
166,145,498019,1,8,0:0:0:0:
166,145,498335,1,8,0:0:0:0:
286,87,498493,1,8,0:0:0:0:
391,169,498651,1,8,0:0:0:0:
418,299,498809,5,4,1:1:0:0:
88,256,508765,5,0,0:0:0:0:
116,268,508865,1,0,0:0:0:0:
144,260,508965,1,0,0:0:0:0:
112,36,509265,1,0,0:0:0:0:
212,240,509565,2,0,P|256:248|308:212,1,95
96,232,510565,21,0,0:0:0:0:
412,96,511365,5,0,0:0:0:0:
96,236,511765,1,0,0:0:0:0:
424,292,512165,1,0,0:0:0:0:
76,84,512565,1,0,0:0:0:0:
396,192,512965,1,0,0:0:0:0:
116,84,514165,6,0,L|164:136,1,47.5
348,304,514565,2,0,L|292:280,2,47.5
152,304,514865,2,0,L|180:266,2,47.5
128,276,515165,1,0,0:0:0:0:
112,240,515265,1,0,0:0:0:0:
108,204,515365,1,0,0:0:0:0:
112,168,515465,1,0,0:0:0:0:
132,136,515565,2,0,P|168:100|216:88,1,95
428,80,516165,53,0,0:0:0:0:
264,228,516565,1,0,0:0:0:0:
112,240,516765,2,0,P|72:212|64:168,1,95
376,48,517765,22,0,L|340:148,1,95
76,284,518365,2,0,L|20:360,2,95
256,248,518965,1,0,0:0:0:0:
228,60,519165,5,0,0:0:0:0:
228,60,519265,1,0,0:0:0:0:
228,60,519365,2,0,P|292:84|356:72,1,95
344,96,519665,2,0,P|352:172|376:228,1,95
348,216,519965,1,0,0:0:0:0:
284,324,520165,5,0,0:0:0:0:
284,324,520265,2,0,P|220:300|156:312,1,95
168,288,520565,2,0,P|172:244|156:180,1,95
140,152,520865,1,0,0:0:0:0:
112,132,520965,1,0,0:0:0:0:
96,96,521065,1,0,0:0:0:0:
120,64,521165,1,0,0:0:0:0:
156,68,521265,1,0,0:0:0:0:
192,80,521365,2,0,L|240:76,1,47.5
224,112,521565,2,0,L|268:132,1,47.5
232,200,521765,54,0,L|168:204,2,47.5
300,260,522065,21,0,0:0:0:0:
336,260,522165,1,0,0:0:0:0:
372,256,522265,1,0,0:0:0:0:
408,252,522365,1,0,0:0:0:0:
440,104,522565,5,0,0:0:0:0:
260,56,522765,1,0,0:0:0:0:
392,192,522965,1,8,0:0:0:0:
212,168,523165,2,0,L|160:184,1,47.5
304,304,523465,2,0,L|344:340,1,47.5
444,196,523765,1,8,0:0:0:0:
444,196,523865,1,0,0:0:0:0:
444,196,523965,1,0,0:0:0:0:
288,72,524165,6,0,L|240:52,2,47.5
316,224,524565,2,0,L|332:284,2,47.5,8|0|0,0:0|0:0|0:0,0:0:0:0:
120,72,524965,2,0,L|68:60,2,47.5
108,284,525365,2,0,L|88:344,2,47.5
200,124,525765,1,0,0:0:0:0:
352,256,525965,53,0,0:0:0:0:
388,88,526165,1,8,0:0:0:0:
352,256,526365,2,0,L|308:272,1,47.5
96,248,526765,2,0,P|68:296|28:308,2,95,0|8|0,0:0|0:0|0:0,0:0:0:0:
260,92,527365,22,0,P|316:88|332:136,1,113.999996520996,4|0,0:0|0:0,0:0:0:0:
292,144,527665,2,0,P|240:152|208:96,1,113.999996520996,4|0,0:0|0:0,0:0:0:0:
260,92,527965,2,0,P|320:84|288:200,1,227.999993041992,4|0,0:0|0:0,0:0:0:0:
128,132,528565,1,0,0:0:0:0:
128,132,528765,1,0,0:0:0:0:
420,56,528965,5,0,0:0:0:0:
308,160,529165,1,0,0:0:0:0:
456,196,529365,1,8,0:0:0:0:
340,296,529565,2,8,L|280:296,1,47.5
104,244,529865,1,0,0:0:0:0:
72,220,529965,1,0,0:0:0:0:
88,188,530065,1,0,0:0:0:0:
56,168,530165,1,8,0:0:0:0:
144,44,530365,1,0,0:0:0:0:
232,168,530565,2,0,P|276:120|344:100,1,95
372,152,530865,2,0,L|324:160,1,47.5,0|8,0:0|0:0,0:0:0:0:
172,180,531165,5,0,0:0:0:0:
148,208,531265,1,0,0:0:0:0:
144,244,531365,1,0,0:0:0:0:
156,280,531465,1,0,0:0:0:0:
188,304,531565,1,0,0:0:0:0:
332,212,531765,2,0,P|348:160|328:112,1,95,8|0,0:0|0:0,0:0:0:0:
168,80,532165,54,0,L|132:40,1,47.5
116,92,532365,2,0,L|64:72,1,47.5
80,116,532565,1,8,0:0:0:0:
64,152,532665,1,0,0:0:0:0:
60,188,532765,1,0,0:0:0:0:
72,224,532865,1,8,0:0:0:0:
100,252,532965,22,8,L|56:292,2,47.5,8|0|8,0:0|0:0|0:0,0:0:0:0:
136,252,533265,1,0,0:0:0:0:
172,264,533365,6,0,L|200:304,2,47.5,8|0|8,0:0|0:0|0:0,0:0:0:0:
176,224,533665,1,0,0:0:0:0:
196,192,533765,1,0,0:0:0:0:
404,40,534065,1,0,0:0:0:0:
424,296,534365,1,0,0:0:0:0:
172,268,534765,5,0,0:0:0:0:
172,268,534865,1,0,0:0:0:0:
172,268,534965,1,0,0:0:0:0:
64,136,535165,2,0,L|24:60,1,47.5
80,104,535365,2,0,P|124:68|188:64,1,95
160,60,535665,1,0,0:0:0:0:
160,60,535765,1,8,0:0:0:0:
396,152,535965,1,0,0:0:0:0:
376,184,536065,1,0,0:0:0:0:
368,220,536165,2,0,P|292:232|252:268,1,95
244,256,536465,2,0,P|184:220|152:208,1,95,8|0,0:0|0:0,0:0:0:0:
124,200,536765,1,8,0:0:0:0:
160,60,536965,54,0,B|176:36|176:36|176:76|176:76|192:40|192:40|192:68|192:68|264:48|288:56,1,227.999993041992
432,204,537765,2,0,L|328:176,1,95
188,100,538165,2,0,P|244:64|312:76,1,95
328,224,538565,2,0,P|376:268|412:284,2,95
184,160,539165,2,0,P|136:116|100:100,2,95
272,305,539765,2,0,P|338:290|377:234,1,95
304,108,540165,22,0,P|248:120|192:72,1,113.999996520996
192,136,540465,2,0,P|208:192|188:268,1,113.999996520996
240,228,540765,2,0,P|288:192|348:200,1,113.999996520996
436,104,541165,2,0,P|480:64|488:16,2,95
200,224,541765,6,0,P|144:256|112:336,2,142.5
368,204,542565,2,0,P|400:152|388:100,1,95
372,92,542865,2,0,P|328:68|280:88,1,95
256,104,543165,1,0,0:0:0:0:
228,272,543365,6,0,P|312:296|396:220,1,190
104,52,544165,2,0,L|184:120,1,95
324,200,544565,2,0,P|336:136|320:104,1,95
84,144,544965,1,0,0:0:0:0:
324,200,545265,1,0,0:0:0:0:
56,252,545565,1,0,0:0:0:0:
160,116,545765,85,0,0:0:0:0:
240,328,546065,1,0,0:0:0:0:
292,76,546365,2,0,B|344:32|396:56|416:124|328:272|304:284|284:248|256:228|256:228|224:248|208:284|188:276|100:128|116:64|184:20|236:88,1,665
388,236,548165,6,0,P|332:308|224:288,1,190
180,140,548765,1,0,0:0:0:0:
216,128,548865,1,0,0:0:0:0:
252,140,548965,1,0,0:0:0:0:
136,184,549165,2,0,P|112:144|136:92,1,95
392,51,549565,2,0,P|364:127|256:163,1,190
104,72,550165,2,0,L|200:80,1,95
384,196,550565,1,0,0:0:0:0:
332,280,550765,1,0,0:0:0:0:
116,132,550965,1,0,0:0:0:0:
172,52,551165,1,0,0:0:0:0:
300,112,551365,6,0,L|212:232,2,142.5
372,192,552365,53,0,0:0:0:0:
256,264,552565,1,0,0:0:0:0:
140,192,552765,1,0,0:0:0:0:
256,192,552865,12,0,556165,0:0:0:0:
328,324,562769,53,8,0:0:0:0:
372,208,562983,1,8,0:0:0:0:
208,120,563197,1,0,0:0:0:0:
258,233,563412,1,8,0:0:0:0:
124,328,563626,5,0,0:0:0:0:
112,308,563733,1,0,0:0:0:0:
104,288,563840,1,8,0:0:0:0:
96,268,563947,1,8,0:0:0:0:
88,244,564054,1,0,0:0:0:0:
80,220,564162,1,0,0:0:0:0:
72,196,564269,6,0,B|72:91,1,95,4|0,0:0|0:0,0:0:0:0:
156,48,564697,1,8,0:0:0:0:
288,120,564912,2,0,P|348:132|400:120,1,95
464,40,565340,5,0,0:0:0:0:
484,152,565554,1,8,0:0:0:0:
400,235,565769,2,0,B|356:247|298:243,1,95
144,132,566197,5,0,0:0:0:0:
236,64,566412,1,8,0:0:0:0:
232,176,566626,2,0,B|216:228|168:272,1,95
32,352,567054,1,0,0:0:0:0:
32,352,567162,1,0,0:0:0:0:
32,352,567269,2,0,B|20:308|27:251,1,95,8|0,0:0|0:0,0:0:0:0:
80,80,567697,53,0,0:0:0:0:
204,124,567912,1,0,0:0:0:0:
100,208,568126,1,8,0:0:0:0:
160,52,568340,2,0,B|200:40|256:52,1,95
372,240,568769,5,0,0:0:0:0:
272,324,568983,1,8,0:0:0:0:
440,304,569197,2,0,B|488:224|449:119,1,190
256,216,569840,5,8,0:0:0:0:
348,312,570054,1,0,0:0:0:0:
348,312,570162,1,0,0:0:0:0:
348,312,570269,1,0,0:0:0:0:
352,180,570483,1,0,0:0:0:0:
264,300,570697,1,8,0:0:0:0:
192,188,570912,5,0,0:0:0:0:
192,188,571019,1,0,0:0:0:0:
192,188,571126,2,0,P|128:184|68:196,1,95,4|0,0:0|0:0,0:0:0:0:
4,284,571554,1,8,0:0:0:0:
104,372,571769,1,0,0:0:0:0:
200,280,571983,2,0,P|260:248|304:244,1,95
380,336,572412,1,8,0:0:0:0:
380,204,572626,5,0,0:0:0:0:
380,204,572733,1,0,0:0:0:0:
380,204,572840,2,0,P|336:144|304:124,1,95
140,232,573269,1,8,0:0:0:0:
204,116,573483,1,0,0:0:0:0:
228,248,573697,2,0,P|263:312|288:328,1,95
380,204,574126,1,8,0:0:0:0:
136,156,574340,53,0,0:0:0:0:
136,156,574447,1,0,0:0:0:0:
136,156,574554,2,0,P|84:152|40:156,1,95
104,276,574983,2,0,P|144:316|184:328,1,95,8|0,0:0|0:0,0:0:0:0:
300,268,575412,1,0,0:0:0:0:
236,152,575626,1,0,0:0:0:0:
380,204,575840,2,0,P|440:212|496:196,1,95,8|0,0:0|0:0,0:0:0:0:
284,84,576269,1,0,0:0:0:0:
284,84,576697,6,0,P|224:76|168:92,1,95,8|0,0:0|0:0,0:0:0:0:
172,96,577019,1,0,0:0:0:0:
160,116,577126,2,0,P|120:176|84:204,1,95,8|0,0:0|0:0,0:0:0:0:
4,312,577554,1,8,0:0:0:0:
28,320,577662,1,8,0:0:0:0:
48,328,577769,1,0,0:0:0:0:
68,336,577876,1,0,0:0:0:0:
92,344,577983,6,0,P|160:348|196:336,1,95,4|0,0:0|0:0,0:0:0:0:
296,216,578412,1,8,0:0:0:0:
164,244,578626,2,0,P|108:232|68:208,2,95
212,120,579269,1,8,0:0:0:0:
84,80,579483,1,0,0:0:0:0:
75,213,579697,1,0,0:0:0:0:
160,56,579912,2,0,P|216:40|264:52,1,95,0|8,0:0|0:0,0:0:0:0:
340,204,580340,2,0,B|247:230|149:188,1,190
48,108,580983,2,0,P|0:136|-32:180,1,95,8|0,0:0|0:0,0:0:0:0:
120,320,581412,5,0,0:0:0:0:
163,194,581626,1,0,0:0:0:0:
36,236,581840,1,8,0:0:0:0:
184,272,582054,2,0,B|228:276|280:258,1,95
452,132,582483,2,0,B|408:128|358:146,1,95,0|8,0:0|0:0,0:0:0:0:
228,160,582912,5,0,0:0:0:0:
228,160,583019,1,0,0:0:0:0:
228,160,583126,2,0,B|217:114|237:62,2,95,0|0|8,0:0|0:0|0:0,0:0:0:0:
360,228,583769,1,0,0:0:0:0:
360,228,583876,1,0,0:0:0:0:
360,228,583983,2,0,B|370:273|354:324,1,95
200,344,584412,1,8,0:0:0:0:
178,334,584519,1,0,0:0:0:0:
156,323,584626,1,0,0:0:0:0:
134,312,584733,1,0,0:0:0:0:
113,300,584840,54,0,B|103:255|121:205,1,95,4|0,0:0|0:0,0:0:0:0:
196,57,585269,2,8,P|253:79|302:84,1,95,8|0,0:0|0:0,0:0:0:0:
466,196,585697,2,0,P|451:250|423:286,1,95
276,344,586126,2,0,P|245:282|196:248,1,95,8|0,0:0|0:0,0:0:0:0:
86,211,586554,5,0,0:0:0:0:
143,331,586769,1,0,0:0:0:0:
10,319,586983,1,8,0:0:0:0:
167,245,587197,1,0,0:0:0:0:
167,245,587304,1,0,0:0:0:0:
167,245,587412,2,0,B|183:201|177:140,1,95
50,99,587840,1,8,0:0:0:0:
21,225,588054,5,0,0:0:0:0:
21,225,588162,1,0,0:0:0:0:
21,225,588269,2,0,B|5:269|10:319,1,95
173,338,588697,2,0,B|215:318|249:278,1,95,8|0,0:0|0:0,0:0:0:0:
271,149,589126,2,0,B|229:169|194:210,1,95
384,286,589554,5,8,0:0:0:0:
404,273,589662,1,0,0:0:0:0:
417,253,589769,1,0,0:0:0:0:
421,229,589876,1,0,0:0:0:0:
422,205,589983,2,0,L|425:94,1,95
305,42,590412,5,8,0:0:0:0:
181,91,590626,1,0,0:0:0:0:
181,91,590733,1,0,0:0:0:0:
181,91,590840,1,8,0:0:0:0:
304,139,591054,53,0,0:0:0:0:
304,139,591162,1,0,0:0:0:0:
304,139,591269,2,0,L|248:135,1,47.5,8|0,0:0|0:0,0:0:0:0:
160,207,591483,2,0,L|234:200,1,47.5
298,241,591697,6,0,P|291:289|271:350,1,95,4|0,0:0|0:0,0:0:0:0:
106,332,592126,1,8,0:0:0:0:
106,332,592340,2,0,P|81:268|82:233,2,95
232,288,592983,1,8,0:0:0:0:
152,181,593197,2,0,P|136:132|140:74,1,95
279,31,593626,2,0,P|295:80|291:138,1,95,0|8,0:0|0:0,0:0:0:0:
213,292,594054,2,0,P|114:308|10:293,1,190
128,162,594697,2,0,P|180:166|229:189,1,95,8|0,0:0|0:0,0:0:0:0:
337,234,595126,5,0,0:0:0:0:
324,366,595340,1,0,0:0:0:0:
213,292,595554,1,8,0:0:0:0:
374,304,595769,2,0,P|446:293|491:273,2,95
256,213,596412,1,8,0:0:0:0:
256,213,596626,6,0,P|161:195|61:220,1,190
137,331,597269,1,8,0:0:0:0:
266,302,597483,1,0,0:0:0:0:
288,294,597590,1,0,0:0:0:0:
310,286,597697,2,0,P|352:245|369:202,1,95,8|0,0:0|0:0,0:0:0:0:
289,103,598126,1,4,0:0:0:0:
289,103,598554,6,0,P|233:97|179:105,1,95,4|0,0:0|0:0,0:0:0:0:
122,213,598983,2,0,P|178:219|232:211,1,95,8|0,0:0|0:0,0:0:0:0:
289,103,599412,1,0,0:0:0:0:
341,224,599626,1,0,0:0:0:0:
419,116,599840,1,8,0:0:0:0:
271,180,600054,53,0,0:0:0:0:
271,180,600162,1,0,0:0:0:0:
271,180,600269,2,0,P|262:242|274:279,1,95
403,272,600697,1,8,0:0:0:0:
403,272,600912,2,0,P|460:276|509:273,2,95
350,150,601554,5,8,0:0:0:0:
272,258,601769,2,0,P|156:269|58:250,1,190
176,128,602412,2,0,P|232:130|284:154,1,95,8|0,0:0|0:0,0:0:0:0:
361,237,602840,1,0,0:0:0:0:
380,223,602947,1,0,0:0:0:0:
399,209,603054,1,0,0:0:0:0:
419,196,603162,1,0,0:0:0:0:
438,181,603269,2,0,P|452:119|447:75,1,95,8|0,0:0|0:0,0:0:0:0:
328,34,603697,5,0,0:0:0:0:
213,101,603912,1,0,0:0:0:0:
330,163,604126,1,8,0:0:0:0:
251,35,604340,1,0,0:0:0:0:
251,35,604447,1,0,0:0:0:0:
251,35,604554,1,8,0:0:0:0:
252,168,604769,1,0,0:0:0:0:
364,96,604983,6,0,L|458:94,1,95,8|0,0:0|0:0,0:0:0:0:
256,192,605412,12,0,607983,0:0:0:0:
244,176,619153,69,0,0:0:0:0:
232,168,619265,1,0,0:0:0:0:
220,160,619377,2,0,L|148:160,1,47.5,2|0,0:0|0:0,0:0:0:0:
216,272,619600,1,0,0:0:0:0:
224,284,619712,1,0,0:0:0:0:
232,296,619824,2,0,L|276:352,1,47.5,2|0,0:0|0:0,0:0:0:0:
432,260,620048,2,0,P|476:228|496:172,1,95,0|2,0:0|0:0,0:0:0:0:
492,180,620384,1,0,0:0:0:0:
420,84,620496,6,0,L|368:72,1,47.5
312,168,620720,2,0,L|344:216,1,47.5,2|0,0:0|0:0,0:0:0:0:
228,44,620944,1,0,1:0:0:0:
228,44,621056,1,0,1:0:0:0:
228,44,621168,2,0,P|184:20|112:8,1,95,0|0,0:0|1:0,0:0:0:0:
116,200,621615,1,0,1:0:0:0:
256,312,621839,5,0,1:0:0:0:
268,304,621951,1,0,1:0:0:0:
276,292,622063,1,0,1:0:0:0:
284,280,622175,1,0,1:0:0:0:
288,268,622287,2,0,P|296:196|328:156,1,95,0|0,0:0|1:0,0:0:0:0:
320,168,622623,1,0,1:0:0:0:
332,160,622735,6,0,P|300:112|248:88,1,95,4|0,0:0|0:0,0:0:0:0:
200,252,623406,1,2,0:0:0:0:
408,232,623630,1,0,0:0:0:0:
252,160,623854,1,2,0:0:0:0:
352,304,624078,2,0,P|380:328|396:336,1,47.5,0|2,0:0|0:0,0:0:0:0:
200,252,624526,2,0,P|156:276|124:320,1,95
324,220,625197,1,2,0:0:0:0:
208,340,625421,1,0,0:0:0:0:
252,160,625645,1,2,0:0:0:0:
352,308,625869,2,0,P|388:292|408:280,1,47.5,0|2,0:0|0:0,0:0:0:0:
344,124,626317,6,0,P|296:76|256:64,1,95,4|0,0:0|0:0,0:0:0:0:
176,148,626988,1,2,0:0:0:0:
80,272,627212,2,0,P|144:300|160:300,1,71.25,0|2,0:0|0:0,0:0:0:0:
156,296,627660,2,0,P|208:284|232:288,1,71.25,0|2,0:0|0:0,0:0:0:0:
236,296,628108,2,0,P|312:328|380:320,1,142.5,4|0,0:0|0:0,0:0:0:0:
444,192,629003,53,2,0:0:0:0:
444,192,629451,2,0,L|464:192,7,11.875
444,192,629899,6,0,P|380:176|360:160,1,71.2500027179719,4|0,0:0|0:0,0:0:0:0:
304,72,630347,1,8,0:0:0:0:
280,232,630571,2,0,P|316:280|344:288,1,71.2500027179719,2|0,0:0|0:0,0:0:0:0:
376,132,631018,1,2,0:0:0:0:
224,128,631242,1,8,0:0:0:0:
384,44,631466,1,2,0:0:0:0:
280,232,631690,2,0,P|216:224|200:212,1,71.2500027179719
304,72,632138,1,8,0:0:0:0:
388,224,632362,1,2,0:0:0:0:
211,221,632585,6,0,L|108:288,1,106.875004076958,0|2,0:0|0:0,0:0:0:0:
72,284,633033,2,0,L|104:200,1,71.2500027179719,8|2,0:0|0:0,0:0:0:0:
188,88,633481,1,0,0:0:0:0:
212,220,633705,2,0,L|284:272,1,71.2500027179719,2|8,0:0|0:0,0:0:0:0:
388,224,634153,1,2,0:0:0:0:
388,224,634265,1,0,0:0:0:0:
388,224,634377,2,0,L|364:132,1,71.2500027179719,0|2,0:0|0:0,0:0:0:0:
280,20,634824,2,0,L|268:108,1,71.2500027179719,8|2,0:0|0:0,0:0:0:0:
196,304,635272,5,0,0:0:0:0:
196,304,635384,1,0,1:0:0:0:
172,132,635608,1,0,0:0:0:0:
172,132,635720,1,8,1:2:0:0:
64,284,635944,5,0,0:0:0:0:
64,284,636056,1,0,1:0:0:0:
64,284,636168,2,0,L|80:224,1,47.5,0|0,1:0|1:0,0:0:0:0:
148,204,636391,2,0,L|192:232,1,47.5,0|0,1:0|1:0,0:0:0:0:
72,148,636615,1,8,1:2:0:0:
64,136,636727,1,0,1:0:0:0:
60,124,636839,1,0,1:0:0:0:
56,108,636951,1,0,1:0:0:0:
56,92,637063,54,0,P|120:48|168:44,1,95,6|0,0:0|0:0,0:0:0:0:
236,112,637511,1,8,0:0:0:0:
140,320,637735,1,2,0:0:0:0:
328,168,637959,1,0,0:0:0:0:
148,204,638182,1,2,0:0:0:0:
316,264,638406,2,0,P|388:244|412:224,1,95,8|2,0:0|0:0,0:0:0:0:
236,112,638854,6,0,L|220:320,1,190,0|8,0:0|0:0,0:0:0:0:
316,264,639526,1,2,0:0:0:0:
148,204,639750,1,0,0:0:0:0:
332,164,639974,2,0,L|420:120,1,95,2|8,0:0|0:0,0:0:0:0:
304,28,640421,1,2,0:0:0:0:
184,112,640645,6,0,L|80:72,1,95
148,204,641093,1,8,0:0:0:0:
244,176,641317,2,0,L|372:292,1,142.5,2|2,0:0|0:0,0:0:0:0:
368,292,641765,1,2,0:0:0:0:
216,276,641988,2,0,L|64:348,1,142.5,8|2,0:0|0:0,0:0:0:0:
36,340,642436,6,0,L|76:244,1,95,4|0,0:0|0:0,0:0:0:0:
176,108,642884,1,8,0:0:0:0:
216,276,643108,1,2,0:0:0:0:
60,156,643332,2,0,P|52:108|68:60,1,95,0|2,0:0|0:0,0:0:0:0:
104,44,643668,1,0,0:0:0:0:
104,44,643780,2,0,L|200:4,1,95,8|2,0:0|0:0,0:0:0:0:
348,100,644227,6,0,L|252:140,1,95,4|0,0:0|0:0,0:0:0:0:
128,216,644675,1,8,0:0:0:0:
320,272,644899,1,0,0:0:0:0:
180,120,645123,1,2,0:0:0:0:
212,280,645347,1,0,0:0:0:0:
320,184,645571,1,8,0:0:0:0:
232,192,645794,1,2,0:0:0:0:
212,280,646018,54,0,P|240:320|292:348,1,95,0|2,0:0|0:0,0:0:0:0:
268,85,646466,2,0,L|178:120,1,95,8|2,0:0|0:0,0:0:0:0:
408,276,646914,2,0,P|448:236|468:192,1,95,0|2,0:0|0:0,0:0:0:0:
320,184,647362,1,8,0:0:0:0:
136,324,647585,1,2,0:0:0:0:
100,140,647809,6,0,P|200:88|280:84,2,190,0|8|0,0:0|0:0|0:0,0:0:0:0:
196,200,648929,1,2,0:0:0:0:
28,348,649153,1,8,0:0:0:0:
100,140,649377,1,2,0:0:0:0:
192,288,649600,5,0,1:0:0:0:
216,292,649712,1,0,1:0:0:0:
240,292,649824,1,0,1:0:0:0:
264,288,649936,1,0,1:0:0:0:
288,284,650048,2,0,L|336:252,1,47.5,8|0,0:0|1:0,0:0:0:0:
360,148,650272,2,0,L|400:172,1,47.5,0|0,1:0|1:0,0:0:0:0:
292,84,650496,2,0,P|245:102|212:152,1,95,0|0,1:0|1:0,0:0:0:0:
80,244,650944,2,0,L|60:272,6,23.75,8|0|0|0|0|0|0,1:2|1:0|1:0|1:0|1:0|1:0|1:0,1:0:0:0:
80,244,651391,6,0,P|88:184|80:144,1,95,4|0,0:0|0:0,0:0:0:0:
208,228,651839,1,8,0:0:0:0:
44,336,652063,1,2,0:0:0:0:
160,148,652287,2,0,P|240:140|276:152,1,95,0|2,0:0|0:0,0:0:0:0:
368,332,652735,2,0,P|392:280|420:252,1,95,8|2,0:0|0:0,0:0:0:0:
368,112,653182,6,0,P|288:44|204:32,2,190,0|8|0,0:0|0:0|0:0,0:0:0:0:
256,288,654302,1,2,0:0:0:0:
428,240,654526,2,0,P|480:208|508:172,1,95,8|2,0:0|0:0,0:0:0:0:
308,184,654974,1,0,0:0:0:0:
256,288,655197,1,2,0:0:0:0:
104,208,655421,2,0,L|208:180,1,95,8|2,0:0|0:0,0:0:0:0:
352,280,655869,1,0,0:0:0:0:
264,104,656093,1,2,0:0:0:0:
256,288,656317,2,0,L|144:272,1,95,8|2,0:0|0:0,0:0:0:0:
348,152,656765,53,0,0:0:0:0:
364,136,656877,1,0,1:0:0:0:
380,120,656988,2,0,L|416:84,1,47.5,0|0,1:0|1:0,0:0:0:0:
448,208,657212,1,8,0:2:0:0:
448,232,657324,1,0,1:0:0:0:
444,256,657436,2,0,L|396:300,1,47.5,0|0,1:0|1:0,0:0:0:0:
216,368,657660,6,0,P|176:328|156:284,1,95,0|0,0:0|1:0,0:0:0:0:
120,76,658108,1,8,1:2:0:0:
96,68,658220,1,0,1:0:0:0:
72,64,658332,1,0,1:0:0:0:
48,68,658444,1,0,1:0:0:0:
24,76,658556,1,4,0:0:0:0:
200,48,669103,5,4,0:0:0:0:
428,152,669789,1,0,0:0:0:0:
180,260,670131,1,0,0:0:0:0:
200,48,670474,2,0,L|188:172,1,113.999996520996,2|0,0:0|0:0,0:0:0:0:
180,260,670989,2,0,L|172:332,1,56.9999982604981,0|2,0:0|0:0,0:0:0:0:
320,264,671331,2,0,L|308:140,1,113.999996520996
309,150,671846,1,2,0:0:0:0:
309,150,672531,6,0,L|301:78,1,56.9999982604981,0|2,0:0|0:0,0:0:0:0:
192,44,672874,2,0,L|188:88,1,28.4999991302491,0|2,0:0|0:0,0:0:0:0:
224,324,673217,2,0,L|232:240,1,56.9999982604981,2|0,0:0|0:0,0:0:0:0:
236,180,673560,1,2,0:0:0:0:
112,244,673731,2,0,L|120:328,1,56.9999982604981,0|2,0:0|0:0,0:0:0:0:
224,324,674074,5,0,0:0:0:0:
232,228,674246,1,0,0:0:0:0:
240,132,674417,1,0,0:0:0:0:
248,36,674589,53,0,0:0:0:0:
40,68,674931,1,0,0:0:0:0:
72,276,675274,1,0,0:0:0:0:
280,244,675617,2,0,P|324:248|376:260,1,85.4999973907472
396,104,675960,2,0,P|315:131|230:143,1,170.999994781494
116,120,676474,1,0,0:0:0:0:
116,120,676646,1,0,0:0:0:0:
144,236,676989,6,0,P|140:280|128:332,1,85.4999973907472
328,304,677331,2,0,P|300:223|288:138,1,170.999994781494
304,24,677846,1,0,0:0:0:0:
304,24,678017,1,0,0:0:0:0:
116,120,678360,1,0,0:0:0:0:
116,120,678531,2,0,L|180:132,1,42.7499986953736
208,188,678703,5,8,0:0:0:0:
276,96,678874,1,8,0:0:0:0:
184,28,679046,1,8,0:0:0:0:
116,120,679217,1,8,0:0:0:0:
208,188,679389,1,8,0:0:0:0:
276,96,679560,5,8,0:0:0:0:
308,100,679646,1,8,0:0:0:0:
340,104,679731,1,8,0:0:0:0:
372,108,679817,1,0,0:0:0:0:
404,112,679902,1,0,0:0:0:0:
436,116,679989,1,0,0:0:0:0:
468,120,680074,1,0,0:0:0:0:
468,120,680589,6,0,L|524:108,2,35.625001358986,0|0|4,0:0|0:0|0:2,0:0:0:0:
396,60,680931,53,8,0:0:0:0:
369,98,681016,1,8,0:0:0:0:
367,145,681102,1,0,0:0:0:0:
390,186,681188,1,0,0:0:0:0:
432,212,681273,1,0,0:0:0:0:
440,260,681360,1,0,0:0:0:0:
408,296,681446,6,0,P|328:320|252:336,1,142.5,4|0,0:2|0:0,0:0:0:0:
200,344,681789,1,0,0:0:0:0:
68,276,681960,1,8,0:0:0:0:
68,276,682303,1,8,0:0:0:0:
68,276,682646,6,0,P|1:218|44:142,1,190,4|2,0:2|0:2,0:0:0:0:
116,44,683160,2,0,P|164:44|228:60,1,95,8|2,0:0|2:0,0:0:0:0:
324,96,683503,1,0,0:0:0:0:
472,44,683674,1,2,0:2:0:0:
392,160,683846,2,0,L|376:272,1,95,8|2,0:0|2:0,0:0:0:0:
485,138,684189,6,0,L|469:26,1,95,0|2,0:0|2:0,0:0:0:0:
324,96,684531,2,0,P|333:142|333:189,1,95,8|2,0:0|2:0,0:0:0:0:
312,260,684789,1,8,0:0:0:0:
280,324,684874,2,0,L|168:344,1,95,0|2,0:0|2:0,0:0:0:0:
28,240,685217,2,0,L|121:256,1,95,8|8,0:0|0:0,0:0:0:0:
192,268,685474,1,0,0:0:0:0:
186,340,685560,6,0,P|120:272|164:200,1,190,4|8,0:2|0:0,0:0:0:0:
276,208,686074,1,2,0:2:0:0:
144,107,686246,2,0,L|164:219,1,95,0|2,0:0|2:0,0:0:0:0:
259,301,686589,2,0,L|276:208,1,95,8|2,0:0|2:0,0:0:0:0:
296,96,686931,53,0,0:0:0:0:
259,301,687103,1,2,0:2:0:0:
188,148,687274,2,0,P|188:192|208:256,1,95,8|2,0:0|2:0,0:0:0:0:
328,348,687617,2,0,L|344:254,1,95,0|2,0:0|2:0,0:0:0:0:
120,204,687960,2,0,P|129:247|162:305,1,95,8|2,0:0|2:0,0:0:0:0:
248,372,688303,21,4,0:2:0:0:
344,254,688474,1,2,0:2:0:0:
152,292,688646,2,0,L|58:275,1,95,8|2,0:0|2:0,0:0:0:0:
188,148,688989,2,0,L|281:131,1,95,4|2,0:2|2:0,0:0:0:0:
344,254,689331,2,0,L|384:264,6,23.75,8|0|0|0|0|0|0,0:0|0:0|0:0|0:0|0:0|0:0|0:0,0:0:0:0:
274,282,689674,6,0,L|390:254,1,95,0|4,0:0|2:0,0:0:0:0:
436,364,690017,1,4,0:2:0:0:
274,282,690189,1,0,0:0:0:0:
427,184,690360,1,0,0:0:0:0:
425,148,690446,1,0,0:0:0:0:
410,116,690531,1,0,0:0:0:0:
383,92,690617,1,0,0:0:0:0:
350,80,690703,1,0,0:0:0:0:
315,82,690789,1,0,0:0:0:0:
282,96,690874,6,0,L|262:212,1,95,0|4,0:2|0:2,0:2:0:0:
200,356,691217,1,0,0:0:0:0:
88,336,691388,54,0,L|68:220,1,95,0|4,0:2|0:2,0:2:0:0:
132,64,691731,1,0,0:0:0:0:
48,112,691903,6,0,L|-8:100,2,47.5,0|0|4,0:0|0:0|0:2,0:0:0:0:
173,206,692246,1,0,0:0:0:0:
173,206,692417,2,0,L|289:186,1,95,0|4,0:2|0:2,0:2:0:0:
188,164,693446,6,0,B|176:240|176:240|212:232,1,106.875004076958
266,189,693788,1,0,0:0:0:0:
266,189,693874,1,0,0:0:0:0:
266,189,693960,1,0,0:0:0:0:
266,189,694046,1,0,0:0:0:0:
266,189,694131,6,0,L|464:216,1,190,4|8,0:2|0:0,0:0:0:0:
329,253,694645,1,0,0:0:0:0:
384,132,694816,1,0,0:0:0:0:
408,280,694988,1,0,0:0:0:0:
304,152,695159,2,0,L|192:136,1,95,8|0,0:0|0:0,0:0:0:0:
52,188,695502,5,0,0:0:0:0:
209,138,695673,1,0,0:0:0:0:
188,272,695845,2,0,L|340:252,1,142.5,8|8,0:0|0:0,0:0:0:0:
400,244,696188,1,0,0:0:0:0:
304,152,696359,1,0,0:0:0:0:
432,64,696531,2,0,P|464:116|452:208,1,142.5,8|0,0:0|0:0,0:0:0:0:
400,244,696873,54,0,L|196:216,1,190,4|8,0:2|0:0,0:0:0:0:
40,204,697388,1,0,0:0:0:0:
148,304,697559,2,0,P|113:242|121:173,1,142.5
156,108,697902,2,0,L|268:92,1,95,8|0,0:0|0:0,0:0:0:0:
280,116,698159,1,8,0:0:0:0:
312,136,698245,5,4,0:2:0:0:
284,292,698416,1,0,0:0:0:0:
128,264,698588,1,0,0:0:0:0:
156,108,698759,1,0,0:0:0:0:
311,135,698931,6,0,L|415:119,1,95
436,140,699188,1,8,0:0:0:0:
468,156,699273,2,0,L|452:260,1,95
468,280,699531,1,8,0:0:0:0:
484,312,699616,6,0,P|396:280|280:284,1,190,4|8,0:2|0:0,0:0:0:0:
192,344,700131,1,2,0:2:0:0:
148,224,700302,2,0,L|36:208,1,95,0|2,0:0|2:0,0:0:0:0:
160,108,700645,2,0,L|272:92,1,95,8|2,0:0|2:0,0:0:0:0:
56,60,700988,5,0,0:0:0:0:
148,224,701159,1,2,0:2:0:0:
254,94,701331,2,0,L|366:110,1,95,8|2,0:0|2:2,0:0:0:0:
476,72,701673,1,0,0:0:0:0:
416,280,701845,1,2,2:0:0:0:
240,208,702016,2,0,L|128:224,1,95,8|2,0:0|2:0,0:0:0:0:
108,228,702273,1,8,0:0:0:0:
70,233,702359,1,4,0:2:0:0:
182,67,708568,70,0,P|192:46|206:25,1,47.5
281,124,708792,2,0,P|284:146|283:171,1,47.5
147,184,709015,2,0,P|126:173|107:157,1,47.5
283,171,709239,2,0,P|303:181|322:197,1,47.5
204,328,709463,2,0,P|200:304|202:280,1,47.5
209,263,709687,1,0,0:0:0:0:
219,247,709799,1,0,0:0:0:0:
224,228,709911,1,0,0:0:0:0:
227,209,710023,1,0,0:0:0:0:
227,190,710135,1,0,0:0:0:0:
223,171,710247,1,0,0:0:0:0:
215,153,710359,1,0,0:0:0:0:
204,137,710471,1,0,0:0:0:0:
190,124,710583,6,0,P|152:95|105:92,1,95,4|0,0:0|0:0,0:0:0:0:
76,94,710918,1,0,0:0:0:0:
76,94,711030,1,10,0:0:0:0:
218,40,711254,1,0,0:0:0:0:
106,198,711478,1,4,0:0:0:0:
106,198,711590,1,0,0:0:0:0:
67,22,711814,1,0,0:0:0:0:
67,22,711926,1,10,0:0:0:0:
218,40,712150,1,0,0:0:0:0:
179,151,712374,6,0,P|165:223|199:314,2,142.5,4|8|0,0:0|0:0|0:0,0:0:0:0:
283,160,713269,2,0,P|272:205|241:240,1,95,2|0,0:0|0:0,0:0:0:0:
102,263,713717,2,0,P|89:215|101:169,1,95,10|0,0:0|0:0,0:0:0:0:
212,36,714165,6,0,P|260:23|306:35,1,95,4|0,0:0|0:0,0:0:0:0:
325,49,714501,1,0,0:0:0:0:
347,67,714612,1,10,0:0:0:0:
318,251,714836,1,0,0:0:0:0:
428,76,715060,1,4,0:0:0:0:
231,142,715284,1,2,0:0:0:0:
432,216,715508,1,8,0:0:0:0:
304,34,715732,1,0,0:0:0:0:
299,198,715956,70,0,P|232:220|166:198,2,142.5,4|8|0,0:0|0:0|0:0,0:0:0:0:
367,106,716851,1,2,0:0:0:0:
367,106,716963,1,0,0:0:0:0:
367,106,717075,1,0,0:0:0:0:
299,198,717299,2,0,P|362:221|416:198,1,95,8|0,0:0|0:0,0:0:0:0:
478,79,717747,5,6,0:0:0:0:
478,79,717859,1,0,0:0:0:0:
452,267,718083,1,2,0:0:0:0:
452,267,718195,1,8,0:0:0:0:
324,96,718418,1,0,0:0:0:0:
365,191,718642,2,0,P|312:199|274:186,1,95,4|2,0:0|0:0,0:0:0:0:
246,177,718978,2,0,P|177:161|109:180,1,142.5,8|0,0:0|0:0,0:0:0:0:
176,265,719538,6,0,P|189:172|159:77,1,190,4|0,0:0|0:0,0:0:0:0:
272,176,720210,2,0,P|259:269|289:364,1,190,4|0,0:0|0:0,0:0:0:0:
286,359,720881,1,8,0:0:0:0:
176,265,721105,1,2,0:0:0:0:
349,264,721329,6,0,P|361:215|356:171,1,95,4|0,0:0|0:0,0:0:0:0:
356,144,721665,1,0,0:0:0:0:
356,144,721777,1,10,0:0:0:0:
286,359,722001,1,0,0:0:0:0:
425,272,722224,1,2,0:0:0:0:
441,234,722336,1,0,0:0:0:0:
437,196,722448,1,0,0:0:0:0:
414,57,722672,1,8,0:0:0:0:
347,296,722896,1,2,0:0:0:0:
347,296,723008,1,0,0:0:0:0:
347,296,723120,69,4,0:0:0:0:
511,215,723344,1,8,0:0:0:0:
333,83,723568,1,8,0:0:0:0:
452,305,723792,1,8,0:0:0:0:
345,188,724015,1,8,0:0:0:0:
317,169,724127,1,8,0:0:0:0:
285,159,724239,1,8,0:0:0:0:
252,156,724351,1,8,0:0:0:0:
220,162,724463,1,8,0:0:0:0:
73,152,724687,2,8,P|74:128|82:106,1,47.5
162,53,724911,6,0,B|184:91|184:91|121:137|152:221,1,190,4|10,0:0|0:0,0:0:0:0:
206,365,725583,1,0,0:0:0:0:
125,300,725807,2,0,P|56:296|23:313,1,95
236,268,726254,2,0,P|247:225|237:173,1,95,8|0,0:0|0:0,0:0:0:0:
162,53,726702,5,2,0:0:0:0:
175,229,726926,1,0,0:0:0:0:
175,229,727038,1,0,0:0:0:0:
175,229,727150,1,8,0:0:0:0:
305,134,727374,2,0,P|373:118|441:142,1,142.5
464,156,727821,1,2,0:0:0:0:
349,353,728045,2,0,P|343:303|347:258,1,95,8|0,0:0|0:0,0:0:0:0:
356,224,728381,1,0,0:0:0:0:
315,236,728493,6,0,P|236:244|196:231,1,95,2|0,0:0|0:0,0:0:0:0:
92,191,728941,1,8,0:0:0:0:
200,112,729165,1,0,0:0:0:0:
221,240,729389,2,0,P|212:287|189:328,1,95
92,191,729836,2,0,P|100:144|124:103,1,95,10|0,0:0|0:0,0:0:0:0:
174,9,730284,69,0,0:0:0:0:
180,171,730508,2,0,P|225:187|274:174,1,95,0|8,0:0|0:0,0:0:0:0:
304,164,730844,1,0,0:0:0:0:
304,164,730956,1,0,0:0:0:0:
283,38,731180,2,0,P|244:71|232:122,1,95
233,325,731627,2,0,P|271:291|283:240,1,95,10|0,0:0|0:0,0:0:0:0:
324,155,732075,6,0,P|371:150|426:170,1,95,4|0,0:0|0:0,0:0:0:0:
446,178,732411,1,0,0:0:0:0:
446,178,732523,1,8,0:0:0:0:
356,249,732747,1,0,0:0:0:0:
277,67,732971,2,0,P|237:151|291:258,1,190,0|8,0:0|0:0,0:0:0:0:
320,339,733642,6,0,P|273:349|226:343,1,95
96,309,734090,1,2,0:0:0:0:
267,237,734314,1,8,0:0:0:0:
144,195,734538,2,0,P|101:113|143:32,1,190
249,61,735210,2,0,P|205:78|180:118,1,95,8|0,0:0|0:0,0:0:0:0:
103,321,735657,6,0,P|146:304|171:264,1,95,4|0,0:0|0:0,0:0:0:0:
178,236,735993,1,0,0:0:0:0:
174,212,736105,1,8,0:0:0:0:
24,339,736329,1,0,0:0:0:0:
173,213,736553,2,0,P|231:200|283:218,1,95,4|0,0:0|0:0,0:0:0:0:
295,220,736889,1,0,0:0:0:0:
311,250,737001,2,0,P|353:271|400:269,1,95,8|0,0:0|0:0,0:0:0:0:
484,232,737448,69,4,0:0:0:0:
128,216,748550,69,0,0:0:0:0:
184,76,748800,1,2,0:0:0:0:
240,216,749050,2,0,P|288:240|340:240,1,95,4|0,0:0|0:0,0:0:0:0:
356,232,749425,1,2,0:0:0:0:
288,40,749800,2,0,L|244:64,1,47.5,2|0,0:0|0:0,0:0:0:0:
220,88,750050,2,0,P|200:140|192:192,1,95,2|0,0:0|0:0,0:0:0:0:
196,216,750425,1,2,0:0:0:0:
408,204,750800,5,0,0:0:0:0:
316,108,751050,1,2,0:0:0:0:
164,92,751300,1,2,0:0:0:0:
44,212,751550,1,2,0:0:0:0:
184,340,751800,2,0,P|224:300|240:252,1,95,0|2,0:0|0:0,0:0:0:0:
164,92,752300,2,0,L|152:156,1,47.5,0|2,0:0|0:0,0:0:0:0:
276,300,752800,21,0,0:0:0:0:
312,300,752925,1,0,0:0:0:0:
344,280,753050,2,0,B|312:172|392:152|392:152|424:232|324:244,1,285,2|0,0:0|0:0,0:0:0:0:
300,244,753925,1,0,0:0:0:0:
272,216,754050,2,0,B|296:121|367:118|367:118|382:211|264:178,1,285,2|0,0:0|0:0,0:0:0:0:
244,188,754925,1,0,0:0:0:0:
208,192,755050,2,0,B|152:208|124:236|124:236|128:272|140:296|140:296|200:284|176:188,1,285,2|0,0:0|0:0,0:0:0:0:
156,160,755925,1,0,0:0:0:0:
120,160,756050,2,0,B|92:96|148:68|148:68|172:108|160:116|140:124|120:144,1,190,2|0,0:0|0:0,0:0:0:0:
60,268,756800,69,2,0:0:0:0:
204,312,757050,1,4,0:0:0:0:
348,264,757300,2,0,L|300:192,1,47.5,0|2,0:0|0:0,0:0:0:0:
152,72,757800,2,0,L|96:64,2,47.5,0|0|2,0:0|0:0|0:0,0:0:0:0:
224,100,758175,1,0,0:0:0:0:
284,148,758300,2,0,L|284:208,1,47.5,0|2,0:0|0:0,0:0:0:0:
56,176,758800,5,0,0:0:0:0:
168,76,759050,1,2,0:0:0:0:
176,228,759300,1,2,0:0:0:0:
64,124,759550,1,2,0:0:0:0:
212,100,759800,1,0,0:0:0:0:
124,224,760050,22,0,L|104:172,1,47.5,2|0,0:0|0:0,0:0:0:0:
108,140,760300,2,0,L|176:160,1,47.5,0|2,0:0|0:0,0:0:0:0:
176,184,760550,2,0,L|132:292,1,95,0|2,0:0|0:0,0:0:0:0:
88,40,761050,2,0,P|168:24|276:48,1,190,4|2,0:0|0:0,0:0:0:0:
412,160,762050,2,0,B|380:196|352:228|416:308|296:312,1,190,4|2,0:0|0:0,0:0:0:0:
112,256,763050,70,0,L|52:272,3,47.5,2|0|0|0,0:0|0:0|0:0|0:0,0:0:0:0:
240,224,763550,6,0,L|300:232,3,47.5,2|0|0|0,0:0|0:0|0:0|0:0,0:0:0:0:
196,204,764050,21,2,0:0:0:0:
148,196,764175,1,0,0:0:0:0:
108,172,764300,1,0,0:0:0:0:
88,128,764425,1,0,0:0:0:0:
108,40,764550,69,2,0:0:0:0:
156,36,764675,1,0,0:0:0:0:
204,44,764800,1,0,0:0:0:0:
248,60,764925,1,0,0:0:0:0:
384,168,765050,5,4,0:0:0:0:
156,280,765300,1,4,0:0:0:0:
412,188,765550,1,4,0:0:0:0:
72,136,765800,1,4,0:0:0:0:
276,64,766050,1,4,0:0:0:0:
356,208,766300,2,0,L|360:256,1,47.5
320,232,766550,2,0,P|248:232|192:260,1,113.999996520996
72,128,767050,21,4,0:0:0:0:
28,48,767175,1,0,0:0:0:0:
112,12,767300,1,0,0:0:0:0:
156,92,767425,1,0,0:0:0:0:
108,172,767550,2,0,P|96:232|116:280,1,113.999996520996
208,292,767925,1,0,0:0:0:0:
192,204,768050,70,0,P|188:136|220:104,1,113.999996520996
308,104,768425,2,0,L|264:140,1,56.9999982604981
236,228,768675,1,0,0:0:0:0:
320,260,768800,1,0,0:0:0:0:
424,108,769050,6,0,L|388:44,1,56.9999982604981
356,104,769300,2,0,L|292:56,1,56.9999982604981
204,172,769550,2,0,L|152:208,1,56.9999982604981
264,252,769800,2,0,L|280:320,1,56.9999982604981
460,300,770050,6,0,L|504:372,2,56.9999982604981
452,244,770425,1,0,0:0:0:0:
484,200,770550,2,0,P|476:128|436:60,1,113.999996520996
372,56,770925,1,0,0:0:0:0:
288,92,771050,1,0,0:0:0:0:
104,104,771300,70,0,L|40:80,2,56.9999982604981
188,268,771800,1,0,0:0:0:0:
288,120,772050,1,0,0:0:0:0:
396,80,772175,1,0,0:0:0:0:
336,176,772300,1,0,0:0:0:0:
328,60,772425,1,0,0:0:0:0:
404,152,772550,2,0,P|408:200|352:232,1,113.999996520996
268,220,772925,1,0,0:0:0:0:
176,212,773050,6,0,P|124:192|72:204,1,85.4999973907472
52,176,773300,2,0,P|108:148|152:144,1,85.4999973907472
168,120,773550,2,0,P|104:88|64:80,1,85.4999973907472
44,80,773800,2,0,P|116:44|168:44,1,113.999996520996
328,68,774300,1,0,0:0:0:0:
412,228,774550,21,0,0:0:0:0:
340,264,774675,1,0,0:0:0:0:
252,280,774800,1,0,0:0:0:0:
148,276,774925,1,0,0:0:0:0:
68,196,775050,2,0,P|48:120|64:80,1,113.999996520996,4|0,0:0|0:0,0:0:0:0:
140,44,775425,1,0,0:0:0:0:
220,88,775550,70,0,L|276:128,1,56.9999982604981
188,168,775800,2,0,L|128:192,1,56.9999982604981
172,272,776050,2,0,P|224:308|288:296,1,113.999996520996
344,248,776425,1,0,0:0:0:0:
384,164,776550,1,0,0:0:0:0:
220,84,776800,1,0,0:0:0:0:
88,212,777050,6,0,L|64:248,2,28.4999991302491
176,244,777300,2,0,L|184:272,2,28.4999991302491
264,220,777550,2,0,L|328:244,2,56.9999982604981
184,172,777925,1,0,0:0:0:0:
196,49,778050,21,0,0:0:0:0:
254,117,778175,1,0,0:0:0:0:
184,172,778300,1,0,0:0:0:0:
110,225,778425,1,0,0:0:0:0:
34,277,778550,1,0,0:0:0:0:
216,284,778800,69,0,0:0:0:0:
284,224,778925,1,0,0:0:0:0:
368,264,779050,2,0,P|432:232|432:184,1,113.999996520996,4|0,0:0|0:0,0:0:0:0:
284,92,779550,5,0,0:0:0:0:
216,152,779675,1,0,0:0:0:0:
148,92,779800,1,0,0:0:0:0:
88,160,779925,1,0,0:0:0:0:
36,88,780050,2,0,P|56:52|128:36,1,113.999996520996,4|0,0:0|0:0,0:0:0:0:
192,96,780425,1,0,0:0:0:0:
252,164,780550,2,0,L|244:224,1,56.9999982604981
144,304,780800,2,0,L|116:324,2,28.4999991302491
296,220,781050,21,4,0:0:0:0:
324,132,781175,1,0,0:0:0:0:
372,196,781300,1,0,0:0:0:0:
252,164,781425,1,0,0:0:0:0:
280,76,781550,1,4,0:0:0:0:
328,140,781675,1,0,0:0:0:0:
208,108,781800,1,0,0:0:0:0:
228,32,781925,1,0,0:0:0:0:
320,40,782050,2,0,L|384:24,1,56.9999982604981,4|0,0:0|0:0,0:0:0:0:
376,116,782300,2,0,L|440:100,1,56.9999982604981
396,256,782550,70,0,L|432:272,2,35.625001358986
260,268,782800,2,0,L|232:284,7,17.812500679493
264,264,783050,2,0,P|288:228|296:208,1,56.9999982604981,4|0,0:0|0:0,0:0:0:0:
284,124,783300,1,0,0:0:0:0:
200,92,783425,1,0,0:0:0:0:
172,180,783550,2,0,L|228:164,1,56.9999982604981
308,120,783800,2,0,L|248:100,1,56.9999982604981
168,76,784050,5,0,0:0:0:0:
96,132,784175,1,0,0:0:0:0:
188,128,784300,1,0,0:0:0:0:
104,84,784425,1,0,0:0:0:0:
148,172,784550,2,0,P|144:232|104:272,1,113.999996520996
48,204,784925,1,0,0:0:0:0:
60,112,785050,22,0,P|56:72|44:56,1,56.9999982604981
144,116,785300,2,0,P|140:64|132:56,1,56.9999982604981
228,152,785550,2,0,P|232:120|228:96,1,56.9999982604981
312,200,785800,2,0,L|312:144,1,56.9999982604981
388,260,786050,1,0,0:0:0:0:
464,312,786175,1,0,0:0:0:0:
372,324,786300,1,0,0:0:0:0:
440,264,786425,1,0,0:0:0:0:
420,352,786550,2,0,P|360:320|348:272,1,113.999996520996
312,196,786925,2,0,P|304:144|304:136,1,56.9999982604981
144,52,787300,69,0,0:0:0:0:
144,52,787362,1,0,0:0:0:0:
144,52,787425,2,0,L|120:112,1,56.9999982604981
132,288,787800,1,0,0:0:0:0:
156,108,788050,1,0,0:0:0:0:
248,100,788175,1,0,0:0:0:0:
208,184,788300,2,0,L|224:128,1,56.9999982604981
296,188,788550,1,0,0:0:0:0:
112,184,788800,5,0,0:0:0:0:
268,92,789050,2,0,L|308:52,1,56.9999982604981
336,140,789300,2,0,L|396:132,1,56.9999982604981
412,220,789550,1,0,0:0:0:0:
416,312,789675,1,0,0:0:0:0:
324,316,789800,1,0,0:0:0:0:
316,224,789925,1,0,0:0:0:0:
392,176,790050,1,0,0:0:0:0:
472,340,790300,1,0,0:0:0:0:
264,304,790550,22,0,P|212:288|140:292,1,113.999996520996
16,208,791050,2,4,L|0:148,1,56.9999982604981
16,208,791300,2,0,P|56:168|116:148,1,113.999996520996
284,92,791800,1,0,0:0:0:0:
372,72,791925,1,0,0:0:0:0:
332,152,792050,1,0,0:0:0:0:
224,300,792300,2,0,L|188:360,2,56.9999982604981
332,152,792800,70,0,L|276:180,1,56.9999982604981
164,204,793050,2,0,L|124:248,2,56.9999982604981
228,140,793425,1,0,0:0:0:0:
332,152,793550,2,0,L|396:176,2,56.9999982604981
228,140,793925,1,0,0:0:0:0:
144,108,794050,1,0,0:0:0:0:
192,32,794175,1,0,0:0:0:0:
276,68,794300,1,0,0:0:0:0:
336,156,794425,2,0,L|328:220,1,56.9999982604981
180,316,794800,6,0,L|136:280,1,56.9999982604981
180,316,795050,2,0,P|164:256|176:200,1,113.999996520996,4|0,0:0|0:0,0:0:0:0:
208,120,795425,1,0,0:0:0:0:
296,104,795550,2,0,L|356:96,1,56.9999982604981
340,188,795800,1,0,0:0:0:0:
264,236,795925,1,0,0:0:0:0:
184,192,796050,2,0,P|128:180|72:212,1,113.999996520996,4|0,0:0|0:0,0:0:0:0:
104,268,796425,1,0,0:0:0:0:
168,252,796550,2,0,P|224:264|284:244,1,113.999996520996
364,224,796925,1,0,0:0:0:0:
277,248,797050,2,0,P|268:188|280:124,1,113.999996520996,4|0,0:0|0:0,0:0:0:0:
452,68,797550,22,0,P|468:120|452:184,1,113.999996520996
184,80,798050,2,0,P|264:60|292:72,1,113.999996520996
382,243,798550,70,0,P|334:263|266:239,1,113.999996520996
72,184,799050,6,0,L|96:112,1,56.9999982604981,4|0,0:0|0:0,0:0:0:0:
156,68,799300,1,0,0:0:0:0:
244,48,799425,2,0,L|316:64,1,56.9999982604981,0|4,0:0|0:0,0:0:0:0:
432,140,799800,22,0,L|420:200,1,56.9999982604981,4|0,0:0|0:0,0:0:0:0:
364,268,800050,2,0,L|296:280,1,56.9999982604981
216,280,800300,1,4,0:0:0:0:
136,168,800550,70,0,L|208:56,2,113.999996520996,0|0|4,0:0|0:0|0:0,0:0:0:0:
352,336,801425,1,4,0:0:0:0:
424,72,801800,1,4,0:0:0:0:
252,128,802050,1,4,0:0:0:0:
324,288,811368,86,0,P|256:308|176:308,1,142.5,2|0,0:0|0:0,0:0:0:0:
120,340,811690,2,0,P|68:291|28:221,1,142.5,2|0,0:0|0:0,0:0:0:0:
41,156,812013,6,0,B|65:136|65:136|225:152,1,190.949990967637,4|0,0:0|0:0,0:0:0:0:
392,128,812658,1,8,0:0:0:0:
324,288,812819,1,0,0:0:0:0:
224,152,812981,2,0,L|317:136,2,95
96,148,813464,5,8,0:0:0:0:
112,176,813545,1,0,0:0:0:0:
128,204,813626,2,0,L|34:219,1,95
219,255,813948,2,0,L|208:350,1,95,8|0,0:0|0:0,0:0:0:0:
224,152,814271,2,0,L|235:57,1,95
194,54,814513,1,0,0:0:0:0:
166,78,814593,6,0,P|178:186|222:258,1,190.949990967637
352,316,815239,2,0,P|270:267|216:184,1,190,8|0,0:0|0:0,0:0:0:0:
235,57,815722,1,0,0:0:0:0:
372,28,815884,69,0,0:0:0:0:
384,56,815964,1,0,0:0:0:0:
396,84,816045,2,0,L|490:95,2,95,8|0|0,0:0|0:0|0:0,0:0:0:0:
217,189,816529,2,0,L|122:200,1,95,8|0,0:0|0:0,0:0:0:0:
352,316,816852,2,0,L|446:327,1,95
472,300,817093,1,0,0:0:0:0:
472,260,817174,6,0,L|340:244,1,127.299993978424,4|0,0:0|0:0,0:0:0:0:
180,340,817658,2,0,L|85:351,1,95,0|8,0:0|0:0,0:0:0:0:
236,160,817981,2,0,L|330:171,2,95
80,52,818464,6,0,P|84:88|100:120,1,63.6499969892122,0|8,0:0|0:0,0:0:0:0:
112,148,818706,1,0,0:0:0:0:
128,180,818787,2,0,P|140:209|143:240,1,63.6499969892122
85,351,819110,1,8,0:0:0:0:
24,244,819271,1,0,0:0:0:0:
128,180,819432,2,0,L|222:191,1,95
252,176,819674,1,0,0:0:0:0:
280,156,819755,6,0,L|296:288,1,127.299993978424
428,196,820239,2,0,L|439:101,1,95,0|8,0:0|0:0,0:0:0:0:
268,61,820561,2,0,L|279:155,1,95
415,318,820884,2,0,P|435:266|427:194,1,127.299993978424,0|8,0:0|0:0,0:0:0:0:
279,155,821368,1,0,0:0:0:0:
322,299,821529,1,0,0:0:0:0:
427,195,821690,69,8,0:0:0:0:
318,213,821852,1,8,0:0:0:0:
210,231,822013,1,0,0:0:0:0:
102,250,822174,1,0,0:0:0:0:
56,360,822335,6,0,P|99:260|97:176,1,190.949990967637,4|0,0:0|0:0,0:0:0:0:
68,64,822981,2,0,B|104:44|104:44|260:60,1,190,8|0,0:0|0:0,0:0:0:0:
376,136,823464,2,0,L|470:124,1,95
500,284,823787,5,8,0:0:0:0:
476,300,823868,1,0,0:0:0:0:
452,316,823948,2,0,L|357:304,1,95
281,147,824271,2,0,L|375:135,1,95,8|0,0:0|0:0,0:0:0:0:
296,340,824593,2,0,L|201:328,1,95
172,340,824835,1,0,0:0:0:0:
140,352,824916,6,0,P|96:252|98:168,1,190.949990967637
128,60,825561,1,8,0:0:0:0:
192,183,825722,2,0,L|97:171,1,95
201,351,826045,2,0,L|295:340,1,95
428,160,826368,69,8,0:0:0:0:
456,176,826448,1,0,0:0:0:0:
484,192,826529,2,0,L|473:287,1,95
295,339,826852,2,0,L|283:244,1,95,8|0,0:0|0:0,0:0:0:0:
412,92,827174,5,0,0:0:0:0:
256,136,827335,1,0,0:0:0:0:
100,180,827497,1,4,0:0:0:0:
152,128,827658,5,0,0:0:0:0:
256,136,827819,1,0,0:0:0:0:
360,148,827981,2,0,L|455:160,1,95,0|8,0:0|0:0,0:0:0:0:
488,240,828303,101,0,0:0:0:0:
332,284,828464,1,0,0:0:0:0:
176,328,828626,2,0,L|76:356,1,95
124,264,828948,5,8,0:0:0:0:
228,272,829110,1,0,0:0:0:0:
332,284,829271,2,0,L|427:296,1,95,0|8,0:0|0:0,0:0:0:0:
488,240,829593,5,0,0:0:0:0:
345,329,829755,2,0,L|328:272,1,47.5
310,215,829916,2,0,L|293:158,1,47.5
276,100,830077,2,0,L|260:248,1,127.299993978424
426,295,830561,2,0,L|415:200,1,95,0|8,0:0|0:0,0:0:0:0:
196,160,830884,2,0,L|185:255,1,95
354,260,831206,70,0,L|338:112,1,127.299993978424,0|8,0:0|0:0,0:0:0:0:
330,32,831690,1,0,0:0:0:0:
308,196,831852,1,0,0:0:0:0:
286,360,832013,1,8,0:0:0:0:
426,295,832174,1,4,0:0:0:0:
426,295,832658,6,0,B|402:315|402:315|242:299,1,190.949990967637,4|0,0:0|0:0,0:0:0:0:
128,208,833303,1,8,0:0:0:0:
96,352,833464,1,0,0:0:0:0:
128,208,833626,2,0,L|16:220,2,95
243,299,834110,5,8,0:0:0:0:
271,279,834190,1,0,0:0:0:0:
299,259,834271,2,0,L|411:271,1,95
472,144,834593,2,0,L|360:156,1,95,8|0,0:0|0:0,0:0:0:0:
260,40,834916,2,0,L|372:52,1,95
384,40,835158,1,0,0:0:0:0:
412,28,835239,6,0,L|388:224,1,190.949990967637
376,340,835884,1,8,0:0:0:0:
396,168,836045,1,0,0:0:0:0:
238,246,836206,2,0,L|250:358,2,95
292,136,836690,69,8,0:0:0:0:
256,128,836771,1,0,0:0:0:0:
224,120,836852,2,0,L|213:25,1,95
48,108,837174,2,0,L|36:220,1,95,8|0,0:0|0:0,0:0:0:0:
168,256,837497,2,0,L|178:350,1,95
220,360,837739,1,0,0:0:0:0:
252,372,837819,6,0,L|234:218,1,127.299993978424,4|0,0:0|0:0,0:0:0:0:
444,136,838303,2,0,L|434:230,1,95,0|8,0:0|0:0,0:0:0:0:
292,136,838626,2,0,L|282:42,2,95
428,76,839110,6,0,P|432:112|448:144,1,63.6499969892122,0|8,0:0|0:0,0:0:0:0:
460,172,839352,1,0,0:0:0:0:
476,204,839432,2,0,P|488:233|491:264,1,63.6499969892122
432,376,839755,1,8,0:0:0:0:
308,300,839916,1,0,0:0:0:0:
432,232,840077,2,0,L|444:120,1,95
408,144,840319,1,0,0:0:0:0:
375,151,840400,6,0,P|323:143|239:119,1,127.299993978424
136,72,840884,1,0,0:0:0:0:
124,216,841045,2,0,L|30:226,2,95,8|0|0,0:0|0:0|0:0,0:0:0:0:
260,160,841529,2,0,P|321:177|383:187,1,127.299993978424,0|8,0:0|0:0,0:0:0:0:
492,96,842013,1,0,0:0:0:0:
492,96,842335,69,8,0:0:0:0:
376,128,842497,1,8,0:0:0:0:
260,160,842658,2,0,L|192:152,1,47.5
88,66,842819,2,0,L|156:74,1,47.5
212,154,842981,6,0,B|192:178|192:178|208:338,1,190.949990967637,12|0,0:0|0:0,0:0:0:0:
460,216,843787,1,0,0:0:0:0:
460,216,843948,2,0,B|480:192|480:192|464:33,1,190.949990967637,12|0,0:0|0:0,0:0:0:0:
204,80,844755,5,0,0:0:0:0:
204,80,844916,2,0,L|110:70,1,95,8|0,0:0|0:0,0:0:0:0:
148,200,845239,2,0,L|242:190,1,95,8|0,0:0|0:0,0:0:0:0:
276,48,845561,6,0,L|79:29,1,190.949990967637,12|0,0:0|0:0,0:0:0:0:
36,304,846368,1,0,0:0:0:0:
36,304,846529,2,0,L|233:285,1,190.949990967637,12|0,0:0|0:0,0:0:0:0:
226,285,847174,1,0,0:0:0:0:
440,200,847497,69,8,0:0:0:0:
392,176,847604,1,8,0:0:0:0:
344,152,847712,1,0,0:0:0:0:
296,128,847819,5,0,0:0:0:0:
340,108,847927,1,0,0:0:0:0:
388,88,848034,1,0,0:0:0:0:
432,68,848142,6,0,B|452:92|452:92|436:252,1,190.949990967637,12|0,0:0|0:0,0:0:0:0:
140,364,848948,1,0,0:0:0:0:
140,364,849110,2,0,B|120:340|120:340|136:180,1,190.949990967637,12|0,0:0|0:0,0:0:0:0:
364,252,849916,5,0,0:0:0:0:
364,252,850077,2,0,L|374:346,1,95,8|0,0:0|0:0,0:0:0:0:
192,264,850400,2,0,L|202:170,1,95,8|0,0:0|0:0,0:0:0:0:
348,77,850722,70,0,P|388:157|356:261,1,190.949990967637,12|0,0:0|0:0,0:0:0:0:
202,169,851368,1,0,0:0:0:0:
384,140,851529,1,0,0:0:0:0:
264,264,851690,1,8,0:0:0:0:
276,88,851852,1,8,0:0:0:0:
276,88,852335,6,0,L|292:224,1,127.299993978424
304,328,852819,1,0,0:0:0:0:
408,252,852981,1,0,0:0:0:0:
290,214,853142,1,0,0:0:0:0:
302,178,853222,1,0,0:0:0:0:
314,142,853303,6,0,P|252:164|172:180,1,127.299993978424,2|0,0:0|0:0,0:0:0:0:
52,136,853787,1,0,0:0:0:0:
96,252,853948,1,0,0:0:0:0:
148,144,854110,2,0,P|210:130|269:108,1,127.299993978424
356,32,854593,6,0,L|419:39,1,63.6499969892122,2|0,0:0|0:0,0:0:0:0:
472,164,854916,2,0,L|408:171,1,63.6499969892122
290,214,855239,1,0,0:0:0:0:
332,108,855400,2,0,L|468:124,1,127.299993978424
472,164,855803,1,0,0:0:0:0:
488,204,855884,70,0,P|474:266|452:325,1,127.299993978424,2|0,0:0|0:0,0:0:0:0:
340,360,856368,1,0,0:0:0:0:
452,325,856529,1,0,0:0:0:0:
432,212,856690,2,0,P|372:190|310:176,1,127.299993978424
208,256,857174,6,0,L|280:248,1,63.6499969892122,2|0,0:0|0:0,0:0:0:0:
236,132,857497,2,0,L|164:124,1,63.6499969892122
72,224,857819,1,0,0:0:0:0:
192,316,857981,2,0,L|328:300,1,127.299993978424
353,298,858384,1,0,0:0:0:0:
388,296,858464,1,4,0:0:0:0:
89,53,865000,53,0,0:0:0:0:
42,113,865111,1,0,0:0:0:0:
88,172,865222,1,0,0:0:0:0:
125,237,865333,1,0,0:0:0:0:
88,304,865445,2,0,L|80:341,8,23.75
442,51,866778,6,0,P|404:81|350:91,1,95,4|0,0:0|0:0,0:0:0:0:
288,65,867111,1,0,0:0:0:0:
70,102,867222,1,0,0:0:0:0:
70,102,867333,2,0,P|121:133|133:177,1,95
78,218,867667,1,0,0:0:0:0:
105,288,867778,2,0,L|116:345,1,47.5
183,305,868000,1,0,0:0:0:0:
251,337,868111,2,0,P|272:291|311:260,1,95
477,274,868556,6,0,P|437:245|424:197,1,95
312,65,868889,2,0,P|369:43|391:-11,2,95
129,99,869445,2,0,L|55:117,1,47.5
27,162,869667,1,0,0:0:0:0:
81,215,869778,2,0,L|131:226,1,47.5
163,342,870111,6,0,P|202:314|257:309,1,95
396,341,870556,1,0,0:0:0:0:
478,90,870778,2,0,P|423:92|378:115,1,95
303,185,871111,1,0,0:0:0:0:
303,185,871222,2,0,L|240:171,1,47.5
207,89,871445,2,0,L|149:98,1,47.5
22,158,871667,2,0,P|37:208|81:242,1,95
139,261,872000,1,0,0:0:0:0:
301,351,872111,6,0,P|336:317|383:306,1,95
418,233,872445,2,0,P|446:257|461:318,2,95
347,204,873000,1,0,0:0:0:0:
287,156,873111,1,0,0:0:0:0:
252,88,873222,1,0,0:0:0:0:
226,16,873333,1,0,0:0:0:0:
176,74,873445,2,0,P|145:106|85:110,1,95
49,323,873889,54,0,P|88:290|135:289,1,95
193,331,874222,1,0,0:0:0:0:
254,285,874333,2,0,L|239:220,1,47.5
11,104,874667,1,0,0:0:0:0:
77,68,874778,2,0,L|136:80,1,47.5
197,61,875000,1,0,0:0:0:0:
271,73,875111,2,0,L|336:54,1,47.5
482,340,875445,6,0,L|381:313,1,95
322,280,875778,1,0,0:0:0:0:
300,207,875889,1,0,0:0:0:0:
246,152,876000,2,0,P|211:129|135:137,2,95
219,223,876556,2,0,L|190:282,1,47.5
184,371,876778,1,0,0:0:0:0:
73,318,876889,2,0,L|45:269,1,47.5
21,128,877222,5,0,0:0:0:0:
41,54,877333,1,0,0:0:0:0:
115,38,877445,2,0,P|158:58|219:54,1,95
279,43,877778,1,0,0:0:0:0:
324,103,877889,2,0,P|365:137|411:149,1,95
479,137,878222,1,0,0:0:0:0:
475,336,878333,6,0,L|375:325,1,95
343,264,878667,2,0,L|241:280,1,95
36,308,879000,1,0,0:0:0:0:
50,233,879111,1,0,0:0:0:0:
91,44,879222,6,0,L|100:95,1,47.5
154,143,879445,1,0,0:0:0:0:
277,53,879667,54,0,P|329:51|376:80,1,95
408,133,880000,1,0,0:0:0:0:
450,343,880111,6,0,L|382:338,1,47.5
412,264,880333,2,0,L|345:260,1,47.5
197,185,880556,6,0,P|173:133|173:68,1,95
141,25,880889,1,0,0:0:0:0:
71,54,881000,6,0,P|66:123|11:198,1,142.5,4|0,0:0|0:0,0:0:0:0:
78,357,881445,1,0,0:0:0:0:
145,321,881556,2,0,L|175:219,1,95
225,55,881889,2,0,L|285:43,1,47.5
346,32,882111,1,0,0:0:0:0:
324,104,882222,2,0,L|341:171,1,47.5
393,342,882556,5,0,0:0:0:0:
393,342,882778,2,0,P|346:316|288:314,1,95
251,260,883111,2,0,P|233:305|248:354,2,95
337,126,883667,2,0,L|352:74,1,47.5
308,16,883889,1,0,0:0:0:0:
233,31,884000,2,0,L|213:96,1,47.5
76,354,884333,54,0,L|108:250,1,95
64,38,884778,1,0,0:0:0:0:
171,304,885000,1,0,0:0:0:0:
171,304,885111,2,0,P|171:246|143:196,1,95
60,107,885445,6,0,L|112:83,1,47.5
177,101,885667,2,0,L|233:76,1,47.5
417,27,885889,6,0,B|454:62|454:62|471:113|430:167,1,142.5
393,342,886333,2,0,P|344:338|299:306,1,95
234,287,886667,2,0,P|277:246|333:244,2,95
178,339,887222,6,0,L|122:308,1,47.5
60,323,887445,1,0,0:0:0:0:
24,255,887556,2,0,L|55:188,1,47.5
90,32,887889,5,0,0:0:0:0:
90,32,888111,2,0,P|162:28|232:80,1,142.5,4|0,0:0|0:0,0:0:0:0:
321,346,888556,1,0,0:0:0:0:
321,346,888667,2,0,L|336:241,1,95
448,28,889000,54,0,L|458:85,1,47.5
410,135,889222,1,0,0:0:0:0:
361,193,889333,2,0,L|349:262,1,47.5
263,355,889667,6,0,L|254:306,1,47.5
205,250,889889,2,0,P|190:198|192:151,1,95
245,104,890222,2,0,P|263:146|255:216,2,95
181,60,890778,1,0,0:0:0:0:
105,68,890889,1,0,0:0:0:0:
50,120,891000,1,0,0:0:0:0:
51,195,891111,1,0,0:0:0:0:
88,260,891222,2,0,L|131:350,1,95
128,345,891556,1,0,0:0:0:0:
204,349,891667,6,0,L|234:254,1,95
286,204,892000,1,0,0:0:0:0:
284,327,892111,2,0,L|320:213,1,95
367,182,892445,1,0,0:0:0:0:
477,94,892556,6,0,L|420:79,1,47.5
372,33,892778,1,0,0:0:0:0:
308,74,892889,2,0,L|247:91,1,47.5
65,67,893222,5,0,0:0:0:0:
65,67,893445,2,0,P|57:123|76:188,1,95
105,224,893778,1,0,0:0:0:0:
196,344,893889,2,0,P|218:294|220:241,1,95
182,189,894222,1,0,0:0:0:0:
162,35,894333,54,0,L|217:44,1,47.5
284,57,894556,1,0,0:0:0:0:
238,118,894667,1,0,0:0:0:0:
311,136,894778,2,0,L|368:148,1,47.5
479,341,895000,2,0,L|427:332,1,47.5
119,330,895222,5,0,0:0:0:0:
67,274,895333,1,0,0:0:0:0:
113,213,895445,1,0,0:0:0:0:
63,155,895556,1,0,0:0:0:0:
119,104,895667,1,0,0:0:0:0:
124,93,895722,1,0,0:0:0:0:
129,82,895778,1,0,0:0:0:0:
134,71,895833,1,0,0:0:0:0:
139,61,895889,1,0,0:0:0:0:
144,50,895944,1,0,0:0:0:0:
149,39,896000,1,0,0:0:0:0:
156,26,896056,1,0,0:0:0:0:
163,14,896111,5,0,0:0:0:0:
482,150,897000,22,0,P|345:166|251:284,1,285.000010871888
196,336,898111,1,0,0:0:0:0:
160,258,898333,1,0,0:0:0:0:
110,328,898556,2,0,P|25:265|52:148,1,213.750008153916
62,41,899667,6,0,P|124:62|203:42,1,142.500005435944
275,10,900333,2,0,B|318:102|426:73|426:73|506:151|449:253,1,356.25001358986
419,308,901667,1,0,0:0:0:0:
338,336,901889,1,0,0:0:0:0:
253,321,902111,2,0,P|192:272|108:264,1,142.500005435944
86,327,903445,101,0,0:0:0:0:
111,245,903667,1,0,0:0:0:0:
89,162,903889,1,0,0:0:0:0:
105,78,904111,2,0,P|184:77|251:27,1,142.500005435944
236,44,904778,2,0,P|336:44|412:140,1,213.750008153916
412,209,905667,2,0,P|374:276|374:346,1,142.500005435944
276,342,906333,2,0,P|269:269|233:197,1,142.500005435944
70,269,907222,1,0,0:0:0:0:
70,269,907444,6,0,P|46:85|201:12,1,356.25001358986
219,83,908778,1,0,0:0:0:0:
302,101,909000,1,0,0:0:0:0:
372,53,909222,1,0,0:0:0:0:
475,259,909445,102,0,P|363:274|309:376,1,213.750008153916
37,125,910333,2,0,P|149:110|203:8,1,213.750008153916
256,192,911222,12,0,915889,0:0:0:0:
224,144,923221,54,0,P|264:172|296:224,1,95
260,292,923721,2,0,B|216:316|216:316|156:316,1,95,0|0,0:0|0:0,0:0:0:0:
96,284,924221,1,0,0:0:0:0:
96,284,925887,6,0,P|96:228|64:184,1,95,0|0,0:0|0:0,0:0:0:0:
8,120,926387,1,0,0:0:0:0:
8,120,926887,2,0,B|72:80|136:116|136:116|196:92,1,190,0|0,0:0|0:0,0:0:0:0:
380,56,928554,6,0,P|400:104|388:160,1,95,0|0,0:0|0:0,0:0:0:0:
368,216,929054,2,0,L|272:196,1,95,0|0,0:0|0:0,0:0:0:0:
200,220,929554,1,0,0:0:0:0:
132,264,929721,2,0,L|80:228,1,47.5,0|0,0:0|0:0,0:0:0:0:
36,192,930054,1,0,0:0:0:0:
36,192,931221,6,0,P|44:116|104:64,1,142.5,0|0,0:0|0:0,0:0:0:0:
164,136,932221,2,0,P|156:212|132:148,1,190,0|0,0:0|0:0,0:0:0:0:
268,188,935387,5,4,0:0:0:0:
268,188,935720,1,4,0:0:0:0:
268,188,936053,2,0,L|288:128,1,47.5,0|0,3:0|3:0,3:0:0:0:
220,76,936220,2,0,L|200:136,1,47.5,0|0,3:0|3:0,3:0:0:0:
128,184,936387,1,0,3:0:0:0:
128,184,936470,1,0,3:0:0:0:
128,184,936553,1,0,3:0:0:0:
128,184,936637,1,0,3:0:0:0:
128,184,936720,54,0,P|144:240|172:264,1,95,4|0,0:0|0:0,0:0:0:0:
264,304,937053,1,8,0:0:0:0:
340,248,937220,1,0,0:0:0:0:
349,149,937387,2,0,P|302:156|268:188,1,95,0|0,0:0|0:0,0:0:0:0:
352,340,937720,1,8,0:0:0:0:
424,208,937887,2,0,P|424:104|356:60,1,190,0|0,0:0|0:0,0:0:0:0:
208,96,938387,2,0,P|184:148|192:192,1,95,8|0,0:0|0:0,0:0:0:0:
120,344,938720,2,0,P|92:288|56:264,1,95,0|0,0:0|0:0,0:0:0:0:
64,160,939053,1,8,0:0:0:0:
200,276,939220,1,0,0:0:0:0:
260,172,939387,6,0,P|288:72|224:12,1,190,0|8,0:0|0:0,0:0:0:0:
96,60,939887,1,0,0:0:0:0:
96,60,939970,1,0,0:0:0:0:
96,60,940053,2,0,B|24:60|24:60|-16:36,1,95,0|0,0:0|0:0,0:0:0:0:
64,160,940387,1,8,0:0:0:0:
156,132,940553,2,0,P|192:96|192:32,2,95,0|0|0,0:0|0:0|0:0,0:0:0:0:
20,272,941053,2,0,P|48:312|88:332,1,95,8|0,0:0|0:0,0:0:0:0:
176,304,941387,1,0,0:0:0:0:
112,240,941553,2,0,L|60:152,1,95,0|8,0:0|0:0,0:0:0:0:
156,132,941887,1,0,0:0:0:0:
228,228,942053,6,0,B|292:260|352:228|352:228|420:256,1,190,4|8,0:0|0:0,0:0:0:0:
288,152,942553,1,0,0:0:0:0:
360,320,942720,1,0,0:0:0:0:
483,201,942887,2,0,L|397:161,1,95,0|8,0:0|0:0,0:0:0:0:
288,152,943220,1,0,0:0:0:0:
228,228,943387,2,0,P|196:256|132:272,1,95,0|0,0:0|0:0,0:0:0:0:
164,160,943720,2,0,P|186:118|190:71,1,95,8|0,0:0|0:0,0:0:0:0:
288,152,944053,1,0,0:0:0:0:
108,88,944220,1,0,0:0:0:0:
284,68,944387,6,0,P|356:104|368:168,1,142.5,8|0,0:0|0:0,0:0:0:0:
340,224,944720,2,0,L|268:292,1,95,0|0,0:0|0:0,0:0:0:0:
120,336,945053,1,8,0:0:0:0:
120,336,945220,1,0,0:0:0:0:
200,212,945387,2,0,P|219:113|191:67,1,142.5,0|0,0:0|0:0,0:0:0:0:
132,72,945720,2,0,L|48:128,1,95,8|0,0:0|0:0,0:0:0:0:
120,244,946053,5,0,0:0:0:0:
48,292,946220,1,0,0:0:0:0:
120,336,946387,2,0,P|184:316|208:232,1,142.5,8|0,0:0|0:0,0:0:0:0:
279,171,946720,2,0,P|228:181|192:233,1,95,4|8,0:0|0:0,0:0:0:0:
211,250,946970,1,8,0:0:0:0:
236,292,947053,1,8,0:0:0:0:
280,308,947137,1,8,0:0:0:0:
328,304,947220,1,8,0:0:0:0:
372,152,947387,54,0,P|344:104|300:84,1,95,4|0,0:0|0:0,0:0:0:0:
152,136,947720,1,8,0:0:0:0:
224,64,947887,1,0,0:0:0:0:
279,171,948053,2,0,P|307:219|351:239,1,95,0|0,0:0|0:0,0:0:0:0:
432,216,948387,1,8,0:0:0:0:
400,320,948553,2,0,B|316:356|268:296|268:296|216:328,1,190,0|0,0:0|0:0,0:0:0:0:
140,332,949053,6,0,P|96:312|76:256,1,95,8|0,0:0|0:0,0:0:0:0:
172,252,949387,2,0,P|204:216|200:152,1,95,0|0,0:0|0:0,0:0:0:0:
128,180,949720,1,8,0:0:0:0:
230,319,949887,1,0,0:0:0:0:
288,196,950053,6,0,P|276:120|216:88,1,142.5,0|0,0:0|0:0,0:0:0:0:
144,96,950387,2,0,P|88:104|40:80,1,95,8|0,0:0|0:0,0:0:0:0:
160,288,950720,2,0,P|181:192|225:169,1,142.5,0|0,0:0|0:0,0:0:0:0:
288,196,951053,2,0,P|340:224|396:216,1,95,8|0,0:0|0:0,0:0:0:0:
356,60,951387,5,0,0:0:0:0:
356,60,951553,1,0,0:0:0:0:
144,96,951720,2,0,P|92:68|36:76,1,95,8|0,0:0|0:0,0:0:0:0:
64,192,952053,1,0,0:0:0:0:
160,288,952220,1,0,0:0:0:0:
144,96,952387,1,8,0:0:0:0:
232,244,952553,5,0,0:0:0:0:
232,244,952637,1,0,0:0:0:0:
232,244,952720,2,0,P|324:268|424:236,1,190,4|8,0:0|0:0,0:0:0:0:
460,144,953220,1,0,0:0:0:0:
304,44,953387,2,0,P|264:68|236:120,1,95,0|0,0:0|0:0,0:0:0:0:
232,244,953720,1,8,0:0:0:0:
124,180,953887,2,0,P|83:155|59:115,1,95,0|0,0:0|0:0,0:0:0:0:
144,96,954220,1,0,0:0:0:0:
232,244,954387,54,0,P|284:224|312:144,1,142.5,8|0,0:0|0:0,0:0:0:0:
296,68,954720,2,0,P|362:86|392:148,1,142.5,0|0,0:0|0:0,0:0:0:0:
404,224,955053,2,0,P|436:264|484:280,1,95,8|0,0:0|0:0,0:0:0:0:
228,160,955387,6,0,P|177:154|131:176,1,95,0|0,0:0|0:0,0:0:0:0:
164,336,955720,1,8,0:0:0:0:
232,244,955887,1,0,0:0:0:0:
88,248,956053,2,0,P|52:212|44:160,1,95,0|0,0:0|0:0,0:0:0:0:
156,68,956387,1,8,0:0:0:0:
128,172,956553,1,0,0:0:0:0:
228,160,956720,5,8,0:0:0:0:
276,164,956803,1,8,0:0:0:0:
320,148,956887,1,8,0:0:0:0:
360,120,956970,1,8,0:0:0:0:
384,160,957053,5,8,0:0:0:0:
369,205,957137,1,8,0:0:0:0:
355,250,957220,1,8,0:0:0:0:
341,295,957303,1,8,0:0:0:0:
332,348,957387,5,8,0:0:0:0:
332,348,957470,1,8,0:0:0:0:
332,348,957553,1,8,0:0:0:0:
332,348,957637,1,8,0:0:0:0:
332,348,957720,2,8,P|276:360|228:348,1,95,8|2,0:0|0:0,0:0:0:0:
148,300,958053,54,0,P|180:260|192:212,1,95,4|0,0:0|0:0,0:0:0:0:
112,108,958387,1,8,0:0:0:0:
64,224,958553,1,0,0:0:0:0:
212,156,958720,1,0,0:0:0:0:
20,136,958887,1,0,0:0:0:0:
148,300,959053,1,8,0:0:0:0:
184,68,959220,2,0,P|144:32|80:28,1,95,0|0,0:0|0:0,0:0:0:0:
112,108,959553,1,0,0:0:0:0:
212,156,959720,6,0,P|264:116|276:80,1,95,8|0,0:0|0:0,0:0:0:0:
124,212,960053,2,0,P|72:252|60:288,1,95,0|0,0:0|0:0,0:0:0:0:
148,300,960387,1,8,0:0:0:0:
148,300,960553,1,0,0:0:0:0:
264,228,960720,6,0,P|316:240|360:272,1,95,0|0,0:0|0:0,0:0:0:0:
412,356,961053,1,8,0:0:0:0:
412,356,961137,1,0,0:0:0:0:
412,356,961220,2,0,P|452:304|468:176,1,190,0|0,0:0|0:0,0:0:0:0:
368,104,961720,1,8,0:0:0:0:
264,228,961887,2,0,P|236:184|232:124,1,95,0|0,0:0|0:0,0:0:0:0:
292,40,962220,5,0,0:0:0:0:
136,120,962387,2,0,P|89:110|51:83,2,95,8|0|0,0:0|0:0|0:0,0:0:0:0:
204,56,962887,1,0,0:0:0:0:
328,168,963053,2,0,P|348:216|336:272,1,95,8|0,0:0|0:0,0:0:0:0:
276,312,963303,1,0,0:0:0:0:
276,312,963387,6,0,P|176:312|104:260,1,190,4|8,0:0|0:0,0:0:0:0:
80,188,963887,1,0,0:0:0:0:
252,140,964053,1,0,0:0:0:0:
88,60,964220,1,0,0:0:0:0:
200,240,964387,1,8,0:0:0:0:
200,56,964553,1,0,0:0:0:0:
212,48,964637,1,0,0:0:0:0:
224,40,964720,2,0,P|280:36|328:48,1,95,0|0,0:0|0:0,0:0:0:0:
173,192,965053,2,0,P|117:196|69:184,1,95,8|0,0:0|0:0,0:0:0:0:
268,276,965387,2,0,P|324:272|372:284,1,95,0|0,0:0|0:0,0:0:0:0:
452,352,965720,54,0,P|460:304|492:268,1,95,8|0,0:0|0:0,0:0:0:0:
480,120,966053,2,0,P|388:96|352:100,1,95,0|0,0:0|0:0,0:0:0:0:
268,276,966387,2,0,P|256:324|228:360,1,95,8|0,0:0|0:0,0:0:0:0:
48,232,966720,2,0,P|24:180|32:132,1,95,0|0,0:0|0:0,0:0:0:0:
240,148,967053,2,0,P|288:188|344:196,1,95,8|0,0:0|0:0,0:0:0:0:
356,64,967387,5,0,0:0:0:0:
356,64,967720,2,0,L|452:44,1,95,8|0,0:0|0:0,0:0:0:0:
264,276,968053,2,0,L|168:256,1,95,4|8,0:0|0:0,0:0:0:0:
148,236,968303,1,8,0:0:0:0:
128,216,968387,1,8,0:0:0:0:
108,196,968470,1,8,0:0:0:0:
88,176,968553,1,8,0:0:0:0:
188,88,968720,6,0,P|248:112|304:104,1,95,4|0,0:0|0:0,0:0:0:0:
420,32,969053,1,8,0:0:0:0:
352,160,969220,1,0,0:0:0:0:
252,32,969387,1,0,0:0:0:0:
428,112,969553,2,0,P|440:164|416:216,1,95,0|8,0:0|0:0,0:0:0:0:
312,328,969887,2,0,L|200:328,1,95,0|0,0:0|0:0,0:0:0:0:
96,248,970220,1,0,0:0:0:0:
216,232,970387,6,0,P|256:208|288:156,1,95,8|0,0:0|0:0,0:0:0:0:
170,43,970720,2,0,P|178:90|168:136,1,95,0|0,0:0|0:0,0:0:0:0:
64,120,971053,2,0,P|40:80|-12:48,1,95,8|0,0:0|0:0,0:0:0:0:
96,248,971387,6,0,P|156:304|216:320,1,142.5,0|0,0:0|0:0,0:0:0:0:
284,284,971720,2,0,P|336:260|392:252,1,95,8|0,0:0|0:0,0:0:0:0:
420,80,972053,2,0,P|328:40|272:52,1,142.5,0|0,0:0|0:0,0:0:0:0:
260,112,972387,2,0,P|284:160|280:208,1,95,8|0,0:0|0:0,0:0:0:0:
216,340,972720,53,0,0:0:0:0:
96,248,972887,1,0,0:0:0:0:
284,284,973053,2,0,P|344:260|364:228,1,95,8|0,0:0|0:0,0:0:0:0:
208,180,973387,1,0,0:0:0:0:
64,344,973553,1,0,0:0:0:0:
20,168,973720,1,8,0:0:0:0:
190,266,973887,1,0,0:0:0:0:
190,266,973970,1,0,0:0:0:0:
190,266,974053,6,0,L|298:286,1,95,4|0,0:0|0:0,0:0:0:0:
392,160,974387,2,0,P|344:116|332:60,1,95,8|0,0:0|0:0,0:0:0:0:
216,56,974720,1,0,0:0:0:0:
144,196,974887,1,0,0:0:0:0:
272,152,975053,1,8,0:0:0:0:
108,124,975220,6,0,P|76:152|68:216,1,95,0|0,0:0|0:0,0:0:0:0:
256,276,975553,1,0,0:0:0:0:
396,160,975720,2,0,P|384:96|352:64,1,95,8|0,0:0|0:0,0:0:0:0:
360,248,976053,2,0,P|372:312|404:344,1,95,0|0,0:0|0:0,0:0:0:0:
452,264,976387,1,8,0:0:0:0:
308,176,976553,1,0,0:0:0:0:
256,276,976720,6,0,L|152:276,1,95,0|0,0:0|0:0,0:0:0:0:
76,200,977053,1,8,0:0:0:0:
76,200,977220,1,0,0:0:0:0:
228,144,977387,2,0,P|280:104|300:64,1,95,0|0,0:0|0:0,0:0:0:0:
152,40,977720,1,8,0:0:0:0:
152,172,977887,6,0,P|184:208|256:220,2,95,0|0|0,0:0|0:0|0:0,0:0:0:0:
228,64,978387,2,0,B|300:36|300:36|328:40,1,95,8|0,0:0|0:0,0:0:0:0:
364,224,978720,1,0,0:0:0:0:
352,248,978803,1,0,0:0:0:0:
340,276,978887,2,0,L|312:336,1,47.5,0|0,0:0|0:0,0:0:0:0:
236,320,979053,2,0,L|264:268,1,47.5,0|0,0:0|0:0,0:0:0:0:
268,196,979220,1,0,0:0:0:0:
268,196,979303,1,0,0:0:0:0:
268,196,979387,54,0,P|226:170|156:176,1,95,4|0,0:0|0:0,0:0:0:0:
112,280,979720,1,0,0:0:0:0:
44,112,979887,1,0,1:0:0:0:
44,112,980220,1,0,1:0:0:0:
204,244,980387,1,0,1:0:0:0:
204,244,980720,6,0,P|312:268|416:240,1,213.750008153916,4|0,0:0|0:0,0:0:0:0:
268,100,981387,1,0,0:0:0:0:
268,100,981470,1,0,0:0:0:0:
268,100,981553,1,0,0:0:0:0:
120,128,981720,1,0,0:0:0:0:
204,244,981887,1,0,0:0:0:0:
204,244,981970,1,0,0:0:0:0:
204,244,982053,1,4,0:0:0:0:
256,192,982137,12,0,984387,0:0:0:0:
419,13,992652,6,0,P|324:-8|248:51,1,199.499993911743,6|8,0:0|0:0,0:0:0:0:
324,325,993318,2,0,L|329:258,1,66.4999979705811,0|2,0:0|0:0,0:0:0:0:
343,81,993652,2,0,L|337:147,1,66.4999979705811,8|0,0:0|0:0,0:0:0:0:
356,366,993985,6,0,L|362:233,1,132.999995941162,6|8,0:0|0:0,0:0:0:0:
228,271,994485,1,2,0:0:0:0:
402,336,994652,1,8,0:0:0:0:
396,299,994735,1,8,0:0:0:0:
399,263,994818,1,8,0:0:0:0:
407,227,994902,1,8,0:0:0:0:
418,192,994985,1,8,0:0:0:0:
416,158,995068,1,8,0:0:0:0:
385,139,995152,1,8,0:0:0:0:
359,113,995235,1,8,0:0:0:0:
343,81,995318,6,0,P|248:64|174:113,2,190,6|8|2,0:0|0:0|0:0,0:0:0:0:
249,237,996152,1,2,0:0:0:0:
173,113,996318,1,8,0:0:0:0:
377,180,996485,22,0,P|364:274|345:367,1,190,2|2,0:0|0:0,0:0:0:0:
173,329,996985,2,0,P|126:318|79:321,1,95,8|0,0:0|0:0,0:0:0:0:
4,171,997318,2,0,P|50:181|97:178,1,95,2|2,0:0|0:0,0:0:0:0:
219,102,997652,1,8,0:0:0:0:
107,14,997818,1,0,0:0:0:0:
265,12,997985,38,0,P|315:89|291:179,1,190,6|8,0:0|0:0,0:0:0:0:
190,233,998485,1,0,0:0:0:0:
316,94,998652,1,2,0:0:0:0:
416,193,998818,1,2,0:0:0:0:
247,346,998985,2,0,P|262:302|293:266,1,95,8|2,0:0|0:0,0:0:0:0:
512,196,999318,2,0,P|496:240|466:276,1,95,0|2,0:0|0:0,0:0:0:0:
293,265,999652,6,0,P|223:253|159:281,1,142.5,8|0,0:0|0:0,0:0:0:0:
74,247,999985,2,0,L|62:152,1,95,2|0,0:0|0:0,0:0:0:0:
173,27,1000318,2,0,L|184:121,1,95,8|0,0:0|0:0,0:0:0:0:
247,346,1000652,6,0,P|338:340|392:266,1,190,6|8,0:0|0:0,0:0:0:0:
392,266,1001152,1,0,0:0:0:0:
223,180,1001318,1,2,0:0:0:0:
341,100,1001485,1,2,0:0:0:0:
293,265,1001652,1,8,0:0:0:0:
219,143,1001818,1,0,0:0:0:0:
422,55,1001985,6,0,P|432:101|424:147,1,95,2|0,0:0|0:0,0:0:0:0:
302,90,1002318,1,8,0:0:0:0:
392,266,1002485,1,0,0:0:0:0:
409,179,1002652,2,0,L|314:177,1,95,2|2,0:0|0:0,0:0:0:0:
34,277,1002985,2,0,L|129:279,1,95,8|0,0:0|0:0,0:0:0:0:
417,352,1003318,22,0,P|470:306|472:237,1,142.5,6|0,0:0|0:0,0:0:0:0:
409,180,1003652,1,8,0:0:0:0:
296,315,1003818,1,0,0:0:0:0:
337,48,1003985,2,0,L|324:144,1,95,2|2,0:0|0:0,0:0:0:0:
175,380,1004318,2,0,L|162:284,1,95,8|0,0:0|0:0,0:0:0:0:
52,103,1004652,38,0,P|120:115|179:78,1,142.5,6|0,0:0|0:0,0:0:0:0:
246,25,1004985,2,0,P|293:27|336:47,1,95,8|0,0:0|0:0,0:0:0:0:
472,237,1005318,1,2,0:0:0:0:
444,254,1005402,1,0,0:0:0:0:
411,261,1005485,1,2,0:0:0:0:
379,255,1005568,1,0,0:0:0:0:
351,237,1005652,2,0,L|345:133,1,95,8|0,0:0|0:0,0:0:0:0:
256,304,1005985,5,6,0:0:0:0:
345,142,1006152,1,0,0:0:0:0:
411,261,1006318,1,8,0:0:0:0:
216,224,1006485,2,0,P|166:299|207:380,1,190,2|2,0:0|0:0,0:0:0:0:
207,380,1006985,1,8,0:0:0:0:
418,356,1007152,1,0,0:0:0:0:
418,356,1007235,1,0,0:0:0:0:
418,356,1007318,6,0,L|411:261,1,95,2|0,0:0|0:0,0:0:0:0:
249,127,1007652,2,0,P|201:126|158:145,1,95,8|0,0:0|0:0,0:0:0:0:
345,142,1007985,2,0,P|414:145|471:105,1,142.5,2|0,0:0|0:0,0:0:0:0:
507,32,1008318,1,8,0:0:0:0:
154,53,1008652,6,0,L|167:242,1,190,6|8,0:0|0:0,0:0:0:0:
248,347,1009152,1,0,0:0:0:0:
248,347,1009318,2,0,P|296:351|341:336,2,95,2|2|8,0:0|0:0|0:0,0:0:0:0:
286,220,1009818,1,0,0:0:0:0:
286,220,1009902,1,0,0:0:0:0:
286,220,1009985,22,0,L|276:125,1,95,2|0,0:0|0:0,0:0:0:0:
48,8,1010318,2,0,L|57:102,1,95,8|0,0:0|0:0,0:0:0:0:
163,286,1010652,2,0,P|110:282|34:352,1,142.5,2|0,0:0|0:0,0:0:0:0:
22,350,1010985,2,0,L|27:255,1,95,8|0,0:0|0:0,0:0:0:0:
48,8,1011318,37,6,0:0:0:0:
156,85,1011485,1,0,0:0:0:0:
32,220,1011652,1,8,0:0:0:0:
14,102,1011818,2,0,L|156:84,1,142.5,2|0,0:0|0:0,0:0:0:0:
244,80,1012152,2,0,P|265:121|264:171,1,95,2|8,0:0|0:0,0:0:0:0:
210,290,1012485,1,2,0:0:0:0:
375,333,1012652,6,0,P|419:317|452:282,1,95,0|2,0:0|0:0,0:0:0:0:
439,128,1012985,2,0,P|395:144|362:179,1,95,8|0,0:0|0:0,0:0:0:0:
210,290,1013318,1,2,0:0:0:0:
182,308,1013402,1,0,0:0:0:0:
150,316,1013485,1,2,0:0:0:0:
117,312,1013568,1,0,0:0:0:0:
87,299,1013652,2,0,L|72:185,1,95,8|0,0:0|0:0,0:0:0:0:
57,19,1013985,5,6,0:0:0:0:
167,107,1014152,2,0,P|214:114|260:104,2,95,0|8|0,0:0|0:0|0:0,0:0:0:0:
354,66,1014652,1,2,0:0:0:0:
354,66,1014818,2,0,P|394:54|450:51,1,95,2|8,0:0|0:0,0:0:0:0:
364,202,1015152,2,0,L|346:249,1,47.5
368,312,1015318,6,0,P|303:284|235:302,1,142.5,2|0,0:0|0:0,0:0:0:0:
170,344,1015652,1,8,0:0:0:0:
89,225,1015818,1,0,0:0:0:0:
10,373,1015985,1,2,0:0:0:0:
90,126,1016152,1,2,0:0:0:0:
146,314,1016318,1,8,0:0:0:0:
90,126,1016485,1,0,0:0:0:0:
4,252,1016652,22,0,P|96:245|164:181,1,190,6|8,0:0|0:0,0:0:0:0:
106,35,1017152,2,0,P|87:78|89:125,1,95,2|0,0:0|0:0,0:0:0:0:
146,314,1017485,1,0,0:0:0:0:
246,226,1017652,1,0,0:0:0:0:
129,355,1017818,1,0,0:0:0:0:
90,126,1017985,37,2,0:0:0:0:
211,227,1018152,1,2,0:0:0:0:
148,21,1018318,1,0,0:0:0:0:
68,160,1018485,1,4,0:0:0:0:
243,129,1018652,2,0,P|282:138|334:179,1,95
369,357,1018985,2,0,P|330:348|278:307,1,95
164,155,1019318,5,2,0:0:0:0:
74,294,1019485,1,0,0:0:0:0:
155,115,1019652,1,8,0:0:0:0:
171,217,1019818,1,2,0:0:0:0:
273,239,1019985,1,0,0:0:0:0:
344,162,1020152,1,0,0:0:0:0:
288,31,1020318,1,0,0:0:0:0:
248,127,1020485,1,8,0:0:0:0:
302,216,1020652,5,2,0:0:0:0:
405,225,1020818,1,8,0:0:0:0:
399,47,1020985,1,2,0:0:0:0:
280,108,1021152,1,2,0:0:0:0:
273,239,1021318,1,0,0:0:0:0:
385,310,1021485,1,2,0:0:0:0:
477,166,1021652,2,0,P|436:141|389:135,1,95
273,239,1021985,6,0,B|212:247|156:208|156:208|186:260|188:272,1,190,6|2,0:0|0:0,0:0:0:0:
360,327,1022485,2,0,P|385:237|348:152,1,190,2|0,0:0|0:0,0:0:0:0:
165,116,1022985,2,0,P|118:126|81:154,1,95,8|0,0:0|0:0,0:0:0:0:
185,280,1023318,22,0,P|216:314|260:333,1,95,2|0,0:0|0:0,0:0:0:0:
315,170,1023652,2,0,P|326:124|318:77,1,95,8|2,0:0|0:0,0:0:0:0:
168,23,1023985,1,0,0:0:0:0:
68,79,1024152,1,0,0:0:0:0:
83,191,1024318,1,0,0:0:0:0:
194,216,1024485,1,0,0:0:0:0:
259,10,1024652,38,0,P|211:7|167:22,1,95,2|0,0:0|0:0,0:0:0:0:
283,253,1024985,2,0,P|330:255|374:240,1,95,8|2,0:0|0:0,0:0:0:0:
250,142,1025318,2,0,P|214:173|193:215,1,95
226,326,1025652,2,0,P|261:294|282:252,1,95
294,106,1025985,5,2,0:0:0:0:
379,64,1026152,1,0,0:0:0:0:
461,110,1026318,1,8,0:0:0:0:
461,205,1026485,1,2,0:0:0:0:
297,213,1026652,1,0,0:0:0:0:
205,189,1026818,1,2,0:0:0:0:
183,96,1026985,1,0,0:0:0:0:
243,22,1027152,1,2,0:0:0:0:
426,200,1027318,5,4,3:0:0:0:
426,200,1027485,2,0,L|413:274,1,76,4|0,3:0|0:0,0:0:0:0:
396,357,1027818,1,4,0:0:0:0:
148,80,1035820,6,0,P|252:88|380:80,1,213.750008153916,4|4,0:0|0:3,0:0:0:0:
304,168,1036480,2,0,P|268:204|176:248,1,142.500005435944,0|4,0:0|3:0,0:0:0:0:
336,252,1036974,2,0,P|396:272|472:320,1,142.500005435944
432,196,1037469,6,0,L|452:124,1,71.2500027179719,0|4,0:0|3:0,0:0:0:0:
380,88,1037798,2,0,L|368:12,1,71.2500027179719
312,128,1038128,1,4,3:0:0:0:
168,44,1038293,2,0,P|240:32|308:56,1,142.500005435944
240,108,1038787,2,0,P|224:144|224:192,1,71.2500027179719,4|0,3:0|0:0,0:0:0:0:
248,248,1039117,1,0,0:0:0:0:
148,188,1039282,1,0,0:0:0:0:
256,356,1039447,38,0,P|304:348|348:324,1,95,12|0,0:0|0:0,0:0:0:0:
478,275,1039776,2,0,P|430:271|388:252,1,95,4|0,0:0|0:0,0:0:0:0:
272,172,1040106,2,0,P|304:136|320:84,1,95,8|0,0:0|0:0,0:0:0:0:
180,196,1040436,2,0,P|196:244|224:280,1,95,2|2,0:0|0:0,0:0:0:0:
480,160,1040765,2,0,P|432:156|380:168,1,95,8|0,0:0|0:0,0:0:0:0:
28,320,1041095,2,0,P|36:276|60:228,1,95,2|0,0:0|0:0,0:0:0:0:
216,48,1041425,2,0,P|228:96|264:136,1,95,8|0,0:0|0:0,0:0:0:0:
476,248,1041754,53,2,0:0:0:0:
384,220,1041919,1,2,0:0:0:0:
284,248,1042084,1,8,0:0:0:0:
172,232,1042249,1,0,0:0:0:0:
92,136,1042414,2,0,P|80:88|84:24,1,95,2|0,0:0|0:0,0:0:0:0:
28,200,1042743,1,8,0:0:0:0:
172,104,1042908,2,0,P|220:96|272:100,1,95,0|2,0:0|0:0,0:0:0:0:
460,232,1043238,5,2,0:0:0:0:
412,128,1043403,1,8,0:0:0:0:
364,24,1043567,1,0,0:0:0:0:
352,208,1043732,2,0,P|336:256|308:296,1,95,2|0,0:0|0:0,0:0:0:0:
220,136,1044062,2,0,P|236:184|264:224,1,95,8|0,0:0|0:0,0:0:0:0:
224,296,1044392,2,0,P|172:292|128:296,1,95,2|2,0:0|0:0,0:0:0:0:
56,344,1044721,1,8,0:0:0:0:
164,212,1044886,1,0,0:0:0:0:
292,352,1045051,37,4,0:0:0:0:
468,40,1045381,1,4,0:0:0:0:
384,48,1045546,53,2,0:0:0:0:
472,140,1045710,1,8,0:0:0:0:
300,132,1045875,1,8,0:0:0:0:
300,132,1045958,1,8,0:0:0:0:
300,132,1046040,1,2,0:0:0:0:
368,296,1046205,1,2,0:0:0:0:
256,256,1046370,6,0,P|164:244|64:256,1,190,4|8,0:0|0:0,0:0:0:0:
67,255,1047029,37,2,0:0:0:0:
108,160,1047194,1,2,0:0:0:0:
152,64,1047359,1,8,0:0:0:0:
152,64,1047688,53,2,0:0:0:0:
400,164,1047853,2,0,L|424:264,1,95,2|8,0:0|0:0,0:0:0:0:
420,256,1048348,5,2,0:0:0:0:
304,136,1048513,2,0,L|336:32,1,95,2|8,0:0|0:0,0:0:0:0:
332,44,1049007,37,2,0:0:0:0:
236,196,1049172,2,0,L|132:216,1,95,2|8,0:0|0:0,0:0:0:0:
140,216,1049666,53,2,0:0:0:0:
316,340,1049831,2,0,L|412:352,1,95,2|8,0:0|0:0,0:0:0:0:
410,351,1050326,5,2,0:0:0:0:
392,124,1050491,2,0,L|444:32,2,95,2|8|0,0:0|0:0|0:0,0:0:0:0:
352,272,1050985,2,0,L|316:164,1,95,2|2,0:0|0:0,0:0:0:0:
272,32,1051315,1,8,0:0:0:0:
272,32,1051644,37,2,0:0:0:0:
256,192,1051809,1,2,0:0:0:0:
189,45,1051974,1,8,0:0:0:0:
349,61,1052304,53,2,0:0:0:0:
256,192,1052469,1,2,0:0:0:0:
109,258,1052633,1,8,0:0:0:0:
402,125,1052963,5,2,0:0:0:0:
256,192,1053128,1,2,0:0:0:0:
416,208,1053293,1,8,0:0:0:0:
272,31,1053622,37,2,0:0:0:0:
256,192,1053787,1,2,0:0:0:0:
386,285,1053952,1,8,0:0:0:0:
125,98,1054282,53,2,0:0:0:0:
256,192,1054447,1,2,0:0:0:0:
95,176,1054611,1,8,0:0:0:0:
162,322,1054941,5,2,0:0:0:0:
256,192,1055106,1,2,0:0:0:0:
240,352,1055271,1,8,0:0:0:0:
256,192,1055600,37,8,0:0:0:0:
322,338,1055765,1,2,0:0:0:0:
336,180,1055930,1,8,0:0:0:0:
384,272,1056095,1,2,0:0:0:0:
480,308,1056260,1,2,0:0:0:0:
292,260,1056425,2,0,P|240:264|192:280,1,95,8|2,0:0|0:0,0:0:0:0:
124,348,1056754,1,2,0:0:0:0:
28,200,1056919,54,0,P|92:152|200:104,1,190,6|8,0:0|0:0,0:0:0:0:
276,112,1057414,1,0,0:0:0:0:
332,48,1057578,1,2,0:0:0:0:
332,48,1057743,1,2,0:0:0:0:
264,196,1057908,2,0,P|264:244|280:296,1,95,8|0,0:0|0:0,0:0:0:0:
336,352,1058238,5,2,0:0:0:0:
192,296,1058403,1,2,0:0:0:0:
400,224,1058567,1,8,0:0:0:0:
192,296,1058732,2,0,L|100:328,1,95,2|0,0:0|0:0,0:0:0:0:
102,327,1059062,1,2,0:0:0:0:
168,172,1059227,2,0,L|260:140,1,95,8|0,0:0|0:0,0:0:0:0:
416,128,1059556,38,0,P|416:80|400:36,1,95,2|0,0:0|0:0,0:0:0:0:
356,192,1059886,2,0,P|380:232|420:260,1,95,8|0,0:0|0:0,0:0:0:0:
504,272,1060216,1,2,0:0:0:0:
332,112,1060381,2,0,P|288:92|232:80,1,95,2|8,0:0|0:0,0:0:0:0:
512,108,1060710,54,0,P|447:168|356:192,1,190,2|2,0:0|0:0,0:0:0:0:
188,220,1061205,2,0,P|240:224|292:244,1,95,8|0,0:0|0:0,0:0:0:0:
356,280,1061535,1,2,0:0:0:0:
248,348,1061699,1,2,0:0:0:0:
460,352,1061864,1,8,0:0:0:0:
436,272,1062029,6,0,P|432:228|436:176,1,95,2|0,0:0|0:0,0:0:0:0:
456,96,1062359,1,2,0:0:0:0:
296,32,1062524,2,0,P|296:80|284:144,1,95,8|0,0:0|0:0,0:0:0:0:
224,184,1062853,1,2,0:0:0:0:
66,112,1063018,2,0,L|160:128,1,95,2|8,0:0|0:0,0:0:0:0:
160,128,1063513,37,2,0:0:0:0:
96,332,1063677,2,0,L|132:228,1,95,2|8,0:0|0:0,0:0:0:0:
127,242,1064172,53,2,0:0:0:0:
256,320,1064337,1,2,0:0:0:0:
380,248,1064502,1,8,0:0:0:0:
356,176,1064831,5,2,0:0:0:0:
256,320,1064996,1,2,0:0:0:0:
156,176,1065161,1,8,0:0:0:0:
196,108,1065491,37,2,0:0:0:0:
256,320,1065655,1,2,0:0:0:0:
316,108,1065820,1,8,0:0:0:0:
256,56,1066150,53,2,0:0:0:0:
256,320,1066315,1,2,0:0:0:0:
316,260,1066480,2,0,P|360:248|416:244,1,95,8|2,0:0|0:0,0:0:0:0:
448,168,1066809,2,0,P|404:136|356:120,1,95,2|8,0:0|0:0,0:0:0:0:
136,112,1067139,1,8,0:0:0:0:
161,92,1067221,1,8,0:0:0:0:
189,77,1067303,1,2,0:0:0:0:
218,64,1067386,1,2,0:0:0:0:
248,56,1067469,6,0,P|248:108|260:168,1,95,4|0,0:0|0:0,0:0:0:0:
313,305,1067798,2,0,P|319:258|312:212,1,95,8|0,0:0|0:0,0:0:0:0:
208,220,1068128,1,2,0:0:0:0:
140,140,1068293,1,2,0:0:0:0:
252,152,1068458,2,0,P|304:144|352:124,1,95,8|0,0:0|0:0,0:0:0:0:
480,212,1068787,37,2,0:0:0:0:
440,200,1068869,1,0,0:0:0:0:
400,188,1068952,1,0,0:0:0:0:
360,52,1069117,2,0,P|312:44|260:48,1,95,8|0,0:0|0:0,0:0:0:0:
52,80,1069447,2,0,P|96:84|152:104,1,95,2|2,0:0|0:0,0:0:0:0:
228,160,1069776,2,0,B|319:255|337:335|197:362|154:254|236:212|323:173,1,380,8|8,0:0|0:0,0:0:0:0:
420,168,1070600,1,0,0:0:0:0:
380,240,1070765,54,0,P|380:288|360:344,2,95,2|2|8,0:0|0:0|0:0,0:0:0:0:
360,100,1071260,1,0,0:0:0:0:
260,136,1071425,5,2,0:0:0:0:
168,88,1071589,1,0,0:0:0:0:
76,136,1071754,2,0,P|64:184|72:248,1,95,8|0,0:0|0:0,0:0:0:0:
206,283,1072084,2,0,P|182:242|144:216,1,95,2|2,0:0|0:0,0:0:0:0:
28,308,1072414,2,0,P|76:308|124:284,1,95,8|0,0:0|0:0,0:0:0:0:
324,228,1072743,37,2,0:0:0:0:
276,204,1072826,1,0,0:0:0:0:
224,200,1072908,1,0,0:0:0:0:
340,148,1073073,1,8,0:0:0:0:
396,272,1073238,2,0,P|396:324|380:364,2,95,0|2|2,0:0|0:0|0:0,0:0:0:0:
408,192,1073732,2,0,P|436:152|476:124,1,95,8|0,0:0|0:0,0:0:0:0:
384,60,1074062,54,0,P|296:72|188:56,1,190,2|8,0:0|0:0,0:0:0:0:
24,164,1074556,2,0,P|112:144|228:148,1,190,0|2,0:0|0:0,0:0:0:0:
304,192,1075051,1,8,0:0:0:0:
352,284,1075216,1,0,0:0:0:0:
444,336,1075381,5,2,0:0:0:0:
48,264,1075710,1,8,0:0:0:0:
444,184,1076040,1,2,0:0:0:0:
48,96,1076370,1,8,0:0:0:0:
340,44,1076699,38,0,L|248:96,1,95,8|0,0:0|0:0,0:0:0:0:
356,128,1077029,2,0,L|316:220,1,95,8|0,0:0|0:0,0:0:0:0:
280,292,1077359,1,2,0:0:0:0:
240,168,1077524,1,8,0:0:0:0:
120,216,1077689,1,8,0:0:0:0:
104,256,1077771,1,8,0:0:0:0:
104,300,1077854,1,2,0:0:0:0:
196,256,1078018,54,0,P|160:164|88:96,1,190,4|8,0:0|0:0,0:0:0:0:
16,96,1078513,1,0,0:0:0:0:
152,40,1078677,2,0,L|256:24,1,95,2|2,0:0|0:0,0:0:0:0:
392,104,1079007,2,0,L|276:80,1,95,8|0,0:0|0:0,0:0:0:0:
232,132,1079337,5,2,0:0:0:0:
300,328,1079502,1,0,0:0:0:0:
364,184,1079666,2,0,P|408:168|464:164,1,95,8|2,0:0|0:0,0:0:0:0:
312,248,1079996,2,0,P|264:244|212:220,1,95,0|2,0:0|0:0,0:0:0:0:
160,336,1080326,2,0,P|128:296|112:232,1,95,8|0,0:0|0:0,0:0:0:0:
96,96,1080655,37,2,0:0:0:0:
112,128,1080738,1,0,0:0:0:0:
128,160,1080820,1,0,0:0:0:0:
208,136,1080985,2,0,P|224:88|256:48,1,95,8|0,0:0|0:0,0:0:0:0:
411,45,1081315,2,0,P|373:73|328:88,1,95,2|2,0:0|0:0,0:0:0:0:
288,160,1081644,1,8,0:0:0:0:
360,208,1081809,2,0,P|364:256|356:304,2,95,2|0|2,0:0|0:0|0:0,0:0:0:0:
444,224,1082304,2,0,P|460:268|468:344,1,95,8|0,0:0|0:0,0:0:0:0:
412,148,1082633,2,0,B|420:80|480:44|480:44|400:20,1,190,2|8,0:0|0:0,0:0:0:0:
348,72,1083128,1,2,0:0:0:0:
264,44,1083293,53,4,0:0:0:0:
184,76,1083458,2,0,P|180:124|184:172,1,95,0|8,0:0|0:0,0:0:0:0:
104,200,1083787,2,0,P|60:168|36:136,2,95,2|0|0,0:0|0:0|0:0,0:0:0:0:
252,224,1084282,2,0,P|268:272|272:320,1,95,2|8,0:0|0:0,0:0:0:0:
320,148,1084611,2,0,P|336:104|368:64,1,95,2|0,0:0|0:0,0:0:0:0:
408,140,1084941,2,0,P|400:188|404:236,1,95,0|2,0:0|0:0,0:0:0:0:
264,64,1085271,2,0,P|216:52|160:48,1,95,8|0,0:0|0:0,0:0:0:0:
32,140,1085600,2,0,P|80:136|128:116,1,95,2|0,0:0|0:0,0:0:0:0:
192,176,1085930,2,0,L|168:272,1,95,4|2,0:0|0:0,0:0:0:0:
100,320,1086260,1,0,0:0:0:0:
256,264,1086425,2,0,P|304:264|360:280,1,95,2|8,0:0|0:0,0:0:0:0:
487,309,1086754,2,0,P|449:281|428:240,1,95
404,156,1087084,1,2,0:0:0:0:
500,36,1087249,5,8,0:0:0:0:
492,76,1087331,1,8,0:0:0:0:
484,112,1087414,1,8,0:0:0:0:
408,52,1087578,1,0,0:0:0:0:
320,64,1087743,1,8,0:0:0:0:
312,104,1087825,1,8,0:0:0:0:
304,140,1087908,1,8,0:0:0:0:
220,192,1088073,1,8,0:0:0:0:
384,252,1088238,1,2,0:0:0:0:
264,344,1088403,1,2,0:0:0:0:
208,280,1088567,38,0,P|164:264|112:260,1,95,4|0,0:0|0:0,0:0:0:0:
48,148,1088897,2,0,P|88:120|136:108,1,95,8|0,0:0|0:0,0:0:0:0:
212,140,1089227,1,2,0:0:0:0:
292,40,1089392,1,2,0:0:0:0:
280,212,1089556,1,8,0:0:0:0:
292,40,1089721,1,0,0:0:0:0:
352,132,1089886,54,0,P|396:156|444:160,1,95,2|0,0:0|0:0,0:0:0:0:
396,264,1090216,2,0,P|352:288|304:292,1,95,8|0,0:0|0:0,0:0:0:0:
144,320,1090546,2,0,P|192:328|252:356,1,95,2|2,0:0|0:0,0:0:0:0:
156,232,1090875,1,8,0:0:0:0:
48,316,1091040,1,0,0:0:0:0:
84,192,1091205,6,0,L|112:96,1,95,4|0,0:0|0:0,0:0:0:0:
188,152,1091535,2,0,L|247:71,1,95,8|0,0:0|0:0,0:0:0:0:
308,144,1091864,2,0,L|391:88,1,95,8|0,0:0|0:3,0:3:0:0:
404,184,1092194,2,0,L|501:160,1,95,8|0,0:0|0:0,0:0:0:0:
448,312,1092524,37,8,0:0:0:0:
408,320,1092606,1,8,0:0:0:0:
364,320,1092688,1,8,0:0:0:0:
324,304,1092771,1,8,0:0:0:0:
296,272,1092853,1,8,0:0:0:0:
284,232,1092936,1,8,0:0:0:0:
260,196,1093018,1,8,0:0:0:0:
220,180,1093100,1,8,0:0:0:0:
176,172,1093183,1,8,0:0:0:0:
136,180,1093265,1,8,0:0:0:0:
104,208,1093348,1,8,0:0:0:0:
100,252,1093430,1,8,0:0:0:0:
124,288,1093513,1,8,0:0:0:0:
164,300,1093595,1,8,0:0:0:0:
204,288,1093677,1,8,0:0:0:0:
224,248,1093760,1,8,0:0:0:0:
228,200,1093842,54,0,P|228:152|212:92,1,95,4|0,0:0|0:0,0:0:0:0:
168,36,1094172,1,8,0:0:0:0:
304,108,1094337,1,0,0:0:0:0:
44,112,1094502,2,0,L|136:144,1,95,2|2,0:0|0:0,0:0:0:0:
133,143,1094831,1,8,0:0:0:0:
64,216,1094996,2,0,L|156:248,1,95,2|0,0:0|0:0,0:0:0:0:
236,272,1095325,1,2,0:0:0:0:
308,168,1095491,2,0,P|352:144|404:132,1,95,8|0,0:0|0:0,0:0:0:0:
480,148,1095820,1,2,0:0:0:0:
332,60,1095985,1,2,0:0:0:0:
400,216,1096150,1,8,0:0:0:0:
400,216,1096480,5,2,0:0:0:0:
276,180,1096645,2,0,L|244:76,1,95,0|8,0:0|0:0,0:0:0:0:
400,216,1096974,1,2,0:0:0:0:
184,200,1097139,2,0,L|160:292,1,95,0|2,0:0|0:0,0:0:0:0:
72,256,1097469,2,0,P|56:208|20:168,2,95,8|0|2,0:0|0:0|0:0,0:0:0:0:
236,352,1097963,2,0,P|288:352|336:336,1,95,2|8,0:0|0:0,0:0:0:0:
392,280,1098293,1,0,0:0:0:0:
352,200,1098458,38,8,L|368:144,3,47.5
292,56,1098787,2,2,L|304:112,3,47.5
268,172,1099117,54,0,L|232:280,1,95,4|0,0:0|0:0,0:0:0:0:
237,262,1099447,1,2,0:0:0:0:
180,120,1099611,2,0,L|148:24,1,95,8|0,0:0|0:0,0:0:0:0:
149,29,1099941,1,2,0:0:0:0:
32,144,1100106,2,0,P|76:168|128:176,1,95,8|0,0:0|0:0,0:0:0:0:
260,140,1100436,1,2,0:0:0:0:
356,244,1100600,2,0,P|348:296|328:344,2,95,2|0|0,0:0|0:0|0:0,0:0:0:0:
340,160,1101095,2,0,P|380:136|432:128,1,95,8|0,0:0|0:0,0:0:0:0:
272,276,1101425,2,0,P|232:300|184:308,1,95,8|0,0:0|0:0,0:0:0:0:
8,240,1101754,6,0,P|100:216|212:232,1,190,4|2,0:0|0:0,0:0:0:0:
228,148,1102249,2,0,L|184:64,1,95,8|0,0:0|0:0,0:0:0:0:
232,0,1102578,1,2,0:0:0:0:
104,32,1102743,2,0,P|104:84|124:128,2,95,8|0|0,0:0|0:0|0:0,0:0:0:0:
264,76,1103238,2,0,P|308:84|376:76,1,95,2|0,0:0|0:0,0:0:0:0:
424,24,1103567,1,0,0:0:0:0:
416,144,1103732,2,0,P|372:168|324:180,1,95,8|0,0:0|0:0,0:0:0:0:
128,192,1104062,2,8,P|168:216|224:228,1,95,8|0,0:0|0:0,0:0:0:0:
288,272,1104392,37,4,0:0:0:0:
264,308,1104474,1,0,0:0:0:0:
244,344,1104556,1,0,0:0:0:0:
172,296,1104721,1,2,0:0:0:0:
96,332,1104886,2,0,P|76:288|72:232,1,95,8|0,0:0|0:0,0:0:0:0:
388,320,1105216,2,0,L|484:348,2,95,0|8|0,0:0|0:0|0:0,0:0:0:0:
376,236,1105710,1,2,0:0:0:0:
440,176,1105875,53,2,0:0:0:0:
380,116,1106040,2,0,P|372:68|384:16,1,95,0|8,0:0|0:0,0:0:0:0:
300,148,1106370,2,0,P|284:192|280:244,1,95,0|2,0:0|0:0,0:0:0:0:
308,320,1106699,1,4,0:0:0:0:
196,256,1106864,1,0,0:0:0:0:
124,332,1107029,6,0,L|24:356,1,95,4|0,0:0|0:0,0:0:0:0:
31,354,1107359,1,2,0:0:0:0:
120,152,1107524,2,0,L|216:176,1,95,8|0,0:0|0:0,0:0:0:0:
292,144,1107853,1,0,0:0:0:0:
360,196,1108018,2,0,P|368:240|360:292,2,95,4|0|2,0:0|0:0|0:0,0:0:0:0:
372,112,1108513,2,0,P|408:80|460:60,1,95,2|0,0:0|0:0,0:0:0:0:
450,61,1108842,1,8,0:0:0:0:
312,64,1109007,37,8,0:0:0:0:
289,68,1109089,1,8,0:0:0:0:
266,69,1109171,1,8,0:0:0:0:
244,66,1109254,1,8,0:0:0:0:
222,62,1109336,1,8,0:0:0:0:
199,58,1109419,1,8,0:0:0:0:
176,58,1109501,1,8,0:0:0:0:
154,61,1109583,1,8,0:0:0:0:
132,66,1109666,54,0,P|88:84|44:120,1,95,4|0,0:0|0:0,0:0:0:0:
50,112,1109996,1,2,0:0:0:0:
184,144,1110161,2,0,P|232:156|284:152,1,95,8|0,0:0|0:0,0:0:0:0:
344,100,1110491,1,0,0:0:0:0:
316,224,1110655,2,0,L|288:316,2,95,8|0|2,0:0|0:0|0:0,0:0:0:0:
424,268,1111150,2,0,L|400:164,1,95,0|4,0:0|0:0,0:0:0:0:
402,175,1111480,1,0,0:0:0:0:
452,84,1111644,1,8,0:0:0:0:
300,144,1111809,1,8,0:0:0:0:
196,20,1111974,2,2,P|212:64|216:120,1,95
152,356,1112304,6,0,P|128:316|120:256,1,95,4|0,0:0|0:0,0:0:0:0:
148,192,1112633,1,2,0:0:0:0:
284,288,1112798,1,2,0:0:0:0:
352,132,1112963,2,0,L|400:96,4,47.5,8|8|8|0|0,0:0|0:0|0:0|0:0|0:0,0:0:0:0:
256,192,1113458,1,2,0:0:0:0:
