osu file format v14

[General]
AudioFilename: audio3.mp3
AudioLeadIn: 0
PreviewTime: 39370
Countdown: 1
SampleSet: Normal
StackLeniency: 0.7
Mode: 1
LetterboxInBreaks: 0
WidescreenStoryboard: 0

[Editor]
DistanceSpacing: 1
BeatDivisor: 4
GridSize: 32
TimelineZoom: 1

[Metadata]
Title:EASTLAND FREAKERZ
TitleUnicode:EASTLAND FREAKERZ
Artist:Various Artists
ArtistUnicode:Various Artists
Creator:applerss
Version:saqwz - STAND THE LIMIT -saqwz limted ver-
Source:
Tags:
BeatmapID:1279946
BeatmapSetID:605120

[Difficulty]
HPDrainRate:6
CircleSize:5
OverallDifficulty:6
ApproachRate:6
SliderMultiplier:1.4
SliderTickRate:1

[Events]
//Background and Video events
//Break Periods
//Storyboard Layer 0 (Background)
//Storyboard Layer 1 (Fail)
//Storyboard Layer 2 (Pass)
//Storyboard Layer 3 (Foreground)
//Storyboard Sound Samples

[TimingPoints]
970,300,4,1,0,60,1,0
970,-100,4,1,0,60,0,0
39370,-151.515151515152,4,1,0,60,0,0
48670,-123.456790123457,4,1,0,60,0,0
48820,-104.166666666667,4,1,0,60,0,0
48970,-90.9090909090909,4,1,0,60,0,1
87420,-100,4,1,0,40,0,0
109570,-33.3333333333333,4,1,0,60,0,0
109870,-100,4,1,0,60,0,0
119170,-33.3333333333333,4,1,0,60,0,0
119470,-100,4,1,0,60,0,0
125770,-100,4,1,0,60,0,1
144970,-100,4,1,0,60,0,0
147970,-33.3333333333333,4,1,0,60,0,0
148270,-100,4,1,0,60,0,0
157570,-33.3333333333333,4,1,0,60,0,0
157870,-100,4,1,0,60,0,0
164170,-100,4,1,0,5,0,0

[HitObjects]
256,192,970,5,0,0:0:0:0:
256,192,1120,1,8,0:0:0:0:
256,192,1270,1,0,0:0:0:0:
256,192,1420,1,0,0:0:0:0:
256,192,1570,1,0,0:0:0:0:
256,192,1870,1,8,0:0:0:0:
256,192,2020,1,0,0:0:0:0:
256,192,2170,1,0,0:0:0:0:
256,192,2320,1,8,0:0:0:0:
256,192,2470,1,0,0:0:0:0:
256,192,2620,1,0,0:0:0:0:
256,192,2770,1,0,0:0:0:0:
256,192,3070,1,8,0:0:0:0:
256,192,3220,1,0,0:0:0:0:
256,192,3370,1,0,0:0:0:0:
256,192,3520,1,8,0:0:0:0:
256,192,3670,1,0,0:0:0:0:
256,192,3820,1,8,0:0:0:0:
256,192,3970,1,0,0:0:0:0:
256,192,4270,1,8,0:0:0:0:
256,192,4420,1,0,0:0:0:0:
256,192,4570,1,0,0:0:0:0:
256,192,4720,1,8,0:0:0:0:
256,192,4870,1,0,0:0:0:0:
256,192,5020,1,0,0:0:0:0:
256,192,5170,1,0,0:0:0:0:
256,192,5470,1,8,0:0:0:0:
256,192,5620,1,0,0:0:0:0:
256,192,5770,1,0,0:0:0:0:
256,192,5920,1,8,0:0:0:0:
256,192,6070,1,0,0:0:0:0:
256,192,6220,1,8,0:0:0:0:
256,192,6370,1,0,0:0:0:0:
256,192,6670,1,8,0:0:0:0:
256,192,6820,1,0,0:0:0:0:
256,192,6970,1,0,0:0:0:0:
256,192,7120,1,8,0:0:0:0:
256,192,7270,1,8,0:0:0:0:
256,192,7420,1,0,0:0:0:0:
256,192,7570,1,8,0:0:0:0:
256,192,7870,1,8,0:0:0:0:
256,192,8020,1,0,0:0:0:0:
256,192,8170,1,0,0:0:0:0:
256,192,8320,1,8,0:0:0:0:
256,192,8470,1,0,0:0:0:0:
256,192,8620,1,8,0:0:0:0:
256,192,8770,1,0,0:0:0:0:
256,192,8920,1,0,0:0:0:0:
256,192,9070,1,8,0:0:0:0:
256,192,9220,1,0,0:0:0:0:
256,192,9370,1,0,0:0:0:0:
256,192,9520,1,8,0:0:0:0:
256,192,9670,1,0,0:0:0:0:
256,192,9820,1,0,0:0:0:0:
256,192,9970,1,0,0:0:0:0:
256,192,10270,1,8,0:0:0:0:
256,192,10570,1,0,0:0:0:0:
256,192,10720,1,8,0:0:0:0:
256,192,10795,1,8,0:0:0:0:
256,192,10870,1,0,0:0:0:0:
256,192,11020,1,0,0:0:0:0:
256,192,11095,1,0,0:0:0:0:
256,192,11170,1,0,0:0:0:0:
256,192,11320,1,0,0:0:0:0:
256,192,11470,1,8,0:0:0:0:
256,192,11620,1,0,0:0:0:0:
256,192,11770,1,0,0:0:0:0:
256,192,11920,1,8,0:0:0:0:
256,192,12070,1,0,0:0:0:0:
256,192,12145,1,0,0:0:0:0:
256,192,12220,1,0,0:0:0:0:
256,192,12370,1,0,0:0:0:0:
256,192,12520,1,0,0:0:0:0:
256,192,12670,1,8,0:0:0:0:
256,192,12820,1,0,0:0:0:0:
256,192,12970,1,0,0:0:0:0:
256,192,13120,1,8,0:0:0:0:
256,192,13270,1,8,0:0:0:0:
256,192,13420,1,8,0:0:0:0:
256,192,13495,1,0,0:0:0:0:
256,192,13570,1,0,0:0:0:0:
256,192,13720,1,0,0:0:0:0:
256,192,13870,1,8,0:0:0:0:
256,192,14020,1,0,0:0:0:0:
256,192,14170,1,0,0:0:0:0:
256,192,14320,1,8,0:0:0:0:
256,192,14470,1,0,0:0:0:0:
256,192,14545,1,8,0:0:0:0:
256,192,14620,1,0,0:0:0:0:
256,192,14695,1,0,0:0:0:0:
256,192,14770,1,8,0:0:0:0:
256,192,14920,1,0,0:0:0:0:
256,192,15070,1,8,0:0:0:0:
256,192,15220,1,0,0:0:0:0:
256,192,15370,1,0,0:0:0:0:
256,192,15520,1,8,0:0:0:0:
256,192,15670,1,8,0:0:0:0:
256,192,15820,1,0,0:0:0:0:
256,192,15895,1,8,0:0:0:0:
256,192,15970,1,0,0:0:0:0:
256,192,16120,1,8,0:0:0:0:
256,192,16270,1,8,0:0:0:0:
256,192,16420,1,0,0:0:0:0:
256,192,16570,1,0,0:0:0:0:
256,192,16720,1,8,0:0:0:0:
256,192,16870,1,0,0:0:0:0:
256,192,17020,1,0,0:0:0:0:
256,192,17095,1,0,0:0:0:0:
256,192,17170,1,8,0:0:0:0:
256,192,17320,1,8,0:0:0:0:
256,192,17470,1,8,0:0:0:0:
256,192,17545,1,8,0:0:0:0:
256,192,17620,1,0,0:0:0:0:
256,192,17695,1,0,0:0:0:0:
256,192,17770,1,0,0:0:0:0:
256,192,17920,1,8,0:0:0:0:
256,192,18070,1,0,0:0:0:0:
256,192,18220,1,8,0:0:0:0:
256,192,18295,1,8,0:0:0:0:
256,192,18370,1,0,0:0:0:0:
256,192,18520,1,0,0:0:0:0:
256,192,18670,1,8,0:0:0:0:
256,192,18820,1,0,0:0:0:0:
256,192,18970,1,0,0:0:0:0:
320,288,19120,1,8,0:0:0:0:
320,288,19270,1,0,0:0:0:0:
320,288,19420,1,0,0:0:0:0:
320,288,19570,1,8,0:0:0:0:
320,288,19720,1,0,0:0:0:0:
320,288,19870,1,8,0:0:0:0:
320,288,20020,1,8,0:0:0:0:
320,288,20170,1,8,0:0:0:0:
320,288,20320,1,0,0:0:0:0:
320,288,20395,1,0,0:0:0:0:
320,288,20470,1,8,0:0:0:0:
320,288,20545,1,0,0:0:0:0:
320,288,20620,1,8,0:0:0:0:
320,288,20770,1,8,0:0:0:0:
320,288,20920,1,8,0:0:0:0:
320,288,21070,1,0,0:0:0:0:
320,288,21220,1,8,0:0:0:0:
320,288,21520,1,0,0:0:0:0:
320,288,21670,1,8,0:0:0:0:
320,288,21820,1,0,0:0:0:0:
320,288,21970,1,8,0:0:0:0:
320,288,22120,1,8,0:0:0:0:
320,288,22195,1,8,0:0:0:0:
320,288,22270,1,0,0:0:0:0:
320,288,22345,1,0,0:0:0:0:
320,288,22420,1,0,0:0:0:0:
320,288,22495,1,0,0:0:0:0:
320,288,22570,1,8,0:0:0:0:
320,288,22720,1,8,0:0:0:0:
320,288,22870,1,0,0:0:0:0:
320,288,23020,1,8,0:0:0:0:
320,288,23170,1,0,0:0:0:0:
320,288,23320,1,0,0:0:0:0:
320,288,23395,1,0,0:0:0:0:
320,288,23470,1,8,0:0:0:0:
320,288,23620,1,8,0:0:0:0:
320,288,23920,1,0,0:0:0:0:
320,288,24070,1,8,0:0:0:0:
320,288,24220,1,0,0:0:0:0:
320,288,24370,1,0,0:0:0:0:
320,288,24520,1,0,0:0:0:0:
320,288,24595,1,0,0:0:0:0:
320,288,24670,1,8,0:0:0:0:
320,288,24745,1,0,0:0:0:0:
320,288,24820,1,8,0:0:0:0:
320,288,24895,1,8,0:0:0:0:
320,288,24970,1,0,0:0:0:0:
320,288,25120,1,0,0:0:0:0:
320,288,25195,1,8,0:0:0:0:
320,288,25270,1,8,0:0:0:0:
320,288,25420,1,0,0:0:0:0:
320,288,25570,1,8,0:0:0:0:
320,288,25720,1,8,0:0:0:0:
320,288,25795,1,8,0:0:0:0:
320,288,25870,1,0,0:0:0:0:
320,288,26020,1,8,0:0:0:0:
320,288,26320,1,0,0:0:0:0:
320,288,26470,1,8,0:0:0:0:
320,288,26620,1,0,0:0:0:0:
320,288,26770,1,8,0:0:0:0:
320,288,26845,1,0,0:0:0:0:
320,288,26920,1,0,0:0:0:0:
320,288,26995,1,0,0:0:0:0:
320,288,27070,1,8,0:0:0:0:
320,288,27145,1,0,0:0:0:0:
320,288,27220,1,8,0:0:0:0:
320,288,27295,1,8,0:0:0:0:
320,288,27370,1,0,0:0:0:0:
320,288,27520,1,0,0:0:0:0:
320,288,27670,1,8,0:0:0:0:
320,288,27820,1,0,0:0:0:0:
320,288,27970,1,8,0:0:0:0:
320,288,28120,1,8,0:0:0:0:
320,288,28195,1,8,0:0:0:0:
320,288,28270,1,0,0:0:0:0:
320,288,28420,1,8,0:0:0:0:
320,288,28720,1,0,0:0:0:0:
320,288,28870,1,8,0:0:0:0:
320,288,29020,1,0,0:0:0:0:
320,288,29170,1,8,0:0:0:0:
320,288,29245,1,0,0:0:0:0:
320,288,29320,1,0,0:0:0:0:
320,288,29395,1,0,0:0:0:0:
320,288,29470,1,8,0:0:0:0:
320,288,29545,1,0,0:0:0:0:
320,288,29620,1,8,0:0:0:0:
320,288,29695,1,8,0:0:0:0:
320,288,29770,1,0,0:0:0:0:
320,288,29920,1,0,0:0:0:0:
320,288,30070,1,8,0:0:0:0:
320,288,30220,1,0,0:0:0:0:
320,288,30370,1,8,0:0:0:0:
320,288,30520,1,8,0:0:0:0:
320,288,30595,1,8,0:0:0:0:
320,288,30670,1,0,0:0:0:0:
320,288,30820,1,8,0:0:0:0:
320,288,31120,1,0,0:0:0:0:
320,288,31270,1,8,0:0:0:0:
320,288,31420,1,0,0:0:0:0:
320,288,31570,1,0,0:0:0:0:
320,288,31645,1,0,0:0:0:0:
320,288,31720,1,0,0:0:0:0:
320,288,31795,1,0,0:0:0:0:
320,288,31870,1,8,0:0:0:0:
320,288,32020,1,0,0:0:0:0:
320,288,32170,1,8,0:0:0:0:
320,288,32320,1,8,0:0:0:0:
320,288,32470,1,0,0:0:0:0:
320,288,32620,1,8,0:0:0:0:
320,288,32770,1,0,0:0:0:0:
320,288,32920,1,0,0:0:0:0:
320,288,32995,1,0,0:0:0:0:
320,288,33070,1,8,0:0:0:0:
320,288,33220,1,0,0:0:0:0:
320,288,33370,1,0,0:0:0:0:
320,288,33520,1,0,0:0:0:0:
320,288,33670,1,8,0:0:0:0:
320,288,33820,1,0,0:0:0:0:
320,288,33970,1,8,0:0:0:0:
320,288,34045,1,0,0:0:0:0:
320,288,34120,1,0,0:0:0:0:
320,288,34195,1,0,0:0:0:0:
320,288,34270,1,8,0:0:0:0:
320,288,34345,1,0,0:0:0:0:
320,288,34420,1,0,0:0:0:0:
320,288,34495,1,0,0:0:0:0:
320,288,34570,1,8,0:0:0:0:
320,288,34720,1,8,0:0:0:0:
320,288,34870,1,0,0:0:0:0:
320,288,35020,1,8,0:0:0:0:
320,288,35170,1,0,0:0:0:0:
320,288,35245,1,8,0:0:0:0:
320,288,35320,1,8,0:0:0:0:
320,288,35395,1,0,0:0:0:0:
320,288,35470,1,8,0:0:0:0:
320,288,35620,1,0,0:0:0:0:
320,288,35770,1,8,0:0:0:0:
320,288,35920,1,0,0:0:0:0:
320,288,36070,1,8,0:0:0:0:
320,288,36220,1,0,0:0:0:0:
320,288,36370,1,0,0:0:0:0:
320,288,36445,1,0,0:0:0:0:
320,288,36520,1,0,0:0:0:0:
320,288,36595,1,0,0:0:0:0:
320,288,36670,1,8,0:0:0:0:
320,288,36745,1,8,0:0:0:0:
320,288,36820,1,0,0:0:0:0:
320,288,36895,1,0,0:0:0:0:
320,288,36970,1,8,0:0:0:0:
320,288,37120,1,0,0:0:0:0:
320,288,37195,1,8,0:0:0:0:
320,288,37270,1,0,0:0:0:0:
320,288,37420,1,8,0:0:0:0:
320,288,37570,1,8,0:0:0:0:
320,288,37645,1,8,0:0:0:0:
320,288,37720,1,8,0:0:0:0:
320,288,37870,1,0,0:0:0:0:
320,288,37945,1,8,0:0:0:0:
320,288,38020,1,0,0:0:0:0:
320,288,38170,1,0,0:0:0:0:
320,288,38320,1,0,0:0:0:0:
320,288,38395,1,0,0:0:0:0:
320,288,38470,1,8,0:0:0:0:
320,288,38545,1,0,0:0:0:0:
320,288,38620,1,0,0:0:0:0:
320,288,38770,1,0,0:0:0:0:
320,288,38920,1,8,0:0:0:0:
320,288,38995,1,8,0:0:0:0:
320,288,39070,1,0,0:0:0:0:
320,288,39145,1,0,0:0:0:0:
320,288,39220,1,8,0:0:0:0:
320,288,39370,1,8,0:0:0:0:
320,288,39520,1,0,0:0:0:0:
320,288,39670,1,8,0:0:0:0:
320,288,39820,1,0,0:0:0:0:
320,288,39970,1,8,0:0:0:0:
320,288,40120,1,0,0:0:0:0:
320,288,40270,1,8,0:0:0:0:
320,288,40420,1,8,0:0:0:0:
320,288,40720,1,0,0:0:0:0:
320,288,40870,1,8,0:0:0:0:
320,288,41020,1,0,0:0:0:0:
320,288,41170,1,8,0:0:0:0:
320,288,41320,1,0,0:0:0:0:
320,288,41470,1,8,0:0:0:0:
320,288,41620,1,8,0:0:0:0:
320,288,41770,1,0,0:0:0:0:
320,288,41920,1,8,0:0:0:0:
320,288,42070,1,0,0:0:0:0:
320,288,42220,1,0,0:0:0:0:
320,288,42370,1,8,0:0:0:0:
320,288,42520,1,0,0:0:0:0:
320,288,42670,1,8,0:0:0:0:
320,288,42820,1,8,0:0:0:0:
320,288,43120,1,0,0:0:0:0:
320,288,43270,1,8,0:0:0:0:
320,288,43420,1,0,0:0:0:0:
320,288,43570,1,8,0:0:0:0:
320,288,43720,1,0,0:0:0:0:
320,288,43795,1,8,0:0:0:0:
320,288,43870,1,8,0:0:0:0:
320,288,44020,1,8,0:0:0:0:
320,288,44170,1,0,0:0:0:0:
320,288,44320,1,8,0:0:0:0:
320,288,44470,1,0,0:0:0:0:
320,288,44620,1,0,0:0:0:0:
320,288,44770,1,8,0:0:0:0:
320,288,44920,1,0,0:0:0:0:
320,288,45070,1,8,0:0:0:0:
320,288,45145,1,8,0:0:0:0:
288,288,45220,1,8,0:0:0:0:
320,288,45520,1,8,0:0:0:0:
320,288,45670,1,0,0:0:0:0:
320,288,45820,1,0,0:0:0:0:
320,288,45970,1,8,0:0:0:0:
320,288,46120,1,0,0:0:0:0:
320,288,46270,1,0,0:0:0:0:
320,288,46420,1,8,0:0:0:0:
320,288,46570,1,0,0:0:0:0:
320,288,46720,1,8,0:0:0:0:
320,288,46870,1,0,0:0:0:0:
320,288,47020,1,0,0:0:0:0:
320,288,47170,1,8,0:0:0:0:
320,288,47320,1,0,0:0:0:0:
320,288,47470,1,8,0:0:0:0:
320,288,47620,1,8,0:0:0:0:
320,288,47920,1,8,0:0:0:0:
320,288,48070,1,0,0:0:0:0:
320,288,48220,1,0,0:0:0:0:
320,288,48670,1,0,0:0:0:0:
320,288,48820,1,8,0:0:0:0:
320,288,48970,1,12,0:0:0:0:
96,192,49120,1,8,0:0:0:0:
96,192,49195,1,8,0:0:0:0:
96,192,49270,1,0,0:0:0:0:
96,192,49420,1,8,0:0:0:0:
96,192,49570,1,0,0:0:0:0:
96,192,49645,1,0,0:0:0:0:
96,192,49720,1,0,0:0:0:0:
96,192,49795,1,0,0:0:0:0:
96,192,49870,1,8,0:0:0:0:
96,192,50020,1,0,0:0:0:0:
96,192,50170,1,8,0:0:0:0:
96,192,50320,1,8,0:0:0:0:
96,192,50395,1,8,0:0:0:0:
96,192,50470,1,0,0:0:0:0:
96,192,50620,1,8,0:0:0:0:
96,192,50770,1,0,0:0:0:0:
96,192,50845,1,0,0:0:0:0:
96,192,50920,1,8,0:0:0:0:
96,192,50995,1,8,0:0:0:0:
96,192,51070,1,0,0:0:0:0:
96,192,51220,1,8,0:0:0:0:
96,192,51270,1,8,0:0:0:0:
96,208,51320,1,8,0:0:0:0:
96,192,51370,1,0,0:0:0:0:
96,192,51520,1,8,0:0:0:0:
96,192,51595,1,0,0:0:0:0:
112,208,51670,1,0,0:0:0:0:
96,192,51820,1,8,0:0:0:0:
96,192,51970,1,0,0:0:0:0:
96,192,52045,1,8,0:0:0:0:
96,192,52120,1,0,0:0:0:0:
96,192,52270,1,8,0:0:0:0:
96,192,52420,1,0,0:0:0:0:
96,192,52570,1,8,0:0:0:0:
96,192,52720,1,8,0:0:0:0:
96,192,52795,1,8,0:0:0:0:
96,192,52870,1,0,0:0:0:0:
96,192,53020,1,8,0:0:0:0:
96,192,53170,1,0,0:0:0:0:
96,192,53245,1,8,0:0:0:0:
96,192,53320,1,8,0:0:0:0:
96,192,53395,1,8,0:0:0:0:
96,192,53470,1,0,0:0:0:0:
96,192,53545,1,8,0:0:0:0:
96,192,53620,1,8,0:0:0:0:
96,192,53695,1,0,0:0:0:0:
96,192,53770,1,8,0:0:0:0:
96,192,53920,1,0,0:0:0:0:
96,192,54070,1,8,0:0:0:0:
96,192,54220,1,0,0:0:0:0:
96,192,54370,1,8,0:0:0:0:
96,192,54520,1,8,0:0:0:0:
96,192,54595,1,8,0:0:0:0:
96,192,54670,1,0,0:0:0:0:
96,192,54820,1,8,0:0:0:0:
96,192,54970,1,0,0:0:0:0:
96,192,55045,1,0,0:0:0:0:
96,192,55120,1,0,0:0:0:0:
96,192,55195,1,0,0:0:0:0:
96,192,55270,1,8,0:0:0:0:
96,192,55420,1,0,0:0:0:0:
96,192,55570,1,8,0:0:0:0:
96,192,55720,1,8,0:0:0:0:
96,192,55795,1,8,0:0:0:0:
96,192,55870,1,0,0:0:0:0:
96,192,55945,1,0,0:0:0:0:
96,192,56020,1,8,0:0:0:0:
96,192,56095,1,0,0:0:0:0:
96,192,56170,1,0,0:0:0:0:
96,192,56320,1,0,0:0:0:0:
96,192,56470,1,8,0:0:0:0:
96,192,56620,1,0,0:0:0:0:
96,192,56770,1,8,0:0:0:0:
96,192,56920,1,8,0:0:0:0:
96,192,56995,1,8,0:0:0:0:
96,192,57070,1,0,0:0:0:0:
96,192,57220,1,8,0:0:0:0:
96,192,57370,1,0,0:0:0:0:
96,192,57445,1,0,0:0:0:0:
96,192,57520,1,0,0:0:0:0:
96,192,57670,1,0,0:0:0:0:
96,192,57820,1,8,0:0:0:0:
96,192,57970,1,8,0:0:0:0:
96,192,58120,1,8,0:0:0:0:
96,224,58195,1,8,0:0:0:0:
96,224,58270,1,0,0:0:0:0:
96,224,58345,1,8,0:0:0:0:
96,224,58420,1,8,0:0:0:0:
96,192,58495,1,8,0:0:0:0:
96,192,58570,1,8,0:0:0:0:
96,192,58720,1,8,0:0:0:0:
96,192,58795,1,8,0:0:0:0:
96,192,58870,1,0,0:0:0:0:
96,192,59020,1,0,0:0:0:0:
96,192,59170,1,8,0:0:0:0:
96,192,59245,1,0,0:0:0:0:
96,192,59320,1,0,0:0:0:0:
96,192,59395,1,0,0:0:0:0:
96,192,59470,1,8,0:0:0:0:
96,192,59620,1,0,0:0:0:0:
96,192,59770,1,8,0:0:0:0:
96,192,59920,1,8,0:0:0:0:
96,192,59995,1,8,0:0:0:0:
96,192,60070,1,0,0:0:0:0:
96,192,60220,1,8,0:0:0:0:
96,192,60370,1,0,0:0:0:0:
96,192,60445,1,0,0:0:0:0:
96,192,60520,1,8,0:0:0:0:
96,192,60595,1,0,0:0:0:0:
96,192,60670,1,8,0:0:0:0:
96,192,60745,1,0,0:0:0:0:
96,192,60820,1,8,0:0:0:0:
96,192,60895,1,8,0:0:0:0:
96,192,60970,1,0,0:0:0:0:
96,192,61120,1,0,0:0:0:0:
96,192,61270,1,8,0:0:0:0:
96,192,61420,1,0,0:0:0:0:
96,192,61570,1,8,0:0:0:0:
96,192,61720,1,8,0:0:0:0:
96,192,61770,1,0,0:0:0:0:
96,192,61820,1,0,0:0:0:0:
96,192,61870,1,8,0:0:0:0:
96,192,62020,1,8,0:0:0:0:
96,192,62170,1,0,0:0:0:0:
96,192,62245,1,0,0:0:0:0:
96,192,62320,1,0,0:0:0:0:
96,192,62395,1,0,0:0:0:0:
96,192,62470,1,8,0:0:0:0:
96,192,62620,1,8,0:0:0:0:
96,192,62695,1,8,0:0:0:0:
96,192,62770,1,0,0:0:0:0:
96,192,62845,1,0,0:0:0:0:
96,192,62920,1,0,0:0:0:0:
96,192,62995,1,0,0:0:0:0:
96,192,63070,1,8,0:0:0:0:
96,192,63145,1,0,0:0:0:0:
96,192,63220,1,8,0:0:0:0:
96,192,63295,1,8,0:0:0:0:
96,192,63370,1,0,0:0:0:0:
96,192,63520,1,0,0:0:0:0:
96,192,63670,1,8,0:0:0:0:
96,192,63820,1,0,0:0:0:0:
96,192,63970,1,8,0:0:0:0:
96,192,64045,1,8,0:0:0:0:
96,192,64120,1,0,0:0:0:0:
96,192,64195,1,0,0:0:0:0:
96,192,64270,1,8,0:0:0:0:
96,192,64420,1,0,0:0:0:0:
96,192,64570,1,8,0:0:0:0:
96,192,64645,1,8,0:0:0:0:
96,192,64720,1,8,0:0:0:0:
96,192,64795,1,0,0:0:0:0:
96,192,64870,1,0,0:0:0:0:
96,192,64945,1,0,0:0:0:0:
96,192,65020,1,8,0:0:0:0:
96,192,65095,1,0,0:0:0:0:
96,192,65170,1,8,0:0:0:0:
96,192,65320,1,0,0:0:0:0:
96,192,65395,1,8,0:0:0:0:
96,192,65545,1,0,0:0:0:0:
96,192,65620,1,8,0:0:0:0:
96,192,65695,1,0,0:0:0:0:
96,192,65770,1,8,0:0:0:0:
112,192,65920,1,8,0:0:0:0:
96,192,65995,1,8,0:0:0:0:
96,192,66070,1,0,0:0:0:0:
96,192,66220,1,8,0:0:0:0:
96,192,66370,1,0,0:0:0:0:
96,192,66445,1,0,0:0:0:0:
96,192,66520,1,8,0:0:0:0:
96,192,66595,1,0,0:0:0:0:
96,192,66670,1,8,0:0:0:0:
96,192,66820,1,8,0:0:0:0:
96,192,66970,1,8,0:0:0:0:
96,192,67120,1,8,0:0:0:0:
96,192,67195,1,8,0:0:0:0:
96,192,67270,1,0,0:0:0:0:
96,192,67420,1,8,0:0:0:0:
96,192,67570,1,0,0:0:0:0:
96,192,67645,1,0,0:0:0:0:
96,192,67720,1,0,0:0:0:0:
96,192,67795,1,8,0:0:0:0:
96,192,67870,1,0,0:0:0:0:
96,192,67945,1,8,0:0:0:0:
96,192,68020,1,0,0:0:0:0:
96,192,68095,1,8,0:0:0:0:
96,192,68170,1,0,0:0:0:0:
96,192,68320,1,8,0:0:0:0:
96,192,68395,1,8,0:0:0:0:
96,192,68470,1,8,0:0:0:0:
96,192,68545,1,0,0:0:0:0:
96,192,68620,1,0,0:0:0:0:
96,192,68770,1,8,0:0:0:0:
96,192,68845,1,0,0:0:0:0:
96,176,68920,1,8,0:0:0:0:
96,192,69070,1,8,0:0:0:0:
96,192,69220,1,0,0:0:0:0:
96,192,69370,1,8,0:0:0:0:
96,192,69520,1,8,0:0:0:0:
96,192,69595,1,8,0:0:0:0:
96,192,69670,1,0,0:0:0:0:
96,192,69820,1,8,0:0:0:0:
96,192,69970,1,0,0:0:0:0:
96,192,70045,1,0,0:0:0:0:
96,192,70120,1,0,0:0:0:0:
96,192,70195,1,8,0:0:0:0:
96,192,70270,1,0,0:0:0:0:
96,192,70345,1,8,0:0:0:0:
96,192,70420,1,0,0:0:0:0:
96,176,70495,1,8,0:0:0:0:
104,176,70570,1,8,0:0:0:0:
128,160,70720,1,8,0:0:0:0:
112,192,70770,1,0,0:0:0:0:
112,192,70820,1,0,0:0:0:0:
112,192,70870,1,0,0:0:0:0:
104,176,71020,1,0,0:0:0:0:
104,176,71170,1,8,0:0:0:0:
104,176,71320,1,8,0:0:0:0:
104,176,71395,1,8,0:0:0:0:
104,176,71470,1,0,0:0:0:0:
104,176,71620,1,8,0:0:0:0:
104,176,71770,1,0,0:0:0:0:
104,176,71920,1,0,0:0:0:0:
104,176,71995,1,0,0:0:0:0:
104,176,72070,1,8,0:0:0:0:
104,176,72220,1,0,0:0:0:0:
104,176,72370,1,8,0:0:0:0:
104,176,72445,1,8,0:0:0:0:
104,176,72520,1,0,0:0:0:0:
104,176,72595,1,0,0:0:0:0:
104,176,72670,1,8,0:0:0:0:
104,176,72745,1,0,0:0:0:0:
104,176,72820,1,0,0:0:0:0:
104,176,72895,1,0,0:0:0:0:
104,176,72970,1,8,0:0:0:0:
104,176,73120,1,8,0:0:0:0:
104,176,73270,1,0,0:0:0:0:
104,176,73420,1,8,0:0:0:0:
104,176,73570,1,0,0:0:0:0:
104,176,73720,1,0,0:0:0:0:
104,176,73795,1,0,0:0:0:0:
104,176,73870,1,8,0:0:0:0:
104,176,74020,1,0,0:0:0:0:
104,176,74170,1,8,0:0:0:0:
104,176,74320,1,8,0:0:0:0:
104,176,74395,1,8,0:0:0:0:
104,176,74470,1,0,0:0:0:0:
104,176,74620,1,8,0:0:0:0:
112,176,74695,1,8,0:0:0:0:
104,176,74770,1,0,0:0:0:0:
104,176,74845,1,8,0:0:0:0:
104,176,74920,1,0,0:0:0:0:
104,176,74995,1,8,0:0:0:0:
104,176,75070,1,8,0:0:0:0:
104,176,75145,1,0,0:0:0:0:
104,176,75220,1,8,0:0:0:0:
104,176,75295,1,8,0:0:0:0:
104,176,75370,1,0,0:0:0:0:
104,176,75520,1,0,0:0:0:0:
104,176,75670,1,8,0:0:0:0:
104,176,75820,1,0,0:0:0:0:
104,176,75970,1,8,0:0:0:0:
104,176,76045,1,0,0:0:0:0:
104,176,76120,1,0,0:0:0:0:
104,176,76195,1,8,0:0:0:0:
104,176,76270,1,0,0:0:0:0:
96,176,76345,1,0,0:0:0:0:
104,176,76420,1,8,0:0:0:0:
112,176,76495,1,8,0:0:0:0:
104,176,76570,1,8,0:0:0:0:
104,176,76720,1,0,0:0:0:0:
104,176,76870,1,8,0:0:0:0:
104,176,77020,1,0,0:0:0:0:
104,176,77170,1,8,0:0:0:0:
104,176,77320,1,8,0:0:0:0:
104,176,77470,1,0,0:0:0:0:
104,176,77545,1,8,0:0:0:0:
104,176,77620,1,0,0:0:0:0:
104,176,77695,1,8,0:0:0:0:
96,176,77770,1,8,0:0:0:0:
128,160,77920,1,8,0:0:0:0:
128,160,77995,1,0,0:0:0:0:
128,160,78070,1,0,0:0:0:0:
104,176,78220,1,0,0:0:0:0:
104,176,78370,1,8,0:0:0:0:
104,176,78445,1,8,0:0:0:0:
104,176,78520,1,8,0:0:0:0:
104,176,78595,1,0,0:0:0:0:
104,176,78670,1,8,0:0:0:0:
104,176,78820,1,0,0:0:0:0:
104,176,78970,1,8,0:0:0:0:
104,176,79120,1,8,0:0:0:0:
104,176,79195,1,8,0:0:0:0:
104,176,79270,1,0,0:0:0:0:
104,176,79420,1,8,0:0:0:0:
104,176,79570,1,0,0:0:0:0:
104,176,79645,1,0,0:0:0:0:
104,176,79720,1,0,0:0:0:0:
104,176,79795,1,0,0:0:0:0:
104,176,79870,1,8,0:0:0:0:
104,176,79945,1,0,0:0:0:0:
104,176,80020,1,0,0:0:0:0:
104,176,80095,1,0,0:0:0:0:
104,176,80170,1,8,0:0:0:0:
104,176,80320,1,8,0:0:0:0:
104,176,80470,1,0,0:0:0:0:
104,176,80620,1,8,0:0:0:0:
104,176,80770,1,0,0:0:0:0:
104,176,80845,1,0,0:0:0:0:
104,176,80920,1,0,0:0:0:0:
104,176,80995,1,0,0:0:0:0:
104,176,81070,1,8,0:0:0:0:
104,176,81220,1,8,0:0:0:0:
128,192,81270,1,8,0:0:0:0:
128,192,81320,1,8,0:0:0:0:
104,176,81370,1,0,0:0:0:0:
104,176,81520,1,0,0:0:0:0:
104,176,81670,1,8,0:0:0:0:
104,176,81820,1,0,0:0:0:0:
104,176,81970,1,8,0:0:0:0:
104,176,82045,1,0,0:0:0:0:
104,176,82120,1,0,0:0:0:0:
128,192,82195,1,8,0:0:0:0:
104,176,82270,1,8,0:0:0:0:
104,176,82345,1,0,0:0:0:0:
104,176,82420,1,8,0:0:0:0:
104,176,82495,1,8,0:0:0:0:
104,176,82570,1,0,0:0:0:0:
104,176,82720,1,0,0:0:0:0:
104,176,82870,1,8,0:0:0:0:
104,176,83020,1,0,0:0:0:0:
128,176,83170,1,0,0:0:0:0:
128,176,83320,1,0,0:0:0:0:
128,176,83395,1,8,0:0:0:0:
128,176,83470,1,8,0:0:0:0:
128,176,83620,1,8,0:0:0:0:
128,160,83695,1,8,0:0:0:0:
104,176,83770,1,8,0:0:0:0:
104,176,83920,1,8,0:0:0:0:
104,176,84070,1,0,0:0:0:0:
104,176,84220,1,8,0:0:0:0:
104,176,84370,1,0,0:0:0:0:
104,176,84445,1,8,0:0:0:0:
104,176,84520,1,0,0:0:0:0:
104,176,84595,1,0,0:0:0:0:
104,176,84670,1,8,0:0:0:0:
104,176,84745,1,0,0:0:0:0:
104,176,84820,1,8,0:0:0:0:
104,176,84895,1,8,0:0:0:0:
104,176,84970,1,0,0:0:0:0:
104,176,85120,1,0,0:0:0:0:
104,176,85270,1,8,0:0:0:0:
104,176,85420,1,0,0:0:0:0:
104,176,85570,1,8,0:0:0:0:
104,176,85720,1,8,0:0:0:0:
104,176,85795,1,8,0:0:0:0:
104,176,85870,1,0,0:0:0:0:
112,160,85945,1,8,0:0:0:0:
112,176,86020,1,8,0:0:0:0:
104,176,86170,1,8,0:0:0:0:
104,176,86245,1,0,0:0:0:0:
104,176,86320,1,8,0:0:0:0:
104,176,86395,1,8,0:0:0:0:
104,176,86470,1,0,0:0:0:0:
104,176,86545,1,8,0:0:0:0:
104,176,86620,1,8,0:0:0:0:
104,176,86695,1,0,0:0:0:0:
104,176,86770,1,8,0:0:0:0:
104,176,86845,1,0,0:0:0:0:
104,176,86920,1,8,0:0:0:0:
104,176,86995,1,0,0:0:0:0:
112,160,87070,1,0,0:0:0:0:
104,176,87145,1,8,0:0:0:0:
112,160,87220,1,8,0:0:0:0:
112,160,87295,1,0,0:0:0:0:
112,160,87370,1,8,0:0:0:0:
112,160,87520,1,8,0:0:0:0:
112,160,87670,1,0,0:0:0:0:
112,160,87820,1,0,0:0:0:0:
112,160,87970,1,8,0:0:0:0:
112,160,88120,1,0,0:0:0:0:
112,160,88195,1,8,0:0:0:0:
112,160,88270,1,8,0:0:0:0:
112,160,88420,1,8,0:0:0:0:
112,160,88720,1,8,0:0:0:0:
112,160,88870,1,8,0:0:0:0:
112,160,89020,1,0,0:0:0:0:
112,160,89170,1,0,0:0:0:0:
112,160,89320,1,0,0:0:0:0:
112,160,89470,1,8,0:0:0:0:
112,160,89545,1,8,0:0:0:0:
112,160,89620,1,8,0:0:0:0:
112,160,89770,1,8,0:0:0:0:
112,160,89920,1,0,0:0:0:0:
112,160,90070,1,0,0:0:0:0:
112,160,90220,1,8,0:0:0:0:
112,160,90370,1,0,0:0:0:0:
112,160,90520,1,0,0:0:0:0:
112,160,90595,1,8,0:0:0:0:
112,160,90670,1,8,0:0:0:0:
112,160,90820,1,8,0:0:0:0:
128,160,91120,1,8,0:0:0:0:
128,160,91270,1,8,0:0:0:0:
128,160,91420,1,0,0:0:0:0:
128,160,91570,1,8,0:0:0:0:
128,160,91645,1,0,0:0:0:0:
128,160,91720,1,0,0:0:0:0:
128,160,91870,1,8,0:0:0:0:
128,160,92020,1,0,0:0:0:0:
128,160,92170,1,8,0:0:0:0:
128,160,92320,1,8,0:0:0:0:
128,160,92470,1,0,0:0:0:0:
128,160,92620,1,0,0:0:0:0:
128,160,92770,1,8,0:0:0:0:
128,160,92920,1,0,0:0:0:0:
128,160,92995,1,0,0:0:0:0:
128,160,93070,1,8,0:0:0:0:
128,160,93220,1,8,0:0:0:0:
128,160,93520,1,8,0:0:0:0:
128,160,93670,1,8,0:0:0:0:
128,160,93820,1,0,0:0:0:0:
128,160,93970,1,8,0:0:0:0:
128,160,94120,1,0,0:0:0:0:
128,160,94195,1,0,0:0:0:0:
128,160,94270,1,8,0:0:0:0:
128,160,94420,1,8,0:0:0:0:
128,160,94570,1,8,0:0:0:0:
128,160,94720,1,0,0:0:0:0:
128,160,94870,1,8,0:0:0:0:
128,160,95020,1,0,0:0:0:0:
128,160,95170,1,0,0:0:0:0:
128,160,95320,1,0,0:0:0:0:
128,160,95470,1,8,0:0:0:0:
128,160,95620,1,8,0:0:0:0:
128,160,95920,1,8,0:0:0:0:
128,160,96070,1,0,0:0:0:0:
128,160,96220,1,0,0:0:0:0:
128,160,96370,1,8,0:0:0:0:
128,160,96520,1,0,0:0:0:0:
128,160,96670,1,8,0:0:0:0:
128,160,96745,1,8,0:0:0:0:
128,160,96820,1,8,0:0:0:0:
128,160,96970,1,8,0:0:0:0:
128,160,97120,1,8,0:0:0:0:
128,160,97270,1,0,0:0:0:0:
128,160,97420,1,0,0:0:0:0:
128,160,97570,1,8,0:0:0:0:
128,160,97720,1,0,0:0:0:0:
128,160,97870,1,8,0:0:0:0:
128,160,98020,1,8,0:0:0:0:
128,160,98320,1,8,0:0:0:0:
128,160,98470,1,0,0:0:0:0:
128,160,98620,1,0,0:0:0:0:
128,160,98770,1,8,0:0:0:0:
128,160,98920,1,0,0:0:0:0:
128,160,99070,1,8,0:0:0:0:
128,160,99145,1,8,0:0:0:0:
128,160,99220,1,8,0:0:0:0:
128,160,99370,1,8,0:0:0:0:
128,160,99520,1,8,0:0:0:0:
128,160,99670,1,0,0:0:0:0:
128,160,99820,1,0,0:0:0:0:
128,160,99970,1,8,0:0:0:0:
128,160,100120,1,0,0:0:0:0:
128,160,100270,1,8,0:0:0:0:
128,160,100420,1,8,0:0:0:0:
128,160,100720,1,8,0:0:0:0:
128,160,100870,1,0,0:0:0:0:
128,160,101020,1,0,0:0:0:0:
128,160,101170,1,8,0:0:0:0:
128,160,101320,1,0,0:0:0:0:
128,160,101470,1,8,0:0:0:0:
128,160,101545,1,8,0:0:0:0:
128,160,101620,1,8,0:0:0:0:
128,160,101695,1,0,0:0:0:0:
128,160,101770,1,8,0:0:0:0:
128,160,101920,1,8,0:0:0:0:
128,160,102070,1,0,0:0:0:0:
128,160,102220,1,0,0:0:0:0:
128,160,102370,1,8,0:0:0:0:
128,160,102520,1,0,0:0:0:0:
128,160,102670,1,0,0:0:0:0:
128,160,102820,1,8,0:0:0:0:
128,160,103120,1,8,0:0:0:0:
128,160,103270,1,0,0:0:0:0:
128,160,103420,1,0,0:0:0:0:
128,160,103570,1,8,0:0:0:0:
128,160,103720,1,0,0:0:0:0:
128,160,103795,1,0,0:0:0:0:
128,160,103870,1,8,0:0:0:0:
128,160,104020,1,8,0:0:0:0:
128,160,104170,1,8,0:0:0:0:
128,160,104320,1,8,0:0:0:0:
128,192,104470,1,0,0:0:0:0:
128,192,104620,1,0,0:0:0:0:
128,160,104770,1,8,0:0:0:0:
128,160,104920,1,0,0:0:0:0:
128,160,105070,1,8,0:0:0:0:
128,160,105220,1,8,0:0:0:0:
128,160,105520,1,0,0:0:0:0:
128,160,105670,1,8,0:0:0:0:
128,160,105820,1,0,0:0:0:0:
128,160,105970,1,8,0:0:0:0:
128,160,106120,1,0,0:0:0:0:
128,160,106270,1,8,0:0:0:0:
128,160,106345,1,8,0:0:0:0:
128,160,106420,1,8,0:0:0:0:
128,160,106470,1,8,0:0:0:0:
128,160,106520,1,8,0:0:0:0:
128,160,106570,1,0,0:0:0:0:
128,160,106720,1,8,0:0:0:0:
128,160,106795,1,8,0:0:0:0:
128,160,106870,1,0,0:0:0:0:
128,160,107020,1,8,0:0:0:0:
128,160,107170,1,0,0:0:0:0:
128,160,107245,1,0,0:0:0:0:
128,160,107320,1,0,0:0:0:0:
128,160,107395,1,0,0:0:0:0:
128,160,107470,1,8,0:0:0:0:
128,160,107620,1,0,0:0:0:0:
128,160,107770,1,8,0:0:0:0:
128,160,107920,1,8,0:0:0:0:
128,160,107995,1,8,0:0:0:0:
128,160,108070,1,0,0:0:0:0:
128,160,108220,1,0,0:0:0:0:
128,160,108370,1,8,0:0:0:0:
128,160,108407,1,0,0:0:0:0:
128,160,108445,1,0,0:0:0:0:
128,160,108482,1,0,0:0:0:0:
128,160,108670,1,0,0:0:0:0:
128,160,108707,1,0,0:0:0:0:
128,160,108745,1,0,0:0:0:0:
128,160,108782,1,0,0:0:0:0:
128,160,108970,1,8,0:0:0:0:
128,160,109120,1,8,0:0:0:0:
128,160,109195,1,8,0:0:0:0:
128,160,109270,1,0,0:0:0:0:
128,160,109420,1,0,0:0:0:0:
256,192,109570,12,0,109720,0:0:0:0:
128,160,109870,5,8,0:0:0:0:
128,160,109945,1,8,0:0:0:0:
128,160,110020,1,8,0:0:0:0:
128,160,110095,1,8,0:0:0:0:
128,160,110170,1,8,0:0:0:0:
128,160,110320,1,8,0:0:0:0:
128,160,110395,1,8,0:0:0:0:
128,160,110470,1,0,0:0:0:0:
128,160,110620,1,0,0:0:0:0:
128,160,110770,1,8,0:0:0:0:
128,160,110845,1,8,0:0:0:0:
128,160,110920,1,0,0:0:0:0:
128,160,110957,1,0,0:0:0:0:
128,160,111070,1,0,0:0:0:0:
128,192,111107,1,0,0:0:0:0:
128,192,111220,1,8,0:0:0:0:
128,192,111257,1,8,0:0:0:0:
128,160,111370,1,8,0:0:0:0:
128,160,111520,1,8,0:0:0:0:
128,160,111595,1,8,0:0:0:0:
128,160,111670,1,8,0:0:0:0:
128,160,111745,1,0,0:0:0:0:
128,160,111820,1,0,0:0:0:0:
128,160,111970,1,8,0:0:0:0:
128,160,112045,1,8,0:0:0:0:
128,160,112120,1,0,0:0:0:0:
128,160,112270,1,8,0:0:0:0:
128,160,112345,1,8,0:0:0:0:
128,160,112420,1,8,0:0:0:0:
128,160,112570,1,8,0:0:0:0:
128,160,112720,1,0,0:0:0:0:
160,160,112757,1,0,0:0:0:0:
160,160,112870,1,0,0:0:0:0:
160,160,112907,1,0,0:0:0:0:
160,160,113020,1,8,0:0:0:0:
160,160,113057,1,8,0:0:0:0:
160,160,113170,1,8,0:0:0:0:
160,160,113320,1,0,0:0:0:0:
160,160,113470,1,8,0:0:0:0:
160,160,113620,1,8,0:0:0:0:
160,160,113770,1,8,0:0:0:0:
160,160,113920,1,0,0:0:0:0:
160,160,113995,1,0,0:0:0:0:
160,160,114070,1,8,0:0:0:0:
160,160,114220,1,8,0:0:0:0:
160,160,114520,1,0,0:0:0:0:
160,192,114595,1,0,0:0:0:0:
160,160,114670,1,8,0:0:0:0:
160,160,114820,1,8,0:0:0:0:
160,192,115120,1,8,0:0:0:0:
160,160,115270,1,0,0:0:0:0:
160,160,115420,1,0,0:0:0:0:
160,192,115570,1,0,0:0:0:0:
160,192,115645,1,0,0:0:0:0:
160,192,115720,1,0,0:0:0:0:
160,192,115795,1,0,0:0:0:0:
160,192,115870,1,8,0:0:0:0:
160,192,115945,1,8,0:0:0:0:
160,192,116020,1,8,0:0:0:0:
160,192,116095,1,8,0:0:0:0:
160,192,116170,1,8,0:0:0:0:
160,192,116320,1,8,0:0:0:0:
160,192,116395,1,8,0:0:0:0:
160,192,116470,1,0,0:0:0:0:
160,192,116620,1,0,0:0:0:0:
160,192,116770,1,0,0:0:0:0:
160,192,116920,1,0,0:0:0:0:
160,192,116995,1,0,0:0:0:0:
160,192,117070,1,8,0:0:0:0:
160,192,117220,1,8,0:0:0:0:
160,192,117520,1,8,0:0:0:0:
160,192,117670,1,0,0:0:0:0:
160,192,117820,1,0,0:0:0:0:
160,192,117970,1,8,0:0:0:0:
160,192,118007,1,0,0:0:0:0:
160,192,118045,1,0,0:0:0:0:
160,192,118082,1,0,0:0:0:0:
160,192,118270,1,0,0:0:0:0:
160,192,118307,1,0,0:0:0:0:
160,192,118345,1,0,0:0:0:0:
160,192,118382,1,0,0:0:0:0:
160,192,118570,1,8,0:0:0:0:
160,192,118720,1,8,0:0:0:0:
160,192,118795,1,8,0:0:0:0:
160,192,118870,1,0,0:0:0:0:
160,192,119020,1,0,0:0:0:0:
256,192,119170,12,0,119320,0:0:0:0:
128,160,119470,5,8,0:0:0:0:
128,160,119545,1,8,0:0:0:0:
128,160,119620,1,8,0:0:0:0:
128,160,119695,1,8,0:0:0:0:
128,160,119770,1,8,0:0:0:0:
128,160,119920,1,8,0:0:0:0:
128,160,119995,1,8,0:0:0:0:
128,160,120070,1,0,0:0:0:0:
128,160,120220,1,0,0:0:0:0:
128,160,120370,1,8,0:0:0:0:
128,160,120445,1,8,0:0:0:0:
128,160,120520,1,0,0:0:0:0:
128,160,120557,1,0,0:0:0:0:
128,160,120670,1,0,0:0:0:0:
128,192,120707,1,0,0:0:0:0:
128,192,120820,1,8,0:0:0:0:
128,192,120857,1,8,0:0:0:0:
128,160,120970,1,8,0:0:0:0:
128,160,121120,1,8,0:0:0:0:
128,160,121195,1,8,0:0:0:0:
128,160,121270,1,0,0:0:0:0:
128,160,121345,1,0,0:0:0:0:
128,160,121420,1,8,0:0:0:0:
128,160,121570,1,8,0:0:0:0:
128,160,121645,1,0,0:0:0:0:
128,160,121720,1,0,0:0:0:0:
160,160,121795,1,0,0:0:0:0:
160,160,121870,1,8,0:0:0:0:
128,160,121945,1,0,0:0:0:0:
128,160,122020,1,8,0:0:0:0:
128,160,122170,1,8,0:0:0:0:
128,160,122320,1,0,0:0:0:0:
160,160,122357,1,0,0:0:0:0:
160,160,122470,1,0,0:0:0:0:
160,160,122507,1,0,0:0:0:0:
160,160,122620,1,8,0:0:0:0:
160,160,122657,1,8,0:0:0:0:
160,160,122770,1,8,0:0:0:0:
160,160,122920,1,0,0:0:0:0:
160,160,123070,1,8,0:0:0:0:
160,160,123220,1,8,0:0:0:0:
128,160,123370,1,0,0:0:0:0:
160,160,123520,1,0,0:0:0:0:
160,160,123595,1,0,0:0:0:0:
160,160,123670,1,8,0:0:0:0:
160,160,123745,1,0,0:0:0:0:
160,160,123820,1,0,0:0:0:0:
128,160,123895,1,0,0:0:0:0:
155,161,123970,1,8,0:0:0:0:
160,160,124120,1,8,0:0:0:0:
160,160,124195,1,8,0:0:0:0:
160,160,124270,1,0,0:0:0:0:
160,160,124420,1,8,0:0:0:0:
160,160,124570,1,8,0:0:0:0:
160,160,124645,1,0,0:0:0:0:
160,160,124720,1,0,0:0:0:0:
155,161,124870,1,8,0:0:0:0:
160,160,125020,1,0,0:0:0:0:
160,160,125170,1,0,0:0:0:0:
160,160,125245,1,0,0:0:0:0:
160,160,125320,1,0,0:0:0:0:
160,160,125395,1,0,0:0:0:0:
160,160,125470,1,8,0:0:0:0:
160,160,125545,1,8,0:0:0:0:
160,160,125620,1,8,0:0:0:0:
160,160,125695,1,8,0:0:0:0:
160,160,125770,1,8,0:0:0:0:
160,160,125920,1,8,0:0:0:0:
160,160,125995,1,8,0:0:0:0:
160,160,126070,1,0,0:0:0:0:
160,160,126145,1,0,0:0:0:0:
160,160,126220,1,0,0:0:0:0:
160,160,126295,1,0,0:0:0:0:
160,160,126370,1,8,0:0:0:0:
160,160,126520,1,8,0:0:0:0:
160,160,126570,1,0,0:0:0:0:
160,160,126620,1,0,0:0:0:0:
160,160,126670,1,0,0:0:0:0:
160,160,126820,1,8,0:0:0:0:
160,160,127120,1,0,0:0:0:0:
160,160,127270,1,8,0:0:0:0:
160,160,127420,1,0,0:0:0:0:
160,160,127570,1,0,0:0:0:0:
160,160,127645,1,8,0:0:0:0:
160,160,127720,1,0,0:0:0:0:
160,160,127795,1,0,0:0:0:0:
160,160,127870,1,8,0:0:0:0:
160,160,128020,1,8,0:0:0:0:
160,160,128170,1,8,0:0:0:0:
160,160,128320,1,8,0:0:0:0:
160,160,128395,1,8,0:0:0:0:
160,160,128470,1,0,0:0:0:0:
160,160,128545,1,8,0:0:0:0:
160,160,128620,1,0,0:0:0:0:
160,160,128695,1,0,0:0:0:0:
160,160,128770,1,8,0:0:0:0:
160,160,128920,1,8,0:0:0:0:
160,160,128970,1,0,0:0:0:0:
160,160,129020,1,0,0:0:0:0:
160,160,129070,1,0,0:0:0:0:
160,160,129220,1,8,0:0:0:0:
160,160,129520,1,0,0:0:0:0:
160,160,129670,1,8,0:0:0:0:
160,160,129820,1,0,0:0:0:0:
160,160,129970,1,0,0:0:0:0:
160,160,130045,1,0,0:0:0:0:
160,160,130120,1,8,0:0:0:0:
160,160,130195,1,0,0:0:0:0:
160,160,130270,1,8,0:0:0:0:
160,160,130420,1,8,0:0:0:0:
160,160,130570,1,8,0:0:0:0:
160,160,130720,1,8,0:0:0:0:
160,160,130795,1,8,0:0:0:0:
160,160,130870,1,0,0:0:0:0:
160,160,130945,1,0,0:0:0:0:
160,160,131020,1,0,0:0:0:0:
160,160,131095,1,0,0:0:0:0:
160,160,131170,1,8,0:0:0:0:
160,160,131320,1,8,0:0:0:0:
160,160,131370,1,8,0:0:0:0:
160,160,131420,1,0,0:0:0:0:
160,160,131470,1,0,0:0:0:0:
160,160,131620,1,8,0:0:0:0:
160,160,131920,1,0,0:0:0:0:
160,160,132070,1,8,0:0:0:0:
160,160,132220,1,0,0:0:0:0:
160,160,132370,1,0,0:0:0:0:
160,160,132445,1,0,0:0:0:0:
160,160,132520,1,0,0:0:0:0:
160,160,132595,1,0,0:0:0:0:
160,160,132670,1,8,0:0:0:0:
160,160,132820,1,8,0:0:0:0:
160,160,132970,1,8,0:0:0:0:
160,160,133120,1,8,0:0:0:0:
160,160,133195,1,0,0:0:0:0:
160,160,133270,1,0,0:0:0:0:
160,160,133345,1,0,0:0:0:0:
160,160,133420,1,8,0:0:0:0:
160,160,133495,1,8,0:0:0:0:
160,160,133570,1,8,0:0:0:0:
160,160,133720,1,8,0:0:0:0:
160,160,133770,1,8,0:0:0:0:
160,160,133820,1,0,0:0:0:0:
160,160,133870,1,0,0:0:0:0:
160,160,134020,1,8,0:0:0:0:
160,160,134320,1,0,0:0:0:0:
160,160,134470,1,8,0:0:0:0:
160,160,134620,1,0,0:0:0:0:
160,160,134770,1,8,0:0:0:0:
160,160,134845,1,0,0:0:0:0:
160,160,134920,1,0,0:0:0:0:
160,160,134995,1,0,0:0:0:0:
160,160,135070,1,8,0:0:0:0:
160,160,135220,1,8,0:0:0:0:
160,160,135370,1,8,0:0:0:0:
160,160,135520,1,8,0:0:0:0:
160,160,135595,1,8,0:0:0:0:
160,160,135670,1,8,0:0:0:0:
160,160,135745,1,8,0:0:0:0:
160,160,135820,1,0,0:0:0:0:
160,160,135895,1,0,0:0:0:0:
160,160,135970,1,8,0:0:0:0:
160,160,136120,1,8,0:0:0:0:
160,160,136170,1,0,0:0:0:0:
160,160,136220,1,0,0:0:0:0:
160,160,136270,1,0,0:0:0:0:
160,160,136420,1,8,0:0:0:0:
160,160,136720,1,0,0:0:0:0:
160,160,136870,1,8,0:0:0:0:
160,160,137020,1,0,0:0:0:0:
160,160,137170,1,0,0:0:0:0:
160,160,137245,1,8,0:0:0:0:
160,160,137320,1,8,0:0:0:0:
160,160,137395,1,0,0:0:0:0:
160,160,137470,1,8,0:0:0:0:
160,160,137620,1,8,0:0:0:0:
160,160,137770,1,8,0:0:0:0:
160,160,137920,1,8,0:0:0:0:
160,160,137995,1,0,0:0:0:0:
160,160,138070,1,8,0:0:0:0:
160,160,138145,1,0,0:0:0:0:
160,160,138220,1,0,0:0:0:0:
160,160,138295,1,0,0:0:0:0:
160,160,138370,1,8,0:0:0:0:
160,160,138520,1,8,0:0:0:0:
160,160,138570,1,0,0:0:0:0:
160,160,138620,1,0,0:0:0:0:
160,160,138670,1,0,0:0:0:0:
160,160,138820,1,8,0:0:0:0:
160,160,139120,1,0,0:0:0:0:
160,160,139270,1,8,0:0:0:0:
160,160,139420,1,0,0:0:0:0:
160,160,139570,1,8,0:0:0:0:
160,160,139645,1,8,0:0:0:0:
160,160,139720,1,0,0:0:0:0:
160,160,139795,1,0,0:0:0:0:
160,160,139870,1,8,0:0:0:0:
160,160,139945,1,0,0:0:0:0:
160,160,140020,1,8,0:0:0:0:
160,160,140095,1,8,0:0:0:0:
160,160,140170,1,8,0:0:0:0:
160,160,140320,1,8,0:0:0:0:
160,160,140395,1,8,0:0:0:0:
160,160,140470,1,0,0:0:0:0:
160,160,140545,1,0,0:0:0:0:
160,160,140620,1,8,0:0:0:0:
160,160,140695,1,8,0:0:0:0:
160,160,140770,1,8,0:0:0:0:
160,160,140920,1,8,0:0:0:0:
160,160,140970,1,8,0:0:0:0:
160,160,141020,1,0,0:0:0:0:
160,160,141070,1,0,0:0:0:0:
160,160,141220,1,8,0:0:0:0:
160,160,141520,1,0,0:0:0:0:
160,160,141670,1,8,0:0:0:0:
160,160,141820,1,0,0:0:0:0:
160,160,141970,1,8,0:0:0:0:
160,160,142045,1,0,0:0:0:0:
160,160,142120,1,0,0:0:0:0:
160,160,142195,1,0,0:0:0:0:
160,160,142270,1,8,0:0:0:0:
160,160,142345,1,8,0:0:0:0:
160,160,142420,1,0,0:0:0:0:
160,160,142495,1,0,0:0:0:0:
160,160,142570,1,8,0:0:0:0:
160,160,142720,1,8,0:0:0:0:
160,160,142795,1,8,0:0:0:0:
160,160,142870,1,0,0:0:0:0:
160,160,142945,1,8,0:0:0:0:
160,160,143020,1,0,0:0:0:0:
160,160,143095,1,0,0:0:0:0:
160,160,143170,1,8,0:0:0:0:
160,160,143320,1,8,0:0:0:0:
160,160,143370,1,8,0:0:0:0:
160,192,143420,1,0,0:0:0:0:
160,160,143470,1,0,0:0:0:0:
160,160,143620,1,8,0:0:0:0:
160,160,143920,1,0,0:0:0:0:
160,160,144070,1,8,0:0:0:0:
160,160,144220,1,0,0:0:0:0:
160,160,144370,1,8,0:0:0:0:
160,160,144445,1,8,0:0:0:0:
160,160,144520,1,0,0:0:0:0:
160,160,144595,1,0,0:0:0:0:
160,160,144670,1,8,0:0:0:0:
160,160,144745,1,0,0:0:0:0:
160,160,144820,1,8,0:0:0:0:
160,160,144895,1,0,0:0:0:0:
160,160,144970,1,8,0:0:0:0:
160,160,145120,1,8,0:0:0:0:
160,160,145270,1,8,0:0:0:0:
160,160,145420,1,0,0:0:0:0:
160,160,145570,1,8,0:0:0:0:
160,160,145720,1,8,0:0:0:0:
160,160,145870,1,0,0:0:0:0:
160,160,146020,1,8,0:0:0:0:
160,160,146320,1,0,0:0:0:0:
160,160,146470,1,8,0:0:0:0:
160,160,146620,1,0,0:0:0:0:
160,128,146770,1,8,0:0:0:0:
160,128,146807,1,0,0:0:0:0:
160,128,146845,1,0,0:0:0:0:
160,128,146882,1,0,0:0:0:0:
160,128,147070,1,0,0:0:0:0:
160,128,147107,1,0,0:0:0:0:
160,128,147145,1,0,0:0:0:0:
160,128,147182,1,0,0:0:0:0:
160,128,147370,1,8,0:0:0:0:
160,128,147520,1,8,0:0:0:0:
160,128,147595,1,8,0:0:0:0:
160,128,147670,1,0,0:0:0:0:
160,128,147820,1,0,0:0:0:0:
256,192,147970,12,0,148120,0:0:0:0:
160,128,148270,5,8,0:0:0:0:
160,128,148345,1,8,0:0:0:0:
160,128,148420,1,8,0:0:0:0:
160,128,148495,1,8,0:0:0:0:
160,128,148570,1,8,0:0:0:0:
128,160,148720,1,8,0:0:0:0:
128,160,148795,1,8,0:0:0:0:
128,160,148870,1,0,0:0:0:0:
128,160,149020,1,0,0:0:0:0:
128,160,149170,1,8,0:0:0:0:
128,160,149245,1,8,0:0:0:0:
128,160,149320,1,0,0:0:0:0:
128,160,149357,1,0,0:0:0:0:
128,160,149470,1,0,0:0:0:0:
128,192,149507,1,0,0:0:0:0:
128,192,149620,1,8,0:0:0:0:
128,192,149657,1,8,0:0:0:0:
128,160,149770,1,8,0:0:0:0:
128,160,149920,1,8,0:0:0:0:
128,160,149995,1,8,0:0:0:0:
128,160,150070,1,8,0:0:0:0:
128,160,150145,1,0,0:0:0:0:
128,160,150220,1,0,0:0:0:0:
128,160,150370,1,8,0:0:0:0:
128,160,150445,1,0,0:0:0:0:
128,160,150520,1,0,0:0:0:0:
160,160,150595,1,0,0:0:0:0:
160,160,150670,1,8,0:0:0:0:
128,160,150820,1,8,0:0:0:0:
128,160,150970,1,8,0:0:0:0:
128,160,151120,1,0,0:0:0:0:
160,160,151157,1,0,0:0:0:0:
160,160,151270,1,0,0:0:0:0:
160,160,151307,1,0,0:0:0:0:
160,160,151420,1,8,0:0:0:0:
160,160,151457,1,8,0:0:0:0:
160,160,151570,1,8,0:0:0:0:
160,160,151720,1,0,0:0:0:0:
160,160,151870,1,8,0:0:0:0:
160,160,152020,1,8,0:0:0:0:
160,160,152170,1,0,0:0:0:0:
160,160,152245,1,0,0:0:0:0:
160,160,152320,1,0,0:0:0:0:
160,160,152395,1,0,0:0:0:0:
160,160,152470,1,8,0:0:0:0:
160,160,152620,1,8,0:0:0:0:
160,160,152770,1,8,0:0:0:0:
160,160,152920,1,8,0:0:0:0:
160,160,153070,1,0,0:0:0:0:
160,160,153145,1,0,0:0:0:0:
160,160,153220,1,8,0:0:0:0:
160,160,153370,1,8,0:0:0:0:
160,160,153520,1,0,0:0:0:0:
160,160,153670,1,8,0:0:0:0:
160,160,153820,1,0,0:0:0:0:
160,160,153970,1,8,0:0:0:0:
160,160,154045,1,0,0:0:0:0:
160,160,154120,1,0,0:0:0:0:
160,160,154195,1,0,0:0:0:0:
160,160,154270,1,8,0:0:0:0:
160,160,154345,1,8,0:0:0:0:
160,160,154420,1,8,0:0:0:0:
160,160,154495,1,8,0:0:0:0:
160,160,154570,1,8,0:0:0:0:
160,160,154720,1,8,0:0:0:0:
160,160,154795,1,8,0:0:0:0:
160,160,154870,1,0,0:0:0:0:
160,160,155020,1,0,0:0:0:0:
160,160,155170,1,8,0:0:0:0:
160,160,155320,1,8,0:0:0:0:
160,160,155395,1,0,0:0:0:0:
160,160,155470,1,0,0:0:0:0:
160,160,155545,1,8,0:0:0:0:
160,160,155620,1,8,0:0:0:0:
160,160,155920,1,0,0:0:0:0:
160,160,156070,1,8,0:0:0:0:
160,160,156220,1,0,0:0:0:0:
160,160,156370,1,8,0:0:0:0:
160,160,156407,1,8,0:0:0:0:
160,160,156445,1,0,0:0:0:0:
160,160,156482,1,0,0:0:0:0:
160,160,156670,1,8,0:0:0:0:
160,160,156707,1,0,0:0:0:0:
160,160,156745,1,0,0:0:0:0:
160,160,156782,1,0,0:0:0:0:
160,160,156970,1,8,0:0:0:0:
160,160,157120,1,8,0:0:0:0:
160,160,157270,1,0,0:0:0:0:
160,160,157420,1,0,0:0:0:0:
256,192,157570,12,0,157720,0:0:0:0:
160,160,157870,5,8,0:0:0:0:
160,160,157945,1,8,0:0:0:0:
160,160,158020,1,8,0:0:0:0:
160,160,158095,1,8,0:0:0:0:
160,160,158170,1,8,0:0:0:0:
160,160,158320,1,8,0:0:0:0:
160,160,158395,1,8,0:0:0:0:
160,160,158470,1,0,0:0:0:0:
160,160,158620,1,0,0:0:0:0:
160,160,158770,1,8,0:0:0:0:
160,160,158920,1,0,0:0:0:0:
160,160,158957,1,0,0:0:0:0:
160,160,159070,1,0,0:0:0:0:
160,160,159107,1,0,0:0:0:0:
160,160,159220,1,8,0:0:0:0:
160,160,159257,1,8,0:0:0:0:
160,160,159370,1,8,0:0:0:0:
160,160,159520,1,8,0:0:0:0:
160,160,159595,1,0,0:0:0:0:
160,160,159670,1,8,0:0:0:0:
160,160,159745,1,0,0:0:0:0:
160,160,159820,1,0,0:0:0:0:
160,160,159970,1,8,0:0:0:0:
160,160,160120,1,8,0:0:0:0:
160,160,160195,1,0,0:0:0:0:
160,160,160270,1,0,0:0:0:0:
160,160,160420,1,8,0:0:0:0:
160,160,160720,1,0,0:0:0:0:
160,192,160757,1,0,0:0:0:0:
160,160,160870,1,0,0:0:0:0:
160,192,160907,1,0,0:0:0:0:
160,160,161020,1,8,0:0:0:0:
160,192,161057,1,8,0:0:0:0:
224,192,161170,1,8,0:0:0:0:
160,160,161320,1,0,0:0:0:0:
160,160,161470,1,8,0:0:0:0:
160,160,161620,1,8,0:0:0:0:
160,160,161770,1,8,0:0:0:0:
160,160,161920,1,8,0:0:0:0:
160,160,161995,1,8,0:0:0:0:
160,160,162070,1,0,0:0:0:0:
160,160,162220,1,0,0:0:0:0:
160,160,162370,1,8,0:0:0:0:
160,160,162520,1,8,0:0:0:0:
160,160,162595,1,0,0:0:0:0:
160,160,162670,1,0,0:0:0:0:
160,160,162820,1,8,0:0:0:0:
160,160,163120,1,8,0:0:0:0:
160,160,163270,1,0,0:0:0:0:
160,160,163420,1,8,0:0:0:0:
160,160,163570,1,8,0:0:0:0:
160,192,163645,1,0,0:0:0:0:
160,160,163720,1,0,0:0:0:0:
160,160,163795,1,0,0:0:0:0:
160,160,163870,1,8,0:0:0:0:
160,160,163945,1,8,0:0:0:0:
160,160,164020,1,8,0:0:0:0:
160,160,164095,1,8,0:0:0:0:
