osu file format v14

[General]
AudioFilename: Journey - Eye of the Tiger (from ROCKY).mp3
AudioLeadIn: 0
PreviewTime: 9439
Countdown: 0
SampleSet: None
StackLeniency: 0.7
Mode: 3
LetterboxInBreaks: 0
SpecialStyle: 0
WidescreenStoryboard: 0

[Editor]
DistanceSpacing: 0.8
BeatDivisor: 2
GridSize: 32
TimelineZoom: 1

[Metadata]
Title:Dingles Technical Stream Pack 1
TitleUnicode:Dingles Technical Stream Pack 1
Artist:Various Artists
ArtistUnicode:Various Artists
Creator:Dingles
Version:Eye of The Tiger
Source:
Tags:
BeatmapID:1577635
BeatmapSetID:738707

[Difficulty]
HPDrainRate:5
CircleSize:4
OverallDifficulty:8
ApproachRate:5
SliderMultiplier:1.4
SliderTickRate:1

[Events]
//Background and Video events
//Break Periods
//Storyboard Layer 0 (Background)
//Storyboard Layer 1 (Fail)
//Storyboard Layer 2 (Pass)
//Storyboard Layer 3 (Foreground)
//Storyboard Sound Samples

[TimingPoints]
341,551.428571,4,2,0,0,1,0

[HitObjects]
448,192,892,5,0,0:0:0:0:
448,192,1030,1,0,0:0:0:0:
64,192,1168,1,0,0:0:0:0:
64,192,1306,1,0,0:0:0:0:
448,192,1444,1,0,0:0:0:0:
448,192,1582,1,0,0:0:0:0:
64,192,1720,1,0,0:0:0:0:
64,192,1857,1,0,0:0:0:0:
320,192,1995,1,0,0:0:0:0:
320,192,2133,1,0,0:0:0:0:
192,192,2271,1,0,0:0:0:0:
192,192,2409,1,0,0:0:0:0:
448,192,2547,1,0,0:0:0:0:
448,192,2685,1,0,0:0:0:0:
64,192,2822,1,0,0:0:0:0:
64,192,2960,1,0,0:0:0:0:
320,192,3098,1,0,0:0:0:0:
320,192,3236,1,0,0:0:0:0:
192,192,3374,1,0,0:0:0:0:
192,192,3512,1,0,0:0:0:0:
448,192,3650,1,0,0:0:0:0:
448,192,3787,1,0,0:0:0:0:
64,192,3925,1,0,0:0:0:0:
64,192,4063,1,0,0:0:0:0:
448,192,4201,1,0,0:0:0:0:
448,192,4339,1,0,0:0:0:0:
64,192,4477,1,0,0:0:0:0:
64,192,4615,1,0,0:0:0:0:
320,192,4752,1,0,0:0:0:0:
320,192,4890,1,0,0:0:0:0:
192,192,5028,1,0,0:0:0:0:
192,192,5166,1,0,0:0:0:0:
448,192,5304,1,0,0:0:0:0:
448,192,5442,1,0,0:0:0:0:
64,192,5580,1,0,0:0:0:0:
64,192,5717,1,0,0:0:0:0:
448,192,5855,1,0,0:0:0:0:
448,192,5993,1,0,0:0:0:0:
64,192,6131,1,0,0:0:0:0:
64,192,6269,1,0,0:0:0:0:
448,192,6407,1,0,0:0:0:0:
448,192,6545,1,0,0:0:0:0:
192,192,6682,1,0,0:0:0:0:
192,192,6820,1,0,0:0:0:0:
320,192,6958,1,0,0:0:0:0:
320,192,7096,1,0,0:0:0:0:
64,192,7234,1,0,0:0:0:0:
64,192,7372,1,0,0:0:0:0:
320,192,7510,1,0,0:0:0:0:
320,192,7647,1,0,0:0:0:0:
192,192,7785,1,0,0:0:0:0:
192,192,7923,1,0,0:0:0:0:
448,192,8061,1,0,0:0:0:0:
448,192,8199,1,0,0:0:0:0:
64,192,8337,1,0,0:0:0:0:
192,192,8337,1,0,0:0:0:0:
64,192,8475,1,0,0:0:0:0:
192,192,8475,1,0,0:0:0:0:
320,192,8612,1,0,0:0:0:0:
448,192,8612,1,0,0:0:0:0:
320,192,8750,1,0,0:0:0:0:
448,192,8750,1,0,0:0:0:0:
64,192,8888,1,0,0:0:0:0:
192,192,8888,1,0,0:0:0:0:
64,192,9026,1,0,0:0:0:0:
192,192,9026,1,0,0:0:0:0:
320,192,9164,1,0,0:0:0:0:
448,192,9164,1,0,0:0:0:0:
320,192,9302,1,0,0:0:0:0:
448,192,9302,1,0,0:0:0:0:
64,192,9440,1,0,0:0:0:0:
192,192,9440,1,0,0:0:0:0:
64,192,9577,1,0,0:0:0:0:
192,192,9577,1,0,0:0:0:0:
320,192,9646,1,0,0:0:0:0:
64,192,9715,1,0,0:0:0:0:
448,192,9715,1,0,0:0:0:0:
448,192,9853,1,0,0:0:0:0:
64,192,9991,1,0,0:0:0:0:
64,192,10129,1,0,0:0:0:0:
448,192,10267,1,0,0:0:0:0:
448,192,10405,1,0,0:0:0:0:
192,192,10542,1,0,0:0:0:0:
192,192,10680,1,0,0:0:0:0:
320,192,10749,1,0,0:0:0:0:
64,192,10818,1,0,0:0:0:0:
448,192,10818,1,0,0:0:0:0:
192,192,10956,1,0,0:0:0:0:
192,192,11094,1,0,0:0:0:0:
320,192,11163,1,0,0:0:0:0:
64,192,11232,1,0,0:0:0:0:
448,192,11232,1,0,0:0:0:0:
192,192,11370,1,0,0:0:0:0:
192,192,11507,1,0,0:0:0:0:
320,192,11576,1,0,0:0:0:0:
64,192,11645,1,0,0:0:0:0:
448,192,11645,1,0,0:0:0:0:
192,192,11783,1,0,0:0:0:0:
192,192,11921,1,0,0:0:0:0:
448,192,12059,1,0,0:0:0:0:
64,192,12197,1,0,0:0:0:0:
448,192,12197,1,0,0:0:0:0:
64,192,12335,1,0,0:0:0:0:
448,192,12472,1,0,0:0:0:0:
64,192,12610,1,0,0:0:0:0:
320,192,12748,1,0,0:0:0:0:
320,192,12886,1,0,0:0:0:0:
192,192,12955,1,0,0:0:0:0:
64,192,13024,1,0,0:0:0:0:
448,192,13024,1,0,0:0:0:0:
320,192,13162,1,0,0:0:0:0:
320,192,13300,1,0,0:0:0:0:
192,192,13369,1,0,0:0:0:0:
64,192,13437,1,0,0:0:0:0:
448,192,13437,1,0,0:0:0:0:
320,192,13575,1,0,0:0:0:0:
320,192,13713,1,0,0:0:0:0:
192,192,13782,1,0,0:0:0:0:
64,192,13851,1,0,0:0:0:0:
448,192,13851,1,0,0:0:0:0:
320,192,13989,1,0,0:0:0:0:
320,192,14127,1,0,0:0:0:0:
64,192,14265,1,0,0:0:0:0:
64,192,14402,1,0,0:0:0:0:
448,192,14540,1,0,0:0:0:0:
448,192,14678,1,0,0:0:0:0:
64,192,14816,1,0,0:0:0:0:
192,192,14954,1,0,0:0:0:0:
192,192,15092,1,0,0:0:0:0:
320,192,15161,1,0,0:0:0:0:
64,192,15230,1,0,0:0:0:0:
448,192,15230,1,0,0:0:0:0:
192,192,15367,1,0,0:0:0:0:
320,192,15505,1,0,0:0:0:0:
192,192,15574,1,0,0:0:0:0:
64,192,15643,1,0,0:0:0:0:
448,192,15643,1,0,0:0:0:0:
320,192,15781,1,0,0:0:0:0:
192,192,15919,1,0,0:0:0:0:
320,192,15988,1,0,0:0:0:0:
64,192,16057,1,0,0:0:0:0:
448,192,16057,1,0,0:0:0:0:
192,192,16195,1,0,0:0:0:0:
192,192,16332,1,0,0:0:0:0:
448,192,16470,1,0,0:0:0:0:
448,192,16608,1,0,0:0:0:0:
64,192,16746,1,0,0:0:0:0:
64,192,16884,1,0,0:0:0:0:
320,192,17022,1,0,0:0:0:0:
320,192,17160,1,0,0:0:0:0:
64,192,17297,1,0,0:0:0:0:
64,192,17435,1,0,0:0:0:0:
448,192,17573,1,0,0:0:0:0:
448,192,17711,1,0,0:0:0:0:
192,192,17849,1,0,0:0:0:0:
192,192,17987,1,0,0:0:0:0:
448,192,18125,1,0,0:0:0:0:
64,192,18262,1,0,0:0:0:0:
320,192,18400,1,0,0:0:0:0:
192,192,18469,1,0,0:0:0:0:
64,192,18538,1,0,0:0:0:0:
448,192,18538,1,0,0:0:0:0:
64,192,18676,1,0,0:0:0:0:
448,192,18814,1,0,0:0:0:0:
448,192,18952,1,0,0:0:0:0:
64,192,19090,1,0,0:0:0:0:
64,192,19227,1,0,0:0:0:0:
320,192,19365,1,0,0:0:0:0:
320,192,19503,1,0,0:0:0:0:
192,192,19572,1,0,0:0:0:0:
64,192,19641,1,0,0:0:0:0:
448,192,19641,1,0,0:0:0:0:
320,192,19779,1,0,0:0:0:0:
320,192,19917,1,0,0:0:0:0:
192,192,19986,1,0,0:0:0:0:
64,192,20055,1,0,0:0:0:0:
448,192,20055,1,0,0:0:0:0:
320,192,20192,1,0,0:0:0:0:
320,192,20330,1,0,0:0:0:0:
192,192,20399,1,0,0:0:0:0:
64,192,20468,1,0,0:0:0:0:
448,192,20468,1,0,0:0:0:0:
320,192,20606,1,0,0:0:0:0:
320,192,20744,1,0,0:0:0:0:
64,192,20882,1,0,0:0:0:0:
64,192,21020,1,0,0:0:0:0:
448,192,21020,1,0,0:0:0:0:
448,192,21157,1,0,0:0:0:0:
64,192,21295,1,0,0:0:0:0:
64,192,21433,1,0,0:0:0:0:
448,192,21571,1,0,0:0:0:0:
448,192,21709,1,0,0:0:0:0:
192,192,21847,1,0,0:0:0:0:
192,192,21985,1,0,0:0:0:0:
320,192,22054,1,0,0:0:0:0:
64,192,22122,1,0,0:0:0:0:
448,192,22122,1,0,0:0:0:0:
192,192,22260,1,0,0:0:0:0:
192,192,22398,1,0,0:0:0:0:
320,192,22467,1,0,0:0:0:0:
64,192,22536,1,0,0:0:0:0:
448,192,22536,1,0,0:0:0:0:
192,192,22674,1,0,0:0:0:0:
192,192,22812,1,0,0:0:0:0:
320,192,22881,1,0,0:0:0:0:
64,192,22950,1,0,0:0:0:0:
448,192,22950,1,0,0:0:0:0:
192,192,23087,1,0,0:0:0:0:
192,192,23225,1,0,0:0:0:0:
448,192,23363,1,0,0:0:0:0:
64,192,23501,1,0,0:0:0:0:
448,192,23501,1,0,0:0:0:0:
64,192,23639,1,0,0:0:0:0:
448,192,23777,1,0,0:0:0:0:
320,192,23915,1,0,0:0:0:0:
192,192,23984,1,0,0:0:0:0:
64,192,24052,1,0,0:0:0:0:
448,192,24052,1,0,0:0:0:0:
320,192,24190,1,0,0:0:0:0:
192,192,24328,1,0,0:0:0:0:
320,192,24397,1,0,0:0:0:0:
64,192,24466,1,0,0:0:0:0:
448,192,24466,1,0,0:0:0:0:
192,192,24604,1,0,0:0:0:0:
320,192,24742,1,0,0:0:0:0:
192,192,24811,1,0,0:0:0:0:
64,192,24880,1,0,0:0:0:0:
448,192,24880,1,0,0:0:0:0:
320,192,25017,1,0,0:0:0:0:
320,192,25155,1,0,0:0:0:0:
64,192,25293,1,0,0:0:0:0:
64,192,25431,1,0,0:0:0:0:
448,192,25569,1,0,0:0:0:0:
448,192,25707,1,0,0:0:0:0:
192,192,25845,1,0,0:0:0:0:
192,192,25982,1,0,0:0:0:0:
448,192,26120,1,0,0:0:0:0:
448,192,26258,1,0,0:0:0:0:
64,192,26396,1,0,0:0:0:0:
64,192,26534,1,0,0:0:0:0:
320,192,26672,1,0,0:0:0:0:
320,192,26810,1,0,0:0:0:0:
64,192,26947,1,0,0:0:0:0:
448,192,27085,1,0,0:0:0:0:
192,192,27223,1,0,0:0:0:0:
320,192,27292,1,0,0:0:0:0:
64,192,27361,1,0,0:0:0:0:
448,192,27361,1,0,0:0:0:0:
192,192,27430,1,0,0:0:0:0:
320,192,27499,1,0,0:0:0:0:
448,192,27568,1,0,0:0:0:0:
192,192,27637,1,0,0:0:0:0:
320,192,27637,1,0,0:0:0:0:
64,192,27706,1,0,0:0:0:0:
448,192,27775,1,0,0:0:0:0:
192,192,27844,1,0,0:0:0:0:
64,192,27912,1,0,0:0:0:0:
320,192,27912,1,0,0:0:0:0:
448,192,27981,1,0,0:0:0:0:
192,192,28050,1,0,0:0:0:0:
320,192,28119,1,0,0:0:0:0:
192,192,28188,1,0,0:0:0:0:
448,192,28188,1,0,0:0:0:0:
64,192,28257,1,0,0:0:0:0:
320,192,28326,1,0,0:0:0:0:
192,192,28395,1,0,0:0:0:0:
64,192,28464,1,0,0:0:0:0:
448,192,28464,1,0,0:0:0:0:
320,192,28533,1,0,0:0:0:0:
64,192,28602,1,0,0:0:0:0:
448,192,28602,1,0,0:0:0:0:
192,192,28671,1,0,0:0:0:0:
320,192,28740,1,0,0:0:0:0:
192,192,28809,1,0,0:0:0:0:
64,192,28877,1,0,0:0:0:0:
448,192,28877,1,0,0:0:0:0:
320,192,28946,1,0,0:0:0:0:
192,192,29015,1,0,0:0:0:0:
448,192,29015,1,0,0:0:0:0:
64,192,29084,1,0,0:0:0:0:
320,192,29153,1,0,0:0:0:0:
192,192,29222,1,0,0:0:0:0:
64,192,29291,1,0,0:0:0:0:
448,192,29291,1,0,0:0:0:0:
192,192,29360,1,0,0:0:0:0:
320,192,29429,1,0,0:0:0:0:
192,192,29498,1,0,0:0:0:0:
64,192,29567,1,0,0:0:0:0:
448,192,29567,1,0,0:0:0:0:
192,192,29636,1,0,0:0:0:0:
320,192,29705,1,0,0:0:0:0:
192,192,29774,1,0,0:0:0:0:
64,192,29842,1,0,0:0:0:0:
448,192,29842,1,0,0:0:0:0:
320,192,29911,1,0,0:0:0:0:
192,192,29980,1,0,0:0:0:0:
320,192,30049,1,0,0:0:0:0:
64,192,30118,1,0,0:0:0:0:
448,192,30118,1,0,0:0:0:0:
192,192,30187,1,0,0:0:0:0:
320,192,30256,1,0,0:0:0:0:
448,192,30325,1,0,0:0:0:0:
64,192,30394,1,0,0:0:0:0:
192,192,30394,1,0,0:0:0:0:
320,192,30486,1,0,0:0:0:0:
448,192,30486,1,0,0:0:0:0:
192,192,30578,1,0,0:0:0:0:
64,192,30670,1,0,0:0:0:0:
448,192,30670,1,0,0:0:0:0:
192,192,30739,1,0,0:0:0:0:
64,192,30807,1,0,0:0:0:0:
448,192,30807,1,0,0:0:0:0:
320,192,30876,1,0,0:0:0:0:
192,192,30945,1,0,0:0:0:0:
320,192,31014,1,0,0:0:0:0:
64,192,31083,1,0,0:0:0:0:
448,192,31083,1,0,0:0:0:0:
192,192,31152,1,0,0:0:0:0:
64,192,31221,1,0,0:0:0:0:
320,192,31221,1,0,0:0:0:0:
448,192,31290,1,0,0:0:0:0:
192,192,31359,1,0,0:0:0:0:
320,192,31428,1,0,0:0:0:0:
64,192,31497,1,0,0:0:0:0:
448,192,31497,1,0,0:0:0:0:
320,192,31566,1,0,0:0:0:0:
192,192,31635,1,0,0:0:0:0:
320,192,31704,1,0,0:0:0:0:
64,192,31772,1,0,0:0:0:0:
448,192,31772,1,0,0:0:0:0:
320,192,31841,1,0,0:0:0:0:
192,192,31910,1,0,0:0:0:0:
320,192,31979,1,0,0:0:0:0:
64,192,32048,1,0,0:0:0:0:
448,192,32048,1,0,0:0:0:0:
192,192,32117,1,0,0:0:0:0:
320,192,32186,1,0,0:0:0:0:
192,192,32255,1,0,0:0:0:0:
64,192,32324,1,0,0:0:0:0:
448,192,32324,1,0,0:0:0:0:
320,192,32393,1,0,0:0:0:0:
192,192,32462,1,0,0:0:0:0:
64,192,32531,1,0,0:0:0:0:
320,192,32600,1,0,0:0:0:0:
448,192,32600,1,0,0:0:0:0:
64,192,32691,1,0,0:0:0:0:
192,192,32691,1,0,0:0:0:0:
320,192,32783,1,0,0:0:0:0:
64,192,32875,1,0,0:0:0:0:
448,192,32875,1,0,0:0:0:0:
320,192,32944,1,0,0:0:0:0:
64,192,33013,1,0,0:0:0:0:
448,192,33013,1,0,0:0:0:0:
192,192,33082,1,0,0:0:0:0:
320,192,33151,1,0,0:0:0:0:
192,192,33220,1,0,0:0:0:0:
64,192,33289,1,0,0:0:0:0:
448,192,33289,1,0,0:0:0:0:
320,192,33358,1,0,0:0:0:0:
192,192,33427,1,0,0:0:0:0:
448,192,33427,1,0,0:0:0:0:
64,192,33496,1,0,0:0:0:0:
320,192,33565,1,0,0:0:0:0:
192,192,33634,1,0,0:0:0:0:
64,192,33702,1,0,0:0:0:0:
448,192,33702,1,0,0:0:0:0:
192,192,33771,1,0,0:0:0:0:
320,192,33840,1,0,0:0:0:0:
192,192,33909,1,0,0:0:0:0:
64,192,33978,1,0,0:0:0:0:
448,192,33978,1,0,0:0:0:0:
192,192,34047,1,0,0:0:0:0:
320,192,34116,1,0,0:0:0:0:
192,192,34185,1,0,0:0:0:0:
64,192,34254,1,0,0:0:0:0:
448,192,34254,1,0,0:0:0:0:
320,192,34323,1,0,0:0:0:0:
192,192,34392,1,0,0:0:0:0:
320,192,34461,1,0,0:0:0:0:
64,192,34530,1,0,0:0:0:0:
448,192,34530,1,0,0:0:0:0:
192,192,34599,1,0,0:0:0:0:
320,192,34667,1,0,0:0:0:0:
448,192,34736,1,0,0:0:0:0:
64,192,34805,1,0,0:0:0:0:
192,192,34805,1,0,0:0:0:0:
320,192,34897,1,0,0:0:0:0:
448,192,34897,1,0,0:0:0:0:
64,192,34989,1,0,0:0:0:0:
192,192,34989,1,0,0:0:0:0:
320,192,35081,1,0,0:0:0:0:
448,192,35150,1,0,0:0:0:0:
64,192,35219,1,0,0:0:0:0:
192,192,35219,1,0,0:0:0:0:
320,192,35288,1,0,0:0:0:0:
192,192,35357,1,0,0:0:0:0:
448,192,35357,1,0,0:0:0:0:
64,192,35426,1,0,0:0:0:0:
320,192,35495,1,0,0:0:0:0:
192,192,35564,1,0,0:0:0:0:
320,192,35632,1,0,0:0:0:0:
448,192,35632,1,0,0:0:0:0:
64,192,35701,1,0,0:0:0:0:
192,192,35770,1,0,0:0:0:0:
320,192,35770,1,0,0:0:0:0:
448,192,35839,1,0,0:0:0:0:
64,192,35908,1,0,0:0:0:0:
320,192,35977,1,0,0:0:0:0:
192,192,36046,1,0,0:0:0:0:
448,192,36046,1,0,0:0:0:0:
64,192,36115,1,0,0:0:0:0:
320,192,36184,1,0,0:0:0:0:
448,192,36184,1,0,0:0:0:0:
64,192,36253,1,0,0:0:0:0:
192,192,36253,1,0,0:0:0:0:
320,192,36322,1,0,0:0:0:0:
320,192,36460,1,0,0:0:0:0:
64,192,36597,1,0,0:0:0:0:
64,192,36735,1,0,0:0:0:0:
448,192,36735,1,0,0:0:0:0:
320,192,36873,1,0,0:0:0:0:
320,192,37011,1,0,0:0:0:0:
192,192,37149,1,0,0:0:0:0:
192,192,37287,1,0,0:0:0:0:
448,192,37287,1,0,0:0:0:0:
320,192,37356,1,0,0:0:0:0:
192,192,37425,1,0,0:0:0:0:
64,192,37494,1,0,0:0:0:0:
448,192,37494,1,0,0:0:0:0:
320,192,37562,1,0,0:0:0:0:
192,192,37631,1,0,0:0:0:0:
448,192,37700,1,0,0:0:0:0:
64,192,37769,1,0,0:0:0:0:
192,192,37769,1,0,0:0:0:0:
320,192,37838,1,0,0:0:0:0:
448,192,37907,1,0,0:0:0:0:
192,192,37976,1,0,0:0:0:0:
64,192,38045,1,0,0:0:0:0:
320,192,38045,1,0,0:0:0:0:
448,192,38114,1,0,0:0:0:0:
192,192,38183,1,0,0:0:0:0:
320,192,38252,1,0,0:0:0:0:
448,192,38321,1,0,0:0:0:0:
64,192,38390,1,0,0:0:0:0:
320,192,38390,1,0,0:0:0:0:
192,192,38459,1,0,0:0:0:0:
64,192,38527,1,0,0:0:0:0:
448,192,38596,1,0,0:0:0:0:
320,192,38665,1,0,0:0:0:0:
192,192,38734,1,0,0:0:0:0:
64,192,38803,1,0,0:0:0:0:
320,192,38803,1,0,0:0:0:0:
448,192,38872,1,0,0:0:0:0:
320,192,38941,1,0,0:0:0:0:
192,192,39079,1,0,0:0:0:0:
192,192,39217,1,0,0:0:0:0:
320,192,39355,1,0,0:0:0:0:
64,192,39492,1,0,0:0:0:0:
320,192,39492,1,0,0:0:0:0:
192,192,39561,1,0,0:0:0:0:
320,192,39630,1,0,0:0:0:0:
64,192,39699,1,0,0:0:0:0:
448,192,39699,1,0,0:0:0:0:
192,192,39768,1,0,0:0:0:0:
320,192,39837,1,0,0:0:0:0:
64,192,39906,1,0,0:0:0:0:
320,192,39975,1,0,0:0:0:0:
448,192,39975,1,0,0:0:0:0:
192,192,40044,1,0,0:0:0:0:
64,192,40113,1,0,0:0:0:0:
320,192,40182,1,0,0:0:0:0:
192,192,40251,1,0,0:0:0:0:
448,192,40251,1,0,0:0:0:0:
64,192,40320,1,0,0:0:0:0:
320,192,40389,1,0,0:0:0:0:
192,192,40457,1,0,0:0:0:0:
64,192,40526,1,0,0:0:0:0:
192,192,40595,1,0,0:0:0:0:
448,192,40595,1,0,0:0:0:0:
320,192,40664,1,0,0:0:0:0:
448,192,40733,1,0,0:0:0:0:
64,192,40802,1,0,0:0:0:0:
192,192,40871,1,0,0:0:0:0:
320,192,40940,1,0,0:0:0:0:
192,192,41009,1,0,0:0:0:0:
448,192,41009,1,0,0:0:0:0:
64,192,41078,1,0,0:0:0:0:
192,192,41147,1,0,0:0:0:0:
320,192,41285,1,0,0:0:0:0:
320,192,41422,1,0,0:0:0:0:
192,192,41560,1,0,0:0:0:0:
192,192,41698,1,0,0:0:0:0:
448,192,41698,1,0,0:0:0:0:
320,192,41767,1,0,0:0:0:0:
192,192,41836,1,0,0:0:0:0:
64,192,41905,1,0,0:0:0:0:
448,192,41905,1,0,0:0:0:0:
320,192,41974,1,0,0:0:0:0:
192,192,42043,1,0,0:0:0:0:
448,192,42112,1,0,0:0:0:0:
64,192,42181,1,0,0:0:0:0:
192,192,42181,1,0,0:0:0:0:
320,192,42250,1,0,0:0:0:0:
448,192,42319,1,0,0:0:0:0:
192,192,42387,1,0,0:0:0:0:
64,192,42456,1,0,0:0:0:0:
320,192,42456,1,0,0:0:0:0:
448,192,42525,1,0,0:0:0:0:
192,192,42594,1,0,0:0:0:0:
320,192,42663,1,0,0:0:0:0:
448,192,42732,1,0,0:0:0:0:
64,192,42801,1,0,0:0:0:0:
320,192,42801,1,0,0:0:0:0:
192,192,42870,1,0,0:0:0:0:
64,192,42939,1,0,0:0:0:0:
448,192,43008,1,0,0:0:0:0:
320,192,43077,1,0,0:0:0:0:
192,192,43146,1,0,0:0:0:0:
64,192,43215,1,0,0:0:0:0:
320,192,43215,1,0,0:0:0:0:
448,192,43284,1,0,0:0:0:0:
64,192,43352,1,0,0:0:0:0:
192,192,43352,1,0,0:0:0:0:
320,192,43490,1,0,0:0:0:0:
320,192,43628,1,0,0:0:0:0:
192,192,43766,1,0,0:0:0:0:
192,192,43904,1,0,0:0:0:0:
320,192,43904,1,0,0:0:0:0:
448,192,44042,1,0,0:0:0:0:
192,192,44180,1,0,0:0:0:0:
448,192,44180,1,0,0:0:0:0:
192,192,44317,1,0,0:0:0:0:
320,192,44317,1,0,0:0:0:0:
64,192,44455,1,0,0:0:0:0:
448,192,44455,1,0,0:0:0:0:
64,192,44593,1,0,0:0:0:0:
192,192,44593,1,0,0:0:0:0:
320,192,44731,1,0,0:0:0:0:
448,192,44731,1,0,0:0:0:0:
64,192,44800,1,0,0:0:0:0:
192,192,44800,1,0,0:0:0:0:
320,192,44869,1,0,0:0:0:0:
448,192,44869,1,0,0:0:0:0:
64,192,45007,1,0,0:0:0:0:
192,192,45007,1,0,0:0:0:0:
448,192,45007,1,0,0:0:0:0:
320,192,45076,1,0,0:0:0:0:
192,192,45145,1,0,0:0:0:0:
64,192,45214,1,0,0:0:0:0:
448,192,45214,1,0,0:0:0:0:
320,192,45282,1,0,0:0:0:0:
192,192,45351,1,0,0:0:0:0:
64,192,45420,1,0,0:0:0:0:
448,192,45420,1,0,0:0:0:0:
320,192,45489,1,0,0:0:0:0:
64,192,45558,1,0,0:0:0:0:
192,192,45558,1,0,0:0:0:0:
448,192,45696,1,0,0:0:0:0:
448,192,45834,1,0,0:0:0:0:
64,192,45972,1,0,0:0:0:0:
192,192,45972,1,0,0:0:0:0:
320,192,46110,1,0,0:0:0:0:
320,192,46247,1,0,0:0:0:0:
64,192,46385,1,0,0:0:0:0:
192,192,46385,1,0,0:0:0:0:
448,192,46523,1,0,0:0:0:0:
448,192,46661,1,0,0:0:0:0:
192,192,46799,1,0,0:0:0:0:
320,192,46799,1,0,0:0:0:0:
64,192,46937,1,0,0:0:0:0:
64,192,47075,1,0,0:0:0:0:
320,192,47212,1,0,0:0:0:0:
448,192,47212,1,0,0:0:0:0:
192,192,47350,1,0,0:0:0:0:
192,192,47488,1,0,0:0:0:0:
320,192,47626,1,0,0:0:0:0:
448,192,47626,1,0,0:0:0:0:
64,192,47764,1,0,0:0:0:0:
192,192,47764,1,0,0:0:0:0:
320,192,47833,1,0,0:0:0:0:
192,192,47902,1,0,0:0:0:0:
448,192,48040,1,0,0:0:0:0:
448,192,48177,1,0,0:0:0:0:
64,192,48315,1,0,0:0:0:0:
192,192,48315,1,0,0:0:0:0:
448,192,48384,1,0,0:0:0:0:
64,192,48453,1,0,0:0:0:0:
320,192,48591,1,0,0:0:0:0:
64,192,48729,1,0,0:0:0:0:
320,192,48729,1,0,0:0:0:0:
192,192,48798,1,0,0:0:0:0:
448,192,48867,1,0,0:0:0:0:
64,192,49005,1,0,0:0:0:0:
64,192,49142,128,0,49418:0:0:0:0:
448,192,49418,1,0,0:0:0:0:
320,192,49464,1,0,0:0:0:0:
192,192,49510,1,0,0:0:0:0:
64,192,49556,1,0,0:0:0:0:
320,192,49625,1,0,0:0:0:0:
192,192,49694,1,0,0:0:0:0:
448,192,49694,1,0,0:0:0:0:
64,192,49763,1,0,0:0:0:0:
448,192,49832,1,0,0:0:0:0:
320,192,49924,1,0,0:0:0:0:
192,192,49970,1,0,0:0:0:0:
448,192,50016,1,0,0:0:0:0:
64,192,50061,1,0,0:0:0:0:
192,192,50107,1,0,0:0:0:0:
320,192,50153,1,0,0:0:0:0:
448,192,50199,1,0,0:0:0:0:
192,192,50291,1,0,0:0:0:0:
64,192,50337,1,0,0:0:0:0:
448,192,50383,1,0,0:0:0:0:
320,192,50429,1,0,0:0:0:0:
64,192,50475,1,0,0:0:0:0:
192,192,50521,1,0,0:0:0:0:
448,192,50567,1,0,0:0:0:0:
64,192,50613,1,0,0:0:0:0:
320,192,50659,1,0,0:0:0:0:
192,192,50705,1,0,0:0:0:0:
448,192,50751,1,0,0:0:0:0:
64,192,50797,1,0,0:0:0:0:
320,192,50866,1,0,0:0:0:0:
192,192,50935,1,0,0:0:0:0:
448,192,51004,1,0,0:0:0:0:
64,192,51072,1,0,0:0:0:0:
192,192,51072,1,0,0:0:0:0:
320,192,51141,1,0,0:0:0:0:
448,192,51210,1,0,0:0:0:0:
192,192,51279,1,0,0:0:0:0:
64,192,51348,1,0,0:0:0:0:
320,192,51348,1,0,0:0:0:0:
448,192,51417,1,0,0:0:0:0:
192,192,51486,1,0,0:0:0:0:
64,192,51555,1,0,0:0:0:0:
320,192,51624,1,0,0:0:0:0:
192,192,51670,1,0,0:0:0:0:
448,192,51716,1,0,0:0:0:0:
64,192,51762,1,0,0:0:0:0:
320,192,51808,1,0,0:0:0:0:
192,192,51854,1,0,0:0:0:0:
448,192,51900,1,0,0:0:0:0:
320,192,51946,1,0,0:0:0:0:
192,192,51991,1,0,0:0:0:0:
64,192,52037,1,0,0:0:0:0:
320,192,52083,1,0,0:0:0:0:
192,192,52129,1,0,0:0:0:0:
448,192,52175,1,0,0:0:0:0:
64,192,52244,1,0,0:0:0:0:
192,192,52313,1,0,0:0:0:0:
320,192,52313,1,0,0:0:0:0:
448,192,52382,1,0,0:0:0:0:
64,192,52451,1,0,0:0:0:0:
320,192,52497,1,0,0:0:0:0:
192,192,52543,1,0,0:0:0:0:
64,192,52589,1,0,0:0:0:0:
448,192,52658,1,0,0:0:0:0:
192,192,52727,1,0,0:0:0:0:
320,192,52773,1,0,0:0:0:0:
448,192,52819,1,0,0:0:0:0:
64,192,52911,1,0,0:0:0:0:
320,192,52956,1,0,0:0:0:0:
448,192,53002,1,0,0:0:0:0:
192,192,53094,1,0,0:0:0:0:
320,192,53140,1,0,0:0:0:0:
64,192,53186,1,0,0:0:0:0:
448,192,53278,1,0,0:0:0:0:
320,192,53324,1,0,0:0:0:0:
192,192,53347,1,0,0:0:0:0:
64,192,53416,1,0,0:0:0:0:
448,192,53485,1,0,0:0:0:0:
192,192,53554,1,0,0:0:0:0:
320,192,53554,1,0,0:0:0:0:
64,192,53623,1,0,0:0:0:0:
448,192,53692,1,0,0:0:0:0:
320,192,53761,1,0,0:0:0:0:
64,192,53830,1,0,0:0:0:0:
192,192,53864,1,0,0:0:0:0:
320,192,53899,1,0,0:0:0:0:
448,192,53933,1,0,0:0:0:0:
192,192,53967,1,0,0:0:0:0:
64,192,54036,1,0,0:0:0:0:
320,192,54105,1,0,0:0:0:0:
448,192,54105,1,0,0:0:0:0:
192,192,54174,1,0,0:0:0:0:
64,192,54243,1,0,0:0:0:0:
320,192,54312,1,0,0:0:0:0:
448,192,54381,1,0,0:0:0:0:
192,192,54427,1,0,0:0:0:0:
320,192,54473,1,0,0:0:0:0:
64,192,54519,1,0,0:0:0:0:
448,192,54611,1,0,0:0:0:0:
320,192,54657,1,0,0:0:0:0:
192,192,54703,1,0,0:0:0:0:
64,192,54749,1,0,0:0:0:0:
320,192,54795,1,0,0:0:0:0:
192,192,54841,1,0,0:0:0:0:
448,192,54886,1,0,0:0:0:0:
64,192,54932,1,0,0:0:0:0:
192,192,55024,1,0,0:0:0:0:
320,192,55070,1,0,0:0:0:0:
448,192,55116,1,0,0:0:0:0:
64,192,55208,1,0,0:0:0:0:
320,192,55254,1,0,0:0:0:0:
192,192,55300,1,0,0:0:0:0:
448,192,55346,1,0,0:0:0:0:
64,192,55392,1,0,0:0:0:0:
320,192,55484,1,0,0:0:0:0:
192,192,55530,1,0,0:0:0:0:
64,192,55622,1,0,0:0:0:0:
448,192,55668,1,0,0:0:0:0:
320,192,55714,1,0,0:0:0:0:
64,192,55760,1,0,0:0:0:0:
192,192,55897,1,0,0:0:0:0:
320,192,55943,1,0,0:0:0:0:
448,192,55989,1,0,0:0:0:0:
64,192,56035,1,0,0:0:0:0:
320,192,56081,1,0,0:0:0:0:
64,192,56173,1,0,0:0:0:0:
192,192,56219,1,0,0:0:0:0:
448,192,56311,1,0,0:0:0:0:
320,192,56403,1,0,0:0:0:0:
192,192,56449,1,0,0:0:0:0:
64,192,56495,1,0,0:0:0:0:
320,192,56587,1,0,0:0:0:0:
64,192,56633,1,0,0:0:0:0:
448,192,56679,1,0,0:0:0:0:
320,192,56725,1,0,0:0:0:0:
64,192,56771,1,0,0:0:0:0:
192,192,56862,1,0,0:0:0:0:
448,192,56908,1,0,0:0:0:0:
64,192,56931,1,0,0:0:0:0:
320,192,57000,1,0,0:0:0:0:
448,192,57069,1,0,0:0:0:0:
64,192,57138,1,0,0:0:0:0:
192,192,57138,1,0,0:0:0:0:
320,192,57276,1,0,0:0:0:0:
448,192,57414,1,0,0:0:0:0:
64,192,57506,1,0,0:0:0:0:
192,192,57506,1,0,0:0:0:0:
320,192,57598,1,0,0:0:0:0:
64,192,57690,1,0,0:0:0:0:
448,192,57690,1,0,0:0:0:0:
320,192,57781,1,0,0:0:0:0:
192,192,57873,1,0,0:0:0:0:
320,192,57965,1,0,0:0:0:0:
64,192,58103,1,0,0:0:0:0:
448,192,58241,1,0,0:0:0:0:
320,192,58275,1,0,0:0:0:0:
192,192,58310,1,0,0:0:0:0:
64,192,58344,1,0,0:0:0:0:
320,192,58517,1,0,0:0:0:0:
448,192,58517,1,0,0:0:0:0:
192,192,58746,1,0,0:0:0:0:
320,192,58792,1,0,0:0:0:0:
64,192,58838,1,0,0:0:0:0:
448,192,58884,1,0,0:0:0:0:
320,192,58930,1,0,0:0:0:0:
192,192,58976,1,0,0:0:0:0:
64,192,59022,1,0,0:0:0:0:
320,192,59114,1,0,0:0:0:0:
448,192,59160,1,0,0:0:0:0:
64,192,59206,1,0,0:0:0:0:
192,192,59252,1,0,0:0:0:0:
448,192,59298,1,0,0:0:0:0:
320,192,59344,1,0,0:0:0:0:
64,192,59390,1,0,0:0:0:0:
448,192,59436,1,0,0:0:0:0:
192,192,59482,1,0,0:0:0:0:
320,192,59528,1,0,0:0:0:0:
64,192,59574,1,0,0:0:0:0:
448,192,59620,1,0,0:0:0:0:
192,192,59689,1,0,0:0:0:0:
320,192,59757,1,0,0:0:0:0:
64,192,59826,1,0,0:0:0:0:
320,192,59895,1,0,0:0:0:0:
448,192,59895,1,0,0:0:0:0:
192,192,59964,1,0,0:0:0:0:
64,192,60033,1,0,0:0:0:0:
320,192,60102,1,0,0:0:0:0:
192,192,60171,1,0,0:0:0:0:
448,192,60171,1,0,0:0:0:0:
64,192,60240,1,0,0:0:0:0:
320,192,60309,1,0,0:0:0:0:
448,192,60378,1,0,0:0:0:0:
192,192,60447,1,0,0:0:0:0:
320,192,60493,1,0,0:0:0:0:
64,192,60539,1,0,0:0:0:0:
448,192,60585,1,0,0:0:0:0:
192,192,60631,1,0,0:0:0:0:
320,192,60676,1,0,0:0:0:0:
64,192,60722,1,0,0:0:0:0:
192,192,60768,1,0,0:0:0:0:
320,192,60814,1,0,0:0:0:0:
448,192,60860,1,0,0:0:0:0:
192,192,60906,1,0,0:0:0:0:
320,192,60952,1,0,0:0:0:0:
64,192,60998,1,0,0:0:0:0:
448,192,61067,1,0,0:0:0:0:
192,192,61136,1,0,0:0:0:0:
320,192,61136,1,0,0:0:0:0:
64,192,61205,1,0,0:0:0:0:
448,192,61274,1,0,0:0:0:0:
192,192,61320,1,0,0:0:0:0:
320,192,61366,1,0,0:0:0:0:
448,192,61412,1,0,0:0:0:0:
64,192,61481,1,0,0:0:0:0:
320,192,61550,1,0,0:0:0:0:
192,192,61596,1,0,0:0:0:0:
64,192,61641,1,0,0:0:0:0:
448,192,61733,1,0,0:0:0:0:
192,192,61779,1,0,0:0:0:0:
64,192,61825,1,0,0:0:0:0:
320,192,61917,1,0,0:0:0:0:
192,192,61963,1,0,0:0:0:0:
448,192,62009,1,0,0:0:0:0:
64,192,62101,1,0,0:0:0:0:
192,192,62147,1,0,0:0:0:0:
320,192,62170,1,0,0:0:0:0:
448,192,62239,1,0,0:0:0:0:
64,192,62308,1,0,0:0:0:0:
192,192,62377,1,0,0:0:0:0:
320,192,62377,1,0,0:0:0:0:
448,192,62446,1,0,0:0:0:0:
64,192,62515,1,0,0:0:0:0:
192,192,62584,1,0,0:0:0:0:
448,192,62652,1,0,0:0:0:0:
320,192,62687,1,0,0:0:0:0:
192,192,62721,1,0,0:0:0:0:
64,192,62756,1,0,0:0:0:0:
320,192,62790,1,0,0:0:0:0:
448,192,62859,1,0,0:0:0:0:
64,192,62928,1,0,0:0:0:0:
192,192,62928,1,0,0:0:0:0:
320,192,62997,1,0,0:0:0:0:
448,192,63066,1,0,0:0:0:0:
192,192,63135,1,0,0:0:0:0:
64,192,63204,1,0,0:0:0:0:
320,192,63250,1,0,0:0:0:0:
192,192,63296,1,0,0:0:0:0:
448,192,63342,1,0,0:0:0:0:
64,192,63434,1,0,0:0:0:0:
192,192,63480,1,0,0:0:0:0:
320,192,63526,1,0,0:0:0:0:
448,192,63571,1,0,0:0:0:0:
192,192,63617,1,0,0:0:0:0:
320,192,63663,1,0,0:0:0:0:
64,192,63709,1,0,0:0:0:0:
448,192,63755,1,0,0:0:0:0:
320,192,63847,1,0,0:0:0:0:
192,192,63893,1,0,0:0:0:0:
64,192,63939,1,0,0:0:0:0:
448,192,64031,1,0,0:0:0:0:
192,192,64077,1,0,0:0:0:0:
320,192,64123,1,0,0:0:0:0:
64,192,64169,1,0,0:0:0:0:
448,192,64215,1,0,0:0:0:0:
192,192,64307,1,0,0:0:0:0:
320,192,64353,1,0,0:0:0:0:
448,192,64445,1,0,0:0:0:0:
64,192,64491,1,0,0:0:0:0:
192,192,64536,1,0,0:0:0:0:
448,192,64582,1,0,0:0:0:0:
320,192,64720,1,0,0:0:0:0:
192,192,64766,1,0,0:0:0:0:
64,192,64812,1,0,0:0:0:0:
448,192,64858,1,0,0:0:0:0:
192,192,64904,1,0,0:0:0:0:
448,192,64996,1,0,0:0:0:0:
320,192,65042,1,0,0:0:0:0:
64,192,65134,1,0,0:0:0:0:
192,192,65226,1,0,0:0:0:0:
320,192,65272,1,0,0:0:0:0:
448,192,65318,1,0,0:0:0:0:
192,192,65410,1,0,0:0:0:0:
448,192,65456,1,0,0:0:0:0:
64,192,65501,1,0,0:0:0:0:
192,192,65547,1,0,0:0:0:0:
448,192,65593,1,0,0:0:0:0:
320,192,65685,1,0,0:0:0:0:
64,192,65731,1,0,0:0:0:0:
448,192,65754,1,0,0:0:0:0:
192,192,65823,1,0,0:0:0:0:
64,192,65892,1,0,0:0:0:0:
320,192,65961,1,0,0:0:0:0:
448,192,65961,1,0,0:0:0:0:
192,192,66099,1,0,0:0:0:0:
64,192,66237,1,0,0:0:0:0:
320,192,66329,1,0,0:0:0:0:
448,192,66329,1,0,0:0:0:0:
192,192,66421,1,0,0:0:0:0:
64,192,66512,1,0,0:0:0:0:
448,192,66512,1,0,0:0:0:0:
192,192,66604,1,0,0:0:0:0:
320,192,66696,1,0,0:0:0:0:
192,192,66788,1,0,0:0:0:0:
448,192,66926,1,0,0:0:0:0:
64,192,67064,1,0,0:0:0:0:
192,192,67098,1,0,0:0:0:0:
320,192,67133,1,0,0:0:0:0:
448,192,67167,1,0,0:0:0:0:
320,192,67271,1,0,0:0:0:0:
64,192,67340,1,0,0:0:0:0:
192,192,67340,1,0,0:0:0:0:
448,192,67408,1,0,0:0:0:0:
192,192,67477,1,0,0:0:0:0:
320,192,67569,1,0,0:0:0:0:
192,192,67615,1,0,0:0:0:0:
448,192,67661,1,0,0:0:0:0:
64,192,67707,1,0,0:0:0:0:
192,192,67753,1,0,0:0:0:0:
320,192,67799,1,0,0:0:0:0:
448,192,67845,1,0,0:0:0:0:
192,192,67937,1,0,0:0:0:0:
64,192,67983,1,0,0:0:0:0:
448,192,68029,1,0,0:0:0:0:
320,192,68075,1,0,0:0:0:0:
64,192,68121,1,0,0:0:0:0:
192,192,68167,1,0,0:0:0:0:
448,192,68213,1,0,0:0:0:0:
64,192,68259,1,0,0:0:0:0:
320,192,68305,1,0,0:0:0:0:
192,192,68351,1,0,0:0:0:0:
448,192,68396,1,0,0:0:0:0:
64,192,68442,1,0,0:0:0:0:
320,192,68511,1,0,0:0:0:0:
192,192,68580,1,0,0:0:0:0:
448,192,68649,1,0,0:0:0:0:
64,192,68718,1,0,0:0:0:0:
192,192,68718,1,0,0:0:0:0:
320,192,68787,1,0,0:0:0:0:
448,192,68856,1,0,0:0:0:0:
192,192,68925,1,0,0:0:0:0:
64,192,68994,1,0,0:0:0:0:
320,192,68994,1,0,0:0:0:0:
448,192,69063,1,0,0:0:0:0:
192,192,69132,1,0,0:0:0:0:
64,192,69201,1,0,0:0:0:0:
320,192,69270,1,0,0:0:0:0:
192,192,69316,1,0,0:0:0:0:
448,192,69361,1,0,0:0:0:0:
64,192,69407,1,0,0:0:0:0:
320,192,69453,1,0,0:0:0:0:
192,192,69499,1,0,0:0:0:0:
448,192,69545,1,0,0:0:0:0:
320,192,69591,1,0,0:0:0:0:
192,192,69637,1,0,0:0:0:0:
64,192,69683,1,0,0:0:0:0:
320,192,69729,1,0,0:0:0:0:
192,192,69775,1,0,0:0:0:0:
448,192,69821,1,0,0:0:0:0:
64,192,69890,1,0,0:0:0:0:
192,192,69959,1,0,0:0:0:0:
320,192,69959,1,0,0:0:0:0:
448,192,70028,1,0,0:0:0:0:
64,192,70097,1,0,0:0:0:0:
320,192,70143,1,0,0:0:0:0:
192,192,70189,1,0,0:0:0:0:
64,192,70235,1,0,0:0:0:0:
448,192,70304,1,0,0:0:0:0:
192,192,70372,1,0,0:0:0:0:
320,192,70418,1,0,0:0:0:0:
448,192,70464,1,0,0:0:0:0:
64,192,70556,1,0,0:0:0:0:
320,192,70602,1,0,0:0:0:0:
448,192,70648,1,0,0:0:0:0:
192,192,70740,1,0,0:0:0:0:
320,192,70786,1,0,0:0:0:0:
64,192,70832,1,0,0:0:0:0:
448,192,70924,1,0,0:0:0:0:
320,192,70970,1,0,0:0:0:0:
192,192,70993,1,0,0:0:0:0:
64,192,71062,1,0,0:0:0:0:
448,192,71131,1,0,0:0:0:0:
192,192,71200,1,0,0:0:0:0:
320,192,71200,1,0,0:0:0:0:
64,192,71268,1,0,0:0:0:0:
448,192,71337,1,0,0:0:0:0:
320,192,71406,1,0,0:0:0:0:
64,192,71475,1,0,0:0:0:0:
192,192,71510,1,0,0:0:0:0:
320,192,71544,1,0,0:0:0:0:
448,192,71579,1,0,0:0:0:0:
192,192,71613,1,0,0:0:0:0:
64,192,71682,1,0,0:0:0:0:
320,192,71751,1,0,0:0:0:0:
448,192,71751,1,0,0:0:0:0:
192,192,71820,1,0,0:0:0:0:
64,192,71889,1,0,0:0:0:0:
320,192,71958,1,0,0:0:0:0:
448,192,72027,1,0,0:0:0:0:
192,192,72073,1,0,0:0:0:0:
320,192,72119,1,0,0:0:0:0:
64,192,72165,1,0,0:0:0:0:
448,192,72256,1,0,0:0:0:0:
320,192,72302,1,0,0:0:0:0:
192,192,72348,1,0,0:0:0:0:
64,192,72394,1,0,0:0:0:0:
320,192,72440,1,0,0:0:0:0:
192,192,72486,1,0,0:0:0:0:
448,192,72532,1,0,0:0:0:0:
64,192,72578,1,0,0:0:0:0:
192,192,72670,1,0,0:0:0:0:
320,192,72716,1,0,0:0:0:0:
448,192,72762,1,0,0:0:0:0:
64,192,72854,1,0,0:0:0:0:
320,192,72900,1,0,0:0:0:0:
192,192,72946,1,0,0:0:0:0:
448,192,72992,1,0,0:0:0:0:
64,192,73038,1,0,0:0:0:0:
320,192,73130,1,0,0:0:0:0:
192,192,73176,1,0,0:0:0:0:
64,192,73267,1,0,0:0:0:0:
448,192,73313,1,0,0:0:0:0:
320,192,73359,1,0,0:0:0:0:
64,192,73405,1,0,0:0:0:0:
192,192,73543,1,0,0:0:0:0:
320,192,73589,1,0,0:0:0:0:
448,192,73635,1,0,0:0:0:0:
64,192,73681,1,0,0:0:0:0:
320,192,73727,1,0,0:0:0:0:
64,192,73819,1,0,0:0:0:0:
192,192,73865,1,0,0:0:0:0:
448,192,73957,1,0,0:0:0:0:
320,192,74049,1,0,0:0:0:0:
192,192,74095,1,0,0:0:0:0:
64,192,74141,1,0,0:0:0:0:
320,192,74232,1,0,0:0:0:0:
64,192,74278,1,0,0:0:0:0:
448,192,74324,1,0,0:0:0:0:
320,192,74370,1,0,0:0:0:0:
64,192,74416,1,0,0:0:0:0:
192,192,74508,1,0,0:0:0:0:
448,192,74554,1,0,0:0:0:0:
64,192,74577,1,0,0:0:0:0:
320,192,74646,1,0,0:0:0:0:
448,192,74715,1,0,0:0:0:0:
64,192,74784,1,0,0:0:0:0:
192,192,74784,1,0,0:0:0:0:
320,192,74922,1,0,0:0:0:0:
448,192,75060,1,0,0:0:0:0:
64,192,75151,1,0,0:0:0:0:
192,192,75151,1,0,0:0:0:0:
320,192,75243,1,0,0:0:0:0:
64,192,75335,1,0,0:0:0:0:
448,192,75335,1,0,0:0:0:0:
320,192,75427,1,0,0:0:0:0:
192,192,75519,1,0,0:0:0:0:
320,192,75611,1,0,0:0:0:0:
64,192,75749,1,0,0:0:0:0:
448,192,75887,1,0,0:0:0:0:
320,192,75921,1,0,0:0:0:0:
192,192,75956,1,0,0:0:0:0:
64,192,75990,1,0,0:0:0:0:
192,192,76093,1,0,0:0:0:0:
320,192,76162,1,0,0:0:0:0:
448,192,76162,1,0,0:0:0:0:
64,192,76231,1,0,0:0:0:0:
448,192,76300,1,0,0:0:0:0:
192,192,76392,1,0,0:0:0:0:
320,192,76438,1,0,0:0:0:0:
64,192,76484,1,0,0:0:0:0:
448,192,76530,1,0,0:0:0:0:
320,192,76576,1,0,0:0:0:0:
192,192,76622,1,0,0:0:0:0:
64,192,76668,1,0,0:0:0:0:
320,192,76760,1,0,0:0:0:0:
448,192,76806,1,0,0:0:0:0:
64,192,76852,1,0,0:0:0:0:
192,192,76898,1,0,0:0:0:0:
448,192,76944,1,0,0:0:0:0:
320,192,76990,1,0,0:0:0:0:
64,192,77036,1,0,0:0:0:0:
448,192,77081,1,0,0:0:0:0:
192,192,77127,1,0,0:0:0:0:
320,192,77173,1,0,0:0:0:0:
64,192,77219,1,0,0:0:0:0:
448,192,77265,1,0,0:0:0:0:
192,192,77334,1,0,0:0:0:0:
320,192,77403,1,0,0:0:0:0:
64,192,77472,1,0,0:0:0:0:
320,192,77541,1,0,0:0:0:0:
448,192,77541,1,0,0:0:0:0:
192,192,77610,1,0,0:0:0:0:
64,192,77679,1,0,0:0:0:0:
320,192,77748,1,0,0:0:0:0:
192,192,77817,1,0,0:0:0:0:
448,192,77817,1,0,0:0:0:0:
64,192,77886,1,0,0:0:0:0:
320,192,77955,1,0,0:0:0:0:
448,192,78024,1,0,0:0:0:0:
192,192,78092,1,0,0:0:0:0:
320,192,78138,1,0,0:0:0:0:
64,192,78184,1,0,0:0:0:0:
448,192,78230,1,0,0:0:0:0:
192,192,78276,1,0,0:0:0:0:
320,192,78322,1,0,0:0:0:0:
64,192,78368,1,0,0:0:0:0:
192,192,78414,1,0,0:0:0:0:
320,192,78460,1,0,0:0:0:0:
448,192,78506,1,0,0:0:0:0:
192,192,78552,1,0,0:0:0:0:
320,192,78598,1,0,0:0:0:0:
64,192,78644,1,0,0:0:0:0:
448,192,78713,1,0,0:0:0:0:
192,192,78782,1,0,0:0:0:0:
320,192,78782,1,0,0:0:0:0:
64,192,78851,1,0,0:0:0:0:
448,192,78920,1,0,0:0:0:0:
192,192,78966,1,0,0:0:0:0:
320,192,79011,1,0,0:0:0:0:
448,192,79057,1,0,0:0:0:0:
64,192,79126,1,0,0:0:0:0:
320,192,79195,1,0,0:0:0:0:
192,192,79241,1,0,0:0:0:0:
64,192,79287,1,0,0:0:0:0:
448,192,79379,1,0,0:0:0:0:
192,192,79425,1,0,0:0:0:0:
64,192,79471,1,0,0:0:0:0:
320,192,79563,1,0,0:0:0:0:
192,192,79609,1,0,0:0:0:0:
448,192,79655,1,0,0:0:0:0:
64,192,79747,1,0,0:0:0:0:
192,192,79793,1,0,0:0:0:0:
320,192,79816,1,0,0:0:0:0:
448,192,79885,1,0,0:0:0:0:
64,192,79953,1,0,0:0:0:0:
192,192,80022,1,0,0:0:0:0:
320,192,80022,1,0,0:0:0:0:
448,192,80091,1,0,0:0:0:0:
64,192,80160,1,0,0:0:0:0:
192,192,80229,1,0,0:0:0:0:
448,192,80298,1,0,0:0:0:0:
320,192,80333,1,0,0:0:0:0:
192,192,80367,1,0,0:0:0:0:
64,192,80402,1,0,0:0:0:0:
320,192,80436,1,0,0:0:0:0:
448,192,80505,1,0,0:0:0:0:
64,192,80574,1,0,0:0:0:0:
192,192,80574,1,0,0:0:0:0:
320,192,80643,1,0,0:0:0:0:
448,192,80712,1,0,0:0:0:0:
192,192,80781,1,0,0:0:0:0:
64,192,80850,1,0,0:0:0:0:
320,192,80896,1,0,0:0:0:0:
192,192,80941,1,0,0:0:0:0:
448,192,80987,1,0,0:0:0:0:
64,192,81079,1,0,0:0:0:0:
192,192,81125,1,0,0:0:0:0:
320,192,81171,1,0,0:0:0:0:
448,192,81217,1,0,0:0:0:0:
192,192,81263,1,0,0:0:0:0:
320,192,81309,1,0,0:0:0:0:
64,192,81355,1,0,0:0:0:0:
448,192,81401,1,0,0:0:0:0:
320,192,81493,1,0,0:0:0:0:
192,192,81539,1,0,0:0:0:0:
64,192,81585,1,0,0:0:0:0:
448,192,81677,1,0,0:0:0:0:
192,192,81723,1,0,0:0:0:0:
320,192,81769,1,0,0:0:0:0:
64,192,81815,1,0,0:0:0:0:
448,192,81861,1,0,0:0:0:0:
192,192,81952,1,0,0:0:0:0:
320,192,81998,1,0,0:0:0:0:
448,192,82090,1,0,0:0:0:0:
64,192,82136,1,0,0:0:0:0:
192,192,82182,1,0,0:0:0:0:
448,192,82228,1,0,0:0:0:0:
320,192,82366,1,0,0:0:0:0:
192,192,82412,1,0,0:0:0:0:
64,192,82458,1,0,0:0:0:0:
448,192,82504,1,0,0:0:0:0:
192,192,82550,1,0,0:0:0:0:
448,192,82642,1,0,0:0:0:0:
320,192,82688,1,0,0:0:0:0:
64,192,82780,1,0,0:0:0:0:
192,192,82871,1,0,0:0:0:0:
320,192,82917,1,0,0:0:0:0:
448,192,82963,1,0,0:0:0:0:
192,192,83055,1,0,0:0:0:0:
448,192,83101,1,0,0:0:0:0:
64,192,83147,1,0,0:0:0:0:
192,192,83193,1,0,0:0:0:0:
448,192,83239,1,0,0:0:0:0:
320,192,83331,1,0,0:0:0:0:
64,192,83377,1,0,0:0:0:0:
448,192,83400,1,0,0:0:0:0:
192,192,83469,1,0,0:0:0:0:
64,192,83538,1,0,0:0:0:0:
320,192,83607,1,0,0:0:0:0:
448,192,83607,1,0,0:0:0:0:
320,192,83745,1,0,0:0:0:0:
448,192,83745,1,0,0:0:0:0:
64,192,83882,1,0,0:0:0:0:
192,192,83882,1,0,0:0:0:0:
320,192,84158,1,0,0:0:0:0:
448,192,84158,1,0,0:0:0:0:
64,192,84227,1,0,0:0:0:0:
192,192,84227,1,0,0:0:0:0:
64,192,84434,1,0,0:0:0:0:
192,192,84434,1,0,0:0:0:0:
64,192,84710,1,0,0:0:0:0:
192,192,84710,1,0,0:0:0:0:
448,192,84710,1,0,0:0:0:0:
320,192,84779,1,0,0:0:0:0:
192,192,84847,1,0,0:0:0:0:
448,192,84916,1,0,0:0:0:0:
64,192,84985,1,0,0:0:0:0:
192,192,84985,1,0,0:0:0:0:
320,192,85054,1,0,0:0:0:0:
192,192,85123,1,0,0:0:0:0:
448,192,85123,1,0,0:0:0:0:
64,192,85192,1,0,0:0:0:0:
320,192,85261,1,0,0:0:0:0:
448,192,85261,1,0,0:0:0:0:
192,192,85330,1,0,0:0:0:0:
64,192,85399,1,0,0:0:0:0:
448,192,85399,1,0,0:0:0:0:
192,192,85468,1,0,0:0:0:0:
320,192,85537,1,0,0:0:0:0:
448,192,85537,1,0,0:0:0:0:
64,192,85606,1,0,0:0:0:0:
192,192,85675,1,0,0:0:0:0:
320,192,85675,1,0,0:0:0:0:
448,192,85744,1,0,0:0:0:0:
64,192,85812,1,0,0:0:0:0:
192,192,85812,1,0,0:0:0:0:
320,192,85881,1,0,0:0:0:0:
192,192,85950,1,0,0:0:0:0:
448,192,85950,1,0,0:0:0:0:
64,192,86019,1,0,0:0:0:0:
320,192,86088,1,0,0:0:0:0:
448,192,86088,1,0,0:0:0:0:
192,192,86157,1,0,0:0:0:0:
64,192,86226,1,0,0:0:0:0:
448,192,86226,1,0,0:0:0:0:
192,192,86295,1,0,0:0:0:0:
320,192,86364,1,0,0:0:0:0:
448,192,86364,1,0,0:0:0:0:
64,192,86433,1,0,0:0:0:0:
192,192,86502,1,0,0:0:0:0:
320,192,86502,1,0,0:0:0:0:
448,192,86571,1,0,0:0:0:0:
64,192,86640,1,0,0:0:0:0:
192,192,86640,1,0,0:0:0:0:
320,192,86709,1,0,0:0:0:0:
192,192,86777,1,0,0:0:0:0:
448,192,86777,1,0,0:0:0:0:
64,192,86846,1,0,0:0:0:0:
320,192,86915,1,0,0:0:0:0:
448,192,86915,1,0,0:0:0:0:
192,192,86984,1,0,0:0:0:0:
64,192,87053,1,0,0:0:0:0:
448,192,87053,1,0,0:0:0:0:
192,192,87122,1,0,0:0:0:0:
320,192,87191,1,0,0:0:0:0:
64,192,87260,1,0,0:0:0:0:
192,192,87329,1,0,0:0:0:0:
448,192,87329,1,0,0:0:0:0:
320,192,87398,1,0,0:0:0:0:
64,192,87467,1,0,0:0:0:0:
192,192,87467,1,0,0:0:0:0:
448,192,87536,1,0,0:0:0:0:
192,192,87605,1,0,0:0:0:0:
320,192,87605,1,0,0:0:0:0:
64,192,87673,1,0,0:0:0:0:
320,192,87742,1,0,0:0:0:0:
448,192,87742,1,0,0:0:0:0:
192,192,87811,1,0,0:0:0:0:
64,192,87880,1,0,0:0:0:0:
320,192,87880,1,0,0:0:0:0:
448,192,87949,1,0,0:0:0:0:
64,192,88018,1,0,0:0:0:0:
192,192,88018,1,0,0:0:0:0:
320,192,88087,1,0,0:0:0:0:
192,192,88156,1,0,0:0:0:0:
448,192,88156,1,0,0:0:0:0:
64,192,88225,1,0,0:0:0:0:
320,192,88294,1,0,0:0:0:0:
448,192,88294,1,0,0:0:0:0:
192,192,88363,1,0,0:0:0:0:
64,192,88432,1,0,0:0:0:0:
448,192,88432,1,0,0:0:0:0:
192,192,88501,1,0,0:0:0:0:
320,192,88570,1,0,0:0:0:0:
64,192,88639,1,0,0:0:0:0:
448,192,88707,1,0,0:0:0:0:
192,192,88776,1,0,0:0:0:0:
320,192,88776,1,0,0:0:0:0:
64,192,88845,1,0,0:0:0:0:
448,192,88914,1,0,0:0:0:0:
192,192,88983,1,0,0:0:0:0:
320,192,89052,1,0,0:0:0:0:
64,192,89121,1,0,0:0:0:0:
448,192,89121,1,0,0:0:0:0:
320,192,89190,1,0,0:0:0:0:
64,192,89259,1,0,0:0:0:0:
448,192,89259,1,0,0:0:0:0:
192,192,89328,1,0,0:0:0:0:
64,192,89397,1,0,0:0:0:0:
320,192,89397,1,0,0:0:0:0:
448,192,89466,1,0,0:0:0:0:
192,192,89535,1,0,0:0:0:0:
320,192,89604,1,0,0:0:0:0:
64,192,89672,1,0,0:0:0:0:
448,192,89672,1,0,0:0:0:0:
192,192,89741,1,0,0:0:0:0:
320,192,89810,1,0,0:0:0:0:
192,192,89879,1,0,0:0:0:0:
64,192,89948,1,0,0:0:0:0:
448,192,89948,1,0,0:0:0:0:
320,192,90017,1,0,0:0:0:0:
192,192,90086,1,0,0:0:0:0:
64,192,90155,1,0,0:0:0:0:
320,192,90155,1,0,0:0:0:0:
192,192,90224,1,0,0:0:0:0:
448,192,90224,1,0,0:0:0:0:
64,192,90293,1,0,0:0:0:0:
320,192,90362,1,0,0:0:0:0:
448,192,90362,1,0,0:0:0:0:
192,192,90431,1,0,0:0:0:0:
64,192,90500,1,0,0:0:0:0:
320,192,90569,1,0,0:0:0:0:
448,192,90637,1,0,0:0:0:0:
192,192,90706,1,0,0:0:0:0:
64,192,90775,1,0,0:0:0:0:
320,192,90775,1,0,0:0:0:0:
448,192,90844,1,0,0:0:0:0:
64,192,90913,1,0,0:0:0:0:
192,192,90913,1,0,0:0:0:0:
320,192,90982,1,0,0:0:0:0:
192,192,91051,1,0,0:0:0:0:
448,192,91051,1,0,0:0:0:0:
64,192,91120,1,0,0:0:0:0:
320,192,91189,1,0,0:0:0:0:
448,192,91189,1,0,0:0:0:0:
192,192,91258,1,0,0:0:0:0:
64,192,91327,1,0,0:0:0:0:
448,192,91327,1,0,0:0:0:0:
192,192,91396,1,0,0:0:0:0:
320,192,91396,1,0,0:0:0:0:
64,192,91465,1,0,0:0:0:0:
448,192,91533,1,0,0:0:0:0:
320,192,91602,1,0,0:0:0:0:
192,192,91671,1,0,0:0:0:0:
64,192,91740,1,0,0:0:0:0:
320,192,91740,1,0,0:0:0:0:
192,192,91809,1,0,0:0:0:0:
448,192,91809,1,0,0:0:0:0:
320,192,91878,1,0,0:0:0:0:
64,192,91947,1,0,0:0:0:0:
192,192,92016,1,0,0:0:0:0:
448,192,92085,1,0,0:0:0:0:
64,192,92154,1,0,0:0:0:0:
320,192,92154,1,0,0:0:0:0:
192,192,92223,1,0,0:0:0:0:
320,192,92292,1,0,0:0:0:0:
448,192,92292,1,0,0:0:0:0:
64,192,92361,1,0,0:0:0:0:
192,192,92430,1,0,0:0:0:0:
320,192,92430,1,0,0:0:0:0:
448,192,92499,1,0,0:0:0:0:
64,192,92567,1,0,0:0:0:0:
320,192,92636,1,0,0:0:0:0:
192,192,92705,1,0,0:0:0:0:
448,192,92705,1,0,0:0:0:0:
64,192,92774,1,0,0:0:0:0:
320,192,92843,1,0,0:0:0:0:
448,192,92843,1,0,0:0:0:0:
192,192,92912,1,0,0:0:0:0:
64,192,92981,1,0,0:0:0:0:
448,192,92981,1,0,0:0:0:0:
192,192,93050,1,0,0:0:0:0:
320,192,93119,1,0,0:0:0:0:
448,192,93188,1,0,0:0:0:0:
64,192,93257,1,0,0:0:0:0:
192,192,93257,1,0,0:0:0:0:
320,192,93326,1,0,0:0:0:0:
192,192,93395,1,0,0:0:0:0:
448,192,93395,1,0,0:0:0:0:
64,192,93464,1,0,0:0:0:0:
320,192,93532,1,0,0:0:0:0:
448,192,93532,1,0,0:0:0:0:
192,192,93601,1,0,0:0:0:0:
64,192,93670,1,0,0:0:0:0:
448,192,93670,1,0,0:0:0:0:
320,192,93739,1,0,0:0:0:0:
192,192,93808,1,0,0:0:0:0:
64,192,93877,1,0,0:0:0:0:
448,192,93946,1,0,0:0:0:0:
192,192,94015,1,0,0:0:0:0:
320,192,94015,1,0,0:0:0:0:
64,192,94084,1,0,0:0:0:0:
448,192,94084,1,0,0:0:0:0:
192,192,94153,1,0,0:0:0:0:
320,192,94222,1,0,0:0:0:0:
64,192,94291,1,0,0:0:0:0:
192,192,94360,1,0,0:0:0:0:
448,192,94360,1,0,0:0:0:0:
64,192,94429,1,0,0:0:0:0:
320,192,94429,1,0,0:0:0:0:
448,192,94497,1,0,0:0:0:0:
192,192,94566,1,0,0:0:0:0:
320,192,94635,1,0,0:0:0:0:
64,192,94704,1,0,0:0:0:0:
192,192,94773,1,0,0:0:0:0:
448,192,94773,1,0,0:0:0:0:
320,192,94842,1,0,0:0:0:0:
64,192,94911,1,0,0:0:0:0:
448,192,94980,1,0,0:0:0:0:
320,192,95049,1,0,0:0:0:0:
64,192,95118,1,0,0:0:0:0:
192,192,95187,1,0,0:0:0:0:
448,192,95187,1,0,0:0:0:0:
320,192,95256,1,0,0:0:0:0:
64,192,95325,1,0,0:0:0:0:
192,192,95393,1,0,0:0:0:0:
448,192,95462,1,0,0:0:0:0:
320,192,95531,1,0,0:0:0:0:
64,192,95600,1,0,0:0:0:0:
192,192,95600,1,0,0:0:0:0:
448,192,95669,1,0,0:0:0:0:
192,192,95738,1,0,0:0:0:0:
320,192,95738,1,0,0:0:0:0:
64,192,95807,1,0,0:0:0:0:
320,192,95876,1,0,0:0:0:0:
448,192,95876,1,0,0:0:0:0:
192,192,95945,1,0,0:0:0:0:
64,192,96014,1,0,0:0:0:0:
320,192,96014,1,0,0:0:0:0:
448,192,96083,1,0,0:0:0:0:
192,192,96152,1,0,0:0:0:0:
64,192,96221,1,0,0:0:0:0:
320,192,96290,1,0,0:0:0:0:
448,192,96290,1,0,0:0:0:0:
192,192,96358,1,0,0:0:0:0:
64,192,96427,1,0,0:0:0:0:
320,192,96496,1,0,0:0:0:0:
192,192,96565,1,0,0:0:0:0:
448,192,96565,1,0,0:0:0:0:
64,192,96634,1,0,0:0:0:0:
320,192,96703,1,0,0:0:0:0:
192,192,96772,1,0,0:0:0:0:
448,192,96841,1,0,0:0:0:0:
64,192,96910,1,0,0:0:0:0:
192,192,96979,1,0,0:0:0:0:
448,192,97048,1,0,0:0:0:0:
64,192,97117,1,0,0:0:0:0:
192,192,97117,1,0,0:0:0:0:
320,192,97186,1,0,0:0:0:0:
64,192,97255,1,0,0:0:0:0:
448,192,97255,1,0,0:0:0:0:
192,192,97324,1,0,0:0:0:0:
320,192,97392,1,0,0:0:0:0:
448,192,97392,1,0,0:0:0:0:
64,192,97461,1,0,0:0:0:0:
192,192,97530,1,0,0:0:0:0:
320,192,97530,1,0,0:0:0:0:
448,192,97599,1,0,0:0:0:0:
64,192,97668,1,0,0:0:0:0:
192,192,97668,1,0,0:0:0:0:
320,192,97737,1,0,0:0:0:0:
64,192,97806,1,0,0:0:0:0:
448,192,97806,1,0,0:0:0:0:
192,192,97875,1,0,0:0:0:0:
320,192,97944,1,0,0:0:0:0:
448,192,97944,1,0,0:0:0:0:
64,192,98013,1,0,0:0:0:0:
192,192,98082,1,0,0:0:0:0:
320,192,98082,1,0,0:0:0:0:
448,192,98151,1,0,0:0:0:0:
64,192,98220,1,0,0:0:0:0:
192,192,98220,1,0,0:0:0:0:
320,192,98289,1,0,0:0:0:0:
64,192,98357,1,0,0:0:0:0:
448,192,98357,1,0,0:0:0:0:
192,192,98426,1,0,0:0:0:0:
320,192,98495,1,0,0:0:0:0:
448,192,98495,1,0,0:0:0:0:
64,192,98564,1,0,0:0:0:0:
192,192,98633,1,0,0:0:0:0:
320,192,98633,1,0,0:0:0:0:
448,192,98702,1,0,0:0:0:0:
64,192,98771,1,0,0:0:0:0:
192,192,98771,1,0,0:0:0:0:
320,192,98840,1,0,0:0:0:0:
64,192,98909,1,0,0:0:0:0:
448,192,98909,1,0,0:0:0:0:
192,192,98978,1,0,0:0:0:0:
320,192,99047,1,0,0:0:0:0:
448,192,99047,1,0,0:0:0:0:
192,192,99116,1,0,0:0:0:0:
64,192,99185,1,0,0:0:0:0:
448,192,99185,1,0,0:0:0:0:
320,192,99253,1,0,0:0:0:0:
64,192,99322,1,0,0:0:0:0:
192,192,99322,1,0,0:0:0:0:
448,192,99391,1,0,0:0:0:0:
192,192,99460,1,0,0:0:0:0:
320,192,99460,1,0,0:0:0:0:
64,192,99529,1,0,0:0:0:0:
320,192,99598,1,0,0:0:0:0:
448,192,99598,1,0,0:0:0:0:
192,192,99667,1,0,0:0:0:0:
64,192,99736,1,0,0:0:0:0:
448,192,99736,1,0,0:0:0:0:
320,192,99805,1,0,0:0:0:0:
64,192,99874,1,0,0:0:0:0:
192,192,99874,1,0,0:0:0:0:
448,192,99943,1,0,0:0:0:0:
192,192,100012,1,0,0:0:0:0:
320,192,100012,1,0,0:0:0:0:
64,192,100081,1,0,0:0:0:0:
448,192,100150,1,0,0:0:0:0:
192,192,100196,1,0,0:0:0:0:
320,192,100241,1,0,0:0:0:0:
64,192,100287,1,0,0:0:0:0:
448,192,100333,1,0,0:0:0:0:
320,192,100379,1,0,0:0:0:0:
64,192,100425,1,0,0:0:0:0:
192,192,100471,1,0,0:0:0:0:
448,192,100517,1,0,0:0:0:0:
64,192,100563,1,0,0:0:0:0:
320,192,100609,1,0,0:0:0:0:
192,192,100655,1,0,0:0:0:0:
448,192,100701,1,0,0:0:0:0:
64,192,100747,1,0,0:0:0:0:
320,192,100793,1,0,0:0:0:0:
192,192,100839,1,0,0:0:0:0:
448,192,100885,1,0,0:0:0:0:
64,192,100931,1,0,0:0:0:0:
192,192,100977,1,0,0:0:0:0:
448,192,101023,1,0,0:0:0:0:
320,192,101069,1,0,0:0:0:0:
64,192,101115,1,0,0:0:0:0:
448,192,101161,1,0,0:0:0:0:
320,192,101206,1,0,0:0:0:0:
192,192,101252,1,0,0:0:0:0:
192,192,101666,1,0,0:0:0:0:
320,192,101666,1,0,0:0:0:0:
64,192,101735,1,0,0:0:0:0:
448,192,101735,1,0,0:0:0:0:
320,192,101942,1,0,0:0:0:0:
192,192,102149,128,0,102769:0:0:0:0:
64,192,102769,128,0,104010:0:0:0:0:
