osu file format v14

[General]
AudioFilename: Spin - Taking Back Sunday (High Quality).ogg
AudioLeadIn: 0
PreviewTime: 72718
Countdown: 0
SampleSet: Soft
StackLeniency: 0.7
Mode: 3
LetterboxInBreaks: 0
SpecialStyle: 0
WidescreenStoryboard: 0

[Editor]
DistanceSpacing: 0.8
BeatDivisor: 2
GridSize: 32
TimelineZoom: 1

[Metadata]
Title:Dingles Technical Stream Pack 1
TitleUnicode:Dingles Technical Stream Pack 1
Artist:Various Artists
ArtistUnicode:Various Artists
Creator:Dingles
Version:Spin
Source:
Tags:
BeatmapID:1577548
BeatmapSetID:738707

[Difficulty]
HPDrainRate:5
CircleSize:4
OverallDifficulty:8
ApproachRate:5
SliderMultiplier:1.4
SliderTickRate:1

[Events]
//Background and Video events
//Break Periods
//Storyboard Layer 0 (Background)
//Storyboard Layer 1 (Fail)
//Storyboard Layer 2 (Pass)
//Storyboard Layer 3 (Foreground)
//Storyboard Sound Samples

[TimingPoints]
1221,314.96559,4,2,0,0,1,0

[HitObjects]
320,192,118,5,0,0:0:0:0:
448,192,197,1,0,0:0:0:0:
64,192,276,1,0,0:0:0:0:
64,192,355,1,0,0:0:0:0:
320,192,433,1,0,0:0:0:0:
320,192,591,1,0,0:0:0:0:
448,192,591,1,0,0:0:0:0:
192,192,748,1,0,0:0:0:0:
64,192,906,1,0,0:0:0:0:
192,192,906,1,0,0:0:0:0:
64,192,1063,1,0,0:0:0:0:
192,192,1063,1,0,0:0:0:0:
320,192,1063,1,0,0:0:0:0:
320,192,1221,1,0,0:0:0:0:
448,192,1221,1,0,0:0:0:0:
64,192,1378,1,0,0:0:0:0:
192,192,1378,1,0,0:0:0:0:
320,192,1536,1,0,0:0:0:0:
320,192,1615,1,0,0:0:0:0:
448,192,1693,1,0,0:0:0:0:
448,192,1772,1,0,0:0:0:0:
64,192,1851,1,0,0:0:0:0:
192,192,1851,1,0,0:0:0:0:
320,192,2008,1,0,0:0:0:0:
320,192,2166,1,0,0:0:0:0:
448,192,2166,1,0,0:0:0:0:
192,192,2323,1,0,0:0:0:0:
320,192,2323,1,0,0:0:0:0:
448,192,2323,1,0,0:0:0:0:
64,192,2481,1,0,0:0:0:0:
192,192,2481,1,0,0:0:0:0:
320,192,2638,1,0,0:0:0:0:
448,192,2638,1,0,0:0:0:0:
192,192,2796,1,0,0:0:0:0:
192,192,2874,1,0,0:0:0:0:
64,192,2953,1,0,0:0:0:0:
64,192,3032,1,0,0:0:0:0:
320,192,3111,1,0,0:0:0:0:
448,192,3111,1,0,0:0:0:0:
64,192,3268,1,0,0:0:0:0:
64,192,3426,1,0,0:0:0:0:
192,192,3426,1,0,0:0:0:0:
64,192,3583,1,0,0:0:0:0:
192,192,3583,1,0,0:0:0:0:
320,192,3583,1,0,0:0:0:0:
320,192,3741,1,0,0:0:0:0:
448,192,3741,1,0,0:0:0:0:
192,192,3898,1,0,0:0:0:0:
448,192,3898,1,0,0:0:0:0:
64,192,4056,1,0,0:0:0:0:
64,192,4134,1,0,0:0:0:0:
192,192,4213,1,0,0:0:0:0:
192,192,4292,1,0,0:0:0:0:
320,192,4371,1,0,0:0:0:0:
448,192,4371,1,0,0:0:0:0:
64,192,4528,1,0,0:0:0:0:
320,192,4528,1,0,0:0:0:0:
448,192,4685,1,0,0:0:0:0:
448,192,4764,1,0,0:0:0:0:
320,192,4843,1,0,0:0:0:0:
320,192,4922,1,0,0:0:0:0:
64,192,5000,1,0,0:0:0:0:
192,192,5000,1,0,0:0:0:0:
64,192,5158,1,0,0:0:0:0:
320,192,5158,1,0,0:0:0:0:
448,192,5315,1,0,0:0:0:0:
448,192,5394,1,0,0:0:0:0:
320,192,5473,1,0,0:0:0:0:
320,192,5552,1,0,0:0:0:0:
64,192,5630,1,0,0:0:0:0:
192,192,5630,1,0,0:0:0:0:
320,192,5788,1,0,0:0:0:0:
320,192,5945,1,0,0:0:0:0:
448,192,5945,1,0,0:0:0:0:
192,192,6103,1,0,0:0:0:0:
320,192,6103,1,0,0:0:0:0:
448,192,6103,1,0,0:0:0:0:
64,192,6260,1,0,0:0:0:0:
192,192,6260,1,0,0:0:0:0:
320,192,6418,1,0,0:0:0:0:
448,192,6418,1,0,0:0:0:0:
192,192,6575,1,0,0:0:0:0:
192,192,6654,1,0,0:0:0:0:
64,192,6733,1,0,0:0:0:0:
64,192,6812,1,0,0:0:0:0:
320,192,6890,1,0,0:0:0:0:
448,192,6890,1,0,0:0:0:0:
192,192,7048,1,0,0:0:0:0:
64,192,7205,1,0,0:0:0:0:
192,192,7205,1,0,0:0:0:0:
64,192,7363,1,0,0:0:0:0:
192,192,7363,1,0,0:0:0:0:
320,192,7363,1,0,0:0:0:0:
320,192,7520,1,0,0:0:0:0:
448,192,7520,1,0,0:0:0:0:
64,192,7678,1,0,0:0:0:0:
192,192,7678,1,0,0:0:0:0:
320,192,7835,1,0,0:0:0:0:
320,192,7914,1,0,0:0:0:0:
448,192,7993,1,0,0:0:0:0:
448,192,8071,1,0,0:0:0:0:
64,192,8150,1,0,0:0:0:0:
192,192,8150,1,0,0:0:0:0:
448,192,8308,1,0,0:0:0:0:
320,192,8465,1,0,0:0:0:0:
448,192,8465,1,0,0:0:0:0:
192,192,8623,1,0,0:0:0:0:
320,192,8623,1,0,0:0:0:0:
448,192,8623,1,0,0:0:0:0:
64,192,8780,1,0,0:0:0:0:
192,192,8780,1,0,0:0:0:0:
64,192,8938,1,0,0:0:0:0:
320,192,8938,1,0,0:0:0:0:
448,192,9095,1,0,0:0:0:0:
448,192,9174,1,0,0:0:0:0:
320,192,9252,1,0,0:0:0:0:
320,192,9331,1,0,0:0:0:0:
64,192,9410,1,0,0:0:0:0:
192,192,9410,1,0,0:0:0:0:
192,192,9567,1,0,0:0:0:0:
448,192,9567,1,0,0:0:0:0:
64,192,9725,1,0,0:0:0:0:
64,192,9804,1,0,0:0:0:0:
192,192,9882,1,0,0:0:0:0:
192,192,9961,1,0,0:0:0:0:
64,192,10040,1,0,0:0:0:0:
320,192,10040,1,0,0:0:0:0:
448,192,10040,1,0,0:0:0:0:
64,192,10355,1,0,0:0:0:0:
192,192,10355,1,0,0:0:0:0:
320,192,10355,1,0,0:0:0:0:
448,192,10434,1,0,0:0:0:0:
64,192,10460,1,0,0:0:0:0:
192,192,10460,1,0,0:0:0:0:
320,192,10565,1,0,0:0:0:0:
192,192,10670,1,0,0:0:0:0:
320,192,10670,1,0,0:0:0:0:
448,192,10670,1,0,0:0:0:0:
64,192,10749,1,0,0:0:0:0:
320,192,10880,1,0,0:0:0:0:
448,192,10880,1,0,0:0:0:0:
64,192,10985,1,0,0:0:0:0:
320,192,10985,1,0,0:0:0:0:
448,192,10985,1,0,0:0:0:0:
192,192,11064,1,0,0:0:0:0:
320,192,11195,1,0,0:0:0:0:
64,192,11300,1,0,0:0:0:0:
192,192,11300,1,0,0:0:0:0:
320,192,11300,1,0,0:0:0:0:
448,192,11379,1,0,0:0:0:0:
192,192,11457,1,0,0:0:0:0:
192,192,11615,1,0,0:0:0:0:
320,192,11615,1,0,0:0:0:0:
448,192,11615,1,0,0:0:0:0:
64,192,11693,1,0,0:0:0:0:
320,192,11720,1,0,0:0:0:0:
448,192,11720,1,0,0:0:0:0:
192,192,11825,1,0,0:0:0:0:
64,192,11930,1,0,0:0:0:0:
192,192,11930,1,0,0:0:0:0:
320,192,11930,1,0,0:0:0:0:
448,192,12008,1,0,0:0:0:0:
64,192,12140,1,0,0:0:0:0:
192,192,12140,1,0,0:0:0:0:
64,192,12245,1,0,0:0:0:0:
192,192,12245,1,0,0:0:0:0:
448,192,12245,1,0,0:0:0:0:
320,192,12323,1,0,0:0:0:0:
192,192,12455,1,0,0:0:0:0:
192,192,12560,1,0,0:0:0:0:
320,192,12560,1,0,0:0:0:0:
448,192,12560,1,0,0:0:0:0:
64,192,12638,1,0,0:0:0:0:
320,192,12717,1,0,0:0:0:0:
64,192,12875,1,0,0:0:0:0:
192,192,12875,1,0,0:0:0:0:
320,192,12875,1,0,0:0:0:0:
448,192,12953,1,0,0:0:0:0:
64,192,12980,1,0,0:0:0:0:
192,192,12980,1,0,0:0:0:0:
320,192,13085,1,0,0:0:0:0:
192,192,13190,1,0,0:0:0:0:
320,192,13190,1,0,0:0:0:0:
448,192,13190,1,0,0:0:0:0:
64,192,13268,1,0,0:0:0:0:
320,192,13400,1,0,0:0:0:0:
448,192,13400,1,0,0:0:0:0:
64,192,13505,1,0,0:0:0:0:
320,192,13505,1,0,0:0:0:0:
448,192,13505,1,0,0:0:0:0:
192,192,13583,1,0,0:0:0:0:
320,192,13714,1,0,0:0:0:0:
64,192,13819,1,0,0:0:0:0:
192,192,13819,1,0,0:0:0:0:
320,192,13819,1,0,0:0:0:0:
448,192,13898,1,0,0:0:0:0:
192,192,13977,1,0,0:0:0:0:
64,192,14134,1,0,0:0:0:0:
192,192,14134,1,0,0:0:0:0:
320,192,14134,1,0,0:0:0:0:
448,192,14213,1,0,0:0:0:0:
64,192,14239,1,0,0:0:0:0:
320,192,14239,1,0,0:0:0:0:
192,192,14344,1,0,0:0:0:0:
192,192,14449,1,0,0:0:0:0:
320,192,14449,1,0,0:0:0:0:
448,192,14449,1,0,0:0:0:0:
64,192,14528,1,0,0:0:0:0:
192,192,14659,1,0,0:0:0:0:
448,192,14659,1,0,0:0:0:0:
64,192,14764,1,0,0:0:0:0:
192,192,14764,1,0,0:0:0:0:
448,192,14764,1,0,0:0:0:0:
320,192,14843,1,0,0:0:0:0:
192,192,14974,1,0,0:0:0:0:
64,192,15079,1,0,0:0:0:0:
192,192,15079,1,0,0:0:0:0:
320,192,15079,1,0,0:0:0:0:
448,192,15158,1,0,0:0:0:0:
64,192,15237,1,0,0:0:0:0:
192,192,15394,1,0,0:0:0:0:
320,192,15394,1,0,0:0:0:0:
448,192,15394,1,0,0:0:0:0:
64,192,15473,1,0,0:0:0:0:
320,192,15499,1,0,0:0:0:0:
448,192,15499,1,0,0:0:0:0:
192,192,15604,1,0,0:0:0:0:
64,192,15709,1,0,0:0:0:0:
192,192,15709,1,0,0:0:0:0:
320,192,15709,1,0,0:0:0:0:
448,192,15788,1,0,0:0:0:0:
64,192,15919,1,0,0:0:0:0:
192,192,15919,1,0,0:0:0:0:
64,192,16024,1,0,0:0:0:0:
192,192,16024,1,0,0:0:0:0:
448,192,16024,1,0,0:0:0:0:
320,192,16103,1,0,0:0:0:0:
192,192,16234,1,0,0:0:0:0:
192,192,16339,1,0,0:0:0:0:
320,192,16339,1,0,0:0:0:0:
448,192,16339,1,0,0:0:0:0:
64,192,16418,1,0,0:0:0:0:
320,192,16497,1,0,0:0:0:0:
64,192,16654,1,0,0:0:0:0:
192,192,16654,1,0,0:0:0:0:
320,192,16654,1,0,0:0:0:0:
448,192,16733,1,0,0:0:0:0:
64,192,16759,1,0,0:0:0:0:
192,192,16759,1,0,0:0:0:0:
320,192,16864,1,0,0:0:0:0:
192,192,16969,1,0,0:0:0:0:
320,192,16969,1,0,0:0:0:0:
448,192,16969,1,0,0:0:0:0:
64,192,17048,1,0,0:0:0:0:
320,192,17179,1,0,0:0:0:0:
448,192,17179,1,0,0:0:0:0:
64,192,17284,1,0,0:0:0:0:
320,192,17284,1,0,0:0:0:0:
448,192,17284,1,0,0:0:0:0:
192,192,17363,1,0,0:0:0:0:
320,192,17494,1,0,0:0:0:0:
64,192,17599,1,0,0:0:0:0:
192,192,17599,1,0,0:0:0:0:
320,192,17599,1,0,0:0:0:0:
448,192,17678,1,0,0:0:0:0:
192,192,17757,1,0,0:0:0:0:
192,192,17914,1,0,0:0:0:0:
320,192,17914,1,0,0:0:0:0:
448,192,17914,1,0,0:0:0:0:
64,192,17993,1,0,0:0:0:0:
320,192,18019,1,0,0:0:0:0:
448,192,18019,1,0,0:0:0:0:
192,192,18124,1,0,0:0:0:0:
64,192,18229,1,0,0:0:0:0:
192,192,18229,1,0,0:0:0:0:
320,192,18229,1,0,0:0:0:0:
448,192,18308,1,0,0:0:0:0:
64,192,18439,1,0,0:0:0:0:
192,192,18439,1,0,0:0:0:0:
64,192,18544,1,0,0:0:0:0:
192,192,18544,1,0,0:0:0:0:
448,192,18544,1,0,0:0:0:0:
320,192,18623,1,0,0:0:0:0:
192,192,18754,1,0,0:0:0:0:
192,192,18859,1,0,0:0:0:0:
320,192,18859,1,0,0:0:0:0:
448,192,18859,1,0,0:0:0:0:
64,192,18938,1,0,0:0:0:0:
320,192,19016,1,0,0:0:0:0:
192,192,19174,1,0,0:0:0:0:
320,192,19174,1,0,0:0:0:0:
448,192,19174,1,0,0:0:0:0:
64,192,19253,1,0,0:0:0:0:
320,192,19331,1,0,0:0:0:0:
448,192,19331,1,0,0:0:0:0:
192,192,19410,1,0,0:0:0:0:
64,192,19489,1,0,0:0:0:0:
448,192,19489,1,0,0:0:0:0:
192,192,19646,1,0,0:0:0:0:
320,192,19646,1,0,0:0:0:0:
192,192,19804,1,0,0:0:0:0:
448,192,19804,1,0,0:0:0:0:
64,192,19856,1,0,0:0:0:0:
320,192,19961,1,0,0:0:0:0:
448,192,19961,1,0,0:0:0:0:
64,192,20119,1,0,0:0:0:0:
448,192,20119,1,0,0:0:0:0:
320,192,20171,1,0,0:0:0:0:
64,192,20276,1,0,0:0:0:0:
192,192,20276,1,0,0:0:0:0:
448,192,20434,1,0,0:0:0:0:
320,192,20513,1,0,0:0:0:0:
64,192,20539,1,0,0:0:0:0:
192,192,20591,1,0,0:0:0:0:
192,192,20749,1,0,0:0:0:0:
448,192,20854,1,0,0:0:0:0:
192,192,20906,1,0,0:0:0:0:
192,192,21064,1,0,0:0:0:0:
320,192,21142,1,0,0:0:0:0:
192,192,21221,1,0,0:0:0:0:
448,192,21274,1,0,0:0:0:0:
64,192,21300,1,0,0:0:0:0:
320,192,21379,1,0,0:0:0:0:
320,192,21536,1,0,0:0:0:0:
64,192,21694,1,0,0:0:0:0:
192,192,21694,1,0,0:0:0:0:
320,192,21772,1,0,0:0:0:0:
448,192,21851,1,0,0:0:0:0:
192,192,21904,1,0,0:0:0:0:
448,192,22009,1,0,0:0:0:0:
320,192,22087,1,0,0:0:0:0:
192,192,22166,1,0,0:0:0:0:
448,192,22219,1,0,0:0:0:0:
192,192,22324,1,0,0:0:0:0:
320,192,22402,1,0,0:0:0:0:
64,192,22481,1,0,0:0:0:0:
448,192,22534,1,0,0:0:0:0:
64,192,22639,1,0,0:0:0:0:
192,192,22717,1,0,0:0:0:0:
320,192,22796,1,0,0:0:0:0:
64,192,22848,1,0,0:0:0:0:
320,192,22953,1,0,0:0:0:0:
448,192,23032,1,0,0:0:0:0:
64,192,23058,1,0,0:0:0:0:
320,192,23111,1,0,0:0:0:0:
192,192,23190,1,0,0:0:0:0:
320,192,23268,1,0,0:0:0:0:
64,192,23347,1,0,0:0:0:0:
448,192,23426,1,0,0:0:0:0:
192,192,23505,1,0,0:0:0:0:
320,192,23583,1,0,0:0:0:0:
64,192,23636,1,0,0:0:0:0:
192,192,23741,1,0,0:0:0:0:
320,192,23741,1,0,0:0:0:0:
64,192,23898,1,0,0:0:0:0:
320,192,23898,1,0,0:0:0:0:
448,192,23977,1,0,0:0:0:0:
64,192,24056,1,0,0:0:0:0:
192,192,24056,1,0,0:0:0:0:
320,192,24108,1,0,0:0:0:0:
64,192,24213,1,0,0:0:0:0:
192,192,24213,1,0,0:0:0:0:
64,192,24371,1,0,0:0:0:0:
192,192,24371,1,0,0:0:0:0:
448,192,24423,1,0,0:0:0:0:
64,192,24528,1,0,0:0:0:0:
192,192,24528,1,0,0:0:0:0:
64,192,24686,1,0,0:0:0:0:
192,192,24686,1,0,0:0:0:0:
320,192,24765,1,0,0:0:0:0:
448,192,24765,1,0,0:0:0:0:
64,192,24843,1,0,0:0:0:0:
192,192,24843,1,0,0:0:0:0:
320,192,24922,1,0,0:0:0:0:
448,192,25001,1,0,0:0:0:0:
192,192,25053,1,0,0:0:0:0:
320,192,25158,1,0,0:0:0:0:
448,192,25158,1,0,0:0:0:0:
192,192,25237,1,0,0:0:0:0:
64,192,25316,1,0,0:0:0:0:
448,192,25421,1,0,0:0:0:0:
64,192,25473,1,0,0:0:0:0:
192,192,25552,1,0,0:0:0:0:
320,192,25631,1,0,0:0:0:0:
64,192,25736,1,0,0:0:0:0:
320,192,25788,1,0,0:0:0:0:
192,192,25867,1,0,0:0:0:0:
448,192,25946,1,0,0:0:0:0:
64,192,26051,1,0,0:0:0:0:
448,192,26103,1,0,0:0:0:0:
320,192,26182,1,0,0:0:0:0:
192,192,26261,1,0,0:0:0:0:
448,192,26366,1,0,0:0:0:0:
192,192,26418,1,0,0:0:0:0:
320,192,26471,1,0,0:0:0:0:
64,192,26497,1,0,0:0:0:0:
192,192,26576,1,0,0:0:0:0:
320,192,26654,1,0,0:0:0:0:
192,192,26733,1,0,0:0:0:0:
448,192,26812,1,0,0:0:0:0:
64,192,26891,1,0,0:0:0:0:
320,192,26969,1,0,0:0:0:0:
192,192,27048,1,0,0:0:0:0:
448,192,27153,1,0,0:0:0:0:
192,192,27206,1,0,0:0:0:0:
320,192,27206,1,0,0:0:0:0:
192,192,27363,1,0,0:0:0:0:
448,192,27363,1,0,0:0:0:0:
64,192,27442,1,0,0:0:0:0:
320,192,27520,1,0,0:0:0:0:
448,192,27520,1,0,0:0:0:0:
192,192,27573,1,0,0:0:0:0:
320,192,27678,1,0,0:0:0:0:
448,192,27678,1,0,0:0:0:0:
64,192,27730,1,0,0:0:0:0:
320,192,27835,1,0,0:0:0:0:
448,192,27835,1,0,0:0:0:0:
320,192,27993,1,0,0:0:0:0:
448,192,27993,1,0,0:0:0:0:
192,192,28045,1,0,0:0:0:0:
320,192,28150,1,0,0:0:0:0:
448,192,28150,1,0,0:0:0:0:
64,192,28229,1,0,0:0:0:0:
192,192,28229,1,0,0:0:0:0:
320,192,28308,1,0,0:0:0:0:
448,192,28308,1,0,0:0:0:0:
192,192,28387,1,0,0:0:0:0:
64,192,28465,1,0,0:0:0:0:
320,192,28544,1,0,0:0:0:0:
192,192,28623,1,0,0:0:0:0:
192,192,28780,1,0,0:0:0:0:
64,192,28859,1,0,0:0:0:0:
192,192,28938,1,0,0:0:0:0:
320,192,29017,1,0,0:0:0:0:
192,192,29095,1,0,0:0:0:0:
448,192,29174,1,0,0:0:0:0:
64,192,29253,1,0,0:0:0:0:
320,192,29332,1,0,0:0:0:0:
192,192,29410,1,0,0:0:0:0:
64,192,29568,1,0,0:0:0:0:
320,192,29620,1,0,0:0:0:0:
192,192,29673,1,0,0:0:0:0:
448,192,29725,1,0,0:0:0:0:
64,192,29778,1,0,0:0:0:0:
192,192,29830,1,0,0:0:0:0:
320,192,29883,1,0,0:0:0:0:
448,192,29935,1,0,0:0:0:0:
192,192,29988,1,0,0:0:0:0:
320,192,30040,1,0,0:0:0:0:
64,192,30093,1,0,0:0:0:0:
448,192,30145,1,0,0:0:0:0:
320,192,30198,1,0,0:0:0:0:
192,192,30250,1,0,0:0:0:0:
448,192,30303,1,0,0:0:0:0:
64,192,30355,1,0,0:0:0:0:
192,192,30408,1,0,0:0:0:0:
320,192,30460,1,0,0:0:0:0:
448,192,30513,1,0,0:0:0:0:
192,192,30552,1,0,0:0:0:0:
64,192,30591,1,0,0:0:0:0:
320,192,30631,1,0,0:0:0:0:
448,192,30670,1,0,0:0:0:0:
192,192,30710,1,0,0:0:0:0:
448,192,30828,1,0,0:0:0:0:
192,192,30880,1,0,0:0:0:0:
320,192,30933,1,0,0:0:0:0:
64,192,30985,1,0,0:0:0:0:
448,192,31038,1,0,0:0:0:0:
320,192,31090,1,0,0:0:0:0:
192,192,31143,1,0,0:0:0:0:
64,192,31195,1,0,0:0:0:0:
320,192,31248,1,0,0:0:0:0:
192,192,31300,1,0,0:0:0:0:
448,192,31353,1,0,0:0:0:0:
64,192,31405,1,0,0:0:0:0:
192,192,31458,1,0,0:0:0:0:
320,192,31510,1,0,0:0:0:0:
64,192,31563,1,0,0:0:0:0:
448,192,31615,1,0,0:0:0:0:
320,192,31668,1,0,0:0:0:0:
192,192,31720,1,0,0:0:0:0:
64,192,31773,1,0,0:0:0:0:
320,192,31812,1,0,0:0:0:0:
448,192,31851,1,0,0:0:0:0:
192,192,31891,1,0,0:0:0:0:
64,192,31930,1,0,0:0:0:0:
320,192,31969,1,0,0:0:0:0:
192,192,32035,1,0,0:0:0:0:
448,192,32087,1,0,0:0:0:0:
64,192,32166,1,0,0:0:0:0:
192,192,32245,1,0,0:0:0:0:
64,192,32324,1,0,0:0:0:0:
320,192,32402,1,0,0:0:0:0:
192,192,32455,1,0,0:0:0:0:
448,192,32560,1,0,0:0:0:0:
192,192,32665,1,0,0:0:0:0:
320,192,32717,1,0,0:0:0:0:
64,192,32796,1,0,0:0:0:0:
448,192,32875,1,0,0:0:0:0:
64,192,32927,1,0,0:0:0:0:
192,192,33032,1,0,0:0:0:0:
320,192,33085,1,0,0:0:0:0:
448,192,33190,1,0,0:0:0:0:
320,192,33269,1,0,0:0:0:0:
192,192,33347,1,0,0:0:0:0:
64,192,33426,1,0,0:0:0:0:
320,192,33505,1,0,0:0:0:0:
192,192,33557,1,0,0:0:0:0:
448,192,33584,1,0,0:0:0:0:
64,192,33662,1,0,0:0:0:0:
320,192,33662,1,0,0:0:0:0:
448,192,33741,1,0,0:0:0:0:
64,192,33820,1,0,0:0:0:0:
192,192,33872,1,0,0:0:0:0:
320,192,33977,1,0,0:0:0:0:
64,192,34056,1,0,0:0:0:0:
448,192,34135,1,0,0:0:0:0:
192,192,34187,1,0,0:0:0:0:
64,192,34292,1,0,0:0:0:0:
192,192,34371,1,0,0:0:0:0:
320,192,34450,1,0,0:0:0:0:
448,192,34450,1,0,0:0:0:0:
192,192,34528,1,0,0:0:0:0:
448,192,34607,1,0,0:0:0:0:
192,192,34712,1,0,0:0:0:0:
64,192,34765,1,0,0:0:0:0:
320,192,34843,1,0,0:0:0:0:
64,192,34922,1,0,0:0:0:0:
192,192,35027,1,0,0:0:0:0:
320,192,35080,1,0,0:0:0:0:
448,192,35158,1,0,0:0:0:0:
64,192,35237,1,0,0:0:0:0:
192,192,35316,1,0,0:0:0:0:
320,192,35395,1,0,0:0:0:0:
64,192,35473,1,0,0:0:0:0:
448,192,35473,1,0,0:0:0:0:
192,192,35552,1,0,0:0:0:0:
448,192,35631,1,0,0:0:0:0:
64,192,35710,1,0,0:0:0:0:
320,192,35762,1,0,0:0:0:0:
192,192,35815,1,0,0:0:0:0:
448,192,35867,1,0,0:0:0:0:
64,192,35920,1,0,0:0:0:0:
192,192,35972,1,0,0:0:0:0:
320,192,36025,1,0,0:0:0:0:
448,192,36077,1,0,0:0:0:0:
192,192,36130,1,0,0:0:0:0:
320,192,36182,1,0,0:0:0:0:
64,192,36235,1,0,0:0:0:0:
448,192,36287,1,0,0:0:0:0:
320,192,36340,1,0,0:0:0:0:
192,192,36392,1,0,0:0:0:0:
448,192,36445,1,0,0:0:0:0:
64,192,36497,1,0,0:0:0:0:
192,192,36550,1,0,0:0:0:0:
320,192,36602,1,0,0:0:0:0:
448,192,36654,1,0,0:0:0:0:
192,192,36694,1,0,0:0:0:0:
64,192,36733,1,0,0:0:0:0:
320,192,36773,1,0,0:0:0:0:
448,192,36812,1,0,0:0:0:0:
192,192,36851,1,0,0:0:0:0:
320,192,36891,1,0,0:0:0:0:
64,192,36917,1,0,0:0:0:0:
448,192,36969,1,0,0:0:0:0:
192,192,37022,1,0,0:0:0:0:
320,192,37074,1,0,0:0:0:0:
64,192,37127,1,0,0:0:0:0:
192,192,37179,1,0,0:0:0:0:
320,192,37232,1,0,0:0:0:0:
448,192,37284,1,0,0:0:0:0:
64,192,37337,1,0,0:0:0:0:
320,192,37389,1,0,0:0:0:0:
192,192,37442,1,0,0:0:0:0:
448,192,37494,1,0,0:0:0:0:
320,192,37547,1,0,0:0:0:0:
192,192,37599,1,0,0:0:0:0:
64,192,37652,1,0,0:0:0:0:
448,192,37704,1,0,0:0:0:0:
192,192,37757,1,0,0:0:0:0:
320,192,37809,1,0,0:0:0:0:
448,192,37862,1,0,0:0:0:0:
64,192,37914,1,0,0:0:0:0:
320,192,37967,1,0,0:0:0:0:
192,192,38019,1,0,0:0:0:0:
448,192,38072,1,0,0:0:0:0:
320,192,38111,1,0,0:0:0:0:
64,192,38151,1,0,0:0:0:0:
192,192,38190,1,0,0:0:0:0:
448,192,38229,1,0,0:0:0:0:
320,192,38269,1,0,0:0:0:0:
64,192,38387,1,0,0:0:0:0:
192,192,38387,1,0,0:0:0:0:
448,192,38439,1,0,0:0:0:0:
64,192,38544,1,0,0:0:0:0:
192,192,38544,1,0,0:0:0:0:
320,192,38597,1,0,0:0:0:0:
448,192,38702,1,0,0:0:0:0:
192,192,38754,1,0,0:0:0:0:
448,192,38859,1,0,0:0:0:0:
64,192,39017,1,0,0:0:0:0:
192,192,39017,1,0,0:0:0:0:
64,192,39174,1,0,0:0:0:0:
192,192,39174,1,0,0:0:0:0:
320,192,39174,1,0,0:0:0:0:
320,192,39332,1,0,0:0:0:0:
448,192,39332,1,0,0:0:0:0:
192,192,39384,1,0,0:0:0:0:
320,192,39489,1,0,0:0:0:0:
320,192,39647,1,0,0:0:0:0:
320,192,39804,1,0,0:0:0:0:
64,192,39883,1,0,0:0:0:0:
192,192,39935,1,0,0:0:0:0:
320,192,39962,1,0,0:0:0:0:
320,192,40119,1,0,0:0:0:0:
192,192,40172,1,0,0:0:0:0:
64,192,40198,1,0,0:0:0:0:
320,192,40277,1,0,0:0:0:0:
192,192,40382,1,0,0:0:0:0:
320,192,40434,1,0,0:0:0:0:
64,192,40592,1,0,0:0:0:0:
448,192,40644,1,0,0:0:0:0:
192,192,40697,1,0,0:0:0:0:
320,192,40723,1,0,0:0:0:0:
64,192,40749,1,0,0:0:0:0:
448,192,40802,1,0,0:0:0:0:
192,192,40828,1,0,0:0:0:0:
320,192,40880,1,0,0:0:0:0:
64,192,40907,1,0,0:0:0:0:
192,192,40946,1,0,0:0:0:0:
320,192,40985,1,0,0:0:0:0:
448,192,41012,1,0,0:0:0:0:
192,192,41064,1,0,0:0:0:0:
320,192,41143,1,0,0:0:0:0:
192,192,41195,1,0,0:0:0:0:
64,192,41274,1,0,0:0:0:0:
320,192,41300,1,0,0:0:0:0:
448,192,41353,1,0,0:0:0:0:
192,192,41405,1,0,0:0:0:0:
320,192,41458,1,0,0:0:0:0:
64,192,41536,1,0,0:0:0:0:
192,192,41589,1,0,0:0:0:0:
448,192,41641,1,0,0:0:0:0:
320,192,41720,1,0,0:0:0:0:
64,192,41746,1,0,0:0:0:0:
192,192,41773,1,0,0:0:0:0:
192,192,41878,1,0,0:0:0:0:
448,192,41904,1,0,0:0:0:0:
64,192,41930,1,0,0:0:0:0:
320,192,42035,1,0,0:0:0:0:
192,192,42088,1,0,0:0:0:0:
448,192,42166,1,0,0:0:0:0:
64,192,42193,1,0,0:0:0:0:
320,192,42219,1,0,0:0:0:0:
448,192,42285,1,0,0:0:0:0:
192,192,42350,1,0,0:0:0:0:
320,192,42376,1,0,0:0:0:0:
64,192,42429,1,0,0:0:0:0:
448,192,42481,1,0,0:0:0:0:
320,192,42560,1,0,0:0:0:0:
192,192,42586,1,0,0:0:0:0:
64,192,42639,1,0,0:0:0:0:
448,192,42691,1,0,0:0:0:0:
192,192,42718,1,0,0:0:0:0:
320,192,42796,1,0,0:0:0:0:
64,192,42849,1,0,0:0:0:0:
448,192,42875,1,0,0:0:0:0:
192,192,42928,1,0,0:0:0:0:
64,192,42993,1,0,0:0:0:0:
320,192,43059,1,0,0:0:0:0:
448,192,43111,1,0,0:0:0:0:
64,192,43164,1,0,0:0:0:0:
320,192,43216,1,0,0:0:0:0:
192,192,43269,1,0,0:0:0:0:
64,192,43308,1,0,0:0:0:0:
448,192,43374,1,0,0:0:0:0:
192,192,43426,1,0,0:0:0:0:
320,192,43452,1,0,0:0:0:0:
64,192,43505,1,0,0:0:0:0:
192,192,43584,1,0,0:0:0:0:
320,192,43623,1,0,0:0:0:0:
448,192,43662,1,0,0:0:0:0:
192,192,43715,1,0,0:0:0:0:
64,192,43741,1,0,0:0:0:0:
448,192,43820,1,0,0:0:0:0:
320,192,43846,1,0,0:0:0:0:
192,192,43925,1,0,0:0:0:0:
448,192,44004,1,0,0:0:0:0:
320,192,44017,1,0,0:0:0:0:
64,192,44056,1,0,0:0:0:0:
192,192,44135,1,0,0:0:0:0:
320,192,44187,1,0,0:0:0:0:
448,192,44253,1,0,0:0:0:0:
64,192,44292,1,0,0:0:0:0:
192,192,44345,1,0,0:0:0:0:
320,192,44371,1,0,0:0:0:0:
448,192,44424,1,0,0:0:0:0:
64,192,44489,1,0,0:0:0:0:
320,192,44555,1,0,0:0:0:0:
448,192,44607,1,0,0:0:0:0:
64,192,44647,1,0,0:0:0:0:
192,192,44686,1,0,0:0:0:0:
448,192,44739,1,0,0:0:0:0:
320,192,44817,1,0,0:0:0:0:
64,192,44870,1,0,0:0:0:0:
192,192,44896,1,0,0:0:0:0:
448,192,44949,1,0,0:0:0:0:
320,192,45001,1,0,0:0:0:0:
192,192,45040,1,0,0:0:0:0:
64,192,45106,1,0,0:0:0:0:
192,192,45132,1,0,0:0:0:0:
448,192,45159,1,0,0:0:0:0:
320,192,45211,1,0,0:0:0:0:
192,192,45277,1,0,0:0:0:0:
64,192,45316,1,0,0:0:0:0:
320,192,45355,1,0,0:0:0:0:
192,192,45421,1,0,0:0:0:0:
448,192,45447,1,0,0:0:0:0:
320,192,45500,1,0,0:0:0:0:
64,192,45513,1,0,0:0:0:0:
192,192,45579,1,0,0:0:0:0:
320,192,45684,1,0,0:0:0:0:
64,192,45736,1,0,0:0:0:0:
448,192,45762,1,0,0:0:0:0:
320,192,45828,1,0,0:0:0:0:
192,192,45841,1,0,0:0:0:0:
64,192,45907,1,0,0:0:0:0:
320,192,45946,1,0,0:0:0:0:
448,192,45998,1,0,0:0:0:0:
192,192,46025,1,0,0:0:0:0:
64,192,46051,1,0,0:0:0:0:
320,192,46130,1,0,0:0:0:0:
192,192,46182,1,0,0:0:0:0:
64,192,46235,1,0,0:0:0:0:
448,192,46287,1,0,0:0:0:0:
192,192,46340,1,0,0:0:0:0:
320,192,46366,1,0,0:0:0:0:
448,192,46418,1,0,0:0:0:0:
64,192,46445,1,0,0:0:0:0:
192,192,46523,1,0,0:0:0:0:
448,192,46576,1,0,0:0:0:0:
320,192,46602,1,0,0:0:0:0:
192,192,46681,1,0,0:0:0:0:
64,192,46733,1,0,0:0:0:0:
320,192,46786,1,0,0:0:0:0:
448,192,46812,1,0,0:0:0:0:
192,192,46891,1,0,0:0:0:0:
320,192,46970,1,0,0:0:0:0:
448,192,47009,1,0,0:0:0:0:
192,192,47048,1,0,0:0:0:0:
64,192,47075,1,0,0:0:0:0:
448,192,47153,1,0,0:0:0:0:
320,192,47206,1,0,0:0:0:0:
64,192,47245,1,0,0:0:0:0:
192,192,47258,1,0,0:0:0:0:
448,192,47363,1,0,0:0:0:0:
320,192,47390,1,0,0:0:0:0:
192,192,47442,1,0,0:0:0:0:
64,192,47468,1,0,0:0:0:0:
448,192,47521,1,0,0:0:0:0:
320,192,47560,1,0,0:0:0:0:
192,192,47573,1,0,0:0:0:0:
320,192,47678,1,0,0:0:0:0:
192,192,47718,1,0,0:0:0:0:
448,192,47731,1,0,0:0:0:0:
64,192,47783,1,0,0:0:0:0:
320,192,47836,1,0,0:0:0:0:
192,192,47915,1,0,0:0:0:0:
448,192,47954,1,0,0:0:0:0:
64,192,47993,1,0,0:0:0:0:
320,192,48098,1,0,0:0:0:0:
64,192,48151,1,0,0:0:0:0:
192,192,48203,1,0,0:0:0:0:
448,192,48229,1,0,0:0:0:0:
320,192,48308,1,0,0:0:0:0:
64,192,48348,1,0,0:0:0:0:
448,192,48413,1,0,0:0:0:0:
192,192,48466,1,0,0:0:0:0:
320,192,48505,1,0,0:0:0:0:
64,192,48544,1,0,0:0:0:0:
320,192,48623,1,0,0:0:0:0:
448,192,48649,1,0,0:0:0:0:
192,192,48676,1,0,0:0:0:0:
64,192,48754,1,0,0:0:0:0:
448,192,48781,1,0,0:0:0:0:
320,192,48833,1,0,0:0:0:0:
192,192,48912,1,0,0:0:0:0:
448,192,48938,1,0,0:0:0:0:
64,192,48991,1,0,0:0:0:0:
192,192,49069,1,0,0:0:0:0:
320,192,49148,1,0,0:0:0:0:
64,192,49201,1,0,0:0:0:0:
448,192,49253,1,0,0:0:0:0:
192,192,49306,1,0,0:0:0:0:
64,192,49371,1,0,0:0:0:0:
320,192,49411,1,0,0:0:0:0:
448,192,49463,1,0,0:0:0:0:
192,192,49516,1,0,0:0:0:0:
320,192,49568,1,0,0:0:0:0:
64,192,49621,1,0,0:0:0:0:
192,192,49673,1,0,0:0:0:0:
448,192,49699,1,0,0:0:0:0:
320,192,49778,1,0,0:0:0:0:
192,192,49831,1,0,0:0:0:0:
320,192,49909,1,0,0:0:0:0:
64,192,49988,1,0,0:0:0:0:
448,192,50041,1,0,0:0:0:0:
192,192,50093,1,0,0:0:0:0:
320,192,50146,1,0,0:0:0:0:
64,192,50159,1,0,0:0:0:0:
448,192,50198,1,0,0:0:0:0:
192,192,50251,1,0,0:0:0:0:
320,192,50303,1,0,0:0:0:0:
64,192,50355,1,0,0:0:0:0:
448,192,50408,1,0,0:0:0:0:
192,192,50460,1,0,0:0:0:0:
320,192,50513,1,0,0:0:0:0:
192,192,50565,1,0,0:0:0:0:
64,192,50618,1,0,0:0:0:0:
448,192,50670,1,0,0:0:0:0:
320,192,50775,1,0,0:0:0:0:
192,192,50802,1,0,0:0:0:0:
64,192,50880,1,0,0:0:0:0:
320,192,50907,1,0,0:0:0:0:
192,192,50959,1,0,0:0:0:0:
448,192,50985,1,0,0:0:0:0:
64,192,51090,1,0,0:0:0:0:
320,192,51143,1,0,0:0:0:0:
192,192,51222,1,0,0:0:0:0:
320,192,51274,1,0,0:0:0:0:
64,192,51300,1,0,0:0:0:0:
448,192,51353,1,0,0:0:0:0:
64,192,51432,1,0,0:0:0:0:
320,192,51484,1,0,0:0:0:0:
192,192,51537,1,0,0:0:0:0:
448,192,51615,1,0,0:0:0:0:
320,192,51668,1,0,0:0:0:0:
64,192,51720,1,0,0:0:0:0:
192,192,51799,1,0,0:0:0:0:
448,192,51825,1,0,0:0:0:0:
320,192,51852,1,0,0:0:0:0:
192,192,51930,1,0,0:0:0:0:
320,192,51957,1,0,0:0:0:0:
64,192,51983,1,0,0:0:0:0:
448,192,52009,1,0,0:0:0:0:
192,192,52114,1,0,0:0:0:0:
320,192,52167,1,0,0:0:0:0:
64,192,52245,1,0,0:0:0:0:
448,192,52272,1,0,0:0:0:0:
192,192,52298,1,0,0:0:0:0:
320,192,52429,1,0,0:0:0:0:
192,192,52455,1,0,0:0:0:0:
64,192,52508,1,0,0:0:0:0:
448,192,52508,1,0,0:0:0:0:
320,192,52560,1,0,0:0:0:0:
192,192,52639,1,0,0:0:0:0:
320,192,52665,1,0,0:0:0:0:
448,192,52718,1,0,0:0:0:0:
64,192,52770,1,0,0:0:0:0:
320,192,52823,1,0,0:0:0:0:
192,192,52875,1,0,0:0:0:0:
448,192,52928,1,0,0:0:0:0:
320,192,53006,1,0,0:0:0:0:
64,192,53033,1,0,0:0:0:0:
192,192,53138,1,0,0:0:0:0:
64,192,53190,1,0,0:0:0:0:
448,192,53243,1,0,0:0:0:0:
192,192,53295,1,0,0:0:0:0:
320,192,53348,1,0,0:0:0:0:
64,192,53453,1,0,0:0:0:0:
320,192,53505,1,0,0:0:0:0:
192,192,53531,1,0,0:0:0:0:
448,192,53584,1,0,0:0:0:0:
320,192,53663,1,0,0:0:0:0:
192,192,53702,1,0,0:0:0:0:
64,192,53741,1,0,0:0:0:0:
320,192,53794,1,0,0:0:0:0:
448,192,53820,1,0,0:0:0:0:
192,192,53925,1,0,0:0:0:0:
320,192,54004,1,0,0:0:0:0:
192,192,54056,1,0,0:0:0:0:
64,192,54083,1,0,0:0:0:0:
448,192,54135,1,0,0:0:0:0:
320,192,54214,1,0,0:0:0:0:
192,192,54266,1,0,0:0:0:0:
64,192,54332,1,0,0:0:0:0:
448,192,54371,1,0,0:0:0:0:
320,192,54424,1,0,0:0:0:0:
64,192,54503,1,0,0:0:0:0:
448,192,54568,1,0,0:0:0:0:
192,192,54634,1,0,0:0:0:0:
448,192,54726,1,0,0:0:0:0:
320,192,54765,1,0,0:0:0:0:
64,192,54818,1,0,0:0:0:0:
192,192,54896,1,0,0:0:0:0:
448,192,54949,1,0,0:0:0:0:
320,192,54975,1,0,0:0:0:0:
64,192,55027,1,0,0:0:0:0:
192,192,55080,1,0,0:0:0:0:
64,192,55159,1,0,0:0:0:0:
448,192,55185,1,0,0:0:0:0:
320,192,55211,1,0,0:0:0:0:
192,192,55290,1,0,0:0:0:0:
64,192,55356,1,0,0:0:0:0:
448,192,55395,1,0,0:0:0:0:
320,192,55500,1,0,0:0:0:0:
64,192,55526,1,0,0:0:0:0:
192,192,55579,1,0,0:0:0:0:
320,192,55657,1,0,0:0:0:0:
192,192,55762,1,0,0:0:0:0:
448,192,55815,1,0,0:0:0:0:
64,192,55841,1,0,0:0:0:0:
320,192,55920,1,0,0:0:0:0:
448,192,55986,1,0,0:0:0:0:
192,192,56025,1,0,0:0:0:0:
64,192,56077,1,0,0:0:0:0:
320,192,56104,1,0,0:0:0:0:
448,192,56130,1,0,0:0:0:0:
192,192,56209,1,0,0:0:0:0:
448,192,56314,1,0,0:0:0:0:
64,192,56366,1,0,0:0:0:0:
320,192,56419,1,0,0:0:0:0:
192,192,56445,1,0,0:0:0:0:
448,192,56524,1,0,0:0:0:0:
64,192,56537,1,0,0:0:0:0:
320,192,56602,1,0,0:0:0:0:
64,192,56655,1,0,0:0:0:0:
192,192,56681,1,0,0:0:0:0:
320,192,56760,1,0,0:0:0:0:
448,192,56812,1,0,0:0:0:0:
192,192,56865,1,0,0:0:0:0:
64,192,56891,1,0,0:0:0:0:
320,192,56970,1,0,0:0:0:0:
448,192,57009,1,0,0:0:0:0:
192,192,57049,1,0,0:0:0:0:
320,192,57127,1,0,0:0:0:0:
448,192,57154,1,0,0:0:0:0:
64,192,57232,1,0,0:0:0:0:
192,192,57285,1,0,0:0:0:0:
320,192,57337,1,0,0:0:0:0:
448,192,57403,1,0,0:0:0:0:
64,192,57442,1,0,0:0:0:0:
192,192,57468,1,0,0:0:0:0:
448,192,57547,1,0,0:0:0:0:
64,192,57600,1,0,0:0:0:0:
320,192,57652,1,0,0:0:0:0:
448,192,57718,1,0,0:0:0:0:
192,192,57757,1,0,0:0:0:0:
64,192,57810,1,0,0:0:0:0:
448,192,57862,1,0,0:0:0:0:
192,192,57915,1,0,0:0:0:0:
320,192,57993,1,0,0:0:0:0:
448,192,58072,1,0,0:0:0:0:
64,192,58112,1,0,0:0:0:0:
192,192,58177,1,0,0:0:0:0:
448,192,58230,1,0,0:0:0:0:
320,192,58282,1,0,0:0:0:0:
64,192,58308,1,0,0:0:0:0:
192,192,58387,1,0,0:0:0:0:
448,192,58426,1,0,0:0:0:0:
64,192,58492,1,0,0:0:0:0:
320,192,58545,1,0,0:0:0:0:
192,192,58584,1,0,0:0:0:0:
448,192,58623,1,0,0:0:0:0:
192,192,58702,1,0,0:0:0:0:
64,192,58728,1,0,0:0:0:0:
320,192,58755,1,0,0:0:0:0:
448,192,58833,1,0,0:0:0:0:
192,192,58912,1,0,0:0:0:0:
320,192,58991,1,0,0:0:0:0:
64,192,59017,1,0,0:0:0:0:
448,192,59070,1,0,0:0:0:0:
320,192,59148,1,0,0:0:0:0:
192,192,59227,1,0,0:0:0:0:
448,192,59280,1,0,0:0:0:0:
64,192,59332,1,0,0:0:0:0:
320,192,59385,1,0,0:0:0:0:
448,192,59450,1,0,0:0:0:0:
192,192,59489,1,0,0:0:0:0:
64,192,59542,1,0,0:0:0:0:
320,192,59594,1,0,0:0:0:0:
192,192,59647,1,0,0:0:0:0:
448,192,59699,1,0,0:0:0:0:
320,192,59752,1,0,0:0:0:0:
64,192,59778,1,0,0:0:0:0:
192,192,59857,1,0,0:0:0:0:
320,192,59909,1,0,0:0:0:0:
64,192,59962,1,0,0:0:0:0:
192,192,59988,1,0,0:0:0:0:
448,192,60067,1,0,0:0:0:0:
64,192,60119,1,0,0:0:0:0:
320,192,60172,1,0,0:0:0:0:
192,192,60224,1,0,0:0:0:0:
448,192,60238,1,0,0:0:0:0:
64,192,60277,1,0,0:0:0:0:
320,192,60329,1,0,0:0:0:0:
192,192,60382,1,0,0:0:0:0:
448,192,60434,1,0,0:0:0:0:
64,192,60487,1,0,0:0:0:0:
320,192,60539,1,0,0:0:0:0:
192,192,60592,1,0,0:0:0:0:
320,192,60644,1,0,0:0:0:0:
448,192,60697,1,0,0:0:0:0:
64,192,60749,1,0,0:0:0:0:
192,192,60854,1,0,0:0:0:0:
320,192,60881,1,0,0:0:0:0:
448,192,60959,1,0,0:0:0:0:
192,192,60986,1,0,0:0:0:0:
320,192,61038,1,0,0:0:0:0:
64,192,61064,1,0,0:0:0:0:
448,192,61169,1,0,0:0:0:0:
192,192,61222,1,0,0:0:0:0:
320,192,61301,1,0,0:0:0:0:
192,192,61353,1,0,0:0:0:0:
448,192,61379,1,0,0:0:0:0:
64,192,61432,1,0,0:0:0:0:
448,192,61511,1,0,0:0:0:0:
192,192,61563,1,0,0:0:0:0:
320,192,61616,1,0,0:0:0:0:
64,192,61694,1,0,0:0:0:0:
192,192,61747,1,0,0:0:0:0:
448,192,61799,1,0,0:0:0:0:
320,192,61878,1,0,0:0:0:0:
64,192,61904,1,0,0:0:0:0:
192,192,61930,1,0,0:0:0:0:
320,192,62009,1,0,0:0:0:0:
192,192,62035,1,0,0:0:0:0:
448,192,62062,1,0,0:0:0:0:
64,192,62088,1,0,0:0:0:0:
320,192,62193,1,0,0:0:0:0:
192,192,62245,1,0,0:0:0:0:
448,192,62324,1,0,0:0:0:0:
64,192,62350,1,0,0:0:0:0:
320,192,62377,1,0,0:0:0:0:
192,192,62508,1,0,0:0:0:0:
320,192,62534,1,0,0:0:0:0:
64,192,62587,1,0,0:0:0:0:
448,192,62587,1,0,0:0:0:0:
192,192,62639,1,0,0:0:0:0:
320,192,62718,1,0,0:0:0:0:
192,192,62744,1,0,0:0:0:0:
64,192,62797,1,0,0:0:0:0:
448,192,62849,1,0,0:0:0:0:
192,192,62902,1,0,0:0:0:0:
320,192,62954,1,0,0:0:0:0:
64,192,63007,1,0,0:0:0:0:
192,192,63085,1,0,0:0:0:0:
448,192,63112,1,0,0:0:0:0:
320,192,63217,1,0,0:0:0:0:
448,192,63269,1,0,0:0:0:0:
64,192,63322,1,0,0:0:0:0:
320,192,63374,1,0,0:0:0:0:
192,192,63427,1,0,0:0:0:0:
448,192,63532,1,0,0:0:0:0:
192,192,63584,1,0,0:0:0:0:
320,192,63610,1,0,0:0:0:0:
64,192,63663,1,0,0:0:0:0:
192,192,63742,1,0,0:0:0:0:
320,192,63781,1,0,0:0:0:0:
448,192,63820,1,0,0:0:0:0:
192,192,63873,1,0,0:0:0:0:
64,192,63899,1,0,0:0:0:0:
320,192,64004,1,0,0:0:0:0:
192,192,64083,1,0,0:0:0:0:
320,192,64135,1,0,0:0:0:0:
448,192,64161,1,0,0:0:0:0:
64,192,64214,1,0,0:0:0:0:
192,192,64293,1,0,0:0:0:0:
320,192,64345,1,0,0:0:0:0:
448,192,64411,1,0,0:0:0:0:
64,192,64450,1,0,0:0:0:0:
192,192,64503,1,0,0:0:0:0:
448,192,64581,1,0,0:0:0:0:
64,192,64647,1,0,0:0:0:0:
320,192,64713,1,0,0:0:0:0:
64,192,64805,1,0,0:0:0:0:
192,192,64844,1,0,0:0:0:0:
448,192,64896,1,0,0:0:0:0:
320,192,64975,1,0,0:0:0:0:
64,192,65028,1,0,0:0:0:0:
192,192,65054,1,0,0:0:0:0:
448,192,65106,1,0,0:0:0:0:
320,192,65159,1,0,0:0:0:0:
448,192,65238,1,0,0:0:0:0:
64,192,65264,1,0,0:0:0:0:
192,192,65290,1,0,0:0:0:0:
320,192,65369,1,0,0:0:0:0:
448,192,65434,1,0,0:0:0:0:
64,192,65474,1,0,0:0:0:0:
192,192,65579,1,0,0:0:0:0:
448,192,65605,1,0,0:0:0:0:
320,192,65658,1,0,0:0:0:0:
192,192,65736,1,0,0:0:0:0:
320,192,65841,1,0,0:0:0:0:
64,192,65894,1,0,0:0:0:0:
448,192,65920,1,0,0:0:0:0:
192,192,65999,1,0,0:0:0:0:
64,192,66064,1,0,0:0:0:0:
320,192,66104,1,0,0:0:0:0:
448,192,66156,1,0,0:0:0:0:
192,192,66183,1,0,0:0:0:0:
64,192,66209,1,0,0:0:0:0:
320,192,66288,1,0,0:0:0:0:
64,192,66392,1,0,0:0:0:0:
448,192,66445,1,0,0:0:0:0:
192,192,66497,1,0,0:0:0:0:
320,192,66524,1,0,0:0:0:0:
64,192,66602,1,0,0:0:0:0:
448,192,66616,1,0,0:0:0:0:
192,192,66681,1,0,0:0:0:0:
448,192,66734,1,0,0:0:0:0:
320,192,66760,1,0,0:0:0:0:
192,192,66839,1,0,0:0:0:0:
64,192,66891,1,0,0:0:0:0:
320,192,66944,1,0,0:0:0:0:
448,192,66970,1,0,0:0:0:0:
192,192,67049,1,0,0:0:0:0:
64,192,67088,1,0,0:0:0:0:
320,192,67127,1,0,0:0:0:0:
192,192,67206,1,0,0:0:0:0:
64,192,67232,1,0,0:0:0:0:
448,192,67311,1,0,0:0:0:0:
320,192,67364,1,0,0:0:0:0:
192,192,67416,1,0,0:0:0:0:
64,192,67482,1,0,0:0:0:0:
448,192,67521,1,0,0:0:0:0:
320,192,67547,1,0,0:0:0:0:
64,192,67626,1,0,0:0:0:0:
448,192,67679,1,0,0:0:0:0:
192,192,67731,1,0,0:0:0:0:
64,192,67797,1,0,0:0:0:0:
320,192,67836,1,0,0:0:0:0:
448,192,67889,1,0,0:0:0:0:
64,192,67941,1,0,0:0:0:0:
320,192,67994,1,0,0:0:0:0:
192,192,68072,1,0,0:0:0:0:
64,192,68151,1,0,0:0:0:0:
448,192,68190,1,0,0:0:0:0:
320,192,68256,1,0,0:0:0:0:
192,192,68309,1,0,0:0:0:0:
64,192,68361,1,0,0:0:0:0:
448,192,68414,1,0,0:0:0:0:
192,192,68466,1,0,0:0:0:0:
320,192,68519,1,0,0:0:0:0:
64,192,68571,1,0,0:0:0:0:
192,192,68623,1,0,0:0:0:0:
320,192,68676,1,0,0:0:0:0:
448,192,68728,1,0,0:0:0:0:
192,192,68781,1,0,0:0:0:0:
320,192,68833,1,0,0:0:0:0:
64,192,68886,1,0,0:0:0:0:
448,192,68938,1,0,0:0:0:0:
192,192,68991,1,0,0:0:0:0:
320,192,69043,1,0,0:0:0:0:
64,192,69096,1,0,0:0:0:0:
448,192,69148,1,0,0:0:0:0:
320,192,69201,1,0,0:0:0:0:
192,192,69253,1,0,0:0:0:0:
64,192,69306,1,0,0:0:0:0:
192,192,69358,1,0,0:0:0:0:
320,192,69411,1,0,0:0:0:0:
448,192,69463,1,0,0:0:0:0:
192,192,69516,1,0,0:0:0:0:
320,192,69568,1,0,0:0:0:0:
64,192,69621,1,0,0:0:0:0:
448,192,69673,1,0,0:0:0:0:
192,192,69726,1,0,0:0:0:0:
320,192,69778,1,0,0:0:0:0:
448,192,69831,1,0,0:0:0:0:
320,192,69883,1,0,0:0:0:0:
192,192,69936,1,0,0:0:0:0:
64,192,69988,1,0,0:0:0:0:
320,192,70041,1,0,0:0:0:0:
192,192,70093,1,0,0:0:0:0:
448,192,70146,1,0,0:0:0:0:
64,192,70198,1,0,0:0:0:0:
320,192,70251,1,0,0:0:0:0:
192,192,70303,1,0,0:0:0:0:
64,192,70356,1,0,0:0:0:0:
448,192,70408,1,0,0:0:0:0:
320,192,70461,1,0,0:0:0:0:
64,192,70513,1,0,0:0:0:0:
192,192,70566,1,0,0:0:0:0:
448,192,70618,1,0,0:0:0:0:
64,192,70671,1,0,0:0:0:0:
192,192,70723,1,0,0:0:0:0:
320,192,70776,1,0,0:0:0:0:
448,192,70828,1,0,0:0:0:0:
64,192,70881,1,0,0:0:0:0:
320,192,70933,1,0,0:0:0:0:
192,192,70986,1,0,0:0:0:0:
448,192,71038,1,0,0:0:0:0:
64,192,71091,1,0,0:0:0:0:
320,192,71143,1,0,0:0:0:0:
192,192,71196,1,0,0:0:0:0:
64,192,71248,1,0,0:0:0:0:
192,192,71301,1,0,0:0:0:0:
320,192,71353,1,0,0:0:0:0:
448,192,71406,1,0,0:0:0:0:
192,192,71458,1,0,0:0:0:0:
320,192,71511,1,0,0:0:0:0:
64,192,71563,1,0,0:0:0:0:
448,192,71616,1,0,0:0:0:0:
192,192,71668,1,0,0:0:0:0:
320,192,71721,1,0,0:0:0:0:
64,192,71773,1,0,0:0:0:0:
448,192,71826,1,0,0:0:0:0:
320,192,71878,1,0,0:0:0:0:
192,192,71931,1,0,0:0:0:0:
64,192,71983,1,0,0:0:0:0:
192,192,72036,1,0,0:0:0:0:
320,192,72088,1,0,0:0:0:0:
448,192,72141,1,0,0:0:0:0:
192,192,72193,1,0,0:0:0:0:
320,192,72246,1,0,0:0:0:0:
64,192,72298,1,0,0:0:0:0:
448,192,72351,1,0,0:0:0:0:
192,192,72403,1,0,0:0:0:0:
320,192,72456,1,0,0:0:0:0:
448,192,72508,1,0,0:0:0:0:
64,192,72561,1,0,0:0:0:0:
192,192,72613,1,0,0:0:0:0:
320,192,72666,1,0,0:0:0:0:
64,192,72718,1,0,0:0:0:0:
448,192,72718,1,0,0:0:0:0:
