osu file format v14

[General]
AudioFilename: blue planet.mp3
AudioLeadIn: 0
PreviewTime: 12813
Countdown: 0
SampleSet: None
StackLeniency: 0.7
Mode: 3
LetterboxInBreaks: 0
SpecialStyle: 0
WidescreenStoryboard: 0

[Editor]
DistanceSpacing: 0.8
BeatDivisor: 2
GridSize: 32
TimelineZoom: 1

[Metadata]
Title:Dingles Technical Stream Pack 1
TitleUnicode:Dingles Technical Stream Pack 1
Artist:Various Artists
ArtistUnicode:Various Artists
Creator:Dingles
Version:Blue Planet
Source:
Tags:technical dump streams speed jumpstream js
BeatmapID:1577634
BeatmapSetID:738707

[Difficulty]
HPDrainRate:5
CircleSize:4
OverallDifficulty:8
ApproachRate:5
SliderMultiplier:1.4
SliderTickRate:1

[Events]
//Background and Video events
0,0,"bruepranet-bg.png",0,0
//Break Periods
//Storyboard Layer 0 (Background)
//Storyboard Layer 1 (Fail)
//Storyboard Layer 2 (Pass)
//Storyboard Layer 3 (Foreground)
//Storyboard Sound Samples

[TimingPoints]
773,408.163265,4,2,0,0,1,0

[HitObjects]
64,192,773,5,0,0:0:0:0:
320,192,824,1,0,0:0:0:0:
448,192,875,1,0,0:0:0:0:
192,192,977,1,0,0:0:0:0:
64,192,1079,1,0,0:0:0:0:
192,192,1181,1,0,0:0:0:0:
320,192,1181,1,0,0:0:0:0:
64,192,1283,1,0,0:0:0:0:
320,192,1385,1,0,0:0:0:0:
192,192,1436,1,0,0:0:0:0:
64,192,1487,1,0,0:0:0:0:
320,192,1589,1,0,0:0:0:0:
448,192,1691,1,0,0:0:0:0:
192,192,1793,1,0,0:0:0:0:
320,192,1793,1,0,0:0:0:0:
448,192,1895,1,0,0:0:0:0:
192,192,1997,1,0,0:0:0:0:
320,192,2048,1,0,0:0:0:0:
448,192,2099,1,0,0:0:0:0:
192,192,2201,1,0,0:0:0:0:
64,192,2303,1,0,0:0:0:0:
192,192,2405,1,0,0:0:0:0:
448,192,2405,1,0,0:0:0:0:
320,192,2507,1,0,0:0:0:0:
64,192,2609,1,0,0:0:0:0:
320,192,2660,1,0,0:0:0:0:
448,192,2711,1,0,0:0:0:0:
192,192,2813,1,0,0:0:0:0:
64,192,2916,1,0,0:0:0:0:
192,192,3018,1,0,0:0:0:0:
320,192,3018,1,0,0:0:0:0:
64,192,3120,1,0,0:0:0:0:
320,192,3222,1,0,0:0:0:0:
192,192,3273,1,0,0:0:0:0:
64,192,3324,1,0,0:0:0:0:
192,192,3426,1,0,0:0:0:0:
320,192,3426,1,0,0:0:0:0:
64,192,3528,1,0,0:0:0:0:
448,192,3528,1,0,0:0:0:0:
192,192,3630,1,0,0:0:0:0:
320,192,3681,1,0,0:0:0:0:
448,192,3732,1,0,0:0:0:0:
192,192,3834,1,0,0:0:0:0:
320,192,3834,1,0,0:0:0:0:
64,192,3936,1,0,0:0:0:0:
448,192,4038,1,0,0:0:0:0:
192,192,4089,1,0,0:0:0:0:
64,192,4140,1,0,0:0:0:0:
320,192,4242,1,0,0:0:0:0:
448,192,4344,1,0,0:0:0:0:
192,192,4446,1,0,0:0:0:0:
320,192,4446,1,0,0:0:0:0:
448,192,4548,1,0,0:0:0:0:
192,192,4650,1,0,0:0:0:0:
320,192,4701,1,0,0:0:0:0:
448,192,4752,1,0,0:0:0:0:
192,192,4854,1,0,0:0:0:0:
64,192,4956,1,0,0:0:0:0:
192,192,5058,1,0,0:0:0:0:
320,192,5058,1,0,0:0:0:0:
64,192,5160,1,0,0:0:0:0:
320,192,5262,1,0,0:0:0:0:
192,192,5313,1,0,0:0:0:0:
64,192,5364,1,0,0:0:0:0:
320,192,5467,1,0,0:0:0:0:
448,192,5569,1,0,0:0:0:0:
64,192,5671,1,0,0:0:0:0:
320,192,5671,1,0,0:0:0:0:
192,192,5773,1,0,0:0:0:0:
448,192,5875,1,0,0:0:0:0:
192,192,5926,1,0,0:0:0:0:
64,192,5977,1,0,0:0:0:0:
320,192,6079,1,0,0:0:0:0:
448,192,6181,1,0,0:0:0:0:
192,192,6283,1,0,0:0:0:0:
320,192,6283,1,0,0:0:0:0:
448,192,6385,1,0,0:0:0:0:
192,192,6487,1,0,0:0:0:0:
320,192,6538,1,0,0:0:0:0:
448,192,6589,1,0,0:0:0:0:
192,192,6691,1,0,0:0:0:0:
320,192,6691,1,0,0:0:0:0:
64,192,6793,1,0,0:0:0:0:
448,192,6793,1,0,0:0:0:0:
320,192,6895,1,0,0:0:0:0:
192,192,6946,1,0,0:0:0:0:
64,192,6997,1,0,0:0:0:0:
192,192,7099,1,0,0:0:0:0:
448,192,7150,1,0,0:0:0:0:
320,192,7201,1,0,0:0:0:0:
64,192,7303,1,0,0:0:0:0:
320,192,7354,1,0,0:0:0:0:
448,192,7405,1,0,0:0:0:0:
192,192,7507,1,0,0:0:0:0:
64,192,7609,1,0,0:0:0:0:
192,192,7711,1,0,0:0:0:0:
320,192,7711,1,0,0:0:0:0:
64,192,7813,1,0,0:0:0:0:
320,192,7916,1,0,0:0:0:0:
192,192,7967,1,0,0:0:0:0:
64,192,8018,1,0,0:0:0:0:
320,192,8120,1,0,0:0:0:0:
448,192,8222,1,0,0:0:0:0:
192,192,8324,1,0,0:0:0:0:
320,192,8324,1,0,0:0:0:0:
448,192,8426,1,0,0:0:0:0:
192,192,8528,1,0,0:0:0:0:
320,192,8579,1,0,0:0:0:0:
448,192,8630,1,0,0:0:0:0:
192,192,8732,1,0,0:0:0:0:
64,192,8834,1,0,0:0:0:0:
192,192,8936,1,0,0:0:0:0:
448,192,8936,1,0,0:0:0:0:
320,192,9038,1,0,0:0:0:0:
64,192,9140,1,0,0:0:0:0:
320,192,9191,1,0,0:0:0:0:
448,192,9242,1,0,0:0:0:0:
192,192,9344,1,0,0:0:0:0:
64,192,9446,1,0,0:0:0:0:
192,192,9548,1,0,0:0:0:0:
320,192,9548,1,0,0:0:0:0:
64,192,9650,1,0,0:0:0:0:
320,192,9752,1,0,0:0:0:0:
192,192,9803,1,0,0:0:0:0:
64,192,9854,1,0,0:0:0:0:
192,192,9956,1,0,0:0:0:0:
320,192,9956,1,0,0:0:0:0:
64,192,10058,1,0,0:0:0:0:
448,192,10058,1,0,0:0:0:0:
192,192,10160,1,0,0:0:0:0:
320,192,10211,1,0,0:0:0:0:
448,192,10262,1,0,0:0:0:0:
192,192,10364,1,0,0:0:0:0:
320,192,10364,1,0,0:0:0:0:
64,192,10467,1,0,0:0:0:0:
448,192,10569,1,0,0:0:0:0:
192,192,10620,1,0,0:0:0:0:
64,192,10671,1,0,0:0:0:0:
320,192,10773,1,0,0:0:0:0:
448,192,10875,1,0,0:0:0:0:
192,192,10977,1,0,0:0:0:0:
320,192,10977,1,0,0:0:0:0:
448,192,11079,1,0,0:0:0:0:
192,192,11181,1,0,0:0:0:0:
320,192,11232,1,0,0:0:0:0:
448,192,11283,1,0,0:0:0:0:
192,192,11385,1,0,0:0:0:0:
64,192,11487,1,0,0:0:0:0:
192,192,11589,1,0,0:0:0:0:
320,192,11589,1,0,0:0:0:0:
64,192,11691,1,0,0:0:0:0:
320,192,11793,1,0,0:0:0:0:
192,192,11844,1,0,0:0:0:0:
64,192,11895,1,0,0:0:0:0:
320,192,11997,1,0,0:0:0:0:
448,192,12099,1,0,0:0:0:0:
64,192,12201,1,0,0:0:0:0:
320,192,12201,1,0,0:0:0:0:
192,192,12303,1,0,0:0:0:0:
320,192,12303,1,0,0:0:0:0:
448,192,12405,1,0,0:0:0:0:
192,192,12456,1,0,0:0:0:0:
64,192,12507,1,0,0:0:0:0:
192,192,12609,1,0,0:0:0:0:
320,192,12609,1,0,0:0:0:0:
192,192,12711,1,0,0:0:0:0:
448,192,12711,1,0,0:0:0:0:
64,192,12813,1,0,0:0:0:0:
320,192,12813,1,0,0:0:0:0:
448,192,12916,1,0,0:0:0:0:
64,192,13018,1,0,0:0:0:0:
192,192,13018,1,0,0:0:0:0:
320,192,13069,1,0,0:0:0:0:
448,192,13120,1,0,0:0:0:0:
192,192,13222,1,0,0:0:0:0:
320,192,13273,1,0,0:0:0:0:
320,192,13426,1,0,0:0:0:0:
448,192,13426,1,0,0:0:0:0:
192,192,13477,1,0,0:0:0:0:
64,192,13528,1,0,0:0:0:0:
192,192,13630,1,0,0:0:0:0:
448,192,13681,1,0,0:0:0:0:
320,192,13732,1,0,0:0:0:0:
64,192,13834,1,0,0:0:0:0:
192,192,13834,1,0,0:0:0:0:
320,192,13885,1,0,0:0:0:0:
448,192,13936,1,0,0:0:0:0:
192,192,13970,1,0,0:0:0:0:
64,192,14038,1,0,0:0:0:0:
192,192,14106,1,0,0:0:0:0:
320,192,14174,1,0,0:0:0:0:
192,192,14242,1,0,0:0:0:0:
448,192,14242,1,0,0:0:0:0:
64,192,14310,1,0,0:0:0:0:
192,192,14378,1,0,0:0:0:0:
448,192,14446,1,0,0:0:0:0:
192,192,14514,1,0,0:0:0:0:
64,192,14582,1,0,0:0:0:0:
192,192,14650,1,0,0:0:0:0:
448,192,14650,1,0,0:0:0:0:
320,192,14718,1,0,0:0:0:0:
192,192,14786,1,0,0:0:0:0:
64,192,14854,1,0,0:0:0:0:
192,192,14922,1,0,0:0:0:0:
448,192,14990,1,0,0:0:0:0:
192,192,15058,1,0,0:0:0:0:
320,192,15058,1,0,0:0:0:0:
64,192,15126,1,0,0:0:0:0:
192,192,15194,1,0,0:0:0:0:
320,192,15262,1,0,0:0:0:0:
448,192,15330,1,0,0:0:0:0:
320,192,15399,1,0,0:0:0:0:
192,192,15467,1,0,0:0:0:0:
448,192,15467,1,0,0:0:0:0:
64,192,15535,1,0,0:0:0:0:
192,192,15603,1,0,0:0:0:0:
320,192,15671,1,0,0:0:0:0:
192,192,15739,1,0,0:0:0:0:
64,192,15807,1,0,0:0:0:0:
192,192,15875,1,0,0:0:0:0:
320,192,15875,1,0,0:0:0:0:
448,192,15943,1,0,0:0:0:0:
192,192,16011,1,0,0:0:0:0:
64,192,16079,1,0,0:0:0:0:
192,192,16147,1,0,0:0:0:0:
320,192,16215,1,0,0:0:0:0:
192,192,16283,1,0,0:0:0:0:
448,192,16334,1,0,0:0:0:0:
64,192,16351,1,0,0:0:0:0:
192,192,16419,1,0,0:0:0:0:
448,192,16487,1,0,0:0:0:0:
192,192,16555,1,0,0:0:0:0:
64,192,16623,1,0,0:0:0:0:
192,192,16691,1,0,0:0:0:0:
320,192,16759,1,0,0:0:0:0:
64,192,16793,1,0,0:0:0:0:
448,192,16827,1,0,0:0:0:0:
320,192,16895,1,0,0:0:0:0:
192,192,16946,1,0,0:0:0:0:
448,192,16963,1,0,0:0:0:0:
64,192,17031,1,0,0:0:0:0:
192,192,17099,1,0,0:0:0:0:
320,192,17099,1,0,0:0:0:0:
448,192,17167,1,0,0:0:0:0:
320,192,17235,1,0,0:0:0:0:
192,192,17303,1,0,0:0:0:0:
320,192,17371,1,0,0:0:0:0:
448,192,17439,1,0,0:0:0:0:
192,192,17507,1,0,0:0:0:0:
320,192,17507,1,0,0:0:0:0:
64,192,17575,1,0,0:0:0:0:
320,192,17643,1,0,0:0:0:0:
448,192,17711,1,0,0:0:0:0:
320,192,17779,1,0,0:0:0:0:
192,192,17847,1,0,0:0:0:0:
64,192,17916,1,0,0:0:0:0:
320,192,17916,1,0,0:0:0:0:
448,192,17984,1,0,0:0:0:0:
320,192,18052,1,0,0:0:0:0:
64,192,18120,1,0,0:0:0:0:
320,192,18188,1,0,0:0:0:0:
448,192,18256,1,0,0:0:0:0:
64,192,18324,1,0,0:0:0:0:
320,192,18324,1,0,0:0:0:0:
192,192,18392,1,0,0:0:0:0:
64,192,18460,1,0,0:0:0:0:
192,192,18528,1,0,0:0:0:0:
320,192,18596,1,0,0:0:0:0:
448,192,18664,1,0,0:0:0:0:
64,192,18732,1,0,0:0:0:0:
320,192,18732,1,0,0:0:0:0:
192,192,18800,1,0,0:0:0:0:
320,192,18868,1,0,0:0:0:0:
448,192,18936,1,0,0:0:0:0:
320,192,19004,1,0,0:0:0:0:
64,192,19072,1,0,0:0:0:0:
192,192,19140,1,0,0:0:0:0:
320,192,19140,1,0,0:0:0:0:
448,192,19208,1,0,0:0:0:0:
320,192,19276,1,0,0:0:0:0:
192,192,19344,1,0,0:0:0:0:
320,192,19412,1,0,0:0:0:0:
448,192,19480,1,0,0:0:0:0:
320,192,19548,1,0,0:0:0:0:
192,192,19599,1,0,0:0:0:0:
64,192,19616,1,0,0:0:0:0:
320,192,19684,1,0,0:0:0:0:
448,192,19752,1,0,0:0:0:0:
320,192,19820,1,0,0:0:0:0:
192,192,19888,1,0,0:0:0:0:
64,192,19956,1,0,0:0:0:0:
448,192,20007,1,0,0:0:0:0:
192,192,20024,1,0,0:0:0:0:
320,192,20092,1,0,0:0:0:0:
448,192,20160,1,0,0:0:0:0:
64,192,20228,1,0,0:0:0:0:
192,192,20296,1,0,0:0:0:0:
64,192,20364,1,0,0:0:0:0:
320,192,20364,1,0,0:0:0:0:
448,192,20433,1,0,0:0:0:0:
320,192,20501,1,0,0:0:0:0:
192,192,20569,1,0,0:0:0:0:
320,192,20637,1,0,0:0:0:0:
448,192,20705,1,0,0:0:0:0:
192,192,20773,1,0,0:0:0:0:
320,192,20773,1,0,0:0:0:0:
64,192,20841,1,0,0:0:0:0:
320,192,20909,1,0,0:0:0:0:
448,192,20977,1,0,0:0:0:0:
320,192,21045,1,0,0:0:0:0:
192,192,21113,1,0,0:0:0:0:
64,192,21181,1,0,0:0:0:0:
320,192,21181,1,0,0:0:0:0:
448,192,21249,1,0,0:0:0:0:
320,192,21317,1,0,0:0:0:0:
64,192,21385,1,0,0:0:0:0:
320,192,21453,1,0,0:0:0:0:
448,192,21521,1,0,0:0:0:0:
320,192,21589,1,0,0:0:0:0:
192,192,21657,1,0,0:0:0:0:
64,192,21725,1,0,0:0:0:0:
192,192,21793,1,0,0:0:0:0:
320,192,21861,1,0,0:0:0:0:
448,192,21929,1,0,0:0:0:0:
64,192,21997,1,0,0:0:0:0:
320,192,21997,1,0,0:0:0:0:
192,192,22065,1,0,0:0:0:0:
320,192,22133,1,0,0:0:0:0:
448,192,22201,1,0,0:0:0:0:
320,192,22269,1,0,0:0:0:0:
64,192,22337,1,0,0:0:0:0:
192,192,22405,1,0,0:0:0:0:
320,192,22405,1,0,0:0:0:0:
448,192,22473,1,0,0:0:0:0:
320,192,22541,1,0,0:0:0:0:
192,192,22609,1,0,0:0:0:0:
320,192,22677,1,0,0:0:0:0:
448,192,22745,1,0,0:0:0:0:
320,192,22813,1,0,0:0:0:0:
192,192,22864,1,0,0:0:0:0:
64,192,22881,1,0,0:0:0:0:
320,192,22950,1,0,0:0:0:0:
448,192,23018,1,0,0:0:0:0:
320,192,23086,1,0,0:0:0:0:
192,192,23154,1,0,0:0:0:0:
64,192,23222,1,0,0:0:0:0:
448,192,23273,1,0,0:0:0:0:
192,192,23290,1,0,0:0:0:0:
320,192,23358,1,0,0:0:0:0:
448,192,23426,1,0,0:0:0:0:
192,192,23494,1,0,0:0:0:0:
64,192,23562,1,0,0:0:0:0:
192,192,23630,1,0,0:0:0:0:
448,192,23630,1,0,0:0:0:0:
320,192,23698,1,0,0:0:0:0:
192,192,23766,1,0,0:0:0:0:
64,192,23834,1,0,0:0:0:0:
192,192,23902,1,0,0:0:0:0:
448,192,23970,1,0,0:0:0:0:
192,192,24038,1,0,0:0:0:0:
320,192,24038,1,0,0:0:0:0:
64,192,24106,1,0,0:0:0:0:
192,192,24174,1,0,0:0:0:0:
320,192,24242,1,0,0:0:0:0:
192,192,24310,1,0,0:0:0:0:
64,192,24378,1,0,0:0:0:0:
192,192,24446,1,0,0:0:0:0:
320,192,24446,1,0,0:0:0:0:
448,192,24514,1,0,0:0:0:0:
192,192,24582,1,0,0:0:0:0:
64,192,24650,1,0,0:0:0:0:
192,192,24718,1,0,0:0:0:0:
320,192,24786,1,0,0:0:0:0:
64,192,24854,1,0,0:0:0:0:
448,192,24854,1,0,0:0:0:0:
320,192,24922,1,0,0:0:0:0:
192,192,24990,1,0,0:0:0:0:
64,192,25058,1,0,0:0:0:0:
192,192,25126,1,0,0:0:0:0:
320,192,25194,1,0,0:0:0:0:
192,192,25262,1,0,0:0:0:0:
448,192,25262,1,0,0:0:0:0:
64,192,25330,1,0,0:0:0:0:
192,192,25399,1,0,0:0:0:0:
320,192,25467,1,0,0:0:0:0:
448,192,25467,1,0,0:0:0:0:
192,192,25535,1,0,0:0:0:0:
64,192,25603,1,0,0:0:0:0:
192,192,25671,1,0,0:0:0:0:
448,192,25671,1,0,0:0:0:0:
320,192,25739,1,0,0:0:0:0:
192,192,25807,1,0,0:0:0:0:
64,192,25875,1,0,0:0:0:0:
192,192,25943,1,0,0:0:0:0:
448,192,26011,1,0,0:0:0:0:
192,192,26079,1,0,0:0:0:0:
320,192,26130,1,0,0:0:0:0:
64,192,26147,1,0,0:0:0:0:
192,192,26215,1,0,0:0:0:0:
320,192,26283,1,0,0:0:0:0:
64,192,26351,1,0,0:0:0:0:
448,192,26351,1,0,0:0:0:0:
320,192,26419,1,0,0:0:0:0:
192,192,26487,1,0,0:0:0:0:
448,192,26538,1,0,0:0:0:0:
64,192,26555,1,0,0:0:0:0:
320,192,26623,1,0,0:0:0:0:
192,192,26691,1,0,0:0:0:0:
64,192,26759,1,0,0:0:0:0:
192,192,26827,1,0,0:0:0:0:
320,192,26895,1,0,0:0:0:0:
448,192,26895,1,0,0:0:0:0:
192,192,26946,1,0,0:0:0:0:
64,192,26997,1,0,0:0:0:0:
320,192,27031,1,0,0:0:0:0:
448,192,27099,1,0,0:0:0:0:
320,192,27167,1,0,0:0:0:0:
192,192,27235,1,0,0:0:0:0:
64,192,27303,1,0,0:0:0:0:
320,192,27303,1,0,0:0:0:0:
448,192,27371,1,0,0:0:0:0:
320,192,27439,1,0,0:0:0:0:
64,192,27507,1,0,0:0:0:0:
320,192,27575,1,0,0:0:0:0:
448,192,27643,1,0,0:0:0:0:
64,192,27711,1,0,0:0:0:0:
320,192,27711,1,0,0:0:0:0:
192,192,27779,1,0,0:0:0:0:
320,192,27847,1,0,0:0:0:0:
448,192,27916,1,0,0:0:0:0:
320,192,27984,1,0,0:0:0:0:
64,192,28052,1,0,0:0:0:0:
192,192,28120,1,0,0:0:0:0:
320,192,28120,1,0,0:0:0:0:
448,192,28188,1,0,0:0:0:0:
320,192,28256,1,0,0:0:0:0:
192,192,28324,1,0,0:0:0:0:
64,192,28392,1,0,0:0:0:0:
192,192,28460,1,0,0:0:0:0:
64,192,28528,1,0,0:0:0:0:
320,192,28528,1,0,0:0:0:0:
448,192,28596,1,0,0:0:0:0:
320,192,28664,1,0,0:0:0:0:
192,192,28732,1,0,0:0:0:0:
320,192,28800,1,0,0:0:0:0:
448,192,28868,1,0,0:0:0:0:
192,192,28936,1,0,0:0:0:0:
320,192,28936,1,0,0:0:0:0:
64,192,29004,1,0,0:0:0:0:
320,192,29072,1,0,0:0:0:0:
448,192,29140,1,0,0:0:0:0:
320,192,29208,1,0,0:0:0:0:
192,192,29276,1,0,0:0:0:0:
320,192,29344,1,0,0:0:0:0:
64,192,29395,1,0,0:0:0:0:
448,192,29412,1,0,0:0:0:0:
320,192,29480,1,0,0:0:0:0:
64,192,29548,1,0,0:0:0:0:
320,192,29616,1,0,0:0:0:0:
448,192,29684,1,0,0:0:0:0:
320,192,29752,1,0,0:0:0:0:
192,192,29820,1,0,0:0:0:0:
448,192,29854,1,0,0:0:0:0:
64,192,29888,1,0,0:0:0:0:
192,192,29956,1,0,0:0:0:0:
320,192,30007,1,0,0:0:0:0:
64,192,30024,1,0,0:0:0:0:
448,192,30092,1,0,0:0:0:0:
192,192,30160,1,0,0:0:0:0:
320,192,30160,1,0,0:0:0:0:
64,192,30228,1,0,0:0:0:0:
448,192,30228,1,0,0:0:0:0:
192,192,30296,1,0,0:0:0:0:
320,192,30364,1,0,0:0:0:0:
192,192,30433,1,0,0:0:0:0:
64,192,30501,1,0,0:0:0:0:
192,192,30569,1,0,0:0:0:0:
320,192,30569,1,0,0:0:0:0:
448,192,30637,1,0,0:0:0:0:
192,192,30705,1,0,0:0:0:0:
64,192,30773,1,0,0:0:0:0:
192,192,30841,1,0,0:0:0:0:
320,192,30909,1,0,0:0:0:0:
192,192,30977,1,0,0:0:0:0:
448,192,30977,1,0,0:0:0:0:
64,192,31045,1,0,0:0:0:0:
192,192,31113,1,0,0:0:0:0:
448,192,31181,1,0,0:0:0:0:
192,192,31249,1,0,0:0:0:0:
64,192,31317,1,0,0:0:0:0:
192,192,31385,1,0,0:0:0:0:
448,192,31385,1,0,0:0:0:0:
320,192,31453,1,0,0:0:0:0:
448,192,31521,1,0,0:0:0:0:
320,192,31589,1,0,0:0:0:0:
192,192,31657,1,0,0:0:0:0:
64,192,31725,1,0,0:0:0:0:
192,192,31793,1,0,0:0:0:0:
448,192,31793,1,0,0:0:0:0:
320,192,31861,1,0,0:0:0:0:
192,192,31929,1,0,0:0:0:0:
64,192,31997,1,0,0:0:0:0:
192,192,32065,1,0,0:0:0:0:
448,192,32133,1,0,0:0:0:0:
192,192,32201,1,0,0:0:0:0:
320,192,32201,1,0,0:0:0:0:
64,192,32269,1,0,0:0:0:0:
192,192,32337,1,0,0:0:0:0:
320,192,32405,1,0,0:0:0:0:
192,192,32473,1,0,0:0:0:0:
64,192,32541,1,0,0:0:0:0:
192,192,32609,1,0,0:0:0:0:
320,192,32660,1,0,0:0:0:0:
448,192,32677,1,0,0:0:0:0:
192,192,32745,1,0,0:0:0:0:
64,192,32813,1,0,0:0:0:0:
192,192,32881,1,0,0:0:0:0:
320,192,32950,1,0,0:0:0:0:
448,192,33018,1,0,0:0:0:0:
64,192,33069,1,0,0:0:0:0:
320,192,33086,1,0,0:0:0:0:
192,192,33154,1,0,0:0:0:0:
64,192,33222,1,0,0:0:0:0:
448,192,33290,1,0,0:0:0:0:
320,192,33358,1,0,0:0:0:0:
192,192,33426,1,0,0:0:0:0:
448,192,33426,1,0,0:0:0:0:
64,192,33494,1,0,0:0:0:0:
320,192,33494,1,0,0:0:0:0:
192,192,33562,1,0,0:0:0:0:
320,192,33630,1,0,0:0:0:0:
192,192,33698,1,0,0:0:0:0:
64,192,33766,1,0,0:0:0:0:
192,192,33834,1,0,0:0:0:0:
320,192,33834,1,0,0:0:0:0:
448,192,33902,1,0,0:0:0:0:
192,192,33970,1,0,0:0:0:0:
64,192,34038,1,0,0:0:0:0:
192,192,34106,1,0,0:0:0:0:
320,192,34174,1,0,0:0:0:0:
192,192,34242,1,0,0:0:0:0:
448,192,34242,1,0,0:0:0:0:
64,192,34310,1,0,0:0:0:0:
192,192,34378,1,0,0:0:0:0:
448,192,34446,1,0,0:0:0:0:
192,192,34514,1,0,0:0:0:0:
64,192,34582,1,0,0:0:0:0:
192,192,34650,1,0,0:0:0:0:
320,192,34718,1,0,0:0:0:0:
448,192,34786,1,0,0:0:0:0:
320,192,34854,1,0,0:0:0:0:
192,192,34922,1,0,0:0:0:0:
64,192,34990,1,0,0:0:0:0:
192,192,35058,1,0,0:0:0:0:
448,192,35058,1,0,0:0:0:0:
64,192,35126,1,0,0:0:0:0:
320,192,35126,1,0,0:0:0:0:
192,192,35194,1,0,0:0:0:0:
64,192,35262,1,0,0:0:0:0:
192,192,35330,1,0,0:0:0:0:
448,192,35399,1,0,0:0:0:0:
192,192,35467,1,0,0:0:0:0:
320,192,35467,1,0,0:0:0:0:
64,192,35535,1,0,0:0:0:0:
192,192,35603,1,0,0:0:0:0:
320,192,35671,1,0,0:0:0:0:
192,192,35739,1,0,0:0:0:0:
64,192,35807,1,0,0:0:0:0:
192,192,35875,1,0,0:0:0:0:
320,192,35926,1,0,0:0:0:0:
448,192,35943,1,0,0:0:0:0:
192,192,36011,1,0,0:0:0:0:
64,192,36079,1,0,0:0:0:0:
192,192,36147,1,0,0:0:0:0:
320,192,36215,1,0,0:0:0:0:
448,192,36283,1,0,0:0:0:0:
64,192,36334,1,0,0:0:0:0:
320,192,36351,1,0,0:0:0:0:
192,192,36419,1,0,0:0:0:0:
64,192,36487,1,0,0:0:0:0:
320,192,36555,1,0,0:0:0:0:
448,192,36623,1,0,0:0:0:0:
64,192,36691,1,0,0:0:0:0:
320,192,36691,1,0,0:0:0:0:
192,192,36759,1,0,0:0:0:0:
448,192,36759,1,0,0:0:0:0:
320,192,36827,1,0,0:0:0:0:
448,192,36895,1,0,0:0:0:0:
320,192,36963,1,0,0:0:0:0:
64,192,37031,1,0,0:0:0:0:
192,192,37099,1,0,0:0:0:0:
320,192,37099,1,0,0:0:0:0:
448,192,37167,1,0,0:0:0:0:
192,192,37235,1,0,0:0:0:0:
320,192,37235,1,0,0:0:0:0:
192,192,37303,1,0,0:0:0:0:
320,192,37371,1,0,0:0:0:0:
448,192,37439,1,0,0:0:0:0:
192,192,37507,1,0,0:0:0:0:
320,192,37507,1,0,0:0:0:0:
64,192,37575,1,0,0:0:0:0:
448,192,37575,1,0,0:0:0:0:
320,192,37643,1,0,0:0:0:0:
448,192,37711,1,0,0:0:0:0:
320,192,37779,1,0,0:0:0:0:
192,192,37847,1,0,0:0:0:0:
64,192,37916,1,0,0:0:0:0:
448,192,37916,1,0,0:0:0:0:
192,192,37984,1,0,0:0:0:0:
320,192,38052,1,0,0:0:0:0:
448,192,38120,1,0,0:0:0:0:
320,192,38188,1,0,0:0:0:0:
192,192,38256,1,0,0:0:0:0:
64,192,38324,1,0,0:0:0:0:
320,192,38324,1,0,0:0:0:0:
192,192,38392,1,0,0:0:0:0:
448,192,38392,1,0,0:0:0:0:
320,192,38460,1,0,0:0:0:0:
64,192,38528,1,0,0:0:0:0:
192,192,38528,1,0,0:0:0:0:
320,192,38596,1,0,0:0:0:0:
448,192,38664,1,0,0:0:0:0:
64,192,38732,1,0,0:0:0:0:
320,192,38732,1,0,0:0:0:0:
192,192,38800,1,0,0:0:0:0:
64,192,38868,1,0,0:0:0:0:
320,192,38868,1,0,0:0:0:0:
448,192,38936,1,0,0:0:0:0:
320,192,39004,1,0,0:0:0:0:
64,192,39072,1,0,0:0:0:0:
320,192,39140,1,0,0:0:0:0:
192,192,39191,1,0,0:0:0:0:
448,192,39208,1,0,0:0:0:0:
320,192,39276,1,0,0:0:0:0:
192,192,39344,1,0,0:0:0:0:
64,192,39412,1,0,0:0:0:0:
448,192,39412,1,0,0:0:0:0:
192,192,39480,1,0,0:0:0:0:
320,192,39548,1,0,0:0:0:0:
64,192,39599,1,0,0:0:0:0:
448,192,39616,1,0,0:0:0:0:
192,192,39684,1,0,0:0:0:0:
320,192,39752,1,0,0:0:0:0:
448,192,39820,1,0,0:0:0:0:
64,192,39888,1,0,0:0:0:0:
320,192,39956,1,0,0:0:0:0:
448,192,39956,1,0,0:0:0:0:
320,192,40262,1,0,0:0:0:0:
448,192,40262,1,0,0:0:0:0:
320,192,40569,1,0,0:0:0:0:
448,192,40569,1,0,0:0:0:0:
320,192,40773,1,0,0:0:0:0:
448,192,40773,1,0,0:0:0:0:
448,192,40977,1,0,0:0:0:0:
320,192,41079,1,0,0:0:0:0:
64,192,41130,1,0,0:0:0:0:
192,192,41130,1,0,0:0:0:0:
448,192,41181,1,0,0:0:0:0:
64,192,41232,1,0,0:0:0:0:
192,192,41232,1,0,0:0:0:0:
320,192,41283,1,0,0:0:0:0:
64,192,41385,1,0,0:0:0:0:
192,192,41385,1,0,0:0:0:0:
64,192,41589,1,0,0:0:0:0:
192,192,41589,1,0,0:0:0:0:
320,192,41793,1,0,0:0:0:0:
320,192,41844,1,0,0:0:0:0:
64,192,41997,1,0,0:0:0:0:
192,192,41997,1,0,0:0:0:0:
448,192,42201,1,0,0:0:0:0:
448,192,42252,1,0,0:0:0:0:
64,192,42405,1,0,0:0:0:0:
192,192,42405,1,0,0:0:0:0:
320,192,42609,1,0,0:0:0:0:
320,192,42660,1,0,0:0:0:0:
64,192,42813,1,0,0:0:0:0:
192,192,42813,1,0,0:0:0:0:
320,192,43018,1,0,0:0:0:0:
320,192,43069,1,0,0:0:0:0:
320,192,43222,1,0,0:0:0:0:
448,192,43222,1,0,0:0:0:0:
192,192,43426,1,0,0:0:0:0:
192,192,43477,1,0,0:0:0:0:
320,192,43630,1,0,0:0:0:0:
448,192,43630,1,0,0:0:0:0:
64,192,43834,1,0,0:0:0:0:
64,192,43885,1,0,0:0:0:0:
64,192,44038,1,0,0:0:0:0:
192,192,44038,1,0,0:0:0:0:
448,192,44242,1,0,0:0:0:0:
448,192,44293,1,0,0:0:0:0:
320,192,44446,1,0,0:0:0:0:
448,192,44446,1,0,0:0:0:0:
192,192,44650,1,0,0:0:0:0:
192,192,44701,1,0,0:0:0:0:
320,192,44854,1,0,0:0:0:0:
448,192,44854,1,0,0:0:0:0:
192,192,45058,1,0,0:0:0:0:
192,192,45109,1,0,0:0:0:0:
320,192,45262,1,0,0:0:0:0:
448,192,45262,1,0,0:0:0:0:
64,192,45467,1,0,0:0:0:0:
64,192,45518,1,0,0:0:0:0:
320,192,45671,1,0,0:0:0:0:
448,192,45671,1,0,0:0:0:0:
192,192,45875,1,0,0:0:0:0:
192,192,45926,1,0,0:0:0:0:
320,192,46079,1,0,0:0:0:0:
448,192,46079,1,0,0:0:0:0:
192,192,46283,1,0,0:0:0:0:
192,192,46334,1,0,0:0:0:0:
64,192,46487,1,0,0:0:0:0:
192,192,46487,1,0,0:0:0:0:
320,192,46691,1,0,0:0:0:0:
320,192,46742,1,0,0:0:0:0:
64,192,46895,1,0,0:0:0:0:
192,192,46895,1,0,0:0:0:0:
448,192,47099,1,0,0:0:0:0:
448,192,47150,1,0,0:0:0:0:
320,192,47303,1,0,0:0:0:0:
448,192,47303,1,0,0:0:0:0:
64,192,47507,1,0,0:0:0:0:
64,192,47558,1,0,0:0:0:0:
64,192,47711,1,0,0:0:0:0:
192,192,47711,1,0,0:0:0:0:
320,192,47916,1,0,0:0:0:0:
320,192,47967,1,0,0:0:0:0:
64,192,48120,1,0,0:0:0:0:
192,192,48120,1,0,0:0:0:0:
448,192,48120,1,0,0:0:0:0:
320,192,48324,1,0,0:0:0:0:
320,192,48375,1,0,0:0:0:0:
64,192,48528,1,0,0:0:0:0:
192,192,48528,1,0,0:0:0:0:
448,192,48732,1,0,0:0:0:0:
448,192,48783,1,0,0:0:0:0:
64,192,48936,1,0,0:0:0:0:
192,192,48936,1,0,0:0:0:0:
320,192,49140,1,0,0:0:0:0:
320,192,49191,1,0,0:0:0:0:
64,192,49344,1,0,0:0:0:0:
192,192,49344,1,0,0:0:0:0:
320,192,49548,1,0,0:0:0:0:
320,192,49599,1,0,0:0:0:0:
320,192,49752,1,0,0:0:0:0:
448,192,49752,1,0,0:0:0:0:
192,192,49956,1,0,0:0:0:0:
192,192,50007,1,0,0:0:0:0:
320,192,50160,1,0,0:0:0:0:
448,192,50160,1,0,0:0:0:0:
64,192,50364,1,0,0:0:0:0:
64,192,50416,1,0,0:0:0:0:
64,192,50569,1,0,0:0:0:0:
192,192,50569,1,0,0:0:0:0:
448,192,50773,1,0,0:0:0:0:
448,192,50824,1,0,0:0:0:0:
320,192,50977,1,0,0:0:0:0:
448,192,50977,1,0,0:0:0:0:
192,192,51181,1,0,0:0:0:0:
192,192,51232,1,0,0:0:0:0:
320,192,51385,1,0,0:0:0:0:
448,192,51385,1,0,0:0:0:0:
192,192,51589,1,0,0:0:0:0:
192,192,51640,1,0,0:0:0:0:
320,192,51793,1,0,0:0:0:0:
448,192,51793,1,0,0:0:0:0:
64,192,51997,1,0,0:0:0:0:
64,192,52048,1,0,0:0:0:0:
320,192,52201,1,0,0:0:0:0:
448,192,52201,1,0,0:0:0:0:
192,192,52405,1,0,0:0:0:0:
192,192,52456,1,0,0:0:0:0:
320,192,52609,1,0,0:0:0:0:
448,192,52609,1,0,0:0:0:0:
192,192,52813,1,0,0:0:0:0:
192,192,52864,1,0,0:0:0:0:
320,192,53018,1,0,0:0:0:0:
448,192,53018,1,0,0:0:0:0:
64,192,53120,1,0,0:0:0:0:
192,192,53120,1,0,0:0:0:0:
320,192,53222,1,0,0:0:0:0:
320,192,53273,1,0,0:0:0:0:
448,192,53375,1,0,0:0:0:0:
64,192,53426,1,0,0:0:0:0:
192,192,53426,1,0,0:0:0:0:
448,192,53630,1,0,0:0:0:0:
448,192,53681,1,0,0:0:0:0:
64,192,53732,1,0,0:0:0:0:
320,192,53834,1,0,0:0:0:0:
448,192,53834,1,0,0:0:0:0:
192,192,53936,1,0,0:0:0:0:
64,192,54038,1,0,0:0:0:0:
64,192,54089,1,0,0:0:0:0:
320,192,54140,1,0,0:0:0:0:
64,192,54242,1,0,0:0:0:0:
192,192,54242,1,0,0:0:0:0:
320,192,54446,1,0,0:0:0:0:
320,192,54497,1,0,0:0:0:0:
192,192,54548,1,0,0:0:0:0:
64,192,54650,1,0,0:0:0:0:
320,192,54650,1,0,0:0:0:0:
448,192,54650,1,0,0:0:0:0:
