osu file format v14

[General]
AudioFilename: Entrance.mp3
AudioLeadIn: 0
PreviewTime: 61999
Countdown: 0
SampleSet: Soft
StackLeniency: 0.7
Mode: 3
LetterboxInBreaks: 0
SpecialStyle: 0
WidescreenStoryboard: 0

[Editor]
DistanceSpacing: 1
BeatDivisor: 3
GridSize: 4
TimelineZoom: 1.8

[Metadata]
Title:Deemo Collection 1
TitleUnicode:Deemo Collection 1
Artist:Various Artists
ArtistUnicode:Various Artists
Creator:iJinjin
Version:Ice - Entrance [Hard]
Source:Deemo
Tags:
BeatmapID:722486
BeatmapSetID:325177

[Difficulty]
HPDrainRate:8
CircleSize:4
OverallDifficulty:8
ApproachRate:5
SliderMultiplier:1.4
SliderTickRate:1

[Events]
//Background and Video events
0,0,"Entrance (Hard).jpg",0,0
//Break Periods
//Storyboard Layer 0 (Background)
//Storyboard Layer 1 (Fail)
//Storyboard Layer 2 (Pass)
//Storyboard Layer 3 (Foreground)
//Storyboard Sound Samples

[TimingPoints]
0,333.333333333333,4,2,0,0,1,0

[HitObjects]
64,192,1333,5,0,0:0:0:0:
192,192,1333,1,0,0:0:0:0:
448,192,1333,1,0,0:0:0:0:
320,192,1555,1,0,0:0:0:0:
448,192,1777,1,0,0:0:0:0:
64,192,1999,1,0,0:0:0:0:
448,192,1999,1,0,0:0:0:0:
320,192,1999,1,0,0:0:0:0:
192,192,2222,1,0,0:0:0:0:
320,192,2444,1,0,0:0:0:0:
64,192,2666,1,0,0:0:0:0:
448,192,2666,1,0,0:0:0:0:
320,192,2666,1,0,0:0:0:0:
64,192,2888,1,0,0:0:0:0:
192,192,3111,1,0,0:0:0:0:
64,192,3333,1,0,0:0:0:0:
320,192,3333,1,0,0:0:0:0:
448,192,3333,1,0,0:0:0:0:
192,192,3555,1,0,0:0:0:0:
320,192,3777,1,0,0:0:0:0:
64,192,3999,1,0,0:0:0:0:
192,192,3999,1,0,0:0:0:0:
448,192,3999,1,0,0:0:0:0:
64,192,4222,1,0,0:0:0:0:
320,192,4444,1,0,0:0:0:0:
192,192,4666,1,0,0:0:0:0:
64,192,4666,1,0,0:0:0:0:
448,192,4666,1,0,0:0:0:0:
192,192,4888,1,0,0:0:0:0:
320,192,5111,1,0,0:0:0:0:
448,192,5333,1,0,0:0:0:0:
320,192,5333,1,0,0:0:0:0:
64,192,5333,1,0,0:0:0:0:
192,192,5555,1,0,0:0:0:0:
448,192,5777,1,0,0:0:0:0:
320,192,5999,1,0,0:0:0:0:
448,192,5999,1,0,0:0:0:0:
320,192,6222,1,0,0:0:0:0:
192,192,6222,1,0,0:0:0:0:
192,192,6444,1,0,0:0:0:0:
64,192,6444,1,0,0:0:0:0:
64,192,6666,1,0,0:0:0:0:
448,192,6666,1,0,0:0:0:0:
192,192,6666,1,0,0:0:0:0:
320,192,6888,1,0,0:0:0:0:
448,192,7111,1,0,0:0:0:0:
64,192,7333,1,0,0:0:0:0:
192,192,7333,1,0,0:0:0:0:
448,192,7333,1,0,0:0:0:0:
64,192,7555,1,0,0:0:0:0:
320,192,7777,1,0,0:0:0:0:
192,192,7999,1,0,0:0:0:0:
64,192,7999,1,0,0:0:0:0:
320,192,7999,1,0,0:0:0:0:
64,192,8222,1,0,0:0:0:0:
320,192,8444,1,0,0:0:0:0:
448,192,8666,1,0,0:0:0:0:
320,192,8666,1,0,0:0:0:0:
64,192,8666,1,0,0:0:0:0:
64,192,8888,1,0,0:0:0:0:
320,192,9111,1,0,0:0:0:0:
192,192,9333,1,0,0:0:0:0:
64,192,9333,1,0,0:0:0:0:
320,192,9333,1,0,0:0:0:0:
64,192,9555,1,0,0:0:0:0:
320,192,9777,1,0,0:0:0:0:
448,192,9999,1,0,0:0:0:0:
192,192,9999,1,0,0:0:0:0:
64,192,9999,1,0,0:0:0:0:
64,192,10222,1,0,0:0:0:0:
320,192,10444,1,0,0:0:0:0:
64,192,10666,1,0,0:0:0:0:
448,192,10666,1,0,0:0:0:0:
320,192,10666,1,0,0:0:0:0:
192,192,10888,1,0,0:0:0:0:
448,192,11111,1,0,0:0:0:0:
448,192,11333,1,0,0:0:0:0:
192,192,11333,1,0,0:0:0:0:
64,192,11333,1,0,0:0:0:0:
192,192,11555,1,0,0:0:0:0:
320,192,11777,1,0,0:0:0:0:
64,192,11999,1,0,0:0:0:0:
192,192,11999,1,0,0:0:0:0:
448,192,11999,1,0,0:0:0:0:
320,192,12222,1,0,0:0:0:0:
192,192,12333,1,0,0:0:0:0:
320,192,12444,1,0,0:0:0:0:
64,192,12666,1,0,0:0:0:0:
448,192,12666,1,0,0:0:0:0:
320,192,12666,1,0,0:0:0:0:
192,192,12777,1,0,0:0:0:0:
320,192,12888,1,0,0:0:0:0:
192,192,12999,1,0,0:0:0:0:
320,192,13111,1,0,0:0:0:0:
64,192,13333,1,0,0:0:0:0:
448,192,13333,1,0,0:0:0:0:
192,192,13333,1,0,0:0:0:0:
320,192,13444,1,0,0:0:0:0:
64,192,13555,1,0,0:0:0:0:
192,192,13666,1,0,0:0:0:0:
64,192,13777,1,0,0:0:0:0:
64,192,13999,1,0,0:0:0:0:
320,192,13999,1,0,0:0:0:0:
448,192,13999,1,0,0:0:0:0:
192,192,14111,1,0,0:0:0:0:
320,192,14222,1,0,0:0:0:0:
192,192,14333,1,0,0:0:0:0:
448,192,14444,1,0,0:0:0:0:
64,192,14666,1,0,0:0:0:0:
192,192,14666,1,0,0:0:0:0:
320,192,14666,1,0,0:0:0:0:
192,192,14777,1,0,0:0:0:0:
448,192,14888,1,0,0:0:0:0:
320,192,14999,1,0,0:0:0:0:
448,192,15111,1,0,0:0:0:0:
64,192,15333,1,0,0:0:0:0:
192,192,15333,1,0,0:0:0:0:
448,192,15333,1,0,0:0:0:0:
192,192,15444,1,0,0:0:0:0:
320,192,15555,1,0,0:0:0:0:
192,192,15666,1,0,0:0:0:0:
64,192,15777,1,0,0:0:0:0:
64,192,15999,1,0,0:0:0:0:
320,192,15999,1,0,0:0:0:0:
448,192,15999,1,0,0:0:0:0:
192,192,16111,1,0,0:0:0:0:
320,192,16222,1,0,0:0:0:0:
192,192,16333,1,0,0:0:0:0:
320,192,16444,1,0,0:0:0:0:
448,192,16666,1,0,0:0:0:0:
64,192,16666,1,0,0:0:0:0:
192,192,16777,1,0,0:0:0:0:
320,192,16888,1,0,0:0:0:0:
448,192,16888,1,0,0:0:0:0:
192,192,16999,1,0,0:0:0:0:
64,192,17111,1,0,0:0:0:0:
320,192,17111,1,0,0:0:0:0:
64,192,17333,1,0,0:0:0:0:
192,192,17333,1,0,0:0:0:0:
448,192,17333,1,0,0:0:0:0:
320,192,17444,1,0,0:0:0:0:
448,192,17555,1,0,0:0:0:0:
192,192,17666,1,0,0:0:0:0:
320,192,17777,1,0,0:0:0:0:
192,192,17888,1,0,0:0:0:0:
64,192,17999,1,0,0:0:0:0:
320,192,17999,1,0,0:0:0:0:
448,192,17999,1,0,0:0:0:0:
320,192,18111,1,0,0:0:0:0:
192,192,18222,1,0,0:0:0:0:
64,192,18333,1,0,0:0:0:0:
448,192,18444,1,0,0:0:0:0:
320,192,18555,1,0,0:0:0:0:
192,192,18666,1,0,0:0:0:0:
64,192,18666,1,0,0:0:0:0:
448,192,18666,1,0,0:0:0:0:
64,192,18777,1,0,0:0:0:0:
320,192,18888,1,0,0:0:0:0:
192,192,18999,1,0,0:0:0:0:
64,192,19111,1,0,0:0:0:0:
320,192,19222,1,0,0:0:0:0:
192,192,19333,1,0,0:0:0:0:
64,192,19333,1,0,0:0:0:0:
448,192,19333,1,0,0:0:0:0:
448,192,19444,1,0,0:0:0:0:
192,192,19555,1,0,0:0:0:0:
320,192,19666,1,0,0:0:0:0:
448,192,19777,1,0,0:0:0:0:
320,192,19888,1,0,0:0:0:0:
64,192,19999,1,0,0:0:0:0:
192,192,19999,1,0,0:0:0:0:
448,192,19999,1,0,0:0:0:0:
320,192,20111,1,0,0:0:0:0:
448,192,20111,1,0,0:0:0:0:
64,192,20222,1,0,0:0:0:0:
192,192,20222,1,0,0:0:0:0:
320,192,20333,1,0,0:0:0:0:
448,192,20333,1,0,0:0:0:0:
192,192,20444,1,0,0:0:0:0:
64,192,20444,1,0,0:0:0:0:
320,192,20555,1,0,0:0:0:0:
64,192,20666,1,0,0:0:0:0:
448,192,20666,1,0,0:0:0:0:
192,192,20666,1,0,0:0:0:0:
192,192,20777,1,0,0:0:0:0:
320,192,20777,1,0,0:0:0:0:
64,192,20888,1,0,0:0:0:0:
448,192,20888,1,0,0:0:0:0:
192,192,20999,1,0,0:0:0:0:
320,192,20999,1,0,0:0:0:0:
448,192,21111,1,0,0:0:0:0:
64,192,21111,1,0,0:0:0:0:
192,192,21222,1,0,0:0:0:0:
320,192,21333,1,0,0:0:0:0:
448,192,21333,1,0,0:0:0:0:
64,192,21333,1,0,0:0:0:0:
64,192,21444,1,0,0:0:0:0:
192,192,21444,1,0,0:0:0:0:
320,192,21555,1,0,0:0:0:0:
448,192,21555,1,0,0:0:0:0:
192,192,21666,1,0,0:0:0:0:
64,192,21666,1,0,0:0:0:0:
320,192,21777,1,0,0:0:0:0:
448,192,21777,1,0,0:0:0:0:
192,192,21888,1,0,0:0:0:0:
64,192,21999,1,0,0:0:0:0:
448,192,21999,1,0,0:0:0:0:
320,192,21999,1,0,0:0:0:0:
320,192,22111,1,0,0:0:0:0:
192,192,22111,1,0,0:0:0:0:
64,192,22222,1,0,0:0:0:0:
448,192,22222,1,0,0:0:0:0:
320,192,22333,1,0,0:0:0:0:
192,192,22333,1,0,0:0:0:0:
64,192,22444,1,0,0:0:0:0:
448,192,22444,1,0,0:0:0:0:
320,192,22555,1,0,0:0:0:0:
192,192,22555,1,0,0:0:0:0:
64,192,22666,1,0,0:0:0:0:
448,192,22666,1,0,0:0:0:0:
192,192,22666,1,0,0:0:0:0:
320,192,22777,1,0,0:0:0:0:
448,192,22777,1,0,0:0:0:0:
320,192,22888,1,0,0:0:0:0:
192,192,22888,1,0,0:0:0:0:
64,192,22999,1,0,0:0:0:0:
320,192,22999,1,0,0:0:0:0:
192,192,23111,1,0,0:0:0:0:
448,192,23111,1,0,0:0:0:0:
320,192,23222,1,0,0:0:0:0:
448,192,23222,1,0,0:0:0:0:
64,192,23333,1,0,0:0:0:0:
320,192,23333,1,0,0:0:0:0:
192,192,23444,1,0,0:0:0:0:
64,192,23444,1,0,0:0:0:0:
192,192,23555,1,0,0:0:0:0:
448,192,23555,1,0,0:0:0:0:
320,192,23666,1,0,0:0:0:0:
192,192,23666,1,0,0:0:0:0:
64,192,23777,1,0,0:0:0:0:
320,192,23777,1,0,0:0:0:0:
192,192,23888,1,0,0:0:0:0:
448,192,23888,1,0,0:0:0:0:
320,192,23999,1,0,0:0:0:0:
448,192,23999,1,0,0:0:0:0:
192,192,24111,1,0,0:0:0:0:
320,192,24111,1,0,0:0:0:0:
192,192,24222,1,0,0:0:0:0:
64,192,24222,1,0,0:0:0:0:
64,192,24333,1,0,0:0:0:0:
448,192,24333,1,0,0:0:0:0:
320,192,24444,1,0,0:0:0:0:
192,192,24444,1,0,0:0:0:0:
320,192,24555,1,0,0:0:0:0:
448,192,24555,1,0,0:0:0:0:
64,192,24666,1,0,0:0:0:0:
448,192,24666,1,0,0:0:0:0:
192,192,24777,1,0,0:0:0:0:
64,192,24777,1,0,0:0:0:0:
320,192,24888,1,0,0:0:0:0:
448,192,24888,1,0,0:0:0:0:
192,192,24999,1,0,0:0:0:0:
320,192,24999,1,0,0:0:0:0:
64,192,25111,1,0,0:0:0:0:
320,192,25111,1,0,0:0:0:0:
192,192,25222,1,0,0:0:0:0:
448,192,25222,1,0,0:0:0:0:
64,192,25333,1,0,0:0:0:0:
448,192,25333,1,0,0:0:0:0:
192,192,25444,1,0,0:0:0:0:
320,192,25444,1,0,0:0:0:0:
64,192,25555,1,0,0:0:0:0:
448,192,25555,1,0,0:0:0:0:
320,192,25666,1,0,0:0:0:0:
448,192,25666,1,0,0:0:0:0:
192,192,25777,1,0,0:0:0:0:
64,192,25777,1,0,0:0:0:0:
320,192,25888,1,0,0:0:0:0:
448,192,25888,1,0,0:0:0:0:
64,192,25999,1,0,0:0:0:0:
320,192,25999,1,0,0:0:0:0:
192,192,26111,1,0,0:0:0:0:
448,192,26111,1,0,0:0:0:0:
320,192,26222,1,0,0:0:0:0:
64,192,26222,1,0,0:0:0:0:
64,192,26333,1,0,0:0:0:0:
192,192,26333,1,0,0:0:0:0:
320,192,26444,1,0,0:0:0:0:
448,192,26444,1,0,0:0:0:0:
192,192,26555,1,0,0:0:0:0:
64,192,26555,1,0,0:0:0:0:
448,192,26666,1,0,0:0:0:0:
320,192,26666,1,0,0:0:0:0:
192,192,26777,1,0,0:0:0:0:
320,192,26777,1,0,0:0:0:0:
192,192,26888,1,0,0:0:0:0:
64,192,26888,1,0,0:0:0:0:
320,192,26999,1,0,0:0:0:0:
448,192,26999,1,0,0:0:0:0:
320,192,27111,1,0,0:0:0:0:
192,192,27111,1,0,0:0:0:0:
192,192,27222,1,0,0:0:0:0:
64,192,27222,1,0,0:0:0:0:
448,192,27333,1,0,0:0:0:0:
320,192,27333,1,0,0:0:0:0:
192,192,27444,1,0,0:0:0:0:
448,192,27444,1,0,0:0:0:0:
448,192,27555,1,0,0:0:0:0:
64,192,27555,1,0,0:0:0:0:
64,192,27666,1,0,0:0:0:0:
192,192,27666,1,0,0:0:0:0:
64,192,27777,1,0,0:0:0:0:
320,192,27777,1,0,0:0:0:0:
64,192,27888,1,0,0:0:0:0:
448,192,27888,1,0,0:0:0:0:
192,192,27999,1,0,0:0:0:0:
320,192,27999,1,0,0:0:0:0:
448,192,27999,1,0,0:0:0:0:
320,192,28111,1,0,0:0:0:0:
64,192,28111,1,0,0:0:0:0:
64,192,28222,1,0,0:0:0:0:
192,192,28222,1,0,0:0:0:0:
192,192,28333,1,0,0:0:0:0:
448,192,28333,1,0,0:0:0:0:
320,192,28444,1,0,0:0:0:0:
448,192,28444,1,0,0:0:0:0:
320,192,28555,1,0,0:0:0:0:
64,192,28555,1,0,0:0:0:0:
192,192,28666,1,0,0:0:0:0:
320,192,28666,1,0,0:0:0:0:
64,192,28777,1,0,0:0:0:0:
192,192,28777,1,0,0:0:0:0:
320,192,28888,1,0,0:0:0:0:
448,192,28999,1,0,0:0:0:0:
64,192,28999,1,0,0:0:0:0:
320,192,29111,1,0,0:0:0:0:
192,192,29222,1,0,0:0:0:0:
448,192,29222,1,0,0:0:0:0:
64,192,29333,1,0,0:0:0:0:
320,192,29333,1,0,0:0:0:0:
192,192,29444,1,0,0:0:0:0:
320,192,29444,1,0,0:0:0:0:
64,192,29555,1,0,0:0:0:0:
192,192,29555,1,0,0:0:0:0:
64,192,29666,1,0,0:0:0:0:
320,192,29666,1,0,0:0:0:0:
320,192,29777,1,0,0:0:0:0:
448,192,29777,1,0,0:0:0:0:
192,192,29888,1,0,0:0:0:0:
448,192,29888,1,0,0:0:0:0:
64,192,29999,1,0,0:0:0:0:
320,192,29999,1,0,0:0:0:0:
192,192,30111,1,0,0:0:0:0:
320,192,30111,1,0,0:0:0:0:
192,192,30222,1,0,0:0:0:0:
64,192,30222,1,0,0:0:0:0:
64,192,30333,1,0,0:0:0:0:
448,192,30333,1,0,0:0:0:0:
320,192,30444,1,0,0:0:0:0:
448,192,30444,1,0,0:0:0:0:
320,192,30555,1,0,0:0:0:0:
192,192,30555,1,0,0:0:0:0:
448,192,30666,1,0,0:0:0:0:
192,192,30666,1,0,0:0:0:0:
64,192,30777,1,0,0:0:0:0:
320,192,30888,1,0,0:0:0:0:
192,192,30888,1,0,0:0:0:0:
320,192,30999,1,0,0:0:0:0:
448,192,30999,1,0,0:0:0:0:
64,192,31111,1,0,0:0:0:0:
192,192,31111,1,0,0:0:0:0:
192,192,31222,1,0,0:0:0:0:
320,192,31222,1,0,0:0:0:0:
64,192,31333,1,0,0:0:0:0:
320,192,31333,1,0,0:0:0:0:
192,192,31444,1,0,0:0:0:0:
448,192,31444,1,0,0:0:0:0:
320,192,31555,1,0,0:0:0:0:
448,192,31555,1,0,0:0:0:0:
64,192,31666,1,0,0:0:0:0:
320,192,31666,1,0,0:0:0:0:
192,192,31777,1,0,0:0:0:0:
448,192,31777,1,0,0:0:0:0:
320,192,31888,1,0,0:0:0:0:
448,192,31888,1,0,0:0:0:0:
64,192,31999,1,0,0:0:0:0:
192,192,31999,1,0,0:0:0:0:
320,192,32111,1,0,0:0:0:0:
192,192,32222,1,0,0:0:0:0:
64,192,32333,1,0,0:0:0:0:
448,192,32333,1,0,0:0:0:0:
320,192,32444,1,0,0:0:0:0:
192,192,32555,1,0,0:0:0:0:
448,192,32666,1,0,0:0:0:0:
320,192,32694,1,0,0:0:0:0:
192,192,32722,1,0,0:0:0:0:
64,192,32749,1,0,0:0:0:0:
448,192,32777,1,0,0:0:0:0:
320,192,32805,1,0,0:0:0:0:
192,192,32833,1,0,0:0:0:0:
64,192,32861,1,0,0:0:0:0:
448,192,32888,1,0,0:0:0:0:
320,192,32916,1,0,0:0:0:0:
192,192,32944,1,0,0:0:0:0:
64,192,32972,1,0,0:0:0:0:
448,192,32999,1,0,0:0:0:0:
320,192,33027,1,0,0:0:0:0:
192,192,33055,1,0,0:0:0:0:
64,192,33083,1,0,0:0:0:0:
448,192,33111,1,0,0:0:0:0:
320,192,33138,1,0,0:0:0:0:
192,192,33166,1,0,0:0:0:0:
64,192,33194,1,0,0:0:0:0:
448,192,33222,1,0,0:0:0:0:
320,192,33249,1,0,0:0:0:0:
192,192,33277,1,0,0:0:0:0:
64,192,33305,1,0,0:0:0:0:
448,192,33333,1,0,0:0:0:0:
320,192,33333,1,0,0:0:0:0:
192,192,33444,1,0,0:0:0:0:
64,192,33555,1,0,0:0:0:0:
448,192,33666,1,0,0:0:0:0:
320,192,33666,1,0,0:0:0:0:
192,192,33777,1,0,0:0:0:0:
64,192,33888,1,0,0:0:0:0:
192,192,33999,1,0,0:0:0:0:
448,192,33999,1,0,0:0:0:0:
320,192,34111,1,0,0:0:0:0:
192,192,34222,1,0,0:0:0:0:
64,192,34333,1,0,0:0:0:0:
448,192,34333,1,0,0:0:0:0:
320,192,34444,1,0,0:0:0:0:
192,192,34555,1,0,0:0:0:0:
320,192,34666,1,0,0:0:0:0:
448,192,34666,1,0,0:0:0:0:
192,192,34777,1,0,0:0:0:0:
64,192,34888,1,0,0:0:0:0:
192,192,34999,1,0,0:0:0:0:
448,192,34999,1,0,0:0:0:0:
320,192,35111,1,0,0:0:0:0:
192,192,35222,1,0,0:0:0:0:
320,192,35333,1,0,0:0:0:0:
448,192,35333,1,0,0:0:0:0:
320,192,35444,1,0,0:0:0:0:
192,192,35444,1,0,0:0:0:0:
192,192,35555,1,0,0:0:0:0:
64,192,35555,1,0,0:0:0:0:
448,192,35666,1,0,0:0:0:0:
320,192,35666,1,0,0:0:0:0:
320,192,35777,1,0,0:0:0:0:
192,192,35777,1,0,0:0:0:0:
192,192,35888,1,0,0:0:0:0:
64,192,35888,1,0,0:0:0:0:
448,192,35999,1,0,0:0:0:0:
64,192,35999,128,0,38333:0:0:0:0:
64,192,38666,1,0,0:0:0:0:
448,192,38666,1,0,0:0:0:0:
320,192,38666,1,0,0:0:0:0:
64,192,38777,1,0,0:0:0:0:
192,192,38777,1,0,0:0:0:0:
64,192,38888,1,0,0:0:0:0:
320,192,38888,1,0,0:0:0:0:
192,192,38999,1,0,0:0:0:0:
320,192,38999,1,0,0:0:0:0:
192,192,39111,1,0,0:0:0:0:
448,192,39111,1,0,0:0:0:0:
192,192,39222,1,0,0:0:0:0:
448,192,39222,1,0,0:0:0:0:
320,192,39333,1,0,0:0:0:0:
64,192,39333,1,0,0:0:0:0:
192,192,39444,1,0,0:0:0:0:
320,192,39444,1,0,0:0:0:0:
320,192,39555,1,0,0:0:0:0:
448,192,39555,1,0,0:0:0:0:
448,192,39666,1,0,0:0:0:0:
64,192,39666,1,0,0:0:0:0:
320,192,39777,1,0,0:0:0:0:
448,192,39777,1,0,0:0:0:0:
192,192,39888,1,0,0:0:0:0:
448,192,39888,1,0,0:0:0:0:
64,192,39999,1,0,0:0:0:0:
320,192,39999,1,0,0:0:0:0:
192,192,40111,1,0,0:0:0:0:
64,192,40111,1,0,0:0:0:0:
320,192,40222,1,0,0:0:0:0:
448,192,40222,1,0,0:0:0:0:
64,192,40333,1,0,0:0:0:0:
192,192,40333,1,0,0:0:0:0:
448,192,40333,1,0,0:0:0:0:
320,192,40444,1,0,0:0:0:0:
192,192,40444,1,0,0:0:0:0:
64,192,40555,1,0,0:0:0:0:
320,192,40555,1,0,0:0:0:0:
192,192,40666,1,0,0:0:0:0:
448,192,40666,1,0,0:0:0:0:
64,192,40666,1,0,0:0:0:0:
320,192,40777,1,0,0:0:0:0:
192,192,40777,1,0,0:0:0:0:
64,192,40888,1,0,0:0:0:0:
320,192,40888,1,0,0:0:0:0:
192,192,40999,1,0,0:0:0:0:
64,192,40999,1,0,0:0:0:0:
448,192,40999,1,0,0:0:0:0:
320,192,41111,1,0,0:0:0:0:
192,192,41111,1,0,0:0:0:0:
64,192,41222,1,0,0:0:0:0:
320,192,41222,1,0,0:0:0:0:
192,192,41333,1,0,0:0:0:0:
64,192,41333,1,0,0:0:0:0:
448,192,41333,128,0,41555:0:0:0:0:
320,192,41444,1,0,0:0:0:0:
192,192,41555,1,0,0:0:0:0:
448,192,41666,1,0,0:0:0:0:
64,192,41666,128,0,41888:0:0:0:0:
320,192,41777,1,0,0:0:0:0:
192,192,41888,1,0,0:0:0:0:
64,192,41999,1,0,0:0:0:0:
448,192,41999,128,0,42222:0:0:0:0:
320,192,42111,1,0,0:0:0:0:
192,192,42222,1,0,0:0:0:0:
448,192,42333,1,0,0:0:0:0:
64,192,42333,128,0,42555:0:0:0:0:
320,192,42444,1,0,0:0:0:0:
192,192,42555,1,0,0:0:0:0:
64,192,42666,1,0,0:0:0:0:
448,192,42666,128,0,42888:0:0:0:0:
320,192,42777,1,0,0:0:0:0:
192,192,42888,1,0,0:0:0:0:
64,192,42999,128,0,43222:0:0:0:0:
448,192,42999,1,0,0:0:0:0:
320,192,43111,1,0,0:0:0:0:
192,192,43222,1,0,0:0:0:0:
448,192,43333,128,0,43555:0:0:0:0:
64,192,43333,1,0,0:0:0:0:
320,192,43444,1,0,0:0:0:0:
192,192,43555,1,0,0:0:0:0:
64,192,43666,128,0,43888:0:0:0:0:
448,192,43666,1,0,0:0:0:0:
320,192,43777,1,0,0:0:0:0:
192,192,43888,1,0,0:0:0:0:
64,192,43999,1,0,0:0:0:0:
448,192,43999,1,0,0:0:0:0:
192,192,44111,1,0,0:0:0:0:
320,192,44222,1,0,0:0:0:0:
192,192,44333,1,0,0:0:0:0:
448,192,44333,1,0,0:0:0:0:
64,192,44444,1,0,0:0:0:0:
192,192,44555,1,0,0:0:0:0:
64,192,44666,1,0,0:0:0:0:
448,192,44666,1,0,0:0:0:0:
320,192,44777,1,0,0:0:0:0:
448,192,44888,1,0,0:0:0:0:
320,192,44999,1,0,0:0:0:0:
64,192,44999,1,0,0:0:0:0:
192,192,45111,1,0,0:0:0:0:
320,192,45222,1,0,0:0:0:0:
64,192,45333,1,0,0:0:0:0:
448,192,45333,1,0,0:0:0:0:
192,192,45444,1,0,0:0:0:0:
320,192,45555,1,0,0:0:0:0:
448,192,45666,1,0,0:0:0:0:
64,192,45666,1,0,0:0:0:0:
192,192,45777,1,0,0:0:0:0:
320,192,45888,1,0,0:0:0:0:
64,192,45999,1,0,0:0:0:0:
192,192,45999,1,0,0:0:0:0:
320,192,45999,1,0,0:0:0:0:
448,192,46111,1,0,0:0:0:0:
64,192,46222,1,0,0:0:0:0:
192,192,46222,1,0,0:0:0:0:
320,192,46222,1,0,0:0:0:0:
64,192,46333,1,0,0:0:0:0:
192,192,46333,1,0,0:0:0:0:
448,192,46333,1,0,0:0:0:0:
320,192,46444,1,0,0:0:0:0:
448,192,46555,1,0,0:0:0:0:
192,192,46555,1,0,0:0:0:0:
64,192,46555,1,0,0:0:0:0:
64,192,46666,1,0,0:0:0:0:
448,192,46666,1,0,0:0:0:0:
320,192,46666,1,0,0:0:0:0:
192,192,46777,1,0,0:0:0:0:
64,192,46888,1,0,0:0:0:0:
192,192,46999,1,0,0:0:0:0:
448,192,46999,1,0,0:0:0:0:
320,192,47111,1,0,0:0:0:0:
448,192,47222,1,0,0:0:0:0:
64,192,47333,1,0,0:0:0:0:
448,192,47333,1,0,0:0:0:0:
320,192,47444,1,0,0:0:0:0:
192,192,47555,1,0,0:0:0:0:
64,192,47666,1,0,0:0:0:0:
320,192,47666,1,0,0:0:0:0:
448,192,47777,1,0,0:0:0:0:
320,192,47888,1,0,0:0:0:0:
320,192,47999,1,0,0:0:0:0:
64,192,47999,1,0,0:0:0:0:
192,192,48111,1,0,0:0:0:0:
64,192,48222,1,0,0:0:0:0:
64,192,48333,1,0,0:0:0:0:
320,192,48333,1,0,0:0:0:0:
448,192,48444,1,0,0:0:0:0:
320,192,48555,1,0,0:0:0:0:
192,192,48666,1,0,0:0:0:0:
320,192,48666,1,0,0:0:0:0:
64,192,48777,1,0,0:0:0:0:
320,192,48888,1,0,0:0:0:0:
448,192,48999,1,0,0:0:0:0:
64,192,48999,1,0,0:0:0:0:
192,192,49111,1,0,0:0:0:0:
320,192,49222,1,0,0:0:0:0:
64,192,49333,1,0,0:0:0:0:
320,192,49333,1,0,0:0:0:0:
192,192,49444,1,0,0:0:0:0:
64,192,49555,1,0,0:0:0:0:
320,192,49666,1,0,0:0:0:0:
448,192,49666,1,0,0:0:0:0:
192,192,49777,1,0,0:0:0:0:
320,192,49888,1,0,0:0:0:0:
64,192,49999,1,0,0:0:0:0:
448,192,49999,1,0,0:0:0:0:
320,192,50111,1,0,0:0:0:0:
192,192,50222,1,0,0:0:0:0:
64,192,50333,1,0,0:0:0:0:
448,192,50333,1,0,0:0:0:0:
192,192,50444,1,0,0:0:0:0:
320,192,50555,1,0,0:0:0:0:
64,192,50666,1,0,0:0:0:0:
448,192,50666,1,0,0:0:0:0:
320,192,50777,1,0,0:0:0:0:
192,192,50888,1,0,0:0:0:0:
64,192,50999,1,0,0:0:0:0:
448,192,50999,1,0,0:0:0:0:
320,192,51111,1,0,0:0:0:0:
192,192,51222,1,0,0:0:0:0:
64,192,51333,1,0,0:0:0:0:
320,192,51333,1,0,0:0:0:0:
448,192,51333,1,0,0:0:0:0:
64,192,51444,1,0,0:0:0:0:
320,192,51444,1,0,0:0:0:0:
448,192,51444,1,0,0:0:0:0:
64,192,51555,1,0,0:0:0:0:
320,192,51555,1,0,0:0:0:0:
448,192,51555,1,0,0:0:0:0:
192,192,51666,1,0,0:0:0:0:
64,192,51666,1,0,0:0:0:0:
448,192,51666,1,0,0:0:0:0:
64,192,51777,1,0,0:0:0:0:
192,192,51777,1,0,0:0:0:0:
448,192,51777,1,0,0:0:0:0:
64,192,51888,1,0,0:0:0:0:
192,192,51888,1,0,0:0:0:0:
448,192,51888,1,0,0:0:0:0:
64,192,51999,1,0,0:0:0:0:
320,192,51999,1,0,0:0:0:0:
448,192,51999,1,0,0:0:0:0:
192,192,52111,1,0,0:0:0:0:
320,192,52222,1,0,0:0:0:0:
192,192,52333,1,0,0:0:0:0:
64,192,52333,1,0,0:0:0:0:
448,192,52444,1,0,0:0:0:0:
320,192,52555,1,0,0:0:0:0:
192,192,52666,1,0,0:0:0:0:
64,192,52666,1,0,0:0:0:0:
192,192,52777,1,0,0:0:0:0:
320,192,52888,1,0,0:0:0:0:
64,192,52999,1,0,0:0:0:0:
192,192,52999,1,0,0:0:0:0:
448,192,53111,1,0,0:0:0:0:
320,192,53222,1,0,0:0:0:0:
64,192,53333,1,0,0:0:0:0:
192,192,53333,1,0,0:0:0:0:
192,192,53444,1,0,0:0:0:0:
320,192,53555,1,0,0:0:0:0:
64,192,53666,1,0,0:0:0:0:
448,192,53666,1,0,0:0:0:0:
192,192,53777,1,0,0:0:0:0:
320,192,53888,1,0,0:0:0:0:
64,192,53999,1,0,0:0:0:0:
448,192,53999,1,0,0:0:0:0:
320,192,54111,1,0,0:0:0:0:
192,192,54222,1,0,0:0:0:0:
320,192,54333,1,0,0:0:0:0:
448,192,54333,1,0,0:0:0:0:
192,192,54444,1,0,0:0:0:0:
320,192,54555,1,0,0:0:0:0:
64,192,54666,1,0,0:0:0:0:
192,192,54666,1,0,0:0:0:0:
320,192,54777,1,0,0:0:0:0:
448,192,54888,1,0,0:0:0:0:
64,192,54999,1,0,0:0:0:0:
192,192,54999,1,0,0:0:0:0:
320,192,55111,1,0,0:0:0:0:
192,192,55222,1,0,0:0:0:0:
64,192,55333,1,0,0:0:0:0:
320,192,55333,1,0,0:0:0:0:
448,192,55444,1,0,0:0:0:0:
320,192,55555,1,0,0:0:0:0:
192,192,55666,1,0,0:0:0:0:
448,192,55666,1,0,0:0:0:0:
320,192,55777,1,0,0:0:0:0:
192,192,55888,1,0,0:0:0:0:
64,192,55999,1,0,0:0:0:0:
448,192,55999,1,0,0:0:0:0:
192,192,56111,1,0,0:0:0:0:
320,192,56222,1,0,0:0:0:0:
192,192,56333,1,0,0:0:0:0:
448,192,56333,1,0,0:0:0:0:
64,192,56444,1,0,0:0:0:0:
320,192,56555,1,0,0:0:0:0:
64,192,56666,128,0,56999:0:0:0:0:
448,192,56666,1,0,0:0:0:0:
192,192,56666,1,0,0:0:0:0:
448,192,56777,1,0,0:0:0:0:
320,192,56888,1,0,0:0:0:0:
448,192,56999,128,0,57333:0:0:0:0:
192,192,56999,1,0,0:0:0:0:
320,192,57111,1,0,0:0:0:0:
64,192,57222,1,0,0:0:0:0:
64,192,57333,1,0,0:0:0:0:
320,192,57333,1,0,0:0:0:0:
192,192,57333,1,0,0:0:0:0:
448,192,57444,1,0,0:0:0:0:
192,192,57555,1,0,0:0:0:0:
320,192,57666,1,0,0:0:0:0:
448,192,57666,1,0,0:0:0:0:
192,192,57777,1,0,0:0:0:0:
64,192,57888,1,0,0:0:0:0:
448,192,57999,1,0,0:0:0:0:
192,192,57999,1,0,0:0:0:0:
320,192,58111,1,0,0:0:0:0:
192,192,58222,1,0,0:0:0:0:
64,192,58333,1,0,0:0:0:0:
448,192,58333,1,0,0:0:0:0:
320,192,58444,1,0,0:0:0:0:
192,192,58555,1,0,0:0:0:0:
64,192,58666,1,0,0:0:0:0:
448,192,58666,1,0,0:0:0:0:
192,192,58777,1,0,0:0:0:0:
320,192,58888,1,0,0:0:0:0:
64,192,58999,1,0,0:0:0:0:
448,192,58999,1,0,0:0:0:0:
192,192,59111,1,0,0:0:0:0:
320,192,59222,1,0,0:0:0:0:
448,192,59333,1,0,0:0:0:0:
64,192,59333,1,0,0:0:0:0:
320,192,59444,1,0,0:0:0:0:
192,192,59555,1,0,0:0:0:0:
320,192,59666,1,0,0:0:0:0:
448,192,59666,1,0,0:0:0:0:
64,192,59777,1,0,0:0:0:0:
192,192,59888,1,0,0:0:0:0:
320,192,59999,1,0,0:0:0:0:
448,192,59999,1,0,0:0:0:0:
192,192,60111,1,0,0:0:0:0:
64,192,60111,1,0,0:0:0:0:
320,192,60222,1,0,0:0:0:0:
448,192,60222,1,0,0:0:0:0:
64,192,60333,1,0,0:0:0:0:
448,192,60333,1,0,0:0:0:0:
192,192,60444,1,0,0:0:0:0:
320,192,60444,1,0,0:0:0:0:
64,192,60555,1,0,0:0:0:0:
448,192,60555,1,0,0:0:0:0:
64,192,60666,1,0,0:0:0:0:
192,192,60666,1,0,0:0:0:0:
320,192,60777,1,0,0:0:0:0:
448,192,60777,1,0,0:0:0:0:
192,192,60888,1,0,0:0:0:0:
64,192,60888,1,0,0:0:0:0:
192,192,60999,1,0,0:0:0:0:
320,192,60999,1,0,0:0:0:0:
64,192,61111,1,0,0:0:0:0:
448,192,61111,1,0,0:0:0:0:
192,192,61222,1,0,0:0:0:0:
320,192,61222,1,0,0:0:0:0:
64,192,61333,1,0,0:0:0:0:
320,192,61333,1,0,0:0:0:0:
448,192,61333,1,0,0:0:0:0:
64,192,61555,1,0,0:0:0:0:
320,192,61555,1,0,0:0:0:0:
448,192,61555,1,0,0:0:0:0:
64,192,61666,1,0,0:0:0:0:
192,192,61666,1,0,0:0:0:0:
448,192,61666,1,0,0:0:0:0:
64,192,61888,1,0,0:0:0:0:
192,192,61888,1,0,0:0:0:0:
448,192,61888,1,0,0:0:0:0:
320,192,61999,1,0,0:0:0:0:
64,192,61999,1,0,0:0:0:0:
448,192,61999,1,0,0:0:0:0:
320,192,62111,1,0,0:0:0:0:
448,192,62111,1,0,0:0:0:0:
64,192,62111,1,0,0:0:0:0:
320,192,62222,1,0,0:0:0:0:
448,192,62222,1,0,0:0:0:0:
64,192,62222,1,0,0:0:0:0:
64,192,62333,1,0,0:0:0:0:
320,192,62333,1,0,0:0:0:0:
448,192,62333,1,0,0:0:0:0:
64,192,62555,1,0,0:0:0:0:
320,192,62555,1,0,0:0:0:0:
448,192,62555,1,0,0:0:0:0:
64,192,62666,1,0,0:0:0:0:
192,192,62666,1,0,0:0:0:0:
448,192,62666,1,0,0:0:0:0:
320,192,62666,1,0,0:0:0:0:
64,192,62999,1,0,0:0:0:0:
192,192,62999,1,0,0:0:0:0:
64,192,63333,1,0,0:0:0:0:
192,192,63333,1,0,0:0:0:0:
448,192,63333,128,0,63666:0:0:0:0:
192,192,63666,1,0,0:0:0:0:
64,192,63666,1,0,0:0:0:0:
64,192,63999,1,0,0:0:0:0:
192,192,63999,1,0,0:0:0:0:
64,192,64333,1,0,0:0:0:0:
192,192,64333,1,0,0:0:0:0:
448,192,64333,128,0,64666:0:0:0:0:
320,192,64666,128,0,64999:0:0:0:0:
192,192,64666,1,0,0:0:0:0:
64,192,64666,1,0,0:0:0:0:
448,192,64999,128,0,65333:0:0:0:0:
64,192,64999,1,0,0:0:0:0:
192,192,64999,1,0,0:0:0:0:
192,192,65333,1,0,0:0:0:0:
320,192,65333,1,0,0:0:0:0:
64,192,65333,128,0,65666:0:0:0:0:
320,192,65666,1,0,0:0:0:0:
448,192,65666,1,0,0:0:0:0:
320,192,65999,1,0,0:0:0:0:
448,192,65999,1,0,0:0:0:0:
192,192,66222,128,0,66444:0:0:0:0:
320,192,66333,1,0,0:0:0:0:
448,192,66333,1,0,0:0:0:0:
64,192,66444,128,0,66666:0:0:0:0:
192,192,66666,128,0,66999:0:0:0:0:
320,192,66666,1,0,0:0:0:0:
448,192,66666,1,0,0:0:0:0:
64,192,66999,128,0,67333:0:0:0:0:
320,192,66999,1,0,0:0:0:0:
448,192,66999,1,0,0:0:0:0:
192,192,67333,1,0,0:0:0:0:
320,192,67333,1,0,0:0:0:0:
448,192,67333,1,0,0:0:0:0:
320,192,67555,1,0,0:0:0:0:
448,192,67555,1,0,0:0:0:0:
64,192,67555,1,0,0:0:0:0:
320,192,67666,1,0,0:0:0:0:
448,192,67666,1,0,0:0:0:0:
192,192,67666,1,0,0:0:0:0:
192,192,67888,1,0,0:0:0:0:
320,192,67888,1,0,0:0:0:0:
448,192,67888,1,0,0:0:0:0:
64,192,67999,1,0,0:0:0:0:
192,192,67999,1,0,0:0:0:0:
320,192,67999,128,0,68333:0:0:0:0:
192,192,68333,1,0,0:0:0:0:
64,192,68333,1,0,0:0:0:0:
448,192,68666,128,0,68999:0:0:0:0:
192,192,68666,1,0,0:0:0:0:
64,192,68666,1,0,0:0:0:0:
64,192,68999,1,0,0:0:0:0:
192,192,68999,1,0,0:0:0:0:
64,192,69333,1,0,0:0:0:0:
192,192,69333,1,0,0:0:0:0:
320,192,69666,128,0,69999:0:0:0:0:
192,192,69666,1,0,0:0:0:0:
64,192,69666,1,0,0:0:0:0:
448,192,69999,128,0,70333:0:0:0:0:
64,192,69999,1,0,0:0:0:0:
192,192,69999,1,0,0:0:0:0:
320,192,70333,128,0,70666:0:0:0:0:
192,192,70333,1,0,0:0:0:0:
64,192,70333,1,0,0:0:0:0:
64,192,70666,1,0,0:0:0:0:
192,192,70666,1,0,0:0:0:0:
448,192,70666,1,0,0:0:0:0:
320,192,70777,1,0,0:0:0:0:
448,192,70777,1,0,0:0:0:0:
192,192,70888,1,0,0:0:0:0:
320,192,70888,1,0,0:0:0:0:
64,192,70999,1,0,0:0:0:0:
192,192,70999,1,0,0:0:0:0:
448,192,70999,1,0,0:0:0:0:
320,192,71111,1,0,0:0:0:0:
64,192,71111,1,0,0:0:0:0:
192,192,71222,1,0,0:0:0:0:
320,192,71222,1,0,0:0:0:0:
192,192,71333,1,0,0:0:0:0:
64,192,71333,1,0,0:0:0:0:
448,192,71333,1,0,0:0:0:0:
320,192,71444,1,0,0:0:0:0:
448,192,71444,1,0,0:0:0:0:
64,192,71555,1,0,0:0:0:0:
192,192,71555,1,0,0:0:0:0:
64,192,71666,1,0,0:0:0:0:
448,192,71666,1,0,0:0:0:0:
192,192,71666,1,0,0:0:0:0:
320,192,71777,1,0,0:0:0:0:
448,192,71777,1,0,0:0:0:0:
192,192,71888,1,0,0:0:0:0:
64,192,71888,1,0,0:0:0:0:
64,192,71999,1,0,0:0:0:0:
320,192,71999,1,0,0:0:0:0:
448,192,71999,1,0,0:0:0:0:
320,192,72111,1,0,0:0:0:0:
448,192,72111,1,0,0:0:0:0:
192,192,72222,1,0,0:0:0:0:
64,192,72222,1,0,0:0:0:0:
64,192,72333,1,0,0:0:0:0:
192,192,72333,1,0,0:0:0:0:
448,192,72333,1,0,0:0:0:0:
320,192,72444,1,0,0:0:0:0:
448,192,72444,1,0,0:0:0:0:
192,192,72555,1,0,0:0:0:0:
64,192,72555,1,0,0:0:0:0:
320,192,72666,1,0,0:0:0:0:
448,192,72666,1,0,0:0:0:0:
64,192,72666,1,0,0:0:0:0:
192,192,72777,1,0,0:0:0:0:
320,192,72777,1,0,0:0:0:0:
448,192,72777,1,0,0:0:0:0:
64,192,72888,1,0,0:0:0:0:
320,192,72888,1,0,0:0:0:0:
448,192,72888,1,0,0:0:0:0:
64,192,72999,1,0,0:0:0:0:
192,192,72999,1,0,0:0:0:0:
448,192,72999,1,0,0:0:0:0:
192,192,73111,1,0,0:0:0:0:
64,192,73111,1,0,0:0:0:0:
320,192,73111,1,0,0:0:0:0:
64,192,73222,1,0,0:0:0:0:
192,192,73222,1,0,0:0:0:0:
448,192,73222,1,0,0:0:0:0:
320,192,73333,1,0,0:0:0:0:
448,192,73333,1,0,0:0:0:0:
64,192,73333,128,0,73666:0:0:0:0:
192,192,73333,1,0,0:0:0:0:
320,192,73666,1,0,0:0:0:0:
448,192,73666,1,0,0:0:0:0:
192,192,73999,128,0,74333:0:0:0:0:
320,192,73999,1,0,0:0:0:0:
448,192,73999,1,0,0:0:0:0:
320,192,74333,1,0,0:0:0:0:
448,192,74333,1,0,0:0:0:0:
320,192,74666,1,0,0:0:0:0:
448,192,74666,1,0,0:0:0:0:
192,192,74999,128,0,75333:0:0:0:0:
320,192,74999,1,0,0:0:0:0:
448,192,74999,1,0,0:0:0:0:
320,192,75333,1,0,0:0:0:0:
448,192,75333,1,0,0:0:0:0:
64,192,75333,128,0,75666:0:0:0:0:
192,192,75666,128,0,75999:0:0:0:0:
320,192,75666,1,0,0:0:0:0:
448,192,75666,1,0,0:0:0:0:
64,192,75999,1,0,0:0:0:0:
448,192,75999,1,0,0:0:0:0:
320,192,75999,128,0,76333:0:0:0:0:
192,192,76333,1,0,0:0:0:0:
64,192,76333,1,0,0:0:0:0:
192,192,76666,1,0,0:0:0:0:
64,192,76666,1,0,0:0:0:0:
448,192,76888,128,0,77111:0:0:0:0:
192,192,76999,1,0,0:0:0:0:
64,192,76999,1,0,0:0:0:0:
320,192,77111,128,0,77333:0:0:0:0:
448,192,77333,128,0,77666:0:0:0:0:
192,192,77333,1,0,0:0:0:0:
64,192,77333,1,0,0:0:0:0:
320,192,77666,128,0,77999:0:0:0:0:
64,192,77666,1,0,0:0:0:0:
192,192,77666,1,0,0:0:0:0:
448,192,77999,128,0,78333:0:0:0:0:
64,192,77999,128,0,78222:0:0:0:0:
192,192,77999,128,0,78222:0:0:0:0:
320,192,78333,128,0,78666:0:0:0:0:
192,192,78333,128,0,78444:0:0:0:0:
64,192,78333,128,0,78444:0:0:0:0:
64,192,78555,1,0,0:0:0:0:
192,192,78555,1,0,0:0:0:0:
192,192,78666,1,0,0:0:0:0:
64,192,78666,1,0,0:0:0:0:
448,192,78666,1,0,0:0:0:0:
192,192,78999,1,0,0:0:0:0:
64,192,78999,1,0,0:0:0:0:
64,192,79333,1,0,0:0:0:0:
192,192,79333,1,0,0:0:0:0:
320,192,79333,128,0,79666:0:0:0:0:
192,192,79666,1,0,0:0:0:0:
64,192,79666,1,0,0:0:0:0:
64,192,79999,1,0,0:0:0:0:
192,192,79999,1,0,0:0:0:0:
320,192,80111,1,0,0:0:0:0:
448,192,80222,1,0,0:0:0:0:
192,192,80333,1,0,0:0:0:0:
320,192,80333,1,0,0:0:0:0:
448,192,80444,1,0,0:0:0:0:
64,192,80555,1,0,0:0:0:0:
320,192,80666,1,0,0:0:0:0:
448,192,80666,1,0,0:0:0:0:
192,192,80777,1,0,0:0:0:0:
64,192,80888,1,0,0:0:0:0:
192,192,80999,1,0,0:0:0:0:
320,192,80999,1,0,0:0:0:0:
64,192,81111,1,0,0:0:0:0:
448,192,81222,1,0,0:0:0:0:
192,192,81333,1,0,0:0:0:0:
64,192,81333,1,0,0:0:0:0:
320,192,81444,1,0,0:0:0:0:
448,192,81555,1,0,0:0:0:0:
192,192,81666,1,0,0:0:0:0:
320,192,81666,1,0,0:0:0:0:
64,192,81777,1,0,0:0:0:0:
192,192,81888,1,0,0:0:0:0:
320,192,81999,1,0,0:0:0:0:
448,192,81999,1,0,0:0:0:0:
192,192,82111,1,0,0:0:0:0:
64,192,82222,1,0,0:0:0:0:
192,192,82333,1,0,0:0:0:0:
320,192,82333,1,0,0:0:0:0:
448,192,82444,1,0,0:0:0:0:
320,192,82555,1,0,0:0:0:0:
192,192,82666,1,0,0:0:0:0:
64,192,82666,1,0,0:0:0:0:
320,192,82777,1,0,0:0:0:0:
448,192,82888,1,0,0:0:0:0:
320,192,82999,1,0,0:0:0:0:
64,192,82999,1,0,0:0:0:0:
192,192,83111,1,0,0:0:0:0:
64,192,83222,1,0,0:0:0:0:
320,192,83333,1,0,0:0:0:0:
448,192,83333,1,0,0:0:0:0:
64,192,83333,128,0,83444:0:0:0:0:
192,192,83333,128,0,83444:0:0:0:0:
64,192,83555,1,0,0:0:0:0:
448,192,83555,1,0,0:0:0:0:
192,192,83555,128,0,83666:0:0:0:0:
320,192,83555,128,0,83666:0:0:0:0:
64,192,83777,1,0,0:0:0:0:
192,192,83777,1,0,0:0:0:0:
320,192,83777,128,0,83888:0:0:0:0:
448,192,83777,128,0,83888:0:0:0:0:
64,192,83999,1,0,0:0:0:0:
192,192,83999,1,0,0:0:0:0:
320,192,83999,128,0,84111:0:0:0:0:
448,192,83999,128,0,84111:0:0:0:0:
64,192,84222,1,0,0:0:0:0:
448,192,84222,1,0,0:0:0:0:
192,192,84222,128,0,84333:0:0:0:0:
320,192,84222,128,0,84333:0:0:0:0:
320,192,84444,1,0,0:0:0:0:
448,192,84444,1,0,0:0:0:0:
192,192,84444,128,0,84555:0:0:0:0:
64,192,84444,128,0,84555:0:0:0:0:
320,192,84666,1,0,0:0:0:0:
448,192,84666,1,0,0:0:0:0:
64,192,84666,128,0,84777:0:0:0:0:
192,192,84666,128,0,84777:0:0:0:0:
64,192,84888,1,0,0:0:0:0:
448,192,84888,1,0,0:0:0:0:
192,192,84888,128,0,84999:0:0:0:0:
320,192,84888,128,0,84999:0:0:0:0:
192,192,85111,1,0,0:0:0:0:
64,192,85111,1,0,0:0:0:0:
320,192,85111,128,0,85222:0:0:0:0:
448,192,85111,128,0,85222:0:0:0:0:
64,192,85333,1,0,0:0:0:0:
448,192,85333,1,0,0:0:0:0:
320,192,85333,1,0,0:0:0:0:
192,192,85333,1,0,0:0:0:0:
192,192,85444,1,0,0:0:0:0:
64,192,85555,1,0,0:0:0:0:
320,192,85555,1,0,0:0:0:0:
192,192,85666,1,0,0:0:0:0:
320,192,85666,1,0,0:0:0:0:
448,192,85666,1,0,0:0:0:0:
64,192,85777,1,0,0:0:0:0:
192,192,85888,1,0,0:0:0:0:
448,192,85888,1,0,0:0:0:0:
320,192,85999,1,0,0:0:0:0:
64,192,85999,1,0,0:0:0:0:
192,192,85999,1,0,0:0:0:0:
448,192,86111,1,0,0:0:0:0:
320,192,86222,1,0,0:0:0:0:
192,192,86222,1,0,0:0:0:0:
64,192,86333,1,0,0:0:0:0:
320,192,86333,1,0,0:0:0:0:
448,192,86333,1,0,0:0:0:0:
192,192,86444,1,0,0:0:0:0:
64,192,86555,1,0,0:0:0:0:
320,192,86555,1,0,0:0:0:0:
192,192,86666,1,0,0:0:0:0:
64,192,86666,1,0,0:0:0:0:
448,192,86666,1,0,0:0:0:0:
320,192,86777,1,0,0:0:0:0:
192,192,86888,1,0,0:0:0:0:
64,192,86888,1,0,0:0:0:0:
64,192,86999,1,0,0:0:0:0:
192,192,86999,1,0,0:0:0:0:
448,192,86999,1,0,0:0:0:0:
320,192,87111,1,0,0:0:0:0:
192,192,87222,1,0,0:0:0:0:
448,192,87222,1,0,0:0:0:0:
192,192,87333,1,0,0:0:0:0:
448,192,87333,1,0,0:0:0:0:
64,192,87333,1,0,0:0:0:0:
320,192,87444,1,0,0:0:0:0:
192,192,87555,1,0,0:0:0:0:
64,192,87555,1,0,0:0:0:0:
320,192,87666,1,0,0:0:0:0:
448,192,87666,1,0,0:0:0:0:
64,192,87666,1,0,0:0:0:0:
192,192,87777,1,0,0:0:0:0:
320,192,87888,1,0,0:0:0:0:
448,192,87888,1,0,0:0:0:0:
320,192,87999,1,0,0:0:0:0:
448,192,87999,1,0,0:0:0:0:
64,192,87999,1,0,0:0:0:0:
192,192,88111,1,0,0:0:0:0:
64,192,88222,1,0,0:0:0:0:
320,192,88222,1,0,0:0:0:0:
192,192,88333,1,0,0:0:0:0:
320,192,88333,1,0,0:0:0:0:
448,192,88333,1,0,0:0:0:0:
64,192,88444,1,0,0:0:0:0:
192,192,88555,1,0,0:0:0:0:
320,192,88555,1,0,0:0:0:0:
320,192,88666,1,0,0:0:0:0:
64,192,88666,1,0,0:0:0:0:
448,192,88666,1,0,0:0:0:0:
192,192,88777,1,0,0:0:0:0:
320,192,88888,1,0,0:0:0:0:
448,192,88888,1,0,0:0:0:0:
320,192,88999,1,0,0:0:0:0:
448,192,88999,1,0,0:0:0:0:
64,192,88999,1,0,0:0:0:0:
192,192,89111,1,0,0:0:0:0:
64,192,89222,1,0,0:0:0:0:
320,192,89222,1,0,0:0:0:0:
64,192,89333,1,0,0:0:0:0:
192,192,89333,1,0,0:0:0:0:
448,192,89333,1,0,0:0:0:0:
320,192,89444,1,0,0:0:0:0:
192,192,89555,1,0,0:0:0:0:
64,192,89555,1,0,0:0:0:0:
64,192,89666,1,0,0:0:0:0:
192,192,89666,1,0,0:0:0:0:
448,192,89666,1,0,0:0:0:0:
320,192,89777,1,0,0:0:0:0:
192,192,89888,1,0,0:0:0:0:
448,192,89888,1,0,0:0:0:0:
64,192,89999,1,0,0:0:0:0:
192,192,89999,1,0,0:0:0:0:
320,192,89999,1,0,0:0:0:0:
64,192,90222,1,0,0:0:0:0:
192,192,90222,1,0,0:0:0:0:
320,192,90222,1,0,0:0:0:0:
192,192,90333,1,0,0:0:0:0:
320,192,90333,1,0,0:0:0:0:
448,192,90333,1,0,0:0:0:0:
192,192,90555,1,0,0:0:0:0:
448,192,90555,1,0,0:0:0:0:
64,192,90555,1,0,0:0:0:0:
192,192,90666,1,0,0:0:0:0:
64,192,90666,1,0,0:0:0:0:
448,192,90666,1,0,0:0:0:0:
320,192,90666,1,0,0:0:0:0:
320,192,90777,1,0,0:0:0:0:
192,192,90888,1,0,0:0:0:0:
64,192,90888,1,0,0:0:0:0:
64,192,90999,1,0,0:0:0:0:
320,192,90999,1,0,0:0:0:0:
448,192,90999,1,0,0:0:0:0:
192,192,91111,1,0,0:0:0:0:
320,192,91222,1,0,0:0:0:0:
448,192,91222,1,0,0:0:0:0:
448,192,91333,1,0,0:0:0:0:
192,192,91333,1,0,0:0:0:0:
64,192,91333,1,0,0:0:0:0:
320,192,91444,1,0,0:0:0:0:
192,192,91555,1,0,0:0:0:0:
448,192,91555,1,0,0:0:0:0:
64,192,91666,1,0,0:0:0:0:
320,192,91666,1,0,0:0:0:0:
448,192,91666,1,0,0:0:0:0:
192,192,91777,1,0,0:0:0:0:
64,192,91888,1,0,0:0:0:0:
320,192,91888,1,0,0:0:0:0:
192,192,91999,1,0,0:0:0:0:
448,192,91999,1,0,0:0:0:0:
64,192,91999,1,0,0:0:0:0:
320,192,92111,1,0,0:0:0:0:
192,192,92222,1,0,0:0:0:0:
64,192,92222,1,0,0:0:0:0:
64,192,92333,1,0,0:0:0:0:
192,192,92333,1,0,0:0:0:0:
448,192,92333,1,0,0:0:0:0:
320,192,92444,1,0,0:0:0:0:
192,192,92555,1,0,0:0:0:0:
448,192,92555,1,0,0:0:0:0:
320,192,92666,1,0,0:0:0:0:
64,192,92666,1,0,0:0:0:0:
448,192,92666,1,0,0:0:0:0:
192,192,92777,1,0,0:0:0:0:
320,192,92888,1,0,0:0:0:0:
448,192,92888,1,0,0:0:0:0:
320,192,92999,1,0,0:0:0:0:
448,192,92999,1,0,0:0:0:0:
64,192,92999,1,0,0:0:0:0:
192,192,93111,1,0,0:0:0:0:
320,192,93222,1,0,0:0:0:0:
64,192,93222,1,0,0:0:0:0:
192,192,93333,1,0,0:0:0:0:
64,192,93333,1,0,0:0:0:0:
448,192,93333,1,0,0:0:0:0:
320,192,93444,1,0,0:0:0:0:
192,192,93555,1,0,0:0:0:0:
64,192,93555,1,0,0:0:0:0:
64,192,93666,1,0,0:0:0:0:
192,192,93666,1,0,0:0:0:0:
320,192,93666,1,0,0:0:0:0:
448,192,93777,1,0,0:0:0:0:
320,192,93888,1,0,0:0:0:0:
192,192,93888,1,0,0:0:0:0:
320,192,93999,1,0,0:0:0:0:
448,192,93999,1,0,0:0:0:0:
64,192,93999,1,0,0:0:0:0:
192,192,94111,1,0,0:0:0:0:
320,192,94222,1,0,0:0:0:0:
448,192,94222,1,0,0:0:0:0:
192,192,94333,1,0,0:0:0:0:
320,192,94333,1,0,0:0:0:0:
448,192,94333,1,0,0:0:0:0:
64,192,94444,1,0,0:0:0:0:
192,192,94555,1,0,0:0:0:0:
320,192,94555,1,0,0:0:0:0:
448,192,94666,1,0,0:0:0:0:
64,192,94666,1,0,0:0:0:0:
192,192,94777,1,0,0:0:0:0:
320,192,94888,1,0,0:0:0:0:
64,192,94999,1,0,0:0:0:0:
448,192,94999,1,0,0:0:0:0:
192,192,95111,1,0,0:0:0:0:
64,192,95222,1,0,0:0:0:0:
448,192,95333,1,0,0:0:0:0:
320,192,95361,1,0,0:0:0:0:
192,192,95388,1,0,0:0:0:0:
64,192,95416,1,0,0:0:0:0:
448,192,95444,1,0,0:0:0:0:
320,192,95472,1,0,0:0:0:0:
192,192,95499,1,0,0:0:0:0:
64,192,95527,1,0,0:0:0:0:
448,192,95555,1,0,0:0:0:0:
320,192,95583,1,0,0:0:0:0:
192,192,95611,1,0,0:0:0:0:
64,192,95638,1,0,0:0:0:0:
448,192,95666,1,0,0:0:0:0:
320,192,95694,1,0,0:0:0:0:
192,192,95722,1,0,0:0:0:0:
64,192,95749,1,0,0:0:0:0:
448,192,95777,1,0,0:0:0:0:
320,192,95805,1,0,0:0:0:0:
192,192,95833,1,0,0:0:0:0:
64,192,95861,1,0,0:0:0:0:
448,192,95888,1,0,0:0:0:0:
320,192,95916,1,0,0:0:0:0:
192,192,95944,1,0,0:0:0:0:
64,192,95972,1,0,0:0:0:0:
320,192,95999,1,0,0:0:0:0:
448,192,95999,1,0,0:0:0:0:
192,192,96111,1,0,0:0:0:0:
320,192,96222,1,0,0:0:0:0:
64,192,96222,1,0,0:0:0:0:
320,192,96333,1,0,0:0:0:0:
448,192,96333,1,0,0:0:0:0:
192,192,96333,1,0,0:0:0:0:
64,192,96444,1,0,0:0:0:0:
320,192,96555,1,0,0:0:0:0:
448,192,96555,1,0,0:0:0:0:
64,192,96666,1,0,0:0:0:0:
320,192,96666,1,0,0:0:0:0:
448,192,96666,1,0,0:0:0:0:
192,192,96777,1,0,0:0:0:0:
320,192,96888,1,0,0:0:0:0:
64,192,96888,1,0,0:0:0:0:
64,192,96999,1,0,0:0:0:0:
192,192,96999,1,0,0:0:0:0:
448,192,96999,1,0,0:0:0:0:
320,192,97111,1,0,0:0:0:0:
192,192,97222,1,0,0:0:0:0:
448,192,97222,1,0,0:0:0:0:
320,192,97333,1,0,0:0:0:0:
192,192,97333,1,0,0:0:0:0:
64,192,97333,1,0,0:0:0:0:
448,192,97444,1,0,0:0:0:0:
320,192,97555,1,0,0:0:0:0:
192,192,97555,1,0,0:0:0:0:
64,192,97666,1,0,0:0:0:0:
448,192,97666,1,0,0:0:0:0:
320,192,97666,1,0,0:0:0:0:
192,192,97777,1,0,0:0:0:0:
320,192,97888,1,0,0:0:0:0:
448,192,97888,1,0,0:0:0:0:
64,192,97999,1,0,0:0:0:0:
320,192,97999,1,0,0:0:0:0:
448,192,97999,1,0,0:0:0:0:
192,192,98111,1,0,0:0:0:0:
320,192,98222,1,0,0:0:0:0:
192,192,98333,1,0,0:0:0:0:
64,192,98333,1,0,0:0:0:0:
448,192,98333,1,0,0:0:0:0:
320,192,98444,1,0,0:0:0:0:
192,192,98555,1,0,0:0:0:0:
64,192,98555,1,0,0:0:0:0:
448,192,98555,1,0,0:0:0:0:
64,192,98666,1,0,0:0:0:0:
192,192,98666,1,0,0:0:0:0:
448,192,98666,1,0,0:0:0:0:
320,192,98777,1,0,0:0:0:0:
320,192,98888,1,0,0:0:0:0:
448,192,98888,1,0,0:0:0:0:
64,192,98888,1,0,0:0:0:0:
64,192,98999,1,0,0:0:0:0:
320,192,98999,1,0,0:0:0:0:
448,192,98999,1,0,0:0:0:0:
192,192,99111,1,0,0:0:0:0:
64,192,99222,1,0,0:0:0:0:
192,192,99222,1,0,0:0:0:0:
448,192,99222,1,0,0:0:0:0:
192,192,99333,1,0,0:0:0:0:
64,192,99333,1,0,0:0:0:0:
448,192,99333,1,0,0:0:0:0:
320,192,99444,1,0,0:0:0:0:
320,192,99555,1,0,0:0:0:0:
448,192,99555,1,0,0:0:0:0:
64,192,99555,1,0,0:0:0:0:
320,192,99666,1,0,0:0:0:0:
448,192,99666,1,0,0:0:0:0:
64,192,99666,1,0,0:0:0:0:
192,192,99777,1,0,0:0:0:0:
320,192,99888,1,0,0:0:0:0:
448,192,99888,1,0,0:0:0:0:
192,192,99888,1,0,0:0:0:0:
64,192,99999,1,0,0:0:0:0:
320,192,99999,1,0,0:0:0:0:
448,192,99999,1,0,0:0:0:0:
192,192,100111,1,0,0:0:0:0:
64,192,100222,1,0,0:0:0:0:
192,192,100222,1,0,0:0:0:0:
320,192,100222,1,0,0:0:0:0:
64,192,100333,1,0,0:0:0:0:
192,192,100333,1,0,0:0:0:0:
448,192,100333,1,0,0:0:0:0:
320,192,100444,1,0,0:0:0:0:
192,192,100555,1,0,0:0:0:0:
64,192,100555,1,0,0:0:0:0:
448,192,100555,1,0,0:0:0:0:
320,192,100666,1,0,0:0:0:0:
448,192,100666,1,0,0:0:0:0:
64,192,100666,128,0,100999:0:0:0:0:
192,192,100777,1,0,0:0:0:0:
320,192,100888,1,0,0:0:0:0:
448,192,100999,128,0,101333:0:0:0:0:
192,192,100999,1,0,0:0:0:0:
64,192,101333,1,0,0:0:0:0:
320,192,101333,1,0,0:0:0:0:
192,192,101333,1,0,0:0:0:0:
64,192,101444,1,0,0:0:0:0:
192,192,101444,1,0,0:0:0:0:
64,192,101555,1,0,0:0:0:0:
192,192,101555,1,0,0:0:0:0:
320,192,101666,1,0,0:0:0:0:
448,192,101666,1,0,0:0:0:0:
320,192,101777,1,0,0:0:0:0:
448,192,101777,1,0,0:0:0:0:
320,192,101888,1,0,0:0:0:0:
448,192,101888,1,0,0:0:0:0:
64,192,101999,1,0,0:0:0:0:
192,192,101999,1,0,0:0:0:0:
448,192,101999,1,0,0:0:0:0:
192,192,102111,1,0,0:0:0:0:
64,192,102111,1,0,0:0:0:0:
64,192,102222,1,0,0:0:0:0:
192,192,102222,1,0,0:0:0:0:
320,192,102333,1,0,0:0:0:0:
448,192,102333,1,0,0:0:0:0:
320,192,102444,1,0,0:0:0:0:
448,192,102444,1,0,0:0:0:0:
320,192,102555,1,0,0:0:0:0:
448,192,102555,1,0,0:0:0:0:
192,192,102666,1,0,0:0:0:0:
64,192,102666,1,0,0:0:0:0:
448,192,102666,1,0,0:0:0:0:
192,192,102777,1,0,0:0:0:0:
320,192,102777,1,0,0:0:0:0:
320,192,102888,1,0,0:0:0:0:
448,192,102888,1,0,0:0:0:0:
448,192,102999,1,0,0:0:0:0:
192,192,102999,1,0,0:0:0:0:
320,192,103111,1,0,0:0:0:0:
192,192,103111,1,0,0:0:0:0:
192,192,103222,1,0,0:0:0:0:
64,192,103222,1,0,0:0:0:0:
320,192,103333,1,0,0:0:0:0:
448,192,103333,1,0,0:0:0:0:
64,192,103333,1,0,0:0:0:0:
192,192,103444,1,0,0:0:0:0:
320,192,103444,1,0,0:0:0:0:
320,192,103555,1,0,0:0:0:0:
448,192,103555,1,0,0:0:0:0:
64,192,103666,1,0,0:0:0:0:
192,192,103666,1,0,0:0:0:0:
192,192,103777,1,0,0:0:0:0:
320,192,103777,1,0,0:0:0:0:
64,192,103888,1,0,0:0:0:0:
448,192,103888,1,0,0:0:0:0:
320,192,103999,1,0,0:0:0:0:
448,192,103999,1,0,0:0:0:0:
192,192,104055,1,0,0:0:0:0:
64,192,104111,1,0,0:0:0:0:
320,192,104166,1,0,0:0:0:0:
192,192,104222,1,0,0:0:0:0:
448,192,104277,1,0,0:0:0:0:
320,192,104333,1,0,0:0:0:0:
64,192,104333,1,0,0:0:0:0:
192,192,104388,1,0,0:0:0:0:
320,192,104444,1,0,0:0:0:0:
64,192,104499,1,0,0:0:0:0:
448,192,104499,1,0,0:0:0:0:
192,192,104555,1,0,0:0:0:0:
320,192,104611,1,0,0:0:0:0:
448,192,104666,1,0,0:0:0:0:
64,192,104666,1,0,0:0:0:0:
192,192,104722,1,0,0:0:0:0:
320,192,104777,1,0,0:0:0:0:
64,192,104833,1,0,0:0:0:0:
192,192,104888,1,0,0:0:0:0:
64,192,104944,1,0,0:0:0:0:
448,192,104999,1,0,0:0:0:0:
320,192,104999,1,0,0:0:0:0:
192,192,105055,1,0,0:0:0:0:
64,192,105111,1,0,0:0:0:0:
448,192,105166,1,0,0:0:0:0:
320,192,105222,1,0,0:0:0:0:
192,192,105277,1,0,0:0:0:0:
320,192,105333,1,0,0:0:0:0:
448,192,105333,1,0,0:0:0:0:
64,192,105388,1,0,0:0:0:0:
192,192,105388,1,0,0:0:0:0:
320,192,105444,1,0,0:0:0:0:
448,192,105444,1,0,0:0:0:0:
64,192,105499,1,0,0:0:0:0:
192,192,105499,1,0,0:0:0:0:
320,192,105555,1,0,0:0:0:0:
448,192,105555,1,0,0:0:0:0:
64,192,105611,1,0,0:0:0:0:
192,192,105611,1,0,0:0:0:0:
320,192,105666,1,0,0:0:0:0:
448,192,105666,1,0,0:0:0:0:
64,192,105722,1,0,0:0:0:0:
192,192,105722,1,0,0:0:0:0:
448,192,105777,1,0,0:0:0:0:
320,192,105777,1,0,0:0:0:0:
192,192,105833,1,0,0:0:0:0:
64,192,105833,1,0,0:0:0:0:
320,192,105888,1,0,0:0:0:0:
448,192,105888,1,0,0:0:0:0:
192,192,105944,1,0,0:0:0:0:
64,192,105944,1,0,0:0:0:0:
320,192,105999,128,0,106444:0:0:0:0:
448,192,105999,128,0,106555:0:0:0:0:
64,192,106111,1,0,0:0:0:0:
192,192,106222,1,0,0:0:0:0:
64,192,106333,1,0,0:0:0:0:
192,192,106444,1,0,0:0:0:0:
320,192,106555,1,0,0:0:0:0:
320,192,106666,1,0,0:0:0:0:
64,192,106666,128,0,109111:0:0:0:0:
192,192,106666,1,0,0:0:0:0:
448,192,106666,128,0,109111:0:0:0:0:
