osu file format v14

[General]
AudioFilename: anthology.mp3
AudioLeadIn: 0
PreviewTime: 50708
Countdown: 1
SampleSet: Soft
StackLeniency: 0.7
Mode: 0
LetterboxInBreaks: 0
WidescreenStoryboard: 1

[Editor]
Bookmarks: 138797,147943,247549,255723,342669,353404,482630
DistanceSpacing: 2
BeatDivisor: 4
GridSize: 8
TimelineZoom: 1.5

[Metadata]
Title:Date A Live Anthology
TitleUnicode:Date A Live Anthology
Artist:Various Artists
ArtistUnicode:Various Artists
Creator:Nitrous
Version:Sephira
Source:デート・ア・ライブ
Tags:Hatsukoi Winding Road DATE A LIVE SAVE THE WORLD Strawberry Rain SAVE MY HEART
BeatmapID:1931305
BeatmapSetID:923679

[Difficulty]
HPDrainRate:6
CircleSize:3.8
OverallDifficulty:8
ApproachRate:8.5
SliderMultiplier:1.64
SliderTickRate:1

[Events]
//Background and Video events
0,0,"Konachan.com - 253592 breasts cleavage date_a_live dress fire horns itsuka_kotori japanese_clothes long_hair red_eyes red_hair see_through uiu weapon.jpg",0,0
//Break Periods
2,51257,147268
//Storyboard Layer 0 (Background)
//Storyboard Layer 1 (Fail)
//Storyboard Layer 2 (Pass)
//Storyboard Layer 3 (Foreground)
//Storyboard Sound Samples

[TimingPoints]
824.651093056058,348.837209302326,4,2,0,100,1,0
11987,-100,4,2,0,100,0,1
12074,-100,4,2,0,100,0,0
23150,-125,4,2,0,100,0,0
34313,-100,4,2,0,100,0,0
45475,-133.333333333333,4,2,0,100,0,0
49487,-100,4,2,0,100,0,0
51057,-100,4,2,0,100,0,1
61871,-100,4,2,0,100,0,0
62219,-100,4,2,0,100,0,1
70592,-100,4,2,0,100,0,0
73208,-100,4,2,0,100,0,1
73295,-100,4,2,0,100,0,0
84545,-100,4,2,0,100,0,1
87336,-100,4,2,0,100,0,0
90126,-117.647058823529,4,2,0,100,0,0
101115,-100,4,2,0,100,0,1
112452,-100,4,2,0,100,0,0
115243,-133.333333333333,4,2,0,100,0,0
126406,-100,4,2,0,100,0,1
134778,-100,4,2,0,100,0,0
138789,-100,4,2,0,100,0,1
138876,-100,4,2,0,100,0,0
147943,337.078651685393,4,2,0,100,1,0
147943,-133.333333333333,4,2,0,100,0,0
158729,-117.647058823529,4,2,0,100,0,0
169516,-100,4,2,0,100,0,0
181145,-200,4,2,0,100,0,0
181482,-200,4,2,0,5,0,0
181650,-133.333333333333,4,2,0,100,0,0
191089,-166.666666666667,4,2,0,100,0,0
192437,-100,4,2,0,100,0,0
203223,-133.333333333333,4,2,0,100,0,0
211313,-100,4,2,0,100,0,0
212325,-117.647058823529,4,2,0,100,0,0
212577,-117.647058823529,4,2,0,5,0,0
212662,-117.647058823529,4,2,0,100,0,0
213841,-90.9090909090909,4,2,0,100,0,1
230190,-100,4,2,0,100,0,1
232886,-100,4,2,0,100,0,0
246369,-125,4,2,0,100,0,0
255723,359.281437125748,4,2,0,100,1,0
257339,-133.333333333333,4,2,0,100,0,0
257699,-200,4,2,0,100,0,0
258058,-200,4,2,0,5,0,0
258237,-133.333333333333,4,2,0,100,0,0
258597,-100,4,2,0,100,0,0
264345,-133.333333333333,4,2,0,100,0,0
293088,-125,4,2,0,100,0,0
299375,-100,4,2,0,100,0,0
299645,-100,4,2,0,5,0,0
299734,-100,4,2,0,100,0,0
300004,-100,4,2,0,5,0,0
300094,-100,4,2,0,100,0,0
300453,-100,4,2,0,5,0,0
300633,-100,4,2,0,100,0,0
302070,-200,4,2,0,100,0,0
303148,-100,4,2,0,100,0,1
314285,-100,4,2,0,100,0,0
314645,-100,4,2,0,100,0,1
324705,-100,4,2,0,100,0,0
353404,705.882352941176,4,2,0,100,1,0
353404,-133.333333333333,4,2,0,100,0,0
375992,-117.647058823529,4,2,0,100,0,0
423992,-100,4,2,0,100,0,1
452227,-100,4,2,0,100,0,0
482630,379.746835443038,4,2,0,100,1,0
482630,-133.333333333333,4,2,0,100,0,0
488705,-100,4,2,0,100,0,0
500857,-117.647058823529,4,2,0,100,0,0
513009,-100,4,2,0,100,0,0
537313,-90.9090909090909,4,2,0,100,0,1
548705,-90.9090909090909,4,2,0,100,0,0
549465,-90.9090909090909,4,2,0,100,0,1
561617,-100,4,2,0,100,0,0

[HitObjects]
145,68,824,6,0,L|156:158,1,82
154,149,1086,1,0,0:0:0:0:
154,149,1173,1,0,0:0:0:0:
280,311,1347,1,0,0:0:0:0:
280,311,1435,1,0,0:0:0:0:
280,311,1522,1,0,0:0:0:0:
351,119,1696,1,0,0:0:0:0:
172,263,1871,1,0,0:0:0:0:
377,100,2045,1,0,0:0:0:0:
182,37,2219,5,0,0:0:0:0:
182,37,2394,1,0,0:0:0:0:
175,241,2568,1,0,0:0:0:0:
15,111,2743,1,0,0:0:0:0:
15,111,2830,1,0,0:0:0:0:
15,111,2917,1,0,0:0:0:0:
246,151,3092,1,0,0:0:0:0:
104,331,3266,1,0,0:0:0:0:
267,123,3440,1,0,0:0:0:0:
61,123,3615,6,0,L|65:207,1,82
64,204,3876,1,0,0:0:0:0:
64,204,3964,1,0,0:0:0:0:
262,150,4138,1,0,0:0:0:0:
262,150,4225,1,0,0:0:0:0:
262,150,4313,1,0,0:0:0:0:
142,315,4487,1,0,0:0:0:0:
183,79,4661,1,0,0:0:0:0:
137,344,4836,1,0,0:0:0:0:
324,261,5010,5,0,0:0:0:0:
324,261,5185,1,0,0:0:0:0:
184,110,5359,1,0,0:0:0:0:
384,71,5533,1,0,0:0:0:0:
384,71,5621,1,0,0:0:0:0:
384,71,5708,1,0,0:0:0:0:
214,226,5882,1,0,0:0:0:0:
442,161,6057,1,0,0:0:0:0:
243,219,6231,1,0,0:0:0:0:
190,20,6406,6,0,L|183:114,1,82
183,101,6667,1,0,0:0:0:0:
183,101,6754,1,0,0:0:0:0:
166,306,6929,1,0,0:0:0:0:
166,306,7016,1,0,0:0:0:0:
166,306,7103,1,0,0:0:0:0:
64,100,7278,1,0,0:0:0:0:
256,244,7452,1,0,0:0:0:0:
40,83,7626,1,0,0:0:0:0:
79,284,7801,5,0,0:0:0:0:
79,284,7975,1,0,0:0:0:0:
171,100,8150,1,0,0:0:0:0:
210,110,8237,1,0,0:0:0:0:
241,137,8324,1,0,0:0:0:0:
257,174,8411,1,0,0:0:0:0:
257,215,8498,1,0,0:0:0:0:
74,309,8673,1,0,0:0:0:0:
21,111,8847,2,0,L|72:122,1,41
134,192,9022,2,0,L|193:183,1,41
379,153,9196,5,0,0:0:0:0:
376,173,9371,1,0,0:0:0:0:
278,122,9545,1,0,0:0:0:0:
134,216,9719,1,0,0:0:0:0:
350,345,9894,5,0,0:0:0:0:
358,323,10068,1,0,0:0:0:0:
379,153,10243,1,0,0:0:0:0:
191,79,10417,1,0,0:0:0:0:
369,303,10592,5,0,0:0:0:0:
362,107,10766,1,0,0:0:0:0:
220,308,10940,5,0,0:0:0:0:
210,38,11115,1,0,0:0:0:0:
404,199,11289,6,0,L|385:293,1,82
196,320,11638,1,0,0:0:0:0:
156,312,11725,1,0,0:0:0:0:
124,287,11812,1,0,0:0:0:0:
108,250,11899,1,0,0:0:0:0:
111,210,11987,6,0,L|102:114,1,82
245,45,12336,2,0,L|254:141,1,82
236,290,12685,1,0,0:0:0:0:
85,225,12859,1,0,0:0:0:0:
218,320,13033,1,0,0:0:0:0:
254,109,13208,6,0,B|285:114|285:114|303:110|303:110|348:118,1,82
136,172,13557,2,0,B|167:177|167:177|185:173|185:173|230:181,1,82
19,238,13906,2,0,B|50:243|50:243|68:239|68:239|113:247,1,82
238,331,14254,1,0,0:0:0:0:
248,84,14429,2,0,L|238:166,1,82
370,326,14778,6,0,L|381:245,1,82
238,166,15126,2,0,L|227:247,1,82
389,218,15475,1,0,0:0:0:0:
241,144,15650,1,0,0:0:0:0:
398,189,15824,1,0,0:0:0:0:
263,355,15999,6,0,B|232:350|232:350|214:354|214:354|169:346,1,82
381,292,16348,2,0,B|350:287|350:287|332:291|332:291|287:283,1,82
498,226,16697,2,0,B|467:221|467:221|449:225|449:225|404:217,1,82
254,202,17045,1,0,0:0:0:0:
375,0,17219,2,0,L|363:80,1,82
266,283,17568,6,0,L|253:201,1,82
362,81,17917,2,0,L|374:162,1,82
358,325,18266,1,0,0:0:0:0:
252,199,18440,1,0,0:0:0:0:
380,301,18615,1,0,0:0:0:0:
399,83,18789,6,0,B|356:83|356:83|310:104,1,82
153,207,19138,2,0,B|196:207|196:207|231:190,1,82
182,0,19487,2,0,B|182:43|182:43|198:78,1,82
323,184,19836,1,0,0:0:0:0:
87,225,20010,2,0,L|168:239,1,82
395,304,20359,6,0,L|312:319,1,82
168,239,20708,2,0,L|251:224,1,82
335,84,21057,1,0,0:0:0:0:
431,216,21231,1,0,0:0:0:0:
356,69,21406,1,0,0:0:0:0:
204,327,21580,5,0,0:0:0:0:
184,349,21929,1,0,0:0:0:0:
224,349,22278,1,0,0:0:0:0:
203,342,22626,5,0,0:0:0:0:
180,308,22713,1,0,0:0:0:0:
177,267,22800,1,0,0:0:0:0:
195,231,22887,1,0,0:0:0:0:
228,207,22974,1,0,0:0:0:0:
268,203,23062,1,0,0:0:0:0:
306,219,23150,6,0,P|289:277|311:347,1,131.2
440,343,23673,1,0,0:0:0:0:
440,343,23847,2,0,P|457:285|435:215,1,131.2
370,104,24371,1,0,0:0:0:0:
370,104,24545,6,0,L|375:22,1,65.6
246,70,24894,2,0,L|241:152,1,65.6
330,233,25243,2,0,L|472:214,1,131.2
460,215,25940,6,0,P|469:242|468:287,1,65.6
380,375,26289,2,0,P|371:348|372:303,1,65.6
460,215,26638,2,0,L|321:207,1,131.2
200,233,27161,1,0,0:0:0:0:
200,233,27336,6,0,P|196:204|205:165,1,65.6
334,182,27685,2,0,P|338:211|329:250,1,65.6
257,354,28033,2,0,L|297:360,3,32.8
200,260,28382,2,0,L|240:266,3,32.8
276,205,28731,6,0,L|259:353,1,131.2
132,362,29254,1,0,0:0:0:0:
132,362,29429,2,0,L|146:231,1,131.2
197,110,29952,1,0,0:0:0:0:
197,110,30126,6,0,L|271:120,1,65.6
380,175,30475,2,0,L|454:165,1,65.6
456,35,30824,2,0,P|392:35|352:92,1,131.2
451,171,31347,1,0,0:0:0:0:
364,270,31522,6,0,L|289:259,1,65.6
107,287,31871,2,0,L|172:297,2,65.6
184,120,32394,1,0,0:0:0:0:
274,279,32568,1,0,0:0:0:0:
274,279,32743,1,0,0:0:0:0:
321,102,32917,6,0,L|332:177,1,65.6
304,359,33266,2,0,L|294:294,2,65.6
203,204,33789,1,0,0:0:0:0:
383,241,33964,1,0,0:0:0:0:
412,228,34051,1,0,0:0:0:0:
431,201,34138,1,0,0:0:0:0:
432,169,34225,1,0,0:0:0:0:
416,141,34313,6,0,L|318:135,1,82
193,53,34661,2,0,L|94:59,1,82
39,206,35010,2,0,P|52:269|145:318,1,164
297,325,35533,1,0,0:0:0:0:
297,325,35708,6,0,L|293:229,1,82
144,173,36057,2,0,L|148:77,1,82
299,27,36406,2,0,P|356:25|388:41,2,82
299,27,37103,6,0,L|311:121,1,82
472,126,37452,2,0,L|460:220,1,82
308,268,37801,2,0,P|268:255|225:260,2,82
154,327,38324,6,0,L|138:155,1,164
214,17,38847,1,0,0:0:0:0:
214,17,39022,1,0,0:0:0:0:
338,123,39196,2,0,P|302:112|243:116,1,82
411,172,39545,2,0,P|451:172|491:161,1,82
376,42,39894,6,0,L|396:215,1,164
253,289,40417,1,0,0:0:0:0:
253,289,40592,2,0,L|233:116,1,164
110,17,41115,1,0,0:0:0:0:
69,175,41289,2,0,L|153:187,1,82
234,45,41638,6,0,P|274:59|318:57,1,82
471,101,41987,2,0,P|430:100|391:114,1,82
264,217,42336,1,0,0:0:0:0:
264,217,42510,1,0,0:0:0:0:
193,68,42685,6,0,L|183:159,1,82
255,296,43033,1,0,0:0:0:0:
255,296,43208,2,0,L|272:132,1,164
409,41,43731,1,0,0:0:0:0:
409,41,43906,1,0,0:0:0:0:
431,203,44080,6,0,L|339:192,1,82
186,172,44429,1,0,0:0:0:0:
291,297,44603,1,0,0:0:0:0:
318,302,44690,1,0,0:0:0:0:
346,295,44777,1,0,0:0:0:0:
366,275,44864,1,0,0:0:0:0:
376,248,44951,1,0,0:0:0:0:
371,220,45039,1,0,0:0:0:0:
355,197,45126,1,0,0:0:0:0:
329,184,45213,1,0,0:0:0:0:
301,185,45300,1,0,0:0:0:0:
276,199,45387,1,0,0:0:0:0:
260,222,45475,6,0,L|125:211,1,123.000004692078
63,112,45999,1,0,0:0:0:0:
14,224,46173,2,0,P|22:266|45:297,2,61.5000023460389
163,27,46871,6,0,L|145:158,1,123.000004692078
232,237,47394,1,0,0:0:0:0:
279,123,47568,2,0,P|306:115|346:121,2,61.5000023460389
400,337,48266,6,0,L|432:213,1,123.000004692078
356,119,48789,1,0,0:0:0:0:
301,229,48964,2,0,P|269:224|236:203,2,61.5000023460389
180,61,49487,6,0,L|201:237,1,164
308,347,50010,1,0,0:0:0:0:
393,123,50185,2,0,L|309:105,1,82
180,202,50533,2,0,L|174:166,4,20.5
283,329,50882,1,0,0:0:0:0:
316,76,51057,5,0,0:0:0:0:
384,60,147943,6,0,P|449:62|491:100,1,123.000004692078
449,214,148448,2,0,P|384:212|342:174,1,123.000004692078
248,95,148954,6,0,L|250:17,2,61.5000023460389
156,176,149459,1,0,0:0:0:0:
156,176,149628,2,0,P|190:179|225:196,1,61.5000023460389
391,212,149965,2,0,P|362:223|332:226,1,61.5000023460389
249,362,150302,2,0,P|238:333|236:303,1,61.5000023460389
262,123,150639,6,0,P|204:100|143:96,1,123.000004692078
115,216,151145,2,0,P|172:238|233:242,1,123.000004692078
353,217,151650,6,0,L|420:229,2,61.5000023460389
257,69,152156,1,0,0:0:0:0:
257,69,152325,2,0,P|265:99|266:130,1,61.5000023460389
219,300,152662,2,0,P|211:270|211:240,1,61.5000023460389
66,159,152999,2,0,L|127:149,1,61.5000023460389
292,206,153336,6,0,L|413:227,1,123.000004692078
435,107,153841,2,0,L|313:85,1,123.000004692078
200,132,154347,6,0,L|134:145,2,61.5000023460389
335,25,154853,1,0,0:0:0:0:
335,25,155021,2,0,P|329:55|312:81,1,61.5000023460389
193,214,155358,2,0,P|199:184|217:159,1,61.5000023460389
119,18,155695,2,0,P|149:24|175:42,1,61.5000023460389
322,208,156032,6,0,P|258:196|212:151,1,123.000004692078
301,69,156538,2,0,P|365:81|410:125,1,123.000004692078
445,236,157044,2,0,P|446:264|436:300,1,61.5000023460389
278,278,157381,5,0,0:0:0:0:
278,278,157549,2,0,P|277:250|287:214,1,61.5000023460389
379,138,157886,1,0,0:0:0:0:
289,53,158055,2,0,P|257:58|220:57,1,61.5000023460389
53,102,158392,2,0,P|84:102|115:107,1,61.5000023460389
232,331,158729,6,0,B|224:280|224:280|232:242|232:242|223:195,1,139.400002658844
314,88,159235,2,0,B|322:139|322:139|314:177|314:177|323:224,1,139.400002658844
498,215,159740,2,0,P|471:237|455:268,1,69.700001329422
291,374,160077,5,0,0:0:0:0:
291,374,160246,2,0,P|325:373|357:359,2,69.700001329422
158,330,160751,1,0,0:0:0:0:
260,234,160920,1,0,0:0:0:0:
260,234,161004,1,0,0:0:0:0:
260,234,161089,2,0,L|271:159,1,69.700001329422
194,47,161426,6,0,L|172:184,1,139.400002658844
266,286,161931,1,0,0:0:0:0:
304,151,162100,2,0,P|338:149|385:162,1,69.700001329422
357,295,162437,2,0,P|323:297|276:284,1,69.700001329422
171,212,162774,5,0,0:0:0:0:
294,58,162943,2,0,P|293:92|280:125,1,69.700001329422
156,278,163280,1,0,0:0:0:0:
156,278,163448,2,0,P|157:244|171:212,1,69.700001329422
371,258,163785,2,0,P|337:261|303:255,1,69.700001329422
111,142,164122,6,0,P|76:208|72:291,1,139.400002658844
204,306,164628,2,0,P|239:240|243:157,1,139.400002658844
209,41,165134,1,0,0:0:0:0:
98,124,165302,6,0,P|137:128|182:146,1,69.700001329422
351,196,165639,2,0,P|318:206|284:210,1,69.700001329422
165,137,165976,1,0,0:0:0:0:
299,0,166145,2,0,P|296:33|286:67,1,69.700001329422
230,255,166482,2,0,P|220:222|217:188,1,69.700001329422
435,149,166819,6,0,P|437:218|423:286,1,139.400002658844
307,365,167325,1,0,0:0:0:0:
237,244,167493,2,0,P|239:209|248:176,1,69.700001329422
387,193,167830,2,0,P|384:227|375:260,1,69.700001329422
275,360,168167,6,0,L|203:343,1,69.700001329422
109,149,168504,1,0,0:0:0:0:
311,172,168673,1,0,0:0:0:0:
183,340,168841,1,0,0:0:0:0:
90,140,169010,1,0,0:0:0:0:
355,272,169178,1,0,0:0:0:0:
272,60,169347,1,0,0:0:0:0:
145,236,169516,6,0,P|182:225|226:228,1,82
459,287,169853,2,0,P|419:290|380:279,1,82
335,120,170190,1,0,0:0:0:0:
271,270,170358,1,0,0:0:0:0:
425,212,170527,1,0,0:0:0:0:
251,90,170695,6,0,B|260:151|260:151|244:192|244:192|252:259,1,164
107,330,171201,2,0,L|98:239,1,82
177,37,171538,1,0,0:0:0:0:
177,37,171707,2,0,L|168:118,1,82
293,335,172044,6,0,P|372:274|358:205,1,164
276,82,172549,2,0,L|290:172,1,82
144,343,172886,1,0,0:0:0:0:
144,343,173055,2,0,L|157:262,1,82
183,99,173392,1,0,0:0:0:0:
308,203,173560,6,0,P|278:260|179:261,1,164
50,172,174066,1,0,0:0:0:0:
193,91,174235,2,0,P|233:80|288:79,1,82
482,124,174572,2,0,P|441:121|401:110,1,82
182,61,174909,6,0,L|161:240,1,164
281,336,175414,1,0,0:0:0:0:
339,182,175583,2,0,L|322:97,1,82
163,60,175920,1,0,0:0:0:0:
215,264,176089,6,0,P|259:206|362:219,1,164
436,341,176594,2,0,L|345:331,1,82
114,293,176931,2,0,L|196:285,1,82
344,206,177268,1,0,0:0:0:0:
344,206,177605,6,0,L|174:187,1,164
54,82,178111,1,0,0:0:0:0:
27,244,178280,2,0,L|39:339,1,82
124,185,178617,1,0,0:0:0:0:
124,185,178954,6,0,P|168:126|261:107,1,164
337,245,179459,2,0,P|293:304|200:323,1,164
45,343,179965,2,0,L|61:248,1,82
95,101,180302,5,0,0:0:0:0:
231,193,180471,2,0,L|238:235,2,41
265,32,180808,1,0,0:0:0:0:
412,204,180976,1,0,0:0:0:0:
186,171,181145,2,0,L|204:276,1,102.5
203,272,181650,6,0,L|277:266,1,61.5000023460389
349,177,181987,2,0,L|275:170,1,61.5000023460389
167,202,182325,1,0,0:0:0:0:
196,82,182493,2,0,L|204:15,2,61.5000023460389
167,202,182999,6,0,P|205:160|278:165,1,123.000004692078
373,222,183504,2,0,P|402:216|444:223,1,61.5000023460389
439,342,183841,2,0,P|410:348|368:341,1,61.5000023460389
269,286,184178,6,0,B|222:281|222:281|194:292|194:292|135:286,1,123.000004692078
46,218,184684,2,0,P|44:185|55:149,1,61.5000023460389
153,89,185021,2,0,P|160:59|157:28,2,61.5000023460389
157,212,185527,1,0,0:0:0:0:
279,215,185695,6,0,P|330:210|360:143,1,123.000004692078
283,54,186201,2,0,L|214:68,1,61.5000023460389
111,23,186538,2,0,L|94:85,1,61.5000023460389
146,194,186875,1,0,0:0:0:0:
227,101,187044,6,0,L|294:118,1,61.5000023460389
386,43,187381,2,0,L|430:108,1,61.5000023460389
370,206,187718,1,0,0:0:0:0:
272,280,187886,2,0,P|272:313|286:352,2,61.5000023460389
348,182,188392,6,0,L|214:169,1,123.000004692078
114,117,188898,2,0,L|128:53,1,61.5000023460389
15,108,189235,2,0,L|31:235,1,123.000004692078
173,323,189740,6,0,P|219:312|265:241,1,123.000004692078
185,158,190414,2,0,P|139:169|93:240,1,123.000004692078
173,323,191089,6,0,B|228:304|228:304|262:314|262:314|324:294,2,147.599995495606
173,323,192437,6,0,L|180:231,1,82
244,90,192774,1,0,0:0:0:0:
338,223,192942,2,0,P|284:266|184:233,1,164
244,90,193448,2,0,L|260:200,1,82
347,307,193785,6,0,L|369:141,1,164
231,53,194291,2,0,P|189:58|151:73,1,82
191,231,194628,2,0,P|233:226|271:211,1,82
375,85,194965,1,0,0:0:0:0:
430,239,195134,6,0,L|415:328,1,82
298,204,195471,1,0,0:0:0:0:
446,134,195639,2,0,P|392:76|311:96,1,164
211,218,196145,2,0,L|292:205,1,82
206,64,196482,6,0,B|193:120|193:120|204:159|204:159|187:229,1,164
388,288,196987,2,0,P|347:287|308:300,1,82
111,238,197325,2,0,P|149:251|190:250,1,82
293,122,197662,1,0,0:0:0:0:
325,282,197830,6,0,L|343:194,1,82
178,204,198167,1,0,0:0:0:0:
299,314,198336,2,0,L|331:143,1,164
213,36,198841,1,0,0:0:0:0:
168,194,199010,1,0,0:0:0:0:
322,140,199178,6,0,B|446:126|446:126|421:173,1,164
312,278,199684,2,0,L|222:264,1,82
88,183,200021,2,0,P|111:108|197:109,1,164
359,201,200527,6,0,L|332:370,1,164
184,295,201032,1,0,0:0:0:0:
266,152,201201,2,0,P|301:171|341:177,1,82
136,119,201538,2,0,P|95:124|60:144,1,82
174,261,201875,6,0,L|166:90,1,164
315,27,202381,1,0,0:0:0:0:
279,186,202549,5,0,0:0:0:0:
285,202,202718,1,0,0:0:0:0:
446,225,202886,1,0,0:0:0:0:
437,260,203055,1,0,0:0:0:0:
413,54,203223,6,0,L|482:57,2,61.5000023460389
306,115,203729,2,0,L|170:110,1,123.000004692078
61,130,204235,2,0,P|63:160|75:199,1,61.5000023460389
185,235,204572,6,0,P|183:265|171:304,2,61.5000023460389
89,158,205077,2,0,L|159:148,1,61.5000023460389
239,64,205414,2,0,L|299:72,1,61.5000023460389
415,30,205751,1,0,0:0:0:0:
483,132,205920,6,0,L|486:207,2,61.5000023460389
362,103,206426,2,0,L|367:233,1,123.000004692078
302,330,206931,2,0,P|276:320|235:313,1,61.5000023460389
88,329,207268,5,0,0:0:0:0:
88,329,207437,2,0,P|118:323|146:312,1,61.5000023460389
202,202,207774,1,0,0:0:0:0:
109,121,207942,2,0,P|110:84|121:47,2,61.5000023460389
109,121,208617,6,0,L|234:106,1,123.000004692078
308,201,209122,2,0,L|183:216,1,123.000004692078
63,231,209628,2,0,L|56:300,1,61.5000023460389
178,309,209965,6,0,L|184:370,2,61.5000023460389
167,186,210471,2,0,L|234:193,1,61.5000023460389
114,103,210808,2,0,L|248:117,1,123.000004692078
375,200,211313,5,0,0:0:0:0:
247,96,211482,1,0,0:0:0:0:
235,259,211650,1,0,0:0:0:0:
370,67,211819,5,0,0:0:0:0:
349,297,211988,1,0,0:0:0:0:
172,181,212156,1,0,0:0:0:0:
361,314,212325,6,0,L|372:204,1,104.550001994133
374,190,212662,5,0,0:0:0:0:
190,42,212830,1,0,0:0:0:0:
173,279,212999,1,0,0:0:0:0:
173,279,213336,6,0,L|88:263,2,69.700001329422
467,178,213841,6,0,P|422:102|326:118,1,180.400005505371
192,213,214347,1,0,0:0:0:0:
262,46,214516,1,0,0:0:0:0:
117,153,214684,1,0,0:0:0:0:
297,156,214853,1,0,0:0:0:0:
183,23,215021,1,0,0:0:0:0:
195,243,215190,6,0,B|254:227|254:227|315:240|315:240|385:219,1,180.400005505371
412,49,215695,1,0,0:0:0:0:
241,108,215864,1,0,0:0:0:0:
382,218,216032,1,0,0:0:0:0:
211,277,216201,1,0,0:0:0:0:
240,99,216369,1,0,0:0:0:0:
367,227,216538,6,0,P|372:270|357:324,1,90.2000027526856
180,300,216875,2,0,P|175:257|190:203,1,90.2000027526856
297,69,217212,2,0,P|270:103|219:132,1,90.2000027526856
49,122,217549,2,0,P|93:117|137:127,1,90.2000027526856
202,296,217886,6,0,L|298:274,1,90.2000027526856
459,212,218223,2,0,L|363:190,1,90.2000027526856
192,161,218560,1,0,0:0:0:0:
304,19,218729,2,0,P|311:63|294:114,1,90.2000027526856
118,88,219066,1,0,0:0:0:0:
118,88,219403,6,0,P|196:68|299:109,1,180.400005505371
273,280,219909,2,0,P|195:300|92:259,1,180.400005505371
261,183,220414,1,0,0:0:0:0:
261,183,220751,6,0,B|278:241|278:241|260:294|260:294|275:365,1,180.400005505371
434,275,221257,1,0,0:0:0:0:
323,131,221426,2,0,P|286:106|222:108,2,90.2000027526856
323,131,222100,6,0,L|137:125,1,180.400005505371
142,125,222774,1,0,0:0:0:0:
141,304,222942,1,0,0:0:0:0:
298,215,223111,1,0,0:0:0:0:
63,151,223280,6,0,P|77:73|179:51,1,180.400005505371
334,106,223785,2,0,L|314:195,1,90.2000027526856
259,366,224122,1,0,0:0:0:0:
215,354,224206,1,0,0:0:0:0:
185,322,224290,1,0,0:0:0:0:
178,278,224374,1,0,0:0:0:0:
195,237,224459,1,0,0:0:0:0:
351,58,224628,6,0,L|338:243,1,180.400005505371
160,268,225134,1,0,0:0:0:0:
339,271,225302,1,0,0:0:0:0:
280,99,225471,1,0,0:0:0:0:
459,102,225639,1,0,0:0:0:0:
360,253,225808,1,0,0:0:0:0:
439,26,225976,6,0,L|422:221,1,180.400005505371
299,337,226482,1,0,0:0:0:0:
261,161,226650,1,0,0:0:0:0:
427,232,226819,1,0,0:0:0:0:
253,186,226987,1,0,0:0:0:0:
380,314,227156,1,0,0:0:0:0:
200,332,227325,6,0,L|100:318,1,90.2000027526856
291,309,227662,2,0,L|380:296,1,90.2000027526856
370,115,227999,2,0,P|328:127|280:127,1,90.2000027526856
106,82,228336,2,0,P|150:82|194:94,1,90.2000027526856
206,275,228673,6,0,P|202:228|218:164,1,90.2000027526856
390,187,229010,2,0,P|394:234|378:298,1,90.2000027526856
223,354,229347,1,0,0:0:0:0:
212,173,229516,1,0,0:0:0:0:
212,173,229684,1,0,0:0:0:0:
364,270,229853,1,0,0:0:0:0:
364,270,230190,6,0,L|194:261,1,164
37,250,230695,2,0,P|40:294|57:337,1,82
128,183,231032,1,0,0:0:0:0:
128,183,231201,2,0,P|141:144|143:103,1,82
3,17,231538,5,0,0:0:0:0:
20,180,231707,1,0,0:0:0:0:
22,204,231791,1,0,0:0:0:0:
24,228,231875,1,0,0:0:0:0:
24,228,232212,2,0,L|120:219,1,82
270,216,232549,1,0,0:0:0:0:
267,241,232633,1,0,0:0:0:0:
265,265,232717,1,0,0:0:0:0:
158,111,232886,6,0,P|183:170|279:193,1,164
341,113,233560,2,0,P|316:54|220:31,1,164
68,77,234066,1,0,0:0:0:0:
256,192,234150,12,0,236257,0:0:0:0:
404,81,236931,6,0,P|383:128|297:118,1,123
317,135,237268,2,0,L|314:228,1,82
234,360,237605,1,0,0:0:0:0:
337,231,237774,1,0,0:0:0:0:
175,203,237942,1,0,0:0:0:0:
310,299,238111,6,0,L|317:130,1,164
179,44,238617,2,0,P|225:71|271:72,1,82
409,23,238954,2,0,P|368:30|335:53,1,82
336,217,239291,1,0,0:0:0:0:
475,64,239459,6,0,P|391:34|314:73,1,164
227,193,239965,2,0,L|235:282,1,82
398,265,240302,2,0,L|390:176,1,82
293,50,240639,1,0,0:0:0:0:
142,116,240808,6,0,P|167:185|250:194,1,164
410,172,241313,2,0,P|375:153|317:153,1,82
295,306,241650,2,0,P|330:325|388:325,2,82
299,310,242325,6,0,P|247:257|194:285,1,123
207,269,242662,2,0,L|201:180,1,82
112,48,242999,1,0,0:0:0:0:
222,168,243167,1,0,0:0:0:0:
60,200,243336,1,0,0:0:0:0:
94,40,243504,6,0,L|80:216,1,164
196,321,244010,2,0,P|241:320|280:299,1,82
250,141,244347,2,0,P|205:142|166:163,2,82
250,141,245021,6,0,P|270:215|368:208,1,164
347,224,245695,2,0,L|360:312,2,82
347,224,246369,6,0,L|193:207,1,131.2
228,78,246875,2,0,L|382:95,1,131.2
510,215,247381,1,0,0:0:0:0:
336,309,247549,1,0,0:0:0:0:
