osu file format v14

[General]
AudioFilename: audio.mp3
AudioLeadIn: 0
PreviewTime: 522325
Countdown: 0
SampleSet: Soft
StackLeniency: 0.4
Mode: 0
LetterboxInBreaks: 0
EpilepsyWarning: 1
WidescreenStoryboard: 1

[Editor]
Bookmarks: 1514,95382,184363,242023,317468,383011,472470
DistanceSpacing: 1.1
BeatDivisor: 4
GridSize: 4
TimelineZoom: 1.4

[Metadata]
Title:Darling in the FRANXX Compilation
TitleUnicode:Darling in the FRANXX Compilation
Artist:Various Artists
ArtistUnicode:Various Artists
Creator:dkblaze
Version:My Beloved Darling
Source:ダーリン・イン・ザ・フランキス
Tags:Darling in the FRANXX Opening OP Ending ED Zero Two Ichigo Miku Kokoro Ikuno XX:me キス・ミー kiss me Nakashima mika 中島美嘉 produced by hyde Anime Japanese KISS OF DEATH Torikago Manatsu no Setsuna Beautiful World Hitori escape
BeatmapID:2479531
BeatmapSetID:1173065

[Difficulty]
HPDrainRate:5
CircleSize:3.8
OverallDifficulty:8.7
ApproachRate:9.2
SliderMultiplier:1.7
SliderTickRate:1

[Events]
//Background and Video events
0,0,"BG.jpg",0,0
//Break Periods
2,92205,100424
2,137188,142231
2,180549,186755
2,237711,244180
2,310265,320098
2,381668,387683
2,402434,408654
2,472337,478836
//Storyboard Layer 0 (Background)
//Storyboard Layer 1 (Fail)
//Storyboard Layer 2 (Pass)
//Storyboard Layer 3 (Foreground)
//Storyboard Layer 4 (Overlay)
//Storyboard Sound Samples

[TimingPoints]
-453,491.803278688525,4,2,3,30,1,0
1514,-166.666666666667,4,2,3,30,0,0
14547,-333.333333333333,4,2,3,40,0,0
15284,-76.9230769230769,4,2,3,70,0,0
17251,-66.6666666666667,4,2,3,75,0,0
25120,-90.9090909090909,4,2,3,65,0,0
40858,-76.9230769230769,4,2,3,70,0,0
56596,-100,4,2,3,30,0,0
59792,-100,4,2,3,5,0,0
60038,-500,4,2,3,70,0,0
60407,-500,4,2,3,5,0,0
60530,-50,4,2,3,80,0,1
61268,-66.6666666666667,4,2,3,80,0,1
62006,-50,4,2,3,80,0,1
62497,-66.6666666666667,4,2,3,80,0,1
62989,-50,4,2,3,80,0,1
63235,-66.6666666666667,4,2,3,80,0,1
64465,-50,4,2,3,80,0,1
65202,-66.6666666666667,4,2,3,80,0,1
65940,-50,4,2,3,80,0,1
66432,-66.6666666666667,4,2,3,80,0,1
66924,-50,4,2,3,80,0,1
67169,-66.6666666666667,4,2,3,80,0,1
68399,-50,4,2,3,80,0,1
69137,-66.6666666666667,4,2,3,80,0,1
69874,-50,4,2,3,80,0,1
70366,-66.6666666666667,4,2,3,80,0,1
70858,-50,4,2,3,80,0,1
71104,-66.6666666666667,4,2,3,80,0,1
72333,-50,4,2,3,80,0,1
73071,-66.6666666666667,4,2,3,80,0,1
73809,-50,4,2,3,80,0,1
74301,-62.5,4,2,3,80,0,1
75038,-55.5555555555556,4,2,3,80,0,1
75776,-50,4,2,3,80,0,1
77006,-66.6666666666667,4,2,3,80,0,1
77743,-50,4,2,3,80,0,1
78235,-66.6666666666667,4,2,3,80,0,1
78727,-50,4,2,3,80,0,1
78973,-66.6666666666667,4,2,3,80,0,1
80202,-50,4,2,3,80,0,1
80940,-66.6666666666667,4,2,3,80,0,1
81678,-50,4,2,3,80,0,1
82169,-66.6666666666667,4,2,3,80,0,1
82661,-50,4,2,3,80,0,1
82907,-66.6666666666667,4,2,3,80,0,1
84137,-50,4,2,3,80,0,1
84874,-66.6666666666667,4,2,3,80,0,1
85612,-50,4,2,3,80,0,1
86104,-66.6666666666667,4,2,3,80,0,1
86596,-50,4,2,3,80,0,1
86842,-66.6666666666667,4,2,3,80,0,1
88071,-50,4,2,3,80,0,1
88809,-66.6666666666667,4,2,3,80,0,1
89547,-50,4,2,3,80,0,1
92006,-100,4,2,3,60,0,0
95382,387.096774193548,4,2,2,70,1,0
95382,-100,4,2,2,70,0,0
102640,-100,4,2,2,5,0,0
102736,-100,4,2,2,70,0,0
103220,-100,4,2,2,5,0,0
103317,-100,4,2,2,70,0,0
104672,-333.333333333333,4,2,2,70,0,0
104962,-333.333333333333,4,2,2,5,0,0
105059,-66.6666666666667,4,2,2,70,0,0
105349,-66.6666666666667,4,2,2,5,0,0
105446,-100,4,2,2,70,0,0
106317,-100,4,2,2,5,0,0
106414,-100,4,2,2,70,0,0
106511,-100,4,2,2,5,0,0
106607,-100,4,2,2,70,0,0
107769,-100,4,2,2,60,0,0
108059,-100,4,2,2,5,0,0
108156,-100,4,2,2,60,0,0
109801,-100,4,2,2,5,0,0
109898,-100,4,2,2,60,0,0
113381,-100,4,2,4,60,0,0
113478,-100,4,2,2,60,0,0
113769,-100,4,2,4,60,0,0
113865,-100,4,2,2,60,0,0
116865,-100,4,2,4,60,0,0
116962,-100,4,2,2,60,0,0
118607,-100,4,2,2,70,0,0
119478,-100,4,2,2,5,0,0
119575,-100,4,2,2,70,0,0
120156,-90.9090909090909,4,2,2,70,0,0
124317,-90.9090909090909,4,2,2,5,0,0
124414,-90.9090909090909,4,2,2,70,0,0
124801,-76.9230769230769,4,2,2,70,0,0
125091,-76.9230769230769,4,2,2,5,0,0
125188,-76.9230769230769,4,2,2,70,0,0
126349,-90.9090909090909,4,2,2,70,0,0
126640,-90.9090909090909,4,2,2,5,0,0
126736,-90.9090909090909,4,2,2,70,0,0
129156,-90.9090909090909,4,2,2,5,0,0
129252,-90.9090909090909,4,2,2,70,0,0
129736,-90.9090909090909,4,2,2,5,0,0
129833,-90.9090909090909,4,2,2,70,0,0
131285,-90.9090909090909,4,2,2,5,0,0
131381,-90.9090909090909,4,2,2,70,0,0
131478,-90.9090909090909,4,2,2,5,0,0
131575,-90.9090909090909,4,2,2,70,0,0
132543,-83.3333333333333,4,2,2,70,0,0
137188,-100,4,2,2,60,0,0
143285,-100,4,2,2,5,0,0
143381,-166.666666666667,4,2,2,70,0,0
145027,-166.666666666667,4,2,2,5,0,0
145123,-166.666666666667,4,2,2,70,0,0
145511,-100,4,2,2,70,0,0
147349,-100,4,2,2,5,0,0
147446,-100,4,2,2,70,0,0
149575,-83.3333333333333,4,2,2,80,0,1
151220,-83.3333333333333,4,2,2,5,0,1
151317,-83.3333333333333,4,2,2,80,0,1
152962,-83.3333333333333,4,2,2,5,0,1
153059,-83.3333333333333,4,2,2,80,0,1
156059,-83.3333333333333,4,2,2,5,0,1
156156,-83.3333333333333,4,2,2,80,0,1
156833,-83.3333333333333,4,2,2,5,0,1
156930,-83.3333333333333,4,2,2,80,0,1
157414,-83.3333333333333,4,2,2,5,0,1
157511,-83.3333333333333,4,2,2,80,0,1
158188,-83.3333333333333,4,2,2,5,0,1
158285,-83.3333333333333,4,2,2,80,0,1
161962,-83.3333333333333,4,2,2,70,0,1
166607,-83.3333333333333,4,2,2,80,0,1
168156,-83.3333333333333,4,2,2,75,0,0
169801,-83.3333333333333,4,2,2,5,0,0
169898,-83.3333333333333,4,2,2,75,0,0
170575,-83.3333333333333,4,2,2,5,0,0
170672,-83.3333333333333,4,2,2,75,0,0
172898,-83.3333333333333,4,2,2,5,0,0
172994,-83.3333333333333,4,2,2,75,0,0
175994,-83.3333333333333,4,2,2,5,0,0
176091,-83.3333333333333,4,2,2,75,0,0
176769,-83.3333333333333,4,2,2,5,0,0
176865,-83.3333333333333,4,2,2,75,0,0
179091,-83.3333333333333,4,2,2,5,0,0
179188,-83.3333333333333,4,2,2,75,0,0
179672,-83.3333333333333,4,2,2,5,0,0
179769,-83.3333333333333,4,2,2,75,0,0
184363,370.37037037037,4,2,2,70,1,0
184363,-100,4,2,2,70,0,0
187325,-125,4,2,2,65,0,0
188344,-125,4,2,2,5,0,0
188437,-125,4,2,2,65,0,0
191307,-125,4,2,2,5,0,0
191400,-125,4,2,2,65,0,0
192140,-111.111111111111,4,2,2,65,0,0
192511,-100,4,2,2,65,0,0
193251,-100,4,2,2,70,0,0
195011,-100,4,2,2,5,0,0
195103,-100,4,2,2,70,0,0
202140,-83.3333333333333,4,2,2,70,0,0
202418,-83.3333333333333,4,2,2,5,0,0
202511,-83.3333333333333,4,2,2,70,0,0
203529,-83.3333333333333,4,2,2,5,0,0
203622,-83.3333333333333,4,2,2,70,0,0
205103,-500,4,2,2,70,0,0
206400,-83.3333333333333,4,2,2,70,0,0
206677,-83.3333333333333,4,2,2,5,0,0
206770,-83.3333333333333,4,2,2,70,0,0
206862,-83.3333333333333,4,2,2,5,0,0
206955,-83.3333333333333,4,2,2,70,0,0
207233,-83.3333333333333,4,2,2,5,0,0
207325,-83.3333333333333,4,2,2,70,0,0
208066,-83.3333333333333,4,2,2,80,0,1
220011,-83.3333333333333,4,2,2,5,0,1
220103,-83.3333333333333,4,2,2,80,0,1
220288,-62.5,4,2,2,80,0,1
220566,-62.5,4,2,2,5,0,1
220659,-83.3333333333333,4,2,2,80,0,1
222881,-500,4,2,2,80,0,1
223159,-500,4,2,2,5,0,1
223251,-62.5,4,2,2,80,0,1
223529,-62.5,4,2,2,5,0,1
223622,-83.3333333333333,4,2,2,80,0,1
225844,-250.000000000001,4,2,2,80,0,1
226122,-250.000000000001,4,2,2,5,0,1
226214,-62.5,4,2,2,80,0,1
226492,-62.5,4,2,2,5,0,1
226585,-250.000000000001,4,2,2,80,0,1
226862,-250.000000000001,4,2,2,5,0,1
226955,-62.5,4,2,2,80,0,1
227233,-62.5,4,2,2,5,0,1
227325,-250.000000000001,4,2,2,80,0,1
227603,-250.000000000001,4,2,2,5,0,1
227696,-62.5,4,2,2,80,0,1
227974,-62.5,4,2,2,5,0,1
228066,-62.5,4,2,2,80,0,1
228807,-62.5,4,2,2,80,0,1
229085,-62.5,4,2,2,5,0,1
229177,-83.3333333333333,4,2,2,80,0,1
231770,-100,4,2,2,75,0,0
232233,-100,4,2,2,5,0,0
232325,-100,4,2,2,75,0,0
234362,-125,4,2,2,75,0,0
234640,-125,4,2,2,5,0,0
234733,-90.9090909090909,4,2,2,75,0,0
235196,-90.9090909090909,4,2,2,5,0,0
235288,-90.9090909090909,4,2,2,75,0,0
235751,-90.9090909090909,4,2,2,5,0,0
235844,-90.9090909090909,4,2,2,75,0,0
236075,-90.9090909090909,4,2,2,5,0,0
236122,-90.9090909090909,4,2,2,75,0,0
236446,-90.9090909090909,4,2,2,5,0,0
236492,-90.9090909090909,4,2,2,75,0,0
237140,-90.9090909090909,4,2,2,75,0,0
242023,454.545454545455,4,2,2,70,1,0
242023,-100,4,2,2,70,0,0
245659,-125,4,2,2,70,0,0
253045,-125,4,2,2,5,0,0
253159,-125,4,2,2,70,0,0
253273,-125,4,2,2,5,0,0
253386,-125,4,2,2,70,0,0
253500,-125,4,2,2,5,0,0
253613,-125,4,2,2,70,0,0
254068,-83.3333333333333,4,2,2,70,0,0
254409,-83.3333333333333,4,2,2,5,0,0
254523,-83.3333333333333,4,2,2,70,0,0
254750,-71.4285714285714,4,2,2,80,0,1
265659,-333.333333333333,4,2,2,80,0,1
266000,-333.333333333333,4,2,2,5,0,1
266113,-58.8235294117647,4,2,2,80,0,1
266454,-58.8235294117647,4,2,2,5,0,1
266568,-58.8235294117647,4,2,2,80,0,1
268159,-100,4,2,2,80,0,1
268500,-100,4,2,2,5,0,1
268613,-100,4,2,2,80,0,1
269295,-71.4285714285714,4,2,2,80,0,1
269636,-71.4285714285714,4,2,2,5,0,1
269750,-58.8235294117647,4,2,2,80,0,1
270091,-58.8235294117647,4,2,2,5,0,1
270204,-71.4285714285714,4,2,2,80,0,1
276909,-71.4285714285714,4,2,2,5,0,1
277023,-58.8235294117647,4,2,2,80,0,1
277363,-58.8235294117647,4,2,2,5,0,1
277477,-58.8235294117647,4,2,2,80,0,1
278273,-58.8235294117647,4,2,2,5,0,1
278386,-58.8235294117647,4,2,2,80,0,1
280204,-100,4,2,2,80,0,1
280886,-83.3333333333333,4,2,2,80,0,1
281227,-83.3333333333333,4,2,2,5,0,1
281341,-83.3333333333333,4,2,2,80,0,1
281795,-62.5,4,2,2,80,0,1
282136,-62.5,4,2,2,5,0,1
282250,-62.5,4,2,2,80,0,1
283841,-90.9090909090909,4,2,2,80,0,1
285659,-83.3333333333333,4,2,2,80,0,1
287477,-76.9230769230769,4,2,2,75,0,0
290432,-76.9230769230769,4,2,4,75,0,0
290545,-76.9230769230769,4,2,2,75,0,0
291000,-76.9230769230769,4,2,2,5,0,0
291113,-76.9230769230769,4,2,2,75,0,0
294068,-76.9230769230769,4,2,4,75,0,0
294182,-76.9230769230769,4,2,2,75,0,0
295204,-62.5,4,2,2,75,0,0
295545,-62.5,4,2,2,5,0,0
295659,-76.9230769230769,4,2,2,75,0,0
296341,-76.9230769230769,4,2,4,75,0,0
296454,-76.9230769230769,4,2,2,75,0,0
297023,-62.5,4,2,2,75,0,0
297363,-62.5,4,2,2,5,0,0
297477,-76.9230769230769,4,2,2,75,0,0
297704,-76.9230769230769,4,2,4,75,0,0
297818,-76.9230769230769,4,2,2,75,0,0
298159,-76.9230769230769,4,2,4,75,0,0
298273,-76.9230769230769,4,2,2,75,0,0
298727,-76.9230769230769,4,2,2,5,0,0
298841,-62.5,4,2,2,75,0,0
299182,-62.5,4,2,2,5,0,0
299295,-76.9230769230769,4,2,2,75,0,0
300091,-76.9230769230769,4,2,2,5,0,0
300204,-76.9230769230769,4,2,2,75,0,0
303500,-76.9230769230769,4,2,2,5,0,0
303613,-62.5,4,2,2,75,0,0
303954,-62.5,4,2,2,5,0,0
304068,-62.5,4,2,2,75,0,0
305659,461.538461538462,4,2,2,50,1,0
305659,-166.666666666667,4,2,2,50,0,0
307505,487.80487804878,4,2,2,50,1,0
307505,-166.666666666667,4,2,2,50,0,0
308480,-166.666666666667,4,2,2,65,0,0
308724,-166.666666666667,4,2,2,5,0,0
308846,-100,4,2,2,65,0,0
309090,-100,4,2,2,5,0,0
309212,-250,4,2,2,65,0,0
309822,-250,4,2,2,5,0,0
309944,-125,4,2,2,65,0,0
317468,800,4,2,2,60,1,0
317468,-100,4,2,2,60,0,0
320668,-83.3333333333334,4,2,2,60,0,0
323868,-62.5,4,2,2,70,0,0
325868,-62.5,4,2,4,70,0,0
325968,-62.5,4,2,2,70,0,0
329068,-62.5,4,2,4,70,0,0
329168,-62.5,4,2,2,70,0,0
332268,-62.5,4,2,4,70,0,0
332368,-62.5,4,2,2,70,0,0
335468,-62.5,4,2,4,70,0,0
335568,-62.5,4,2,2,70,0,0
338668,-62.5,4,2,4,70,0,0
338768,-62.5,4,2,2,70,0,0
341868,-62.5,4,2,4,70,0,0
341968,-62.5,4,2,2,70,0,0
348268,-62.5,4,2,4,70,0,0
348368,-62.5,4,2,2,70,0,0
352668,-45.4545454545455,4,2,2,75,0,0
353868,-62.5,4,2,2,75,0,0
355868,-45.4545454545455,4,2,2,75,0,0
357068,-83.3333333333334,4,2,2,75,0,0
357868,-62.5,4,2,4,75,0,0
357968,-62.5,4,2,2,75,0,0
359068,-62.5,4,2,2,70,0,0
362668,-62.5,4,2,4,70,0,0
362768,-62.5,4,2,2,70,0,0
363068,-45.4545454545455,4,2,2,70,0,0
365468,-62.5,4,2,2,70,0,0
368668,-45.4545454545455,4,2,2,70,0,0
370268,-62.5,4,2,2,70,0,0
375868,-45.4545454545455,4,2,2,70,0,0
378268,-41.6666666666667,4,2,2,70,0,0
378568,-41.6666666666667,4,2,2,5,0,0
378668,-41.6666666666667,4,2,2,70,0,0
378968,-41.6666666666667,4,2,2,5,0,0
379068,-41.6666666666667,4,2,2,70,0,0
379368,-41.6666666666667,4,2,2,5,0,0
379468,-41.6666666666667,4,2,2,70,0,0
379768,-41.6666666666667,4,2,2,5,0,0
379868,-41.6666666666667,4,2,2,70,0,0
383011,291.26213592233,6,2,2,55,1,0
383011,-100,6,2,2,55,0,0
388253,-142.857142857143,6,2,2,55,0,0
389345,-142.857142857143,6,2,2,5,0,0
389418,-142.857142857143,6,2,2,55,0,0
389928,-142.857142857143,6,2,2,5,0,0
390001,-166.666666666667,6,2,2,70,0,0
390365,-166.666666666667,6,2,2,5,0,0
390438,-166.666666666667,6,2,2,70,0,0
391239,-166.666666666667,6,2,2,5,0,0
391311,-166.666666666667,6,2,2,70,0,0
392841,-166.666666666667,6,2,2,5,0,0
392913,-250.000000000001,6,2,2,70,0,0
393132,-250.000000000001,6,2,2,5,0,0
393205,-333.333333333334,6,2,2,70,0,0
393496,-166.666666666667,6,2,2,70,0,0
393860,-166.666666666667,6,2,2,5,0,0
393933,-166.666666666667,6,2,2,70,0,0
401360,-166.666666666667,6,2,2,70,0,0
401651,-166.666666666667,6,2,2,60,0,0
401943,-166.666666666667,6,2,2,50,0,0
402234,-166.666666666667,6,2,2,60,0,0
409224,-166.666666666667,6,2,2,60,0,0
414467,-100,6,2,2,70,0,0
415413,-100,6,2,2,70,0,0
415486,-100,6,2,2,5,0,0
415632,-166.666666666667,6,2,2,70,0,0
416142,-166.666666666667,6,2,2,5,0,0
416214,-100,6,2,2,70,0,0
423205,-100,6,2,2,70,0,0
424952,-100,6,2,2,75,0,0
426700,-166.666666666667,6,2,2,75,0,0
427938,-166.666666666667,6,2,2,5,0,0
428011,-166.666666666667,6,2,2,75,0,0
428229,-166.666666666667,6,2,2,5,0,0
428302,-166.666666666667,6,2,2,75,0,0
428447,-333.333333333333,6,2,2,75,0,0
430195,-166.666666666667,6,2,2,75,0,0
430559,-166.666666666667,6,2,2,5,0,0
430632,-166.666666666667,6,2,2,75,0,0
431578,-166.666666666667,6,2,2,5,0,0
431651,-166.666666666667,6,2,2,75,0,0
431943,-111.111111111111,6,2,2,75,0,0
433690,-90.9090909090909,6,2,2,80,0,1
438277,-90.9090909090909,6,2,2,5,0,1
438350,-90.9090909090909,6,2,2,80,0,1
452258,-90.9090909090909,6,2,2,5,0,1
452331,-90.9090909090909,6,2,2,80,0,1
453860,-90.9090909090909,6,2,2,5,0,1
453933,-90.9090909090909,6,2,2,80,0,1
458156,-90.9090909090909,6,2,2,75,0,0
472137,-90.9090909090909,6,2,2,5,0,0
472470,346.820809248555,4,2,2,75,1,0
472470,-100,4,2,2,75,0,0
480446,-90.9090909090909,4,2,2,75,0,0
481053,-90.9090909090909,4,2,2,5,0,0
481140,-90.9090909090909,4,2,2,75,0,0
482094,-90.9090909090909,4,2,2,5,0,0
482180,-90.9090909090909,4,2,2,75,0,0
483828,-90.9090909090909,4,2,2,5,0,0
483915,-90.9090909090909,4,2,2,75,0,0
484868,-90.9090909090909,4,2,2,5,0,0
484955,-90.9090909090909,4,2,2,75,0,0
486602,-90.9090909090909,4,2,2,5,0,0
486689,-90.9090909090909,4,2,2,75,0,0
489377,-90.9090909090909,4,2,2,5,0,0
489464,-90.9090909090909,4,2,2,75,0,0
492152,-90.9090909090909,4,2,2,5,0,0
492238,-90.9090909090909,4,2,2,75,0,0
493192,-90.9090909090909,4,2,2,5,0,0
493279,-90.9090909090909,4,2,2,75,0,0
494926,-90.9090909090909,4,2,2,5,0,0
495013,-90.9090909090909,4,2,2,75,0,0
495967,-90.9090909090909,4,2,2,5,0,0
496053,-90.9090909090909,4,2,2,75,0,0
497701,-90.9090909090909,4,2,2,5,0,0
497787,-90.9090909090909,4,2,2,75,0,0
498741,-90.9090909090909,4,2,2,5,0,0
498828,-90.9090909090909,4,2,2,75,0,0
505764,-76.9230769230769,4,2,2,80,0,1
506718,-76.9230769230769,4,2,2,5,0,1
506805,-76.9230769230769,4,2,2,80,0,1
519637,-166.666666666666,4,2,2,60,0,0
521198,-99.9999999999998,4,2,2,60,0,0
521718,-66.6666666666667,4,2,2,60,0,0
521978,-66.6666666666667,4,2,2,5,0,0
522065,-58.8235294117647,4,2,2,60,0,0
522325,-62.5,4,2,2,5,0,0
522412,-166.666666666667,4,2,2,60,0,0
523799,-200,4,2,2,60,0,0
527180,-200,4,2,2,5,0,0
527267,-200,4,2,2,60,0,0
527527,-200,4,2,2,5,0,0
527614,-200,4,2,2,60,0,0
527874,-200,4,2,2,5,0,0
527961,-200,4,2,2,60,0,0
532123,-90.9090909090909,4,2,2,60,0,0
532383,-76.9230769230769,4,2,2,5,0,0
532470,-76.9230769230769,4,2,2,60,0,0
532903,-76.9230769230769,4,2,2,5,0,0
532990,-76.9230769230769,4,2,2,60,0,0
533510,-333.333333333333,4,2,2,80,0,1
533770,-333.333333333333,4,2,2,5,0,1
533857,-62.5,4,2,2,80,0,1
534117,-62.5,4,2,2,5,0,1
534204,-76.9230769230769,4,2,2,80,0,1
539666,-76.9230769230769,4,2,2,5,0,1
539753,-76.9230769230769,4,2,2,80,0,1
540706,-76.9230769230769,4,2,2,5,0,1
540793,-76.9230769230769,4,2,2,80,0,1
543741,-62.5,4,2,2,80,0,1
544001,-76.9230769230769,4,2,2,5,0,1
544088,-76.9230769230769,4,2,2,80,0,1
544608,-66.6666666666667,4,2,2,80,0,1
544868,-66.6666666666667,4,2,2,5,0,1
544955,-66.6666666666667,4,2,2,80,0,1
545128,-76.9230769230769,4,2,2,80,0,1
545389,-76.9230769230769,4,2,2,5,0,1
545475,-76.9230769230769,4,2,2,80,0,1
545996,-66.6666666666667,4,2,2,80,0,1
546256,-66.6666666666667,4,2,2,5,0,1
546342,-66.6666666666667,4,2,2,80,0,1
546516,-76.9230769230769,4,2,2,80,0,1
546776,-76.9230769230769,4,2,2,5,0,1
546863,-76.9230769230769,4,2,2,80,0,1
547470,-76.9230769230769,4,2,2,5,0,1
547556,-76.9230769230769,4,2,2,80,0,1
547730,-55.5555555555556,4,2,2,80,0,1
547990,-55.5555555555556,4,2,2,5,0,1
548076,-76.9230769230769,4,2,2,80,0,1
550157,-66.6666666666667,4,2,2,80,0,1
550417,-66.6666666666667,4,2,2,5,0,1
550504,-66.6666666666667,4,2,2,80,0,1
550678,-76.9230769230769,4,2,2,80,0,1
550938,-76.9230769230769,4,2,2,5,0,1
551024,-76.9230769230769,4,2,2,80,0,1
551545,-66.6666666666667,4,2,2,80,0,1
551805,-66.6666666666667,4,2,2,5,0,1
551891,-66.6666666666667,4,2,2,80,0,1
552065,-76.9230769230769,4,2,2,80,0,1
552325,-76.9230769230769,4,2,2,5,0,1
552412,-76.9230769230769,4,2,2,80,0,1
552932,-333.333333333333,4,2,2,80,0,1
553192,-333.333333333333,4,2,2,5,0,1
553279,-62.5,4,2,2,80,0,1
553539,-62.5,4,2,2,5,0,1
553626,-76.9230769230769,4,2,2,80,0,1
555706,-76.9230769230769,4,2,2,80,0,1
568192,-250,4,2,2,75,0,0
579290,-250,4,2,2,5,0,0

[Colours]
Combo1 : 197,204,252
Combo2 : 228,176,249
Combo3 : 150,176,248
Combo4 : 230,206,240

[HitObjects]
109,109,1514,6,0,P|121:166|130:217,1,101.999996887207,2|2,3:2|0:0,0:0:0:0:
77,272,2251,2,0,P|102:288|135:289,1,50.9999984436036,2|0,0:0|0:0,0:0:0:0:
214,224,2743,2,0,L|278:240,1,50.9999984436036,2|0,0:0|0:0,0:0:0:0:
351,370,3235,2,0,P|363:298|399:159,1,203.999993774414,2|0,0:0|0:0,0:0:0:0:
395,171,4710,1,2,0:0:0:0:
227,59,5202,6,0,P|250:53|277:45,1,50.9999984436036,2|0,0:0|0:0,0:0:0:0:
160,26,5694,2,0,P|183:32|210:40,1,50.9999984436036,2|0,0:0|0:0,0:0:0:0:
145,173,6186,2,0,P|122:167|95:159,1,50.9999984436036,2|0,0:0|0:0,0:0:0:0:
212,140,6678,2,0,P|189:146|162:154,1,50.9999984436036,2|0,0:0|0:0,0:0:0:0:
306,86,7169,2,0,P|324:118|317:167,1,76.4999976654053,2|2,0:0|0:0,0:0:0:0:
278,198,7661,2,0,P|286:265|293:321,1,101.999996887207,2|0,0:0|0:0,0:0:0:0:
388,255,8399,6,0,L|419:246,1,25.4999992218018,2|2,0:0|0:0,0:0:0:0:
480,352,8768,2,0,L|449:343,1,25.4999992218018,2|2,0:0|0:0,0:0:0:0:
296,384,9137,1,2,0:0:0:0:
124,301,9383,6,0,P|100:317|67:331,1,50.9999984436036,2|0,0:0|0:0,0:0:0:0:
30,262,9751,2,0,P|35:240|54:254,1,50.9999984436036,2|0,0:0|0:0,0:0:0:0:
144,384,10120,2,0,P|148:346|165:221,1,152.999995330811,2|0,0:0|0:0,0:0:0:0:
176,145,11104,1,2,0:0:0:0:
305,238,11350,6,0,P|338:230|389:215,2,76.4999976654053,2|2|2,0:0|0:0|0:0,0:0:0:0:
29,18,12579,2,0,P|33:48|37:78,1,50.9999984436036,2|0,0:0|0:0,0:0:0:0:
5,196,13071,6,0,B|87:168|117:233|91:244|126:323|215:310,1,254.999992218018,2|0,0:0|0:0,0:0:0:0:
210,304,14547,6,0,P|214:270|219:234,1,63.7499980545045,2|0,0:0|0:0,0:0:0:0:
225,159,15284,6,0,P|255:164|283:192,1,55.2499974708558,6|0,0:0|0:0,0:0:0:0:
323,271,15530,1,0,3:0:0:0:
323,271,15653,1,0,3:0:0:0:
323,271,15776,1,8,0:0:0:0:
470,256,16022,2,0,P|473:288|457:321,1,55.2499974708558,2|0,0:0|0:0,0:0:0:0:
393,384,16268,1,0,3:0:0:0:
393,384,16391,1,0,3:0:0:0:
393,384,16514,1,8,0:0:0:0:
307,190,16760,2,0,P|311:161|316:121,1,55.2499974708558,6|0,0:0|0:0,0:0:0:0:
446,20,17006,1,0,3:0:0:0:
448,36,17128,1,0,3:0:0:0:
450,52,17251,6,0,L|281:17,1,127.500004863739,14|0,3:2|0:0,0:0:0:0:
167,3,17620,2,0,P|199:67|225:129,1,127.500004863739,14|0,0:0|0:0,0:0:0:0:
188,269,17989,2,0,B|282:274|260:185|356:197,1,191.250007295609,2|0,3:2|0:0,0:0:0:0:
434,237,18481,1,2,3:2:0:0:
215,75,18727,2,0,P|184:119|202:189,1,127.500004863739,8|0,0:0|0:0,0:0:0:0:
273,218,19096,1,8,0:0:0:0:
345,112,19219,6,0,P|289:101|185:74,1,127.500004863739,2|0,3:2|0:0,0:0:0:0:
65,148,19587,2,0,B|30:183|30:183|84:167|160:150,1,127.500004863739,14|0,0:0|0:0,0:0:0:0:
213,0,19956,2,0,P|206:103|201:196,1,191.250007295609,2|0,3:2|0:0,0:0:0:0:
195,283,20448,1,2,3:2:0:0:
0,181,20694,1,8,0:0:0:0:
87,127,20817,2,0,P|81:201|77:266,1,127.500004863739,0|0,3:0|0:0,0:0:0:0:
226,372,21186,6,0,B|291:356|258:314|334:300,1,127.500004863739,2|0,3:2|0:0,0:0:0:0:
491,291,21555,2,0,P|506:344|438:382,1,127.500004863739,14|0,0:0|0:0,0:0:0:0:
398,265,21924,2,0,P|387:189|365:68,1,191.250007295609,2|0,3:2|0:0,0:0:0:0:
351,0,22415,1,2,3:2:0:0:
509,164,22661,2,0,P|497:237|490:300,1,127.500004863739,8|0,0:0|0:0,0:0:0:0:
482,372,23030,1,8,0:0:0:0:
394,265,23153,5,2,3:2:0:0:
394,265,23399,1,0,3:0:0:0:
191,379,23645,2,0,P|183:320|164:214,1,127.500004863739,12|2,0:0|0:0,0:0:0:0:
150,171,24014,1,0,3:0:0:0:
343,144,24260,5,8,0:0:0:0:
254,194,24383,1,2,3:2:0:0:
62,32,24628,5,8,0:0:0:0:
142,89,24751,1,0,3:0:0:0:
371,7,24997,1,8,0:0:0:0:
405,41,25120,6,0,L|397:101,1,46.7500014266968,6|0,3:2|0:0,0:0:0:0:
443,169,25366,1,8,0:0:0:0:
443,169,25489,2,0,L|429:273,1,93.5000028533936,2|0,0:0|0:0,0:0:0:0:
365,331,25858,2,0,P|331:315|275:295,1,93.5000028533936,10|0,0:0|0:0,0:0:0:0:
81,308,26350,2,0,P|90:342|95:365,1,46.7500014266968,10|0,0:0|0:0,0:0:0:0:
176,384,26596,1,0,3:0:0:0:
176,384,26719,1,0,3:0:0:0:
176,384,26842,2,0,P|182:361|191:323,1,46.7500014266968,10|0,0:0|0:0,0:0:0:0:
185,160,27087,6,0,P|161:168|126:180,1,46.7500014266968,0|0,3:0|0:0,0:0:0:0:
52,134,27333,1,10,0:0:0:0:
52,134,27456,2,0,P|24:175|34:231,1,93.5000028533936,0|0,0:0|0:0,0:0:0:0:
28,378,27825,2,0,P|80:363|177:335,1,140.25000428009,10|0,0:0|0:0,0:0:0:0:
263,284,28317,2,0,P|240:277|213:268,1,46.7500014266968,8|0,0:0|0:0,0:0:0:0:
124,202,28563,1,2,3:2:0:0:
124,202,28686,1,0,3:0:0:0:
124,202,28809,1,10,0:0:0:0:
142,197,28932,1,0,3:0:0:0:
159,190,29055,6,0,L|167:136,1,46.7500014266968,2|0,3:2|0:0,0:0:0:0:
229,92,29301,1,8,0:0:0:0:
229,92,29424,2,0,L|244:-13,1,93.5000028533936,2|0,0:0|0:0,0:0:0:0:
291,154,29792,2,0,P|332:169|380:153,1,93.5000028533936,10|0,0:0|0:0,0:0:0:0:
497,7,30284,2,0,L|510:77,1,46.7500014266968,10|0,0:0|0:0,0:0:0:0:
470,127,30530,1,0,3:0:0:0:
470,127,30653,1,0,3:0:0:0:
470,127,30776,2,0,L|483:197,1,46.7500014266968,10|0,0:0|0:0,0:0:0:0:
512,290,31022,6,0,P|493:283|464:273,1,46.7500014266968,2|0,3:2|0:0,0:0:0:0:
379,202,31268,2,0,P|330:220|264:236,1,93.5000028533936,8|0,0:0|0:0,0:0:0:0:
43,248,31760,2,0,P|91:237|137:273,1,93.5000028533936,10|0,0:0|0:0,0:0:0:0:
330,355,32251,2,0,P|334:323|339:278,1,46.7500014266968,8|0,0:0|0:0,0:0:0:0:
379,202,32497,1,0,3:0:0:0:
379,202,32620,1,0,3:0:0:0:
379,202,32743,2,0,P|375:170|370:125,1,46.7500014266968,10|0,0:0|0:0,0:0:0:0:
326,0,32989,6,0,P|305:5|275:15,1,46.7500014266968,2|0,3:2|0:0,0:0:0:0:
218,66,33235,1,8,0:0:0:0:
218,66,33358,2,0,P|168:54|107:43,1,93.5000028533936,2|0,0:0|0:0,0:0:0:0:
8,0,33727,2,0,P|19:65|26:109,1,93.5000028533936,10|0,0:0|0:0,0:0:0:0:
113,306,34219,2,0,L|125:253,1,46.7500014266968,10|0,0:0|0:0,0:0:0:0:
150,134,34465,1,0,3:0:0:0:
150,134,34587,1,0,3:0:0:0:
150,134,34710,2,0,P|181:142|211:149,1,46.7500014266968,10|0,0:0|0:0,0:0:0:0:
258,243,34956,6,0,L|309:218,1,46.7500014266968,0|0,3:0|0:0,0:0:0:0:
403,275,35202,1,10,0:0:0:0:
403,275,35325,2,0,L|438:170,1,93.5000028533936,0|0,3:0|0:0,0:0:0:0:
375,51,35694,2,0,P|345:92|367:149,1,93.5000028533936,10|0,0:0|0:0,0:0:0:0:
495,275,36186,2,0,P|487:308|477:350,1,46.7500014266968,10|0,0:0|0:0,0:0:0:0:
309,376,36432,1,2,3:2:0:0:
309,376,36555,1,0,3:0:0:0:
309,376,36678,1,10,0:0:0:0:
326,368,36801,1,0,3:0:0:0:
342,359,36924,6,0,P|334:333|327:309,1,46.7500014266968,0|0,3:0|0:0,0:0:0:0:
232,318,37169,1,10,0:0:0:0:
232,318,37292,2,0,P|237:289|247:212,1,93.5000028533936,0|0,3:0|0:0,0:0:0:0:
310,103,37661,2,0,P|338:142|313:210,1,93.5000028533936,10|0,0:0|0:0,0:0:0:0:
145,250,38153,2,0,L|122:205,1,46.7500014266968,10|0,0:0|0:0,0:0:0:0:
19,209,38399,1,0,3:0:0:0:
19,209,38522,1,0,3:0:0:0:
19,209,38645,2,0,L|35:154,1,46.7500014266968,8|0,0:0|0:0,0:0:0:0:
0,58,38891,6,0,P|27:50|64:37,1,46.7500014266968,0|0,3:0|0:0,0:0:0:0:
127,0,39137,2,0,P|176:12|232:22,1,93.5000028533936,8|0,0:0|0:0,0:0:0:0:
336,245,39628,2,0,P|334:271|314:299,1,46.7500014266968,8|0,0:0|0:0,0:0:0:0:
229,198,39874,2,0,P|204:190|170:182,1,46.7500014266968,2|0,0:0|0:0,0:0:0:0:
377,109,40120,2,0,P|400:100|432:88,1,46.7500014266968,10|0,0:0|0:0,0:0:0:0:
231,32,40366,1,2,3:2:0:0:
229,27,40489,1,0,3:0:0:0:
227,22,40612,1,10,0:0:0:0:
167,11,40735,1,0,3:0:0:0:
120,55,40858,6,0,P|127:112|133:155,1,55.2499974708558,4|0,3:2|0:0,0:0:0:0:
200,270,41104,1,10,0:0:0:0:
200,270,41227,2,0,P|220:237|187:164,1,110.499994941712,0|2,3:0|0:0,0:0:0:0:
40,285,41596,2,0,B|126:291|97:353|180:363,1,165.749992412568,10|0,0:0|0:0,0:0:0:0:
282,286,42087,2,0,P|306:293|334:301,1,55.2499974708558,10|0,0:0|0:0,0:0:0:0:
476,334,42333,1,0,3:0:0:0:
463,344,42456,1,0,3:0:0:0:
450,354,42579,2,0,L|457:280,1,55.2499974708558,10|0,0:0|0:0,0:0:0:0:
512,214,42825,6,0,P|507:182|501:140,1,55.2499974708558,0|0,3:0|0:0,0:0:0:0:
392,48,43071,1,8,0:0:0:0:
392,48,43194,2,0,P|316:75|243:97,1,110.499994941712,0|0,0:0|0:0,0:0:0:0:
129,0,43563,2,0,P|144:25|157:55,1,55.2499974708558,8|0,0:0|0:0,0:0:0:0:
189,233,43809,2,0,P|182:260|176:286,1,55.2499974708558,2|0,0:0|0:0,0:0:0:0:
72,344,44055,2,0,P|65:317|58:290,1,55.2499974708558,10|0,0:0|0:0,0:0:0:0:
15,108,44301,1,2,3:2:0:0:
11,124,44424,1,0,3:0:0:0:
7,140,44547,1,10,0:0:0:0:
3,156,44669,1,0,3:0:0:0:
0,172,44792,6,0,P|32:162|76:151,1,55.2499974708558,0|0,3:0|0:0,0:0:0:0:
213,104,45038,1,10,0:0:0:0:
213,104,45161,2,0,P|202:165|195:213,1,110.499994941712,2|0,0:0|0:0,0:0:0:0:
232,359,45530,2,0,B|151:345|184:285|94:267,1,165.749992412568,10|0,0:0|0:0,0:0:0:0:
0,180,46022,2,0,L|58:163,1,55.2499974708558,10|0,0:0|0:0,0:0:0:0:
213,104,46268,1,0,3:0:0:0:
197,99,46391,1,0,3:0:0:0:
181,94,46514,2,0,L|193:155,1,55.2499974708558,10|0,0:0|0:0,0:0:0:0:
308,253,46760,6,0,P|316:229|334:183,1,55.2499974708558,0|0,3:0|0:0,0:0:0:0:
449,132,47006,1,8,0:0:0:0:
449,132,47128,2,0,P|376:100|301:80,1,110.499994941712,0|0,0:0|0:0,0:0:0:0:
221,21,47497,2,0,P|247:14|293:-4,1,55.2499974708558,8|0,0:0|0:0,0:0:0:0:
245,176,47743,2,0,P|227:157|197:131,1,55.2499974708558,2|0,0:0|0:0,0:0:0:0:
345,188,47989,2,0,P|334:223|326:256,1,55.2499974708558,10|0,0:0|0:0,0:0:0:0:
191,372,48235,1,2,3:2:0:0:
185,355,48358,1,0,3:0:0:0:
179,339,48481,1,10,0:0:0:0:
173,323,48604,1,0,3:0:0:0:
167,307,48727,6,0,P|190:313|223:322,1,55.2499974708558,6|0,3:2|0:0,0:0:0:0:
367,345,48973,1,10,0:0:0:0:
367,345,49096,2,0,P|371:315|388:184,1,110.499994941712,0|0,0:0|0:0,0:0:0:0:
207,120,49465,2,0,P|194:180|279:222,1,165.749992412568,10|0,0:0|0:0,0:0:0:0:
362,134,49956,2,0,P|335:124|303:112,1,55.2499974708558,10|0,0:0|0:0,0:0:0:0:
114,33,50202,1,0,3:0:0:0:
129,26,50325,1,0,3:0:0:0:
145,18,50448,2,0,L|136:80,1,55.2499974708558,10|0,0:0|0:0,0:0:0:0:
59,222,50694,6,0,P|69:255|76:281,1,55.2499974708558,0|0,3:0|0:0,0:0:0:0:
186,382,50940,1,8,0:0:0:0:
186,382,51063,2,0,P|206:339|284:328,1,110.499994941712,0|0,0:0|0:0,0:0:0:0:
435,321,51432,2,0,P|427:352|419:397,1,55.2499974708558,8|0,0:0|0:0,0:0:0:0:
312,189,51678,2,0,P|305:164|293:121,1,55.2499974708558,2|0,0:0|0:0,0:0:0:0:
491,88,51924,2,0,P|483:119|475:164,1,55.2499974708558,10|0,0:0|0:0,0:0:0:0:
307,184,52169,2,0,P|300:159|288:116,1,55.2499974708558,2|0,3:2|3:0,0:0:0:0:
405,3,52415,5,10,0:0:0:0:
405,3,52538,1,0,3:0:0:0:
405,3,52661,1,12,0:0:0:0:
281,74,52907,5,2,3:2:0:0:
285,52,53030,1,0,3:0:0:0:
300,36,53153,1,8,0:0:0:0:
199,215,53399,5,2,3:2:0:0:
172,185,53522,1,0,3:0:0:0:
166,147,53645,1,8,0:0:0:0:
307,347,53891,5,0,3:0:0:0:
267,377,54014,1,0,3:0:0:0:
217,375,54137,1,8,0:0:0:0:
421,225,54383,5,0,3:0:0:0:
481,227,54506,1,0,3:0:0:0:
512,280,54628,1,10,0:0:0:0:
268,110,54874,5,0,3:0:0:0:
266,43,54997,1,2,3:2:0:0:
317,0,55120,1,8,0:0:0:0:
59,314,55366,5,2,3:2:0:0:
37,320,55489,1,0,3:0:0:0:
15,326,55612,5,8,0:0:0:0:
46,267,55735,1,8,0:0:0:0:
106,240,55858,1,2,3:2:0:0:
172,245,55981,1,0,3:0:0:0:
224,285,56104,1,8,0:0:0:0:
258,341,56227,1,8,0:0:0:0:
313,377,56350,1,0,3:0:0:0:
379,379,56473,1,0,3:0:0:0:
256,192,56596,12,0,59792,0:0:0:0:
106,86,60038,6,0,L|112:116,1,25.5,12|0,0:1|0:0,0:0:0:0:
28,204,60530,6,0,P|111:191|181:254,1,170,6|0,3:2|0:0,0:0:0:0:
331,378,60899,2,0,P|314:310|289:195,1,170,10|0,0:0|0:0,0:0:0:0:
159,322,61268,6,0,B|140:338|110:364|110:364|180:339|273:311,1,191.250007295609,2|0,3:2|0:0,0:0:0:0:
296,207,61760,2,0,P|266:195|236:184,1,63.7500024318696,2|0,3:2|0:0,0:0:0:0:
25,79,62006,6,0,B|5:61|13:-24|102:-11|124:51|107:57|135:99|197:97,1,255,8|0,0:0|0:0,0:0:0:0:
318,0,62497,6,0,P|309:78|304:156,1,127.500004863739,4|0,3:2|0:0,0:0:0:0:
296,207,62866,1,0,3:0:0:0:
401,41,62989,6,0,P|392:117|387:193,1,85,8|0,0:0|0:0,0:0:0:0:
215,220,63235,6,0,B|315:228|274:302|378:318,1,191.250007295609,0|0,3:0|0:0,0:0:0:0:
217,303,63727,2,0,P|186:315|147:331,1,63.7500024318696,0|0,3:0|0:0,0:0:0:0:
50,202,63973,1,10,0:0:0:0:
104,144,64096,2,0,P|97:192|90:252,1,63.7500024318696,0|0,3:0|0:0,0:0:0:0:
72,384,64342,1,8,0:0:0:0:
0,278,64465,6,0,P|84:303|190:328,1,170,6|0,3:2|0:0,0:0:0:0:
382,240,64833,2,0,P|409:306|329:383,1,170,10|0,0:0|0:0,0:0:0:0:
249,194,65202,6,0,B|219:166|202:113|202:113|214:167|202:208,1,191.250007295609,2|0,3:2|0:0,0:0:0:0:
268,325,65694,2,0,P|298:313|332:302,1,63.7500024318696,2|0,3:2|0:0,0:0:0:0:
512,384,65940,6,0,P|491:307|456:169,1,170,8|2,0:0|0:0,0:0:0:0:
427,22,66309,1,8,0:0:0:0:
351,83,66432,6,0,P|357:145|416:159,1,127.500004863739,4|2,3:2|0:0,0:0:0:0:
489,90,66801,1,0,3:0:0:0:
344,0,66924,6,0,P|304:11|259:23,1,85,8|0,0:0|0:0,0:0:0:0:
175,178,67169,6,0,B|280:182|237:259|335:275,1,191.250007295609,0|0,3:0|0:0,0:0:0:0:
177,302,67661,2,0,P|176:328|185:305,1,63.7500024318696,0|0,3:0|0:0,0:0:0:0:
84,200,67907,1,8,0:0:0:0:
21,247,68030,1,0,3:0:0:0:
8,314,68153,1,0,3:0:0:0:
51,371,68276,1,8,0:0:0:0:
96,383,68399,6,0,P|179:359|290:326,1,170,6|0,3:2|0:0,0:0:0:0:
94,199,68768,2,0,B|82:177|51:155|51:155|214:217,1,170,10|0,0:0|0:0,0:0:0:0:
333,296,69137,6,0,P|338:253|357:93,1,191.250007295609,2|0,3:2|0:0,0:0:0:0:
272,7,69628,2,0,P|234:20|200:30,1,63.7500024318696,2|0,3:2|0:0,0:0:0:0:
9,94,69874,6,0,P|81:81|134:151,1,170,8|2,0:0|0:0,0:0:0:0:
36,289,70243,1,8,0:0:0:0:
128,348,70366,6,0,P|119:303|104:202,1,127.500004863739,4|0,3:2|0:0,0:0:0:0:
94,143,70735,1,0,3:0:0:0:
208,307,70858,6,0,P|199:262|184:161,1,85,10|0,0:0|0:0,0:0:0:0:
323,111,71104,6,0,B|449:145|449:145|410:142|385:166,1,191.250007295609,2|0,3:2|0:0,0:0:0:0:
429,286,71596,2,0,P|436:254|448:203,1,63.7500024318696,0|0,3:0|0:0,0:0:0:0:
337,314,71842,1,10,0:0:0:0:
361,365,71965,1,0,3:0:0:0:
433,383,72087,2,0,L|511:357,1,63.7500024318696,2|0,3:2|0:0,0:0:0:0:
319,219,72333,6,0,P|241:194|155:169,1,170,4|0,3:2|0:0,0:0:0:0:
0,304,72702,2,0,P|22:361|112:327,1,170,10|0,0:0|0:0,0:0:0:0:
0,198,73071,6,0,B|97:182|47:99|164:79,1,191.250007295609,2|0,3:2|0:0,0:0:0:0:
60,38,73563,2,0,P|15:23|-29:8,1,63.7500024318696,0|0,3:0|0:0,0:0:0:0:
156,169,73809,6,0,P|173:263|185:348,1,170,10|2,0:0|0:0,0:0:0:0:
300,370,74178,1,8,0:0:0:0:
300,370,74301,6,0,P|311:340|321:297,1,68,6|0,3:2|0:0,0:0:0:0:
143,83,74547,1,0,3:0:0:0:
130,78,74669,1,0,3:0:0:0:
116,76,74792,2,0,P|80:69|36:65,1,68,8|0,0:0|0:0,0:0:0:0:
366,315,75038,6,0,P|360:279|344:216,1,76.4999976654053,2|0,3:2|0:0,0:0:0:0:
76,184,75284,1,0,3:0:0:0:
47,201,75407,1,0,3:0:0:0:
29,230,75530,2,0,P|11:273|1:309,1,76.4999976654053,8|0,0:0|0:0,0:0:0:0:
449,197,75776,6,0,P|418:171|359:141,1,85,2|0,3:2|0:0,0:0:0:0:
86,313,76022,1,0,3:0:0:0:
143,376,76145,1,0,3:0:0:0:
233,379,76268,6,0,P|242:334|259:147,1,170,6|0,3:2|0:0,0:0:0:0:
94,153,76637,2,0,B|72:172|46:192|46:192|103:175|197:155,1,170,10|0,0:0|0:0,0:0:0:0:
305,69,77006,6,0,B|404:97|344:172|454:203,1,191.250007295609,2|0,3:2|0:0,0:0:0:0:
501,128,77497,2,0,L|514:54,1,63.7500024318696,2|0,3:2|0:0,0:0:0:0:
294,153,77743,6,0,P|305:200|313:243,1,85,8|0,0:0|0:0,0:0:0:0:
483,354,77989,2,0,P|495:314|460:257,1,85,2|0,0:0|0:0,0:0:0:0:
355,370,78235,6,0,P|287:351|187:325,1,127.500004863739,4|0,3:2|0:0,0:0:0:0:
50,310,78604,1,0,3:0:0:0:
124,384,78727,6,0,P|147:355|142:284,1,85,8|0,0:0|0:0,0:0:0:0:
20,208,78973,6,0,B|122:180|54:110|171:85,1,191.250007295609,0|0,3:0|0:0,0:0:0:0:
240,150,79465,2,0,P|249:188|257:225,1,63.7500024318696,0|0,3:0|0:0,0:0:0:0:
402,51,79710,1,10,0:0:0:0:
346,104,79833,2,0,P|338:147|333:186,1,63.7500024318696,0|0,3:0|0:0,0:0:0:0:
421,345,80079,1,8,0:0:0:0:
491,270,80202,6,0,B|501:259|504:218|454:187|392:215|374:280,1,170,6|0,3:2|0:0,0:0:0:0:
181,370,80571,2,0,B|122:377|68:333|68:333|111:392,1,170,10|0,0:0|0:0,0:0:0:0:
275,313,80940,6,0,P|267:251|246:93,1,191.250007295609,2|0,3:2|0:0,0:0:0:0:
133,27,81432,2,0,P|121:55|137:110,1,63.7500024318696,2|0,3:2|0:0,0:0:0:0:
357,57,81678,6,0,B|408:37|470:6|470:6|444:34|425:66,1,170,8|2,0:0|0:0,0:0:0:0:
396,133,82047,1,8,0:0:0:0:
262,33,82169,6,0,P|273:119|285:199,1,127.500004863739,4|2,3:2|0:0,0:0:0:0:
291,248,82538,1,0,3:0:0:0:
176,70,82661,6,0,P|184:131|192:195,1,85,8|0,0:0|0:0,0:0:0:0:
84,257,82907,6,0,P|145:242|201:284,1,127.500004863739,2|0,3:2|0:0,0:0:0:0:
277,384,83276,2,0,B|339:365|306:323|380:302,1,127.500004863739,2|0,0:0|0:0,0:0:0:0:
493,241,83645,1,10,0:0:0:0:
367,149,83768,2,0,P|376:190|385:232,1,63.7500024318696,0|0,3:0|0:0,0:0:0:0:
512,44,84014,1,8,0:0:0:0:
433,109,84137,6,0,P|352:90|241:66,1,170,6|0,3:2|0:0,0:0:0:0:
85,10,84506,2,0,B|81:-3|113:-43|177:-18|175:51|135:94,1,170,10|0,0:0|0:0,0:0:0:0:
68,346,84874,6,0,P|56:251|42:156,1,191.250007295609,2|0,3:2|0:0,0:0:0:0:
212,235,85366,2,0,P|206:266|200:297,1,63.7500024318696,0|0,3:0|0:0,0:0:0:0:
125,92,85612,6,0,B|213:82|183:158|278:155,1,170,8|2,0:0|0:0,0:0:0:0:
449,61,85981,1,8,0:0:0:0:
338,0,86104,6,0,P|349:88|357:176,1,127.500004863739,6|0,3:2|0:0,0:0:0:0:
366,253,86473,1,2,3:2:0:0:
512,154,86596,6,0,P|478:177|424:197,1,85,8|0,0:0|0:0,0:0:0:0:
203,126,86842,6,0,P|258:190|271:302,1,191.250007295609,2|0,3:2|0:0,0:0:0:0:
162,384,87333,2,0,P|167:355|175:307,1,63.7500024318696,2|0,3:2|0:0,0:0:0:0:
13,152,87579,1,8,0:0:0:0:
12,235,87702,1,0,3:0:0:0:
59,265,87825,2,0,P|95:255|144:239,1,63.7500024318696,2|0,0:0|0:0,0:0:0:0:
316,96,88071,6,0,B|312:68|311:24|311:24|287:85|238:168,1,170,6|0,3:2|0:0,0:0:0:0:
106,120,88440,2,0,P|87:70|176:59,1,170,8|0,0:0|0:0,0:0:0:0:
297,195,88809,6,0,P|280:324|273:399,1,191.250007295609,2|0,3:2|0:0,0:0:0:0:
178,316,89301,2,0,P|172:289|157:239,1,63.7500024318696,0|0,3:0|0:0,0:0:0:0:
374,171,89547,6,0,B|422:194|473:217|473:217|443:222|411:231,1,170,10|0,0:0|0:0,0:0:0:0:
254,274,89915,1,8,0:0:0:0:
125,160,90038,6,0,P|142:208|155:249,1,85,14|0,0:0|0:0,0:0:0:0:
375,295,90284,1,2,3:2:0:0:
400,232,90407,1,2,3:2:0:0:
366,172,90530,2,0,P|322:185|258:203,1,85,12|0,0:0|0:0,0:0:0:0:
28,254,90776,6,0,P|13:305|55:358,1,85,2|0,0:0|0:0,0:0:0:0:
253,266,91022,1,0,3:0:0:0:
180,235,91145,1,8,0:0:0:0:
110,291,91268,1,8,0:0:0:0:
135,330,91391,1,8,0:0:0:0:
120,366,91514,5,8,0:0:0:0:
114,299,91636,1,8,0:0:0:0:
104,222,91759,1,0,3:0:0:0:
91,137,91882,1,0,3:0:0:0:
78,45,92005,1,2,3:2:0:0:
227,204,100994,5,10,0:0:0:0:
343,71,101188,2,0,P|336:121|332:165,1,85,10|0,0:0|3:0,0:0:0:0:
309,363,101575,5,6,3:2:0:0:
403,273,101769,1,2,0:0:0:0:
220,211,101962,1,10,0:0:0:0:
263,286,102156,1,2,0:0:0:0:
428,179,102349,2,0,P|488:222|496:295,1,127.5,2|0,3:2|0:0,0:0:0:0:
480,332,102736,1,10,0:0:0:0:
325,207,102930,6,0,L|339:62,1,127.5,6|0,3:2|0:0,0:0:0:0:
345,19,103317,1,2,3:2:0:0:
245,116,103511,1,10,0:0:0:0:
52,7,103704,2,0,B|138:39|78:94|179:135,1,170,6|2,3:2|3:2,0:0:0:0:
27,88,104285,1,10,0:0:0:0:
198,40,104478,1,2,0:0:0:0:
79,232,104672,6,0,P|76:210|70:186,1,38.2499988327027,6|0,3:2|0:0,0:0:0:0:
23,293,105059,6,0,B|76:316|119:268|98:258|136:210|208:238,1,191.250007295609,12|0,0:1|0:0,0:0:0:0:
241,270,105446,1,2,3:2:0:0:
241,270,105640,1,0,3:0:0:0:
218,120,105833,1,10,0:0:0:0:
322,224,106027,6,0,P|402:246|472:263,1,127.5,6|0,3:2|0:0,0:0:0:0:
454,261,106414,2,0,L|397:281,1,42.5,2|0,3:2|0:0,0:0:0:0:
335,314,106607,1,8,0:0:0:0:
410,72,106801,6,0,B|410:32|354:10|354:10|318:57|342:92,1,170,2|4,3:2|0:3,0:0:0:0:
486,179,107381,1,10,0:3:0:0:
503,103,107575,1,8,3:3:0:0:
369,226,107769,6,0,B|307:207|344:160|261:139,1,127.5,6|0,3:2|0:0,0:0:0:0:
223,143,108156,1,2,3:2:0:0:
269,17,108349,1,2,0:0:0:0:
144,107,108543,2,0,L|54:81,1,85,2|0,3:2|0:0,0:0:0:0:
167,27,108930,1,2,3:2:0:0:
298,186,109123,2,0,P|310:146|293:96,1,85,2|0,0:0|3:0,0:0:0:0:
137,116,109511,6,0,P|148:185|157:254,1,127.5,2|0,0:0|0:0,0:0:0:0:
165,300,109898,1,2,0:0:0:0:
292,184,110091,2,0,P|283:235|277:276,1,85,2|0,3:2|0:0,0:0:0:0:
127,109,110478,2,0,P|134:151|141:193,1,85,0|0,3:0|0:0,0:0:0:0:
47,360,110865,5,0,3:0:0:0:
7,191,111059,1,2,0:0:0:0:
7,191,111252,1,2,3:2:0:0:
177,251,111446,1,2,0:0:0:0:
101,297,111640,2,0,P|89:270|109:198,1,85,2|0,3:2|0:0,0:0:0:0:
175,337,112027,1,2,3:2:0:0:
285,254,112220,6,0,L|271:348,1,85,2|0,0:0|3:0,0:0:0:0:
350,161,112607,2,0,L|337:68,1,85,2|0,0:0|3:0,0:0:0:0:
291,248,112994,1,2,0:0:0:0:
391,367,113188,2,0,P|428:356|475:345,1,85,2|2,3:2|0:0,0:0:0:0:
512,196,113575,2,0,P|474:183|422:164,1,85,0|2,3:0|0:0,0:0:0:0:
289,268,113962,5,0,3:0:0:0:
298,158,114156,1,2,0:0:0:0:
415,251,114349,1,2,3:2:0:0:
298,158,114543,2,0,P|255:159|214:192,1,85,2|0,0:0|3:0,0:0:0:0:
145,356,114930,1,2,0:0:0:0:
36,307,115123,1,2,3:2:0:0:
145,356,115317,2,0,L|156:264,1,85,2|0,0:0|3:0,0:0:0:0:
191,30,115704,5,2,0:0:0:0:
126,185,115898,1,2,3:2:0:0:
36,57,116091,2,0,B|129:42|109:122|204:114,1,170,2|0,0:0|0:0,0:0:0:0:
373,30,116672,1,2,3:0:0:0:
362,18,117059,6,0,P|371:105|381:196,1,170,2|0,3:2|3:0,0:0:0:0:
402,364,117640,1,2,0:0:0:0:
512,237,117833,2,0,P|473:181|370:195,1,170,2|0,3:2|3:0,0:0:0:0:
260,303,118414,1,2,0:0:0:0:
119,137,118607,5,6,3:2:0:0:
169,258,118801,1,2,0:0:0:0:
304,137,118994,1,10,0:0:0:0:
177,251,119188,2,0,L|18:218,1,127.5,6|0,3:1|0:0,0:0:0:0:
0,217,119575,1,8,0:0:0:0:
131,53,119769,2,0,P|124:106|118:151,1,85,8|0,0:0|0:0,0:0:0:0:
85,347,120156,5,4,3:2:0:0:
85,347,120543,1,10,0:0:0:0:
173,234,120736,1,2,0:0:0:0:
267,376,120930,2,0,P|260:344|245:267,1,93.5000028533936,2|0,3:2|0:0,0:0:0:0:
145,125,121317,1,10,0:0:0:0:
13,265,121511,2,0,P|10:219|32:179,1,93.5000028533936,2|0,0:0|3:0,0:0:0:0:
287,279,121898,6,0,L|158:253,1,93.5000028533936,2|8,0:0|0:0,0:0:0:0:
109,243,122285,1,2,0:0:0:0:
236,89,122478,2,0,P|228:143|222:188,1,93.5000028533936,2|0,3:2|0:0,0:0:0:0:
28,83,122865,2,0,P|31:40|69:6,1,93.5000028533936,8|0,0:0|0:0,0:0:0:0:
236,89,123252,5,0,3:0:0:0:
152,137,123446,1,2,0:0:0:0:
196,4,123640,1,10,0:0:0:0:
318,117,123833,1,2,0:0:0:0:
411,43,124027,2,0,P|400:121|391:207,1,140.25000428009,2|0,3:2|0:0,0:0:0:0:
385,240,124414,1,8,0:0:0:0:
318,117,124607,1,2,0:0:0:0:
500,302,124801,6,0,B|410:285|441:364|350:355,1,165.749992412568,6|0,3:2|0:0,0:0:0:0:
302,343,125188,1,10,0:0:0:0:
463,111,125381,2,0,P|471:174|476:225,1,110.499994941712,6|0,0:0|3:0,0:0:0:0:
318,117,125769,1,10,0:0:0:0:
453,16,125962,1,8,0:0:0:0:
453,16,126059,1,8,0:0:0:0:
453,16,126156,1,6,0:3:0:0:
361,180,126349,6,0,L|209:155,1,140.25000428009,6|0,3:2|0:0,0:0:0:0:
166,150,126736,1,10,0:0:0:0:
244,29,126930,1,2,0:0:0:0:
167,237,127123,2,0,P|133:232|85:183,1,93.5000028533936,0|2,3:0|0:0,0:0:0:0:
292,132,127511,1,8,0:0:0:0:
138,22,127704,1,2,0:0:0:0:
138,22,127801,1,0,0:0:0:0:
138,22,127898,5,2,3:2:0:0:
87,101,128091,1,0,0:0:0:0:
166,150,128285,1,10,0:0:0:0:
0,126,128478,5,2,0:0:0:0:
92,95,128672,1,0,3:0:0:0:
166,159,128865,2,0,B|240:148|217:97|296:91,1,140.25000428009,2|0,0:0|0:0,0:0:0:0:
340,105,129252,1,2,0:0:0:0:
419,290,129446,6,0,P|422:252|435:142,1,140.25000428009,6|0,3:2|0:0,0:0:0:0:
442,87,129833,1,14,0:1:0:0:
295,174,130027,1,2,0:0:0:0:
363,334,130220,2,0,L|463:357,1,93.5000028533936,0|2,3:0|0:0,0:0:0:0:
504,156,130607,1,8,0:0:0:0:
437,212,130801,1,2,0:0:0:0:
264,37,130994,6,0,P|281:110|299:194,1,140.25000428009,2|0,3:2|0:0,0:0:0:0:
347,282,131381,2,0,P|352:255|359:220,1,46.7500014266968,10|0,0:0|0:0,0:0:0:0:
504,156,131575,2,0,B|439:146|469:98|375:82,1,140.25000428009,2|0,0:0|0:0,0:0:0:0:
315,104,131962,1,10,0:0:0:0:
482,33,132156,1,10,0:0:0:0:
482,33,132252,1,8,0:0:0:0:
482,33,132349,1,2,3:2:0:0:
208,0,132543,6,0,P|217:53|228:117,1,101.999996887207,12|0,0:0|0:0,0:0:0:0:
319,373,132930,2,0,P|328:320|339:256,1,101.999996887207,12|0,0:0|0:0,0:0:0:0:
377,56,133317,5,8,0:0:0:0:
391,207,133511,1,2,3:2:0:0:
226,108,133704,5,10,0:0:0:0:
396,210,133898,1,2,3:2:0:0:
175,336,134091,6,0,P|162:281|148:219,1,101.999996887207,12|0,0:0|0:0,0:0:0:0:
105,0,134478,1,12,0:0:0:0:
38,196,134672,1,0,3:0:0:0:
226,108,134865,5,8,0:0:0:0:
283,92,134962,1,8,0:0:0:0:
332,104,135059,1,8,0:3:0:0:
355,146,135156,1,8,0:3:0:0:
381,176,135252,1,4,0:3:0:0:
424,182,135349,1,4,0:3:0:0:
468,163,135446,2,0,P|460:189|452:211,1,50.9999984436036,0|0,3:0|0:0,0:0:0:0:
418,318,135640,1,12,3:2:0:0:
86,95,142801,6,0,B|63:94|48:48|103:4|189:67|124:168,1,212.5,0|0,0:0|0:0,0:0:0:0:
25,246,143381,6,0,B|105:231|87:304|176:293,1,152.999995330811,6|2,3:2|0:0,0:0:0:0:
458,142,144156,2,0,P|399:156|340:171,1,101.999996887207,6|2,3:2|0:0,0:0:0:0:
170,0,144736,2,0,P|179:43|187:89,1,76.4999976654053,6|0,3:2|0:0,0:0:0:0:
195,126,145123,1,2,0:0:0:0:
285,49,145317,1,2,0:0:0:0:
39,67,145511,6,0,P|29:139|21:208,1,127.5,6|0,3:2|0:0,0:0:0:0:
16,259,145898,1,10,0:0:0:0:
146,206,146091,1,10,0:0:0:0:
39,67,146285,1,10,0:3:0:0:
39,67,146381,1,8,0:3:0:0:
39,67,146478,5,4,3:2:0:0:
156,121,146672,1,2,0:0:0:0:
61,185,146865,1,2,0:0:0:0:
245,47,147059,2,0,P|239:117|233:205,1,127.5,6|0,3:2|0:0,0:0:0:0:
229,239,147446,1,2,3:2:0:0:
398,174,147640,1,10,0:0:0:0:
245,47,147833,1,10,0:0:0:0:
245,47,147930,1,8,0:0:0:0:
245,47,148027,5,6,3:2:0:0:
320,101,148220,1,2,3:2:0:0:
414,12,148414,1,10,0:0:0:0:
500,100,148607,1,2,3:2:0:0:
350,303,148801,5,8,0:0:0:0:
331,265,148897,1,8,0:0:0:0:
332,223,148994,1,10,0:0:0:0:
352,186,149091,1,8,0:0:0:0:
387,163,149188,1,10,0:0:0:0:
429,159,149284,1,8,0:0:0:0:
468,174,149381,1,10,0:0:0:0:
496,206,149478,1,8,0:0:0:0:
505,248,149575,6,0,P|497:308|492:353,1,101.999996887207,6|0,3:2|0:0,0:0:0:0:
274,164,149962,1,8,0:0:0:0:
187,260,150156,1,2,3:2:0:0:
324,321,150349,2,0,P|344:285|325:211,1,101.999996887207,2|0,3:2|0:0,0:0:0:0:
162,110,150736,1,10,0:0:0:0:
35,323,150930,6,0,P|44:262|57:160,1,152.999995330811,2|0,3:2|0:0,0:0:0:0:
65,109,151317,1,2,3:2:0:0:
191,270,151511,2,0,L|294:293,1,101.999996887207,8|0,0:0|0:0,0:0:0:0:
404,174,151898,1,0,3:0:0:0:
404,174,152091,1,2,0:0:0:0:
268,72,152285,1,10,0:0:0:0:
308,162,152478,1,2,0:0:0:0:
509,83,152672,6,0,B|432:70|463:12|368:-3,1,152.999995330811,2|0,3:2|0:0,0:0:0:0:
333,2,153059,1,8,0:0:0:0:
212,154,153252,1,2,3:2:0:0:
62,24,153446,2,0,P|71:83|79:137,1,101.999996887207,2|0,3:2|0:0,0:0:0:0:
113,331,153833,1,10,0:0:0:0:
296,129,154027,6,0,P|297:186|263:227,1,101.999996887207,2|0,3:2|0:0,0:0:0:0:
40,193,154414,1,2,3:2:0:0:
212,154,154607,2,0,P|164:143|104:128,1,101.999996887207,8|0,0:0|0:0,0:0:0:0:
188,235,154994,1,0,3:0:0:0:
188,235,155188,1,2,3:2:0:0:
294,47,155381,1,10,0:0:0:0:
428,218,155575,1,10,0:0:0:0:
435,199,155672,1,8,0:0:0:0:
442,180,155769,6,0,P|374:203|371:302,1,152.999995330811,6|0,3:2|0:0,0:0:0:0:
388,329,156156,1,8,0:0:0:0:
269,215,156349,1,2,3:2:0:0:
172,384,156543,2,0,P|179:322|192:201,1,152.999995330811,2|0,3:2|0:0,0:0:0:0:
196,171,156930,1,10,0:0:0:0:
13,121,157123,6,0,B|96:107|57:51|151:35,1,152.999995330811,6|0,3:2|0:0,0:0:0:0:
195,40,157511,1,2,3:2:0:0:
30,0,157704,1,10,0:0:0:0:
143,244,157898,2,0,P|214:221|302:193,1,152.999995330811,6|0,3:2|0:0,0:0:0:0:
345,180,158285,1,2,3:2:0:0:
254,302,158478,1,10,0:0:0:0:
97,175,158672,6,0,P|62:224|69:270,1,101.999996887207,2|4,0:0|3:2,0:0:0:0:
79,86,159059,1,2,0:0:0:0:
189,152,159252,1,10,0:0:0:0:
309,9,159446,2,0,L|297:127,1,101.999996887207,6|0,3:1|0:0,0:0:0:0:
280,293,159833,1,2,3:2:0:0:
406,187,160027,1,10,0:0:0:0:
298,110,160220,1,2,3:2:0:0:
198,320,160414,6,0,B|96:285|161:216|39:178,1,203.999993774414,12|10,0:0|0:0,0:0:0:0:
7,178,160898,1,2,0:0:0:0:
7,178,160994,1,2,3:2:0:0:
232,54,161188,5,8,0:0:0:0:
95,97,161381,1,2,3:2:0:0:
315,95,161575,5,10,0:0:0:0:
19,57,161769,1,2,3:2:0:0:
310,9,161962,6,0,P|300:99|292:169,1,152.999995330811,4|0,3:2|0:0,0:0:0:0:
285,225,162349,1,2,3:2:0:0:
216,114,162543,2,0,P|190:97|160:83,1,50.9999984436036,10|0,0:3|0:0,0:0:0:0:
284,236,162736,1,0,3:0:0:0:
375,138,162930,2,0,P|398:128|425:122,1,50.9999984436036,8|0,0:3|0:0,0:0:0:0:
283,247,163123,1,0,3:0:0:0:
392,375,163317,1,8,0:3:0:0:
392,375,163414,1,8,0:3:0:0:
392,375,163511,6,0,P|384:324|370:221,1,152.999995330811,2|0,3:2|0:0,0:0:0:0:
227,138,163898,2,0,P|254:148|289:159,1,50.9999984436036,2|0,3:2|0:0,0:0:0:0:
453,12,164091,1,10,0:3:0:0:
449,26,164188,1,8,0:3:0:0:
446,41,164285,1,0,3:0:0:0:
426,127,164478,1,2,3:2:0:0:
341,108,164672,1,0,3:0:0:0:
360,22,164865,1,10,0:3:0:0:
512,196,165059,6,0,P|448:212|352:237,1,152.999995330811,0|0,3:0|0:0,0:0:0:0:
305,249,165446,1,0,3:0:0:0:
250,65,165640,2,0,L|242:130,1,50.9999984436036,8|0,0:3|0:0,0:0:0:0:
232,197,165833,1,0,3:0:0:0:
4,165,166027,2,0,B|81:148|51:96|138:81,1,152.999995330811,8|0,0:3|0:0,0:0:0:0:
158,80,166414,2,0,P|134:73|92:57,1,50.9999984436036,10|0,0:3|0:0,0:0:0:0:
18,28,166607,5,10,3:2:0:0:
121,210,166801,1,8,3:2:0:0:
236,5,166994,1,10,3:2:0:0:
120,216,167188,1,10,3:2:0:0:
409,162,167381,5,8,3:2:0:0:
377,178,167478,1,8,0:0:0:0:
341,177,167575,1,10,0:0:0:0:
309,160,167672,1,8,0:0:0:0:
279,118,167769,1,8,0:0:0:0:
245,79,167865,1,8,0:0:0:0:
195,66,167962,1,10,0:0:0:0:
144,74,168059,1,8,0:0:0:0:
106,108,168156,6,0,P|114:163|123:231,1,101.999996887207,6|0,3:2|0:0,0:0:0:0:
170,380,168543,1,10,0:0:0:0:
170,380,168736,1,2,0:0:0:0:
307,185,168930,2,0,P|299:242|294:288,1,101.999996887207,2|0,3:2|3:0,0:0:0:0:
381,143,169317,1,10,0:0:0:0:
204,80,169511,6,0,B|280:72|247:18|346:11,1,152.999995330811,6|0,3:2|0:0,0:0:0:0:
399,20,169898,1,2,3:2:0:0:
305,174,170091,1,10,0:0:0:0:
142,18,170285,2,0,P|154:113|165:191,1,152.999995330811,6|0,3:1|0:0,0:0:0:0:
170,226,170672,1,2,3:2:0:0:
228,86,170865,1,10,0:0:0:0:
72,201,171059,1,2,0:0:0:0:
251,260,171252,5,6,3:2:0:0:
162,354,171446,1,0,0:0:0:0:
67,192,171640,1,14,0:1:0:0:
236,177,171833,1,2,0:0:0:0:
92,301,172027,2,0,P|41:305|-5:275,1,101.999996887207,2|0,3:2|3:0,0:0:0:0:
164,228,172414,1,10,0:0:0:0:
0,80,172607,6,0,P|60:65|158:38,1,152.999995330811,6|0,3:2|0:0,0:0:0:0:
207,24,172994,1,2,3:2:0:0:
298,159,173188,1,10,0:0:0:0:
460,0,173381,2,0,P|451:64|445:115,1,101.999996887207,6|0,3:2|0:0,0:0:0:0:
427,251,173769,1,2,3:2:0:0:
309,60,173962,1,10,0:0:0:0:
309,60,174059,1,8,0:0:0:0:
309,60,174156,1,2,3:2:0:0:
512,152,174349,5,6,3:2:0:0:
381,179,174543,1,0,0:0:0:0:
482,324,174736,1,10,0:0:0:0:
482,324,174930,1,2,0:0:0:0:
295,152,175123,2,0,P|289:196|336:253,1,101.999996887207,2|0,3:2|3:0,0:0:0:0:
486,338,175511,1,10,0:0:0:0:
494,79,175704,6,0,B|406:75|446:16|335:13,1,152.999995330811,6|0,3:2|0:0,0:0:0:0:
299,32,176091,1,2,3:2:0:0:
360,98,176285,1,10,0:0:0:0:
183,46,176478,2,0,P|127:95|149:180,1,152.999995330811,6|0,3:1|0:0,0:0:0:0:
185,204,176865,1,2,3:2:0:0:
302,23,177059,1,10,0:0:0:0:
300,242,177252,1,2,0:0:0:0:
143,131,177446,6,0,P|193:121|244:148,1,101.999996887207,6|0,3:1|0:0,0:0:0:0:
386,308,177833,2,0,P|338:328|293:350,1,101.999996887207,12|0,0:1|0:0,0:0:0:0:
192,384,178220,1,2,3:2:0:0:
192,384,178414,1,0,3:0:0:0:
294,202,178607,1,10,0:0:0:0:
462,378,178801,6,0,P|451:327|422:208,1,152.999995330811,6|0,3:2|0:0,0:0:0:0:
425,220,179188,2,0,P|419:246|413:271,1,50.9999984436036,2|0,3:2|0:0,0:0:0:0:
380,372,179381,1,8,0:0:0:0:
60,261,179575,6,0,P|81:275|102:291,1,50.9999984436036,6|0,3:2|0:0,0:0:0:0:
279,292,179962,6,0,P|256:303|233:314,1,50.9999984436036,2|0,3:2|0:0,0:0:0:0:
159,366,180156,1,8,0:0:0:0:
195,146,180349,5,6,3:1:0:0:
248,234,187325,5,6,3:2:0:0:
421,215,187511,1,2,0:0:0:0:
339,312,187696,1,2,3:2:0:0:
162,154,187881,1,2,0:0:0:0:
99,233,188066,2,0,P|108:294|116:348,1,102,2|0,3:2|0:0,0:0:0:0:
123,384,188437,1,2,3:2:0:0:
248,234,188622,1,2,0:0:0:0:
189,74,188807,5,2,3:2:0:0:
189,74,188992,1,2,0:0:0:0:
42,163,189177,1,2,3:2:0:0:
42,163,189363,1,0,0:0:0:0:
196,246,189548,2,0,P|200:218|210:167,1,68,2|0,3:2|0:0,0:0:0:0:
246,0,189918,1,0,3:0:0:0:
102,50,190103,1,0,0:0:0:0:
154,175,190288,5,2,3:2:0:0:
154,175,190474,1,2,0:0:0:0:
293,133,190659,1,2,3:2:0:0:
293,133,190844,1,2,0:0:0:0:
362,264,191029,2,0,P|370:217|378:163,1,102,2|0,3:2|0:0,0:0:0:0:
388,111,191400,1,2,3:2:0:0:
274,223,191585,1,2,0:0:0:0:
451,300,191770,6,0,P|461:266|450:222,1,68,2|0,3:2|0:0,0:0:0:0:
246,100,192140,2,0,P|268:126|314:138,1,76.4999976654053,2|0,3:2|0:0,0:0:0:0:
512,12,192511,2,0,P|472:19|442:57,1,85,2|0,3:2|0:0,0:0:0:0:
455,234,192881,5,2,3:2:0:0:
512,151,193066,1,2,0:0:0:0:
261,78,193251,6,0,P|336:113|421:146,1,170,6|10,3:2|0:0,0:0:0:0:
247,225,193807,2,0,P|204:239|156:253,1,85,2|0,0:0|3:0,0:0:0:0:
340,206,194177,1,0,0:0:0:0:
273,303,194363,1,10,0:0:0:0:
152,135,194548,1,2,0:0:0:0:
34,222,194733,6,0,P|19:277|59:336,1,127.5,0|0,3:0|0:0,0:0:0:0:
73,356,195103,2,0,P|103:347|156:337,1,85,8|0,0:0|0:0,0:0:0:0:
354,287,195474,2,0,P|354:338|323:379,1,85,2|0,3:2|0:0,0:0:0:0:
285,383,195751,1,2,0:0:0:0:
285,383,195844,1,8,0:0:0:0:
305,219,196029,1,2,0:0:0:0:
470,299,196214,6,0,P|462:262|448:192,1,85,2|0,3:2|0:0,0:0:0:0:
424,51,196585,1,10,0:0:0:0:
305,219,196770,2,0,B|393:208|352:137|458:129,1,170,2|0,0:0|0:0,0:0:0:0:
340,38,197325,1,10,0:0:0:0:
469,263,197511,2,0,P|393:242|288:214,1,170,2|0,0:0|0:0,0:0:0:0:
93,164,198066,1,10,0:0:0:0:
206,35,198251,2,0,P|266:98|231:167,1,170,2|0,0:0|0:0,0:0:0:0:
18,208,198807,1,10,0:0:0:0:
161,124,198992,1,2,0:0:0:0:
222,282,199177,6,0,P|213:343|207:384,1,85,4|0,3:2|0:0,0:0:0:0:
14,290,199548,2,0,P|6:254|28:192,1,85,10|0,0:0|0:0,0:0:0:0:
165,115,199918,1,0,3:0:0:0:
226,271,200103,2,0,P|182:257|132:244,1,85,2|8,0:0|0:0,0:0:0:0:
10,90,200474,6,0,B|98:82|66:15|162:11,1,170,2|0,0:0|0:0,0:0:0:0:
323,216,201029,2,0,P|316:270|311:313,1,85,10|0,0:0|0:0,0:0:0:0:
171,133,201400,2,0,P|178:187|183:230,1,85,2|0,3:2|0:0,0:0:0:0:
357,44,201770,2,0,P|350:98|345:141,1,85,10|0,0:0|0:0,0:0:0:0:
140,291,202140,6,0,B|220:301|189:361|288:373,1,152.999995330811,6|0,3:2|0:0,0:0:0:0:
341,355,202511,1,10,0:0:0:0:
72,242,202696,2,0,P|54:302|77:346,1,101.999996887207,14|0,0:0|3:0,0:0:0:0:
266,369,203066,1,2,0:0:0:0:
235,99,203251,2,0,P|227:180|221:262,1,152.999995330811,14|0,0:0|0:0,0:0:0:0:
216,307,203622,5,4,3:2:0:0:
334,137,203807,1,8,0:3:0:0:
336,114,203900,1,8,0:3:0:0:
338,92,203993,1,0,3:0:0:0:
406,226,204177,1,8,0:3:0:0:
406,238,204270,1,8,0:3:0:0:
408,250,204363,1,2,3:2:0:0:
507,172,204548,1,10,0:3:0:0:
507,172,204640,1,8,0:3:0:0:
507,172,204733,1,2,3:2:0:0:
268,376,205103,6,0,P|215:360|165:347,1,102,6|2,3:2|3:2,0:0:0:0:
1,110,206400,6,0,B|79:91|36:46|132:29,1,152.999995330811,12|0,0:0|0:0,0:0:0:0:
214,117,206770,2,0,L|225:57,1,50.9999984436036,0|0,3:0|0:0,0:0:0:0:
130,116,206955,2,0,P|142:199|151:273,1,152.999995330811,12|0,0:0|0:0,0:0:0:0:
157,331,207325,1,0,3:0:0:0:
282,158,207511,1,8,0:0:0:0:
328,138,207603,1,8,0:0:0:0:
377,151,207696,1,8,3:2:0:0:
405,192,207788,1,8,0:0:0:0:
419,241,207881,1,8,0:0:0:0:
460,270,207974,1,8,0:0:0:0:
512,266,208066,6,0,P|451:252|355:231,1,152.999995330811,6|0,3:1|0:0,0:0:0:0:
216,106,208437,2,0,P|199:155|231:220,1,101.999996887207,10|0,0:0|0:0,0:0:0:0:
328,138,208714,1,2,0:0:0:0:
289,155,208807,1,2,3:2:0:0:
228,0,208992,1,2,0:0:0:0:
358,65,209177,1,10,0:0:0:0:
498,0,209362,6,0,P|488:95|481:167,1,152.999995330811,2|0,0:0|0:0,0:0:0:0:
477,216,209733,1,2,0:0:0:0:
288,267,209918,2,0,P|296:234|312:164,1,101.999996887207,8|0,0:0|0:0,0:0:0:0:
454,349,210288,2,0,P|420:378|360:383,1,101.999996887207,0|0,3:0|0:0,0:0:0:0:
184,128,210659,2,0,P|194:181|203:237,1,101.999996887207,8|0,0:0|0:0,0:0:0:0:
364,103,211029,6,0,P|309:45|223:66,1,152.999995330811,2|0,3:2|0:0,0:0:0:0:
94,192,211400,2,0,P|44:169|-15:148,1,101.999996887207,10|0,0:0|0:0,0:0:0:0:
123,71,211677,1,2,0:0:0:0:
106,110,211770,1,2,3:2:0:0:
198,131,211955,1,2,0:0:0:0:
33,60,212140,1,10,0:0:0:0:
113,294,212325,6,0,B|192:280|163:221|260:210,1,152.999995330811,2|0,0:0|0:0,0:0:0:0:
316,215,212696,2,0,P|311:244|306:272,1,50.9999984436036,2|0,0:0|0:0,0:0:0:0:
287,361,212881,1,10,0:0:0:0:
150,225,213066,1,2,0:0:0:0:
220,295,213251,1,0,3:0:0:0:
414,130,213437,2,0,P|467:154|485:209,1,101.999996887207,2|8,0:0|0:0,0:0:0:0:
321,270,213807,1,8,0:0:0:0:
321,270,213900,1,8,0:0:0:0:
321,270,213992,5,4,3:2:0:0:
238,66,214177,1,2,0:0:0:0:
414,130,214362,1,10,0:0:0:0:
321,270,214548,1,2,0:0:0:0:
175,118,214733,2,0,P|181:168|188:219,1,101.999996887207,2|0,3:2|0:0,0:0:0:0:
218,384,215011,1,2,0:0:0:0:
230,352,215103,1,8,0:0:0:0:
12,242,215288,2,0,P|-7:302|15:347,1,101.999996887207,2|0,0:0|3:0,0:0:0:0:
283,236,215659,5,2,0:0:0:0:
129,292,215844,1,10,0:0:0:0:
190,112,216029,1,2,0:0:0:0:
319,305,216214,2,0,P|382:329|439:349,1,101.999996887207,2|0,3:2|0:0,0:0:0:0:
468,193,216492,1,2,0:0:0:0:
438,204,216584,1,8,0:0:0:0:
483,284,216770,1,2,0:0:0:0:
512,118,216955,5,0,3:0:0:0:
310,157,217140,1,2,0:0:0:0:
369,235,217325,1,10,0:0:0:0:
398,68,217511,1,2,0:0:0:0:
495,209,217696,1,2,3:2:0:0:
495,209,217881,1,2,0:0:0:0:
310,157,218066,1,10,0:0:0:0:
512,118,218251,1,2,0:0:0:0:
426,341,218437,6,0,P|398:333|359:323,1,50.9999984436036,6|0,3:2|0:0,0:0:0:0:
288,241,218622,1,8,0:0:0:0:
288,241,218714,1,8,0:0:0:0:
288,241,218807,2,0,P|260:249|221:259,1,50.9999984436036,2|0,3:2|0:0,0:0:0:0:
124,384,218992,1,8,0:0:0:0:
89,345,219085,1,8,0:0:0:0:
93,296,219177,1,10,3:2:0:0:
132,261,219270,1,8,0:0:0:0:
161,226,219362,1,8,0:0:0:0:
169,186,219455,1,8,0:0:0:0:
152,159,219548,1,0,3:0:0:0:
152,159,219640,1,0,3:0:0:0:
152,159,219733,1,8,3:3:0:0:
433,211,219918,6,0,L|494:194,1,50.9999984436036,2|0,3:2|0:0,0:0:0:0:
491,193,220288,6,0,B|425:204|394:156|416:149|386:102|302:121,1,204,14|0,0:0|0:0,0:0:0:0:
251,148,220659,5,2,3:2:0:0:
347,216,220844,1,2,0:0:0:0:
209,275,221029,1,10,0:0:0:0:
452,73,221214,1,2,0:0:0:0:
452,73,221307,1,0,0:0:0:0:
452,73,221400,5,12,0:0:0:0:
276,52,221585,1,2,3:2:0:0:
347,216,221770,1,0,3:0:0:0:
367,16,221955,5,12,0:0:0:0:
255,172,222140,1,0,3:0:0:0:
446,195,222325,1,0,3:2:0:0:
163,107,222511,5,14,0:0:0:0:
369,18,222696,1,10,0:0:0:0:
282,300,222881,6,0,L|255:295,1,25.5,6|0,3:2|0:0,0:0:0:0:
251,291,223251,6,0,P|351:317|433:384,1,204,12|0,0:1|0:0,0:0:0:0:
498,337,223622,2,0,L|514:225,1,101.999996887207,2|0,3:0|0:0,0:0:0:0:
399,161,223900,1,2,0:0:0:0:
405,187,223992,1,8,0:0:0:0:
512,108,224177,1,2,0:0:0:0:
330,106,224362,6,0,P|382:112|435:73,1,101.999996887207,2|0,3:2|0:0,0:0:0:0:
367,7,224640,1,2,0:0:0:0:
365,35,224733,1,8,0:0:0:0:
486,186,224918,1,2,0:0:0:0:
279,285,225103,2,0,P|267:229|242:124,1,152.999995330811,2|0,3:2|0:0,0:0:0:0:
230,75,225474,1,8,0:0:0:0:
416,232,225659,1,8,0:0:0:0:
416,232,225751,1,8,0:0:0:0:
416,232,225844,6,0,P|411:261|407:292,1,51,6|0,3:2|0:0,0:0:0:0:
342,373,226214,6,0,B|242:348|295:278|173:253,1,204,14|0,0:1|0:0,0:0:0:0:
29,283,226585,6,0,P|36:316|42:342,1,51,2|0,3:2|0:0,0:0:0:0:
142,384,226955,6,0,P|148:315|169:160,1,204,14|0,0:1|0:0,0:0:0:0:
46,44,227325,6,0,P|51:76|55:100,1,51,2|0,3:2|0:0,0:0:0:0:
8,202,227696,6,0,B|110:176|58:116|176:97,1,204,14|0,0:1|0:0,0:0:0:0:
229,106,228066,5,2,3:2:0:0:
333,197,228251,1,8,0:0:0:0:
331,210,228343,1,8,0:0:0:0:
329,223,228436,1,2,3:2:0:0:
326,237,228528,1,8,0:3:0:0:
323,250,228621,1,10,0:3:0:0:
435,48,228807,6,0,P|446:159|457:263,1,204,6|0,3:2|0:0,0:0:0:0:
497,287,229177,5,0,3:0:0:0:
402,377,229362,1,8,0:0:0:0:
402,377,229455,1,8,0:0:0:0:
402,377,229548,2,0,P|371:367|342:359,1,50.9999984436036,0|0,3:0|0:0,0:0:0:0:
181,284,229733,1,10,0:3:0:0:
166,304,229825,1,8,0:3:0:0:
163,329,229918,1,10,3:2:0:0:
170,354,230010,1,8,0:0:0:0:
188,372,230103,1,10,0:0:0:0:
211,381,230195,1,8,0:0:0:0:
236,379,230288,6,0,P|231:332|216:215,1,152.999995330811,6|8,3:2|0:0,0:0:0:0:
284,154,230659,2,0,L|219:127,1,50.9999984436036,2|0,3:2|0:0,0:0:0:0:
183,58,230844,1,8,0:0:0:0:
183,58,230937,1,8,0:0:0:0:
183,58,231029,2,0,P|135:77|82:95,1,101.999996887207,2|0,3:2|0:0,0:0:0:0:
32,83,231307,1,10,0:3:0:0:
8,109,231400,1,8,3:3:0:0:
5,144,231492,1,8,0:3:0:0:
24,173,231585,2,0,P|55:183|86:190,1,50.9999984436036,6|4,0:3|0:3,0:0:0:0:
128,271,231770,6,0,B|235:254|183:168|307:153,1,212.5,6|0,3:2|0:0,0:0:0:0:
296,155,232325,1,2,3:2:0:0:
352,225,232511,1,2,3:2:0:0:
352,225,232881,1,8,0:0:0:0:
317,19,233066,5,2,3:2:0:0:
317,19,233437,1,2,3:2:0:0:
317,19,233807,1,2,3:2:0:0:
235,46,233992,1,2,3:2:0:0:
300,104,234177,1,2,0:0:0:0:
481,0,234362,6,0,P|475:61|469:123,1,102,10|0,0:0|0:0,0:0:0:0:
495,193,234733,6,0,B|418:211|384:154|407:147|366:79|296:106,1,233.750007133484,6|0,3:2|0:0,0:0:0:0:
300,104,235288,1,2,3:2:0:0:
169,220,235474,2,0,P|216:181|234:250,1,140.25000428009,2|0,3:2|0:0,0:0:0:0:
244,235,235844,1,8,0:0:0:0:
55,111,236029,6,0,P|51:92|45:74,1,23.3750007133484,6|0,3:2|0:0,0:0:0:0:
244,41,236400,6,0,P|248:20|252:0,1,23.3750007133484,6|0,3:2|0:0,0:0:0:0:
6,275,236770,6,0,P|42:307|100:302,1,93.5000028533936,6|0,3:2|0:0,0:0:0:0:
244,235,237140,1,8,0:0:0:0:
238,272,237233,1,8,0:3:0:0:
232,309,237325,1,8,0:0:0:0:
135,66,237511,1,6,3:1:0:0:
467,215,244750,5,10,3:2:0:0:
344,105,244977,1,8,3:2:0:0:
264,264,245204,1,8,0:0:0:0:
264,264,245318,1,8,0:0:0:0:
264,264,245432,1,6,0:3:0:0:
125,102,245659,6,0,B|194:90|168:46|256:31,1,136,6|0,3:2|3:0,0:0:0:0:
336,97,246341,2,0,P|330:137|325:177,1,68,10|0,0:0|3:0,0:0:0:0:
226,163,246795,2,0,P|232:203|237:243,1,68,10|0,0:0|3:0,0:0:0:0:
357,370,247250,6,0,P|377:320|324:256,1,136,10|0,0:0|0:0,0:0:0:0:
189,382,247932,1,2,3:2:0:0:
127,325,248159,2,0,P|132:290|140:234,1,68,10|0,0:0|3:0,0:0:0:0:
244,48,248613,1,10,0:0:0:0:
287,190,248841,1,8,3:2:0:0:
454,72,249068,1,10,0:0:0:0:
454,72,249182,1,2,0:0:0:0:
454,72,249295,6,0,P|398:86|318:103,1,136,6|0,3:2|3:0,0:0:0:0:
221,173,249977,2,0,P|259:182|294:192,1,68,10|0,0:0|3:0,0:0:0:0:
347,281,250432,2,0,P|309:290|274:300,1,68,10|0,0:0|3:0,0:0:0:0:
461,214,250886,6,0,P|501:247|493:338,1,136,12|8,0:0|0:3,0:0:0:0:
272,365,251568,2,0,P|276:337|281:293,1,68,2|8,3:2|0:0,0:0:0:0:
116,115,252023,1,10,3:2:0:0:
66,124,252136,1,8,0:0:0:0:
31,165,252250,1,8,0:0:0:0:
26,219,252363,1,8,0:0:0:0:
54,264,252477,1,10,3:2:0:0:
99,287,252591,1,8,0:0:0:0:
125,286,252704,1,4,0:3:0:0:
138,280,252818,1,4,0:3:0:0:
145,272,252932,6,0,L|133:215,1,34,6|0,3:2|0:0,0:0:0:0:
241,335,253159,2,0,L|253:392,1,34,10|0,0:0|0:0,0:0:0:0:
325,197,253386,2,0,L|313:140,1,34,10|0,3:2|0:0,0:0:0:0:
429,318,253613,2,0,L|443:388,1,68,2|8,0:0|0:0,0:0:0:0:
512,91,254068,6,0,B|435:79|477:22|379:4,1,152.999995330811,6|0,3:2|0:0,0:0:0:0:
318,18,254523,1,2,0:0:0:0:
229,170,254750,6,0,P|289:151|354:128,1,118.999996368408,6|0,3:1|0:0,0:0:0:0:
243,80,255091,2,0,P|189:66|121:39,1,118.999996368408,2|0,0:0|0:0,0:0:0:0:
36,114,255432,2,0,P|30:147|47:187,1,59.4999981842042,2|0,0:0|0:0,0:0:0:0:
147,135,255659,1,2,3:2:0:0:
147,135,255886,1,0,3:0:0:0:
16,265,256113,1,8,0:0:0:0:
36,114,256341,1,2,0:0:0:0:
181,219,256568,6,0,L|319:187,1,118.999996368408,2|0,3:2|0:0,0:0:0:0:
360,68,256909,2,0,P|306:65|263:115,1,118.999996368408,2|0,0:0|0:0,0:0:0:0:
380,208,257250,2,0,P|388:173|397:129,1,59.4999981842042,2|0,0:0|0:0,0:0:0:0:
451,0,257477,2,0,P|466:67|485:144,1,118.999996368408,2|0,3:2|3:0,0:0:0:0:
380,208,257818,2,0,P|436:207|483:255,1,118.999996368408,2|0,0:0|0:0,0:0:0:0:
430,375,258159,2,0,P|421:351|400:297,1,59.4999981842042,2|0,3:2|0:0,0:0:0:0:
288,132,258386,6,0,P|277:231|268:316,1,178.499994552612,2|0,3:2|0:0,0:0:0:0:
260,384,258841,1,8,0:0:0:0:
373,213,259068,1,2,0:0:0:0:
196,337,259295,2,0,B|140:327|163:285|97:271,1,118.999996368408,2|0,3:2|3:0,0:0:0:0:
6,298,259636,2,0,P|20:347|84:350,1,118.999996368408,2|0,0:0|0:0,0:0:0:0:
212,258,259977,2,0,P|206:225|197:181,1,59.4999981842042,2|0,0:0|0:0,0:0:0:0:
41,161,260204,6,0,B|96:151|74:109|139:95,1,118.999996368408,2|0,3:2|0:0,0:0:0:0:
278,22,260545,2,0,P|270:96|265:157,1,118.999996368408,2|0,0:0|0:0,0:0:0:0:
212,258,260886,2,0,P|206:228|200:199,1,59.4999981842042,2|0,0:0|0:0,0:0:0:0:
353,103,261113,1,2,3:2:0:0:
353,103,261341,1,0,3:0:0:0:
148,16,261568,1,8,0:0:0:0:
212,258,261795,1,8,0:0:0:0:
228,233,261909,1,8,0:0:0:0:
244,208,262023,6,0,P|186:224|115:242,1,118.999996368408,6|0,3:2|0:0,0:0:0:0:
34,112,262363,2,0,P|89:97|134:157,1,118.999996368408,2|0,0:0|0:0,0:0:0:0:
12,282,262704,2,0,P|6:251|-7:204,1,59.4999981842042,2|0,0:0|0:0,0:0:0:0:
140,249,262932,2,0,P|195:264|266:282,1,118.999996368408,2|0,3:2|3:0,0:0:0:0:
406,208,263273,2,0,P|446:237|443:313,1,118.999996368408,2|0,0:0|0:0,0:0:0:0:
354,382,263613,2,0,P|358:357|363:314,1,59.4999981842042,2|0,0:0|0:0,0:0:0:0:
228,163,263841,6,0,P|245:237|259:301,1,118.999996368408,2|0,3:2|0:0,0:0:0:0:
411,222,264182,2,0,P|433:188|405:107,1,118.999996368408,2|0,0:0|0:0,0:0:0:0:
296,46,264523,2,0,P|291:79|288:109,1,59.4999981842042,2|0,0:0|0:0,0:0:0:0:
263,283,264750,1,2,3:2:0:0:
263,283,264977,1,0,3:0:0:0:
125,133,265204,1,8,0:0:0:0:
240,194,265432,1,2,0:0:0:0:
58,375,265659,6,0,P|40:367|20:360,1,38.2499988327027,2|0,3:2|0:0,0:0:0:0:
15,365,266113,6,0,P|28:291|53:104,1,216.750004134178,12|0,0:0|0:0,0:0:0:0:
60,43,266568,5,0,3:0:0:0:
60,43,266795,1,2,3:2:0:0:
243,152,267023,6,0,B|252:148|272:97|205:53|133:98|153:198,1,216.750004134178,12|8,0:0|0:0,0:0:0:0:
211,329,267477,6,0,B|289:334|265:268|361:279,1,144.500002756119,6|0,3:2|0:0,0:0:0:0:
426,346,267818,1,2,0:0:0:0:
404,337,267932,1,10,0:0:0:0:
245,115,268159,6,0,P|230:192|219:263,1,127.5,6|0,3:2|0:0,0:0:0:0:
203,326,268613,5,8,0:0:0:0:
255,363,268727,1,8,0:0:0:0:
318,361,268841,1,8,0:3:0:0:
357,315,268954,1,8,0:3:0:0:
399,288,269068,1,6,0:3:0:0:
441,298,269182,1,4,0:3:0:0:
462,338,269295,6,0,P|442:287|416:156,1,178.499994552612,6|2,3:2|0:0,0:0:0:0:
512,47,269750,6,0,B|400:66|424:-17|301:10,1,216.750004134178,12|0,0:1|0:0,0:0:0:0:
244,77,270204,1,2,3:2:0:0:
244,77,270432,1,0,3:0:0:0:
401,224,270659,1,8,0:0:0:0:
343,84,270886,1,2,0:0:0:0:
247,283,271113,6,0,P|255:228|264:156,1,118.999996368408,2|0,3:2|0:0,0:0:0:0:
118,84,271454,2,0,P|81:125|97:203,1,118.999996368408,2|0,0:0|0:0,0:0:0:0:
247,283,271795,2,0,P|279:272|325:261,1,59.4999981842042,2|0,0:0|0:0,0:0:0:0:
177,350,272023,2,0,B|116:341|137:296|60:282,1,118.999996368408,2|0,3:2|3:0,0:0:0:0:
156,156,272363,2,0,P|207:170|280:191,1,118.999996368408,2|0,0:0|0:0,0:0:0:0:
317,49,272704,2,0,P|291:57|260:66,1,59.4999981842042,2|0,3:2|0:0,0:0:0:0:
384,253,272932,6,0,P|392:193|407:64,1,178.499994552612,2|0,3:2|0:0,0:0:0:0:
413,2,273386,1,8,0:0:0:0:
321,130,273613,1,2,0:0:0:0:
151,10,273841,2,0,P|99:27|89:88,1,118.999996368408,2|0,3:2|3:0,0:0:0:0:
154,219,274182,2,0,P|116:196|34:157,1,118.999996368408,2|0,0:0|0:0,0:0:0:0:
205,79,274523,2,0,P|192:114|185:152,1,59.4999981842042,2|0,0:0|0:0,0:0:0:0:
179,308,274750,6,0,B|239:294|219:251|290:235,1,118.999996368408,2|0,3:2|0:0,0:0:0:0:
87,282,275091,2,0,P|87:340|137:386,1,118.999996368408,2|0,0:0|0:0,0:0:0:0:
273,240,275432,2,0,P|246:231|206:216,1,59.4999981842042,2|0,0:0|0:0,0:0:0:0:
72,173,275659,1,2,3:2:0:0:
72,173,275886,1,0,3:0:0:0:
261,19,276113,1,8,0:0:0:0:
273,240,276341,1,8,0:0:0:0:
248,214,276454,1,8,0:0:0:0:
251,178,276568,6,0,B|343:150|328:239|427:218,1,178.499994552612,6|2,3:2|0:0,0:0:0:0:
485,80,277023,6,0,P|468:203|456:319,1,216.750004134178,12|0,0:0|0:0,0:0:0:0:
447,384,277477,5,2,3:2:0:0:
447,384,277704,1,0,3:0:0:0:
204,173,277932,6,0,B|309:146|266:64|373:51,1,216.750004134178,12|0,0:0|0:0,0:0:0:0:
452,54,278386,5,2,3:2:0:0:
166,16,278613,1,8,0:0:0:0:
235,194,278841,1,8,3:2:0:0:
300,369,279068,1,8,0:0:0:0:
482,199,279295,5,2,3:2:0:0:
453,140,279409,1,8,0:0:0:0:
390,121,279523,1,4,0:3:0:0:
333,151,279636,1,6,0:3:0:0:
312,212,279750,1,4,3:3:0:0:
286,236,279863,1,4,0:3:0:0:
264,232,279977,1,6,0:3:0:0:
256,219,280091,1,0,0:0:0:0:
265,209,280204,6,0,P|283:299|295:376,1,170,6|8,3:2|0:0,0:0:0:0:
392,35,280886,6,0,P|380:129|371:222,1,152.999995330811,6|0,3:2|0:0,0:0:0:0:
366,267,281341,1,2,3:2:0:0:
366,267,281568,1,10,0:0:0:0:
93,107,281795,6,0,B|196:87|152:21|273:1,1,204,6|0,3:2|0:0,0:0:0:0:
297,50,282250,1,2,3:2:0:0:
0,0,282477,2,0,P|12:104|25:215,1,204,10|8,0:0|0:0,0:0:0:0:
0,353,282932,5,10,3:2:0:0:
61,370,283045,1,8,0:0:0:0:
117,351,283159,1,0,3:0:0:0:
142,299,283273,1,0,3:0:0:0:
137,256,283386,1,10,0:0:0:0:
121,243,283500,1,8,0:0:0:0:
109,244,283613,1,4,0:3:0:0:
313,384,283841,6,0,P|303:349|287:284,1,93.5000028533936,6|0,3:2|0:0,0:0:0:0:
334,216,284182,1,2,0:0:0:0:
334,216,284295,1,0,3:0:0:0:
462,270,284523,1,2,0:0:0:0:
351,124,284750,2,0,P|341:178|329:241,1,93.5000028533936,2|0,3:2|0:0,0:0:0:0:
378,295,285091,1,2,0:0:0:0:
378,295,285204,1,0,3:0:0:0:
248,197,285432,1,2,0:0:0:0:
107,382,285659,5,2,3:2:0:0:
41,318,285886,1,8,0:3:0:0:
159,220,286113,1,0,3:0:0:0:
1,30,286341,5,2,0:0:0:0:
18,66,286454,1,8,0:0:0:0:
50,91,286568,1,10,3:2:0:0:
90,99,286682,1,8,0:0:0:0:
127,83,286795,1,8,0:0:0:0:
157,56,286909,1,10,0:0:0:0:
190,20,287023,1,8,3:2:0:0:
240,0,287136,1,8,0:0:0:0:
299,4,287250,1,10,0:0:0:0:
350,44,287363,1,8,0:0:0:0:
365,99,287477,6,0,P|356:163|346:248,1,110.499994941712,6|0,3:2|0:0,0:0:0:0:
512,119,287932,1,8,0:0:0:0:
350,44,288159,1,2,0:0:0:0:
348,241,288386,2,0,B|409:235|383:186|461:179,1,110.499994941712,2|0,3:2|3:0,0:0:0:0:
500,200,288727,1,2,0:0:0:0:
500,200,288841,1,8,0:0:0:0:
322,117,289068,1,2,0:0:0:0:
397,335,289295,6,0,P|402:285|412:221,1,110.499994941712,2|0,3:2|0:0,0:0:0:0:
420,168,289636,1,2,0:0:0:0:
420,168,289750,1,8,0:0:0:0:
495,346,289977,1,2,0:0:0:0:
322,213,290204,1,0,3:0:0:0:
322,213,290432,1,2,3:2:0:0:
434,25,290659,2,0,P|499:61|490:148,1,165.749992412568,8|0,0:0|0:0,0:0:0:0:
428,179,291113,5,0,3:0:0:0:
265,134,291341,1,2,0:0:0:0:
422,25,291568,1,8,0:0:0:0:
334,201,291795,1,2,0:0:0:0:
156,21,292023,2,0,P|166:86|177:170,1,110.499994941712,2|0,3:2|3:0,0:0:0:0:
184,192,292363,1,2,0:0:0:0:
184,192,292477,1,8,0:0:0:0:
277,46,292704,1,2,0:0:0:0:
54,256,292932,6,0,P|64:191|75:107,1,110.499994941712,2|0,3:2|0:0,0:0:0:0:
82,85,293272,1,2,0:0:0:0:
82,85,293386,1,8,0:0:0:0:
227,263,293613,1,2,0:0:0:0:
311,147,293841,1,0,3:0:0:0:
311,147,294068,1,2,3:2:0:0:
120,208,294295,1,10,0:0:0:0:
341,374,294523,1,10,0:0:0:0:
341,374,294636,1,8,0:0:0:0:
341,374,294750,6,0,P|349:329|365:252,1,110.499994941712,6|0,3:2|0:0,0:0:0:0:
153,22,295204,6,0,B|255:26|216:113|343:119,1,204,12|0,0:1|0:0,0:0:0:0:
398,89,295659,1,0,3:0:0:0:
398,89,295886,1,2,3:2:0:0:
284,240,296113,1,10,0:0:0:0:
201,164,296341,1,2,3:2:0:0:
398,89,296568,6,0,P|388:161|382:229,1,110.499994941712,2|0,3:2|0:0,0:0:0:0:
184,368,297023,6,0,B|286:363|247:277|374:271,1,204,12|0,0:1|0:0,0:0:0:0:
430,299,297477,1,2,3:2:0:0:
365,361,297704,1,2,3:2:0:0:
262,212,297932,1,10,0:0:0:0:
100,346,298159,1,10,0:0:0:0:
100,346,298273,1,8,0:0:0:0:
100,346,298386,6,0,P|95:296|66:172,1,165.749992412568,6|0,3:2|0:0,0:0:0:0:
15,58,298841,6,0,P|21:133|131:130,1,204,12|0,0:1|0:0,0:0:0:0:
173,67,299295,5,2,3:2:0:0:
233,117,299523,1,0,3:0:0:0:
398,0,299750,6,0,P|385:105|378:193,1,165.749992412568,12|0,0:1|0:0,0:0:0:0:
340,334,300204,6,0,B|256:311|301:258|192:235,2,165.749992412568,6|2|2,3:2|0:0|0:0,0:0:0:0:
500,198,301113,2,0,P|491:264|484:326,1,110.499994941712,2|0,3:2|3:0,0:0:0:0:
477,384,301454,1,2,0:0:0:0:
477,384,301568,1,8,0:0:0:0:
258,303,301795,5,6,3:2:0:0:
258,303,302250,1,0,3:0:0:0:
146,252,302477,1,8,0:0:0:0:
224,133,302704,1,10,0:3:0:0:
337,219,302932,1,2,3:2:0:0:
482,104,303159,2,0,P|466:209|456:284,1,165.749992412568,10|0,0:3|0:0,0:0:0:0:
481,374,303613,6,0,B|421:395|380:357|402:344|354:295|283:322,1,204,14|0,0:0|0:0,0:0:0:0:
237,360,304068,1,2,0:0:0:0:
139,217,304295,1,2,3:2:0:0:
222,271,304523,1,10,0:3:0:0:
309,146,304750,1,2,3:2:0:0:
160,28,304977,1,14,0:0:0:0:
21,171,305204,1,10,3:3:0:0:
23,181,305317,1,8,0:3:0:0:
26,192,305431,1,6,0:3:0:0:
29,203,305544,1,4,0:3:0:0:
31,213,305659,6,0,P|23:250|17:283,2,50.9999984436036,6|2|2,3:1|0:0|0:0,0:0:0:0:
5,80,306351,1,2,0:0:0:0:
328,61,306812,5,2,0:0:0:0:
252,92,307043,1,2,0:0:0:0:
164,22,307274,1,2,0:0:0:0:
16,313,307748,5,2,0:0:0:0:
63,228,307992,1,2,0:0:0:0:
182,219,308236,1,2,0:0:0:0:
262,335,308480,6,0,P|265:310|272:269,1,50.9999984436036,2|0,0:0|0:0,0:0:0:0:
352,275,308846,6,0,P|346:308|339:367,1,85,2|0,0:0|0:0,0:0:0:0:
493,383,309212,6,0,P|485:354|470:292,1,85,2|0,0:0|0:0,0:0:0:0:
426,226,309944,6,0,P|428:218|430:209,2,17,6|0|0,0:1|0:0|0:0,0:0:0:0:
304,167,320668,6,0,P|277:158|243:145,1,50.9999984436036,6|0,3:1|0:0,0:0:0:0:
125,107,321068,1,2,0:0:0:0:
125,107,321268,1,0,3:0:0:0:
125,107,321468,2,0,P|117:133|122:170,1,50.9999984436036,10|0,0:0|0:0,0:0:0:0:
99,293,321868,2,0,P|122:307|154:311,1,50.9999984436036,2|0,3:2|0:0,0:0:0:0:
245,257,322268,5,6,3:1:0:0:
300,252,322468,1,8,0:3:0:0:
349,278,322668,1,8,0:3:0:0:
368,330,322868,1,8,0:3:0:0:
366,345,323068,1,8,3:3:0:0:
362,354,323268,1,4,0:3:0:0:
359,358,323468,1,4,3:3:0:0:
456,94,323868,6,0,P|468:178|482:254,1,136,6|2,3:1|0:0,0:0:0:0:
478,229,324468,1,2,3:2:0:0:
229,115,324668,2,0,B|301:94|254:49|338:26,1,136,8|2,0:0|0:0,0:0:0:0:
327,29,325268,1,2,0:0:0:0:
373,129,325468,5,0,3:0:0:0:
181,267,325868,1,2,3:2:0:0:
40,23,326268,2,0,P|49:62|58:100,1,68,8|0,0:0|0:0,0:0:0:0:
96,235,326668,1,2,0:0:0:0:
157,124,326868,1,2,0:0:0:0:
25,290,327068,6,0,P|87:277|145:331,1,136,2|2,3:2|0:0,0:0:0:0:
140,319,327668,1,2,3:2:0:0:
273,94,327868,2,0,P|206:83|150:142,1,136,8|2,0:0|0:0,0:0:0:0:
156,123,328468,1,2,0:0:0:0:
319,235,328668,5,2,0:0:0:0:
339,111,328868,1,0,3:0:0:0:
216,195,329068,2,0,P|224:236|230:279,1,68,2|0,3:2|0:0,0:0:0:0:
370,358,329468,2,0,P|375:324|381:291,1,68,8|0,0:0|0:0,0:0:0:0:
471,112,329868,1,2,0:0:0:0:
394,189,330068,1,2,0:0:0:0:
198,96,330268,6,0,P|244:86|345:57,1,136,2|2,3:2|0:0,0:0:0:0:
393,190,330868,1,2,3:2:0:0:
313,261,331068,1,8,0:0:0:0:
111,65,331468,1,2,0:0:0:0:
38,150,331668,1,2,0:0:0:0:
170,304,331868,6,0,P|162:258|147:165,1,136,2|2,3:2|3:2,0:0:0:0:
232,90,332468,1,2,0:0:0:0:
280,191,332668,1,8,0:0:0:0:
512,6,333068,1,2,0:0:0:0:
473,136,333268,1,2,0:0:0:0:
285,20,333468,6,0,P|352:11|406:62,1,136,2|0,3:2|0:0,0:0:0:0:
398,207,334068,1,0,3:0:0:0:
303,113,334268,2,0,P|311:152|318:181,1,68,10|0,0:0|0:0,0:0:0:0:
458,341,334668,2,0,P|463:309|445:264,1,68,2|0,0:0|0:0,0:0:0:0:
226,286,335068,6,0,P|217:333|211:372,1,68,2|0,0:0|3:0,0:0:0:0:
294,207,335468,1,2,3:2:0:0:
134,142,335668,1,2,0:0:0:0:
15,305,335868,5,8,0:0:0:0:
48,312,336068,1,8,0:3:0:0:
83,320,336268,1,10,0:3:0:0:
115,7,336668,6,0,P|125:82|136:162,1,136,6|2,3:1|0:0,0:0:0:0:
133,141,337268,1,2,3:2:0:0:
14,312,337468,2,0,P|75:292|139:341,1,136,8|2,0:0|0:0,0:0:0:0:
132,327,338068,1,2,0:0:0:0:
215,265,338268,5,0,3:0:0:0:
354,377,338668,1,2,3:2:0:0:
493,180,339068,2,0,P|484:219|479:255,1,68,8|0,0:0|0:0,0:0:0:0:
373,278,339468,1,2,0:0:0:0:
271,177,339668,1,2,0:0:0:0:
458,98,339868,6,0,P|401:84|344:135,1,136,2|2,3:2|0:0,0:0:0:0:
345,130,340468,1,2,3:2:0:0:
445,350,340668,2,0,P|454:282|466:216,1,136,8|2,0:0|0:0,0:0:0:0:
466,216,341268,1,2,0:0:0:0:
219,252,341468,5,2,0:0:0:0:
289,323,341668,1,0,3:0:0:0:
366,218,341868,2,0,P|327:207|284:196,1,68,2|0,3:2|0:0,0:0:0:0:
200,344,342268,2,0,P|167:353|127:366,1,68,8|0,0:0|0:0,0:0:0:0:
40,140,342668,1,2,0:0:0:0:
0,246,342868,1,0,0:0:0:0:
187,258,343068,6,0,P|199:209|151:105,1,136,6|2,3:1|0:0,0:0:0:0:
84,50,343668,1,2,3:2:0:0:
30,151,343868,1,8,0:0:0:0:
284,225,344268,1,2,0:0:0:0:
256,124,344468,1,2,0:0:0:0:
144,350,344668,6,0,P|197:334|282:314,1,136,6|2,3:1|3:2,0:0:0:0:
442,272,345268,1,2,0:0:0:0:
406,384,345468,1,8,0:0:0:0:
169,81,345868,1,2,0:0:0:0:
205,191,346068,1,0,0:0:0:0:
396,16,346268,6,0,P|455:61|446:131,1,136,6|0,3:1|0:0,0:0:0:0:
362,212,346868,1,0,3:0:0:0:
426,335,347068,1,8,0:0:0:0:
426,335,347468,1,0,0:0:0:0:
195,378,347868,6,0,P|201:343|208:298,1,68,2|0,0:0|3:0,0:0:0:0:
47,189,348268,2,0,P|32:226|44:263,1,68,2|0,3:2|0:0,0:0:0:0:
237,299,348668,2,0,P|233:268|227:224,1,68,10|0,0:0|0:0,0:0:0:0:
200,22,349068,1,10,0:0:0:0:
309,140,349268,1,10,0:0:0:0:
422,21,349468,6,0,P|414:66|409:101,1,68,6|2,3:1|0:0,0:0:0:0:
233,191,349868,2,0,P|221:172|222:116,1,68,10|0,3:2|0:0,0:0:0:0:
319,51,350268,1,6,3:3:0:0:
391,178,350468,1,2,0:0:0:0:
502,29,350668,2,0,P|494:74|489:109,1,68,10|0,3:3|0:0,0:0:0:0:
451,318,351068,5,10,3:2:0:0:
475,307,351468,1,2,3:2:0:0:
303,220,351668,1,8,0:0:0:0:
196,344,351868,1,10,3:2:0:0:
83,290,352068,1,4,0:3:0:0:
207,227,352268,1,10,0:3:0:0:
200,247,352468,1,2,0:0:0:0:
52,370,352668,6,0,P|43:299|17:172,1,187.000005706787,6|0,3:1|0:0,0:0:0:0:
62,79,353268,1,2,3:2:0:0:
200,247,353468,1,12,0:0:0:0:
402,139,353668,1,10,0:0:0:0:
322,30,353868,6,0,P|315:103|309:178,1,136,6|0,3:1|0:0,0:0:0:0:
294,335,354468,1,10,0:3:0:0:
292,355,354668,1,4,0:3:0:0:
290,375,354868,1,10,0:3:0:0:
384,222,355068,1,10,0:0:0:0:
227,282,355268,1,10,3:3:0:0:
378,366,355468,1,6,0:3:0:0:
141,145,355868,6,0,P|152:198|163:259,1,93.5000028533936,6|0,3:1|0:0,0:0:0:0:
193,25,356268,1,12,0:0:0:0:
63,228,356468,6,0,P|52:280|42:333,1,93.5000028533936,6|0,3:2|0:0,0:0:0:0:
9,109,356868,1,14,0:0:0:0:
147,338,357068,6,0,P|189:318|245:296,1,101.999996887207,6|0,3:2|0:0,0:0:0:0:
422,235,357668,1,8,0:0:0:0:
286,188,357868,1,2,3:2:0:0:
359,301,358068,1,2,3:2:0:0:
441,125,358268,5,10,0:0:0:0:
258,46,358468,1,10,0:0:0:0:
179,229,358668,1,10,0:0:0:0:
362,308,358868,1,8,0:0:0:0:
309,176,359068,6,0,P|288:245|277:309,1,136,6|2,3:1|0:0,0:0:0:0:
277,307,359668,1,2,3:2:0:0:
200,70,359868,2,0,P|210:113|217:153,1,68,8|0,0:0|0:0,0:0:0:0:
181,241,360268,1,2,0:0:0:0:
41,154,360468,1,10,0:0:0:0:
116,108,360668,5,2,3:2:0:0:
176,250,360868,1,8,0:0:0:0:
29,320,361068,2,0,P|24:297|8:247,1,68,2|2,3:2|0:0,0:0:0:0:
196,378,361468,2,0,B|267:363|234:315|326:303,1,136,8|2,0:0|0:0,0:0:0:0:
411,335,362068,1,2,0:0:0:0:
492,199,362268,5,0,3:0:0:0:
329,107,362468,1,8,0:0:0:0:
292,198,362668,2,0,P|319:222|364:229,1,68,2|0,0:0|0:0,0:0:0:0:
499,65,363068,6,0,B|438:45|376:-6|376:-6|388:20|393:37,1,187.000005706787,12|2,0:1|0:0,0:0:0:0:
424,250,363668,1,8,0:0:0:0:
487,170,363868,5,0,3:0:0:0:
341,132,364068,1,8,0:0:0:0:
255,279,364268,1,8,3:2:0:0:
255,279,364468,1,4,0:3:0:0:
427,378,364668,5,8,3:3:0:0:
413,337,364868,1,8,3:3:0:0:
402,293,365068,1,6,0:3:0:0:
116,359,365468,6,0,P|124:315|143:209,1,136,6|2,3:1|0:0,0:0:0:0:
140,225,366068,1,2,3:2:0:0:
336,135,366268,2,0,P|309:76|245:65,1,136,10|2,0:0|0:0,0:0:0:0:
245,64,366868,1,10,0:0:0:0:
246,222,367068,5,0,3:0:0:0:
182,138,367268,1,8,0:0:0:0:
40,209,367468,2,0,P|51:254|60:296,1,68,4|0,3:2|0:0,0:0:0:0:
78,384,367868,1,8,0:0:0:0:
277,124,368268,1,2,0:0:0:0:
250,234,368468,1,10,0:0:0:0:
176,177,368668,5,6,3:1:0:0:
379,64,368868,2,0,P|402:172|417:257,1,187.000005706787,8|2,0:0|3:2,0:0:0:0:
182,372,369468,2,0,P|173:293|266:288,1,187.000005706787,12|2,0:0|0:0,0:0:0:0:
379,384,370068,1,10,0:0:0:0:
497,284,370268,5,0,3:0:0:0:
458,309,370468,1,8,0:0:0:0:
332,227,370668,1,4,3:2:0:0:
73,384,371068,6,0,P|80:356|92:289,1,68,10|0,0:0|0:0,0:0:0:0:
125,96,371468,1,10,0:0:0:0:
244,247,371668,1,8,0:0:0:0:
389,150,371868,6,0,B|321:137|356:88|263:66,1,136,6|2,3:2|0:0,0:0:0:0:
282,71,372468,1,0,3:0:0:0:
144,187,372668,1,8,0:0:0:0:
333,362,373068,1,2,0:0:0:0:
431,288,373268,1,8,0:0:0:0:
341,374,373468,5,0,3:0:0:0:
211,308,373668,1,8,0:0:0:0:
222,171,373868,2,0,P|241:209|256:250,1,68,6|0,3:2|0:0,0:0:0:0:
439,119,374268,2,0,P|424:163|414:197,1,68,10|0,0:0|0:0,0:0:0:0:
216,175,374668,2,0,P|232:205|245:237,1,68,2|0,0:0|0:0,0:0:0:0:
378,31,375068,5,2,3:2:0:0:
439,119,375268,1,8,0:0:0:0:
88,268,375668,1,0,3:0:0:0:
171,356,375868,6,0,P|187:298|220:157,1,187.000005706787,14|2,0:1|3:2,0:0:0:0:
246,20,376468,1,10,0:0:0:0:
174,66,376668,5,2,3:2:0:0:
325,58,376868,1,8,0:0:0:0:
93,36,377068,1,8,3:2:0:0:
245,11,377268,1,4,0:3:0:0:
79,222,377468,5,8,3:3:0:0:
44,186,377668,1,8,0:3:0:0:
43,134,377868,1,4,3:3:0:0:
245,11,378268,6,0,P|323:34|427:61,1,152.999995330811,6|0,3:1|0:0,0:0:0:0:
449,35,378668,2,0,B|368:52|413:106|325:130,1,152.999995330811,10|0,3:3|0:0,0:0:0:0:
256,135,379068,2,0,P|284:213|306:293,1,152.999995330811,6|0,3:3|0:0,0:0:0:0:
398,360,379468,2,0,P|413:313|463:189,1,152.999995330811,6|0,3:3|0:0,0:0:0:0:
491,150,379868,5,14,3:1:0:0:
374,279,380268,1,10,3:2:0:0:
302,84,380668,1,10,3:2:0:0:
146,303,381068,1,10,3:2:0:0:
66,22,381468,1,6,3:1:0:0:
316,223,388253,6,0,L|309:290,2,59.4999981842042,2|2|2,0:0|0:0|0:0,0:0:0:0:
262,156,388690,1,2,0:0:0:0:
382,168,388836,1,2,3:2:0:0:
329,101,388982,1,2,0:0:0:0:
209,227,389127,6,0,P|171:212|115:194,1,89.2499972763062,10|0,0:0|0:0,0:0:0:0:
79,227,389418,2,0,L|41:240,2,29.7499990921021,6|2|2,0:3|0:0|0:0,0:0:0:0:
254,298,389710,2,0,P|281:274|286:203,1,89.2499972763062,8|0,3:3|0:0,0:0:0:0:
211,136,390001,6,0,P|253:123|332:95,1,127.499996109009,6|0,3:2|0:0,0:0:0:0:
331,95,390438,1,2,0:0:0:0:
415,176,390583,2,0,L|431:116,1,50.9999984436036,2|0,3:2|0:0,0:0:0:0:
493,254,390875,6,0,P|453:288|375:279,1,127.499996109009,10|0,0:0|0:0,0:0:0:0:
381,283,391311,1,2,0:0:0:0:
297,384,391457,2,0,P|285:358|284:327,1,50.9999984436036,2|0,3:2|0:0,0:0:0:0:
302,174,391748,5,2,3:2:0:0:
305,164,391894,1,2,0:0:0:0:
310,155,392040,1,2,0:0:0:0:
316,146,392185,1,2,0:0:0:0:
390,201,392331,5,2,0:0:0:0:
358,76,392477,1,2,0:0:0:0:
214,166,392622,6,0,P|196:206|201:254,1,76.4999976654053,10|0,0:0|0:0,0:0:0:0:
209,259,392913,6,0,P|190:244|156:233,1,51,2|0,0:0|0:0,0:0:0:0:
146,232,393205,6,0,P|161:225|174:216,1,25.4999992218018,2|0,0:0|0:0,0:0:0:0:
15,113,393496,6,0,L|32:256,1,127.499996109009,2|0,3:2|0:0,0:0:0:0:
30,239,393933,1,2,0:0:0:0:
118,364,394078,2,0,L|129:315,1,50.9999984436036,2|0,3:2|0:0,0:0:0:0:
164,134,394370,5,10,0:0:0:0:
154,128,394661,1,2,0:0:0:0:
154,140,394952,1,2,3:2:0:0:
201,242,395244,5,6,3:2:0:0:
270,283,395535,1,2,0:0:0:0:
350,284,395826,1,2,0:0:0:0:
420,244,396118,1,10,0:0:0:0:
460,175,396409,1,2,0:0:0:0:
460,94,396700,1,2,3:2:0:0:
420,25,396991,5,2,3:2:0:0:
377,68,397282,1,2,0:0:0:0:
367,128,397574,1,2,0:0:0:0:
387,176,397865,1,10,0:0:0:0:
425,203,398156,1,2,0:0:0:0:
443,242,398447,1,2,0:0:0:0:
389,309,398739,5,6,3:2:0:0:
383,294,398884,1,2,0:0:0:0:
509,188,399030,1,2,0:0:0:0:
511,173,399175,1,2,0:0:0:0:
457,27,399321,1,2,0:0:0:0:
457,27,399612,6,0,L|390:45,1,50.9999984436036,10|0,0:0|0:0,0:0:0:0:
308,66,399903,2,0,L|241:84,1,50.9999984436036,2|0,0:0|0:0,0:0:0:0:
159,105,400195,2,0,L|92:123,1,50.9999984436036,2|0,3:2|0:0,0:0:0:0:
10,144,400486,5,2,3:2:0:0:
24,149,400632,1,2,0:0:0:0:
58,282,400777,1,2,0:0:0:0:
70,273,400923,1,2,0:0:0:0:
177,332,401069,1,2,0:0:0:0:
177,332,401360,6,0,P|178:314|191:276,1,50.9999984436036,10|0,0:0|0:0,0:0:0:0:
245,204,401651,2,0,P|269:187|299:176,1,50.9999984436036,2|0,0:0|0:0,0:0:0:0:
386,173,401943,2,0,P|414:182|440:199,1,50.9999984436036,2|0,0:0|0:0,0:0:0:0:
506,283,402234,1,2,0:0:0:0:
159,268,409224,6,0,B|264:276|219:173|353:193,1,203.999993774414,2|2,0:0|0:0,0:0:0:0:
379,261,409952,1,2,0:0:0:0:
379,261,410098,2,0,P|384:216|404:102,1,152.999995330811,2|0,0:0|0:0,0:0:0:0:
477,150,410680,1,2,0:0:0:0:
329,15,410972,6,0,P|286:31|231:49,1,101.999996887207,2|0,0:0|0:0,0:0:0:0:
152,77,411409,1,2,0:0:0:0:
152,77,411554,1,2,0:0:0:0:
330,323,411845,2,0,B|300:280|305:227|305:227|291:278|244:307,1,203.999993774414,2|0,0:0|0:0,0:0:0:0:
58,169,412719,6,0,P|132:193|206:219,1,152.999995330811,2|2,0:0|0:0,0:0:0:0:
244,307,413302,2,0,P|211:319|176:332,1,50.9999984436036,2|0,0:0|0:0,0:0:0:0:
84,340,413593,2,0,P|89:320|96:285,1,50.9999984436036,2|0,0:0|0:0,0:0:0:0:
200,160,413884,2,0,P|205:188|211:217,1,50.9999984436036,2|0,0:0|0:0,0:0:0:0:
326,376,414176,2,0,P|331:356|338:321,1,50.9999984436036,2|0,0:0|0:0,0:0:0:0:
383,114,414467,5,2,3:2:0:0:
383,114,414758,1,2,3:2:0:0:
383,114,415049,1,2,3:2:0:0:
153,323,415341,6,0,L|194:339,1,42.5,10|0,0:0|0:0,0:0:0:0:
201,345,415632,6,0,L|179:157,1,178.499994552612,10|0,0:0|0:0,0:0:0:0:
131,93,416214,6,0,B|37:107|89:168|-14:194,2,170,6|0|0,3:2|3:0|3:0,0:0:0:0:
279,243,417088,1,8,0:0:0:0:
282,235,417379,1,0,3:0:0:0:
285,227,417671,1,0,3:0:0:0:
139,181,417962,6,0,P|162:265|183:359,2,170,2|0|2,3:2|3:0|3:2,0:0:0:0:
301,19,418836,1,10,0:0:0:0:
434,144,419127,1,0,3:0:0:0:
494,91,419273,1,8,0:0:0:0:
359,101,419418,2,0,P|348:150|366:189,1,85,6|4,3:3|0:3,0:0:0:0:
479,352,419710,5,6,3:2:0:0:
492,342,420001,1,0,3:0:0:0:
508,338,420292,1,0,3:0:0:0:
219,249,420583,5,14,0:0:0:0:
177,230,420875,1,0,3:0:0:0:
131,236,421166,1,2,3:2:0:0:
234,331,421311,1,0,3:0:0:0:
358,204,421457,6,0,P|352:246|346:288,1,85,6|0,3:2|0:0,0:0:0:0:
230,144,421748,1,8,0:0:0:0:
455,39,422040,1,8,0:0:0:0:
112,88,422331,5,8,0:0:0:0:
230,144,422477,1,8,0:0:0:0:
172,251,422622,2,0,P|148:229|149:161,1,85,4|0,0:3|0:0,0:0:0:0:
331,118,422913,2,0,P|321:162|311:213,1,85,8|0,0:3|0:0,0:0:0:0:
274,371,423205,6,0,P|306:360|365:338,1,85,6|0,3:1|0:0,0:0:0:0:
480,297,423496,1,2,0:0:0:0:
331,118,423642,5,10,3:2:0:0:
454,179,423787,1,2,0:0:0:0:
334,115,423933,1,2,0:0:0:0:
283,252,424078,5,6,0:0:0:0:
257,164,424224,1,2,0:0:0:0:
228,79,424370,1,2,0:0:0:0:
103,280,424515,5,6,3:1:0:0:
198,236,424661,1,2,0:0:0:0:
103,280,424807,1,2,0:0:0:0:
257,164,424952,5,6,3:2:0:0:
120,101,425098,1,2,0:0:0:0:
257,164,425244,1,2,0:0:0:0:
103,280,425389,5,14,0:1:0:0:
228,79,425535,2,0,P|222:60|211:25,2,42.5,2|2|2,0:0|0:0|0:0,0:0:0:0:
300,235,425826,5,2,3:2:0:0:
415,85,425972,1,10,0:0:0:0:
407,134,426044,1,10,0:0:0:0:
399,183,426117,1,10,0:0:0:0:
352,24,426263,5,10,3:3:0:0:
512,164,426409,1,6,3:3:0:0:
384,266,426554,1,6,3:3:0:0:
352,24,426700,5,14,3:2:0:0:
352,24,426991,1,2,3:2:0:0:
352,24,427282,1,2,3:2:0:0:
502,250,427574,6,0,B|437:243|467:194|384:180,1,127.499996109009,14|0,3:2|0:0,0:0:0:0:
398,182,428011,1,10,0:0:0:0:
234,253,428156,6,0,P|239:269|244:287,1,25.4999992218018,10|0,0:0|0:0,0:0:0:0:
246,284,428447,6,0,P|250:246|259:177,1,101.999996887207,6|0,3:1|0:0,0:0:0:0:
287,0,429321,5,10,0:3:0:0:
54,127,429612,1,10,0:3:0:0:
246,284,429904,1,10,0:3:0:0:
167,376,430195,6,0,P|159:319|146:228,1,127.499996109009,6|0,3:2|0:0,0:0:0:0:
149,249,430632,1,10,0:0:0:0:
236,152,430777,2,0,P|245:180|235:214,1,50.9999984436036,10|0,0:0|0:0,0:0:0:0:
5,183,431069,2,0,B|99:164|45:107|147:88,1,178.499994552612,6|0,3:2|0:0,0:0:0:0:
163,96,431651,2,0,P|155:127|149:156,1,50.9999984436036,10|0,0:0|0:0,0:0:0:0:
116,290,431943,5,2,3:2:0:0:
307,233,432088,1,8,0:0:0:0:
116,290,432234,1,8,0:0:0:0:
59,99,432525,5,10,3:2:0:0:
116,290,432671,1,8,0:0:0:0:
160,150,432816,5,2,3:2:0:0:
39,335,432962,1,8,0:0:0:0:
39,335,433035,1,8,0:0:0:0:
39,335,433108,1,0,3:0:0:0:
226,358,433253,1,10,0:0:0:0:
226,358,433326,1,8,0:0:0:0:
226,358,433399,1,2,3:2:0:0:
160,150,433544,1,6,0:3:0:0:
3,232,433690,6,0,P|46:219|99:204,1,93.5000028533936,6|0,3:1|0:0,0:0:0:0:
289,194,433981,2,0,P|302:246|277:300,1,93.5000028533936,2|0,3:2|0:0,0:0:0:0:
77,124,434273,2,0,P|72:95|58:17,1,93.5000028533936,2|0,3:2|0:0,0:0:0:0:
336,4,434564,2,0,B|432:9|393:90|500:104,1,187.000005706787,10|0,0:0|3:0,0:0:0:0:
401,232,435001,1,2,0:0:0:0:
250,121,435146,2,0,P|299:104|348:86,1,93.5000028533936,2|0,3:2|0:0,0:0:0:0:
456,351,435438,6,0,B|496:310|496:310|474:174,2,187.000005706787,2|0|0,3:2|3:0|3:0,0:0:0:0:
146,273,436311,2,0,P|147:321|179:357,1,93.5000028533936,10|0,0:0|0:0,0:0:0:0:
325,188,436603,1,2,3:2:0:0:
435,338,436748,1,8,0:0:0:0:
267,381,436894,2,0,P|261:342|249:273,1,93.5000028533936,2|0,3:2|0:0,0:0:0:0:
115,109,437185,6,0,B|46:126|-6:170|-6:170|17:139|29:114,1,187.000005706787,6|0,3:2|3:0,0:0:0:0:
84,0,437622,1,2,0:0:0:0:
227,85,437768,2,0,P|235:138|216:178,1,93.5000028533936,2|0,3:2|0:0,0:0:0:0:
39,384,438059,2,0,P|32:343|1:221,1,140.25000428009,10|0,0:0|0:0,0:0:0:0:
12,237,438350,2,0,P|28:288|37:336,1,93.5000028533936,0|0,3:0|0:0,0:0:0:0:
176,204,438642,2,0,P|126:191|75:168,1,93.5000028533936,2|0,3:2|0:0,0:0:0:0:
193,285,438933,5,0,3:0:0:0:
349,165,439078,1,8,0:0:0:0:
193,285,439224,1,10,0:0:0:0:
469,322,439515,5,10,0:0:0:0:
349,165,439661,1,8,0:0:0:0:
375,293,439807,5,2,3:2:0:0:
317,30,439952,1,8,0:0:0:0:
317,30,440025,1,8,0:0:0:0:
317,30,440098,1,2,3:2:0:0:
512,132,440244,1,8,0:0:0:0:
512,132,440317,1,8,0:0:0:0:
512,132,440390,1,10,0:3:0:0:
434,227,440535,1,8,0:3:0:0:
237,83,440680,6,0,P|261:177|277:275,2,187.000005706787,4|0|2,3:2|3:0|3:2,0:0:0:0:
58,346,441554,2,0,P|98:369|156:357,1,93.5000028533936,10|0,0:0|0:0,0:0:0:0:
28,162,441845,2,0,L|2:263,1,93.5000028533936,0|0,3:0|0:0,0:0:0:0:
231,269,442137,2,0,P|221:229|203:160,1,93.5000028533936,2|0,3:2|0:0,0:0:0:0:
3,43,442428,6,0,P|82:59|164:-2,2,187.000005706787,2|0|2,3:2|3:0|3:2,0:0:0:0:
248,168,443302,2,0,P|239:127|224:64,1,93.5000028533936,10|0,0:0|0:0,0:0:0:0:
165,220,443593,1,0,3:0:0:0:
359,99,443739,1,8,0:0:0:0:
449,173,443884,2,0,P|437:221|422:282,1,93.5000028533936,6|4,3:3|0:3,0:0:0:0:
295,384,444176,5,6,3:2:0:0:
245,255,444321,1,2,0:0:0:0:
400,346,444467,2,0,P|444:363|497:381,1,93.5000028533936,2|0,3:2|0:0,0:0:0:0:
245,255,444758,2,0,P|201:269|134:288,1,93.5000028533936,2|0,3:2|0:0,0:0:0:0:
459,133,445049,2,0,P|481:196|465:246,1,93.5000028533936,14|0,0:0|0:0,0:0:0:0:
177,181,445341,2,0,P|171:147|210:91,1,93.5000028533936,2|0,3:2|0:0,0:0:0:0:
381,61,445632,1,2,3:2:0:0:
352,159,445777,1,0,0:0:0:0:
182,18,445923,5,6,3:2:0:0:
252,230,446069,1,10,0:0:0:0:
182,18,446214,1,10,0:0:0:0:
33,184,446506,5,10,0:0:0:0:
252,230,446651,1,8,0:0:0:0:
126,307,446797,5,6,3:2:0:0:
167,105,446943,1,8,0:0:0:0:
167,105,447015,1,8,0:0:0:0:
167,105,447088,1,2,3:2:0:0:
347,255,447234,1,8,0:0:0:0:
347,255,447307,1,8,0:0:0:0:
347,255,447379,1,4,3:3:0:0:
239,361,447525,1,4,0:3:0:0:
55,201,447671,6,0,P|75:303|91:395,2,187.000005706787,6|0|0,3:1|3:0|3:0,0:0:0:0:
328,40,448544,2,0,P|380:53|409:90,1,93.5000028533936,10|0,0:0|0:0,0:0:0:0:
230,192,448836,2,0,P|267:153|315:148,1,93.5000028533936,2|0,3:2|0:0,0:0:0:0:
312,335,449127,2,0,P|297:283|315:240,1,93.5000028533936,2|0,3:2|0:0,0:0:0:0:
494,94,449418,5,2,3:2:0:0:
436,294,449564,1,8,0:0:0:0:
494,94,449710,1,8,3:2:0:0:
292,144,450001,5,10,3:2:0:0:
436,294,450146,1,8,3:2:0:0:
302,371,450292,5,10,3:3:0:0:
296,353,450438,1,8,0:3:0:0:
213,268,450583,1,6,3:3:0:0:
207,286,450729,1,4,0:3:0:0:
132,351,450875,1,10,3:3:0:0:
126,333,451021,1,8,0:3:0:0:
28,210,451166,5,6,3:2:0:0:
114,252,451311,1,2,0:0:0:0:
194,159,451457,5,2,3:2:0:0:
301,251,451603,1,2,0:0:0:0:
389,94,451748,5,2,3:2:0:0:
279,170,451894,1,2,0:0:0:0:
107,21,452040,6,0,P|75:88|103:164,1,140.25000428009,14|0,0:0|0:0,0:0:0:0:
106,160,452331,2,0,P|113:126|74:65,1,93.5000028533936,2|0,3:2|0:0,0:0:0:0:
34,219,452622,2,0,P|62:247|114:259,1,93.5000028533936,2|0,3:2|0:0,0:0:0:0:
287,171,452913,5,6,3:2:0:0:
233,355,453059,2,0,B|186:317|186:317|209:174,1,187.000005706787,8|2,0:0|0:0,0:0:0:0:
311,87,453496,1,10,0:0:0:0:
414,238,453642,1,8,3:2:0:0:
512,130,453787,6,0,P|505:156|499:180,1,46.7500014266968,6|0,3:2|0:0,0:0:0:0:
234,0,454078,5,12,0:1:0:0:
140,144,454224,1,8,0:0:0:0:
140,144,454297,1,8,0:0:0:0:
140,144,454370,1,4,0:3:0:0:
34,96,454515,1,4,0:3:0:0:
213,288,454661,6,0,B|306:272|251:205|367:184,2,187.000005706787,6|0|0,3:2|3:0|3:0,0:0:0:0:
51,11,455535,2,0,P|28:58|38:103,1,93.5000028533936,10|0,0:0|0:0,0:0:0:0:
257,34,455826,2,0,P|220:24|158:3,1,93.5000028533936,2|0,3:2|0:0,0:0:0:0:
0,184,456117,2,0,P|30:218|92:236,1,93.5000028533936,2|0,3:2|0:0,0:0:0:0:
257,34,456409,5,6,3:2:0:0:
206,215,456554,1,8,0:0:0:0:
257,34,456700,1,8,0:0:0:0:
438,85,456991,5,10,3:2:0:0:
257,34,457137,1,8,0:0:0:0:
331,162,457282,5,2,3:2:0:0:
393,0,457428,1,8,0:0:0:0:
393,0,457501,1,8,0:0:0:0:
393,0,457574,1,2,3:2:0:0:
512,229,457719,1,8,0:0:0:0:
512,229,457792,1,8,0:0:0:0:
512,229,457865,2,0,P|502:272|494:322,1,93.5000028533936,2|0,3:2|0:0,0:0:0:0:
212,384,458156,6,0,B|142:363|142:363|125:326|125:326|54:305,2,187.000005706787,6|2|2,3:2|0:0|3:2,0:0:0:0:
399,121,459030,2,0,P|370:150|309:158,1,93.5000028533936,14|0,0:0|0:0,0:0:0:0:
205,0,459321,2,0,P|244:10|282:59,1,93.5000028533936,2|0,0:0|0:0,0:0:0:0:
198,228,459613,2,0,P|187:188|210:131,1,93.5000028533936,2|0,3:2|0:0,0:0:0:0:
512,0,459904,6,0,P|497:124|490:212,2,187.000005706787,6|2|2,3:2|0:0|3:2,0:0:0:0:
294,330,460777,2,0,P|335:313|390:294,1,93.5000028533936,14|0,0:0|0:0,0:0:0:0:
155,251,461069,1,2,3:2:0:0:
216,382,461214,1,8,0:0:0:0:
315,226,461360,2,0,P|278:195|218:195,1,93.5000028533936,2|0,3:2|3:0,0:0:0:0:
47,384,461651,6,0,B|0:344|0:344|24:208,2,187.000005706787,6|2|2,3:2|3:2|3:2,0:0:0:0:
308,149,462525,2,0,P|322:190|299:254,1,93.5000028533936,14|0,0:0|0:0,0:0:0:0:
181,55,462816,2,0,P|209:21|276:9,1,93.5000028533936,2|0,3:2|0:0,0:0:0:0:
163,212,463108,2,0,P|120:204|76:152,1,93.5000028533936,2|0,3:2|0:0,0:0:0:0:
350,41,463399,5,6,3:2:0:0:
152,133,463544,1,8,0:0:0:0:
350,41,463690,1,10,0:0:0:0:
244,331,463981,5,10,3:2:0:0:
152,133,464127,1,8,0:0:0:0:
297,185,464273,5,2,3:2:0:0:
108,285,464418,1,10,0:0:0:0:
108,285,464491,1,8,0:0:0:0:
108,285,464564,1,2,3:2:0:0:
242,108,464710,1,10,0:0:0:0:
242,108,464782,1,8,0:0:0:0:
242,108,464855,1,6,3:3:0:0:
354,261,465001,1,6,0:3:0:0:
447,185,465146,1,6,3:1:0:0:
256,192,465219,12,0,472137,0:0:0:0:
150,176,479406,5,6,3:2:0:0:
217,100,479579,1,8,0:0:0:0:
217,100,479666,1,8,0:0:0:0:
217,100,479753,1,10,0:0:0:0:
309,186,479926,1,0,3:0:0:0:
404,41,480100,5,10,0:0:0:0:
404,41,480186,1,8,0:0:0:0:
404,41,480273,1,8,0:0:0:0:
308,196,480446,1,10,0:0:0:0:
221,110,480620,1,2,3:2:0:0:
328,287,480793,6,0,B|398:277|367:224|454:211,1,140.25000428009,6|0,3:2|0:0,0:0:0:0:
496,220,481140,1,2,0:0:0:0:
415,116,481313,1,10,0:0:0:0:
415,116,481487,1,0,3:0:0:0:
308,196,481660,1,2,0:0:0:0:
157,50,481834,2,0,P|169:125|180:196,1,140.25000428009,10|0,0:0|0:0,0:0:0:0:
134,266,482180,6,0,P|100:241|99:170,1,93.5000028533936,0|0,3:0|0:0,0:0:0:0:
308,196,482527,2,0,P|299:245|291:290,1,93.5000028533936,8|0,0:0|0:0,0:0:0:0:
104,116,482874,2,0,P|150:133|208:155,1,93.5000028533936,0|0,3:0|0:0,0:0:0:0:
320,110,483221,1,10,0:0:0:0:
221,228,483394,1,2,0:0:0:0:
83,37,483568,6,0,P|26:82|40:163,1,140.25000428009,10|0,0:0|0:0,0:0:0:0:
62,184,483915,1,2,3:2:0:0:
233,54,484088,1,10,0:0:0:0:
104,116,484261,1,0,3:0:0:0:
221,228,484435,1,2,0:0:0:0:
136,384,484608,2,0,P|127:322|112:230,1,140.25000428009,10|0,0:0|0:0,0:0:0:0:
62,184,484955,6,0,P|32:223|40:280,1,93.5000028533936,0|0,3:0|0:0,0:0:0:0:
228,323,485302,2,0,P|271:309|331:289,1,93.5000028533936,8|0,0:0|0:0,0:0:0:0:
192,145,485649,2,0,P|154:132|92:112,1,93.5000028533936,0|0,3:0|0:0,0:0:0:0:
224,226,485996,1,10,0:0:0:0:
319,108,486169,1,2,0:0:0:0:
417,273,486342,6,0,L|445:108,1,140.25000428009,14|0,0:0|0:0,0:0:0:0:
450,81,486689,1,2,3:2:0:0:
224,226,486863,2,0,P|266:214|317:197,1,93.5000028533936,14|0,0:0|3:0,0:0:0:0:
164,154,487209,1,2,0:0:0:0:
51,286,487383,6,0,P|139:274|186:350,1,187.000005706787,14|0,0:0|3:0,0:0:0:0:
224,226,487903,1,2,0:0:0:0:
224,226,488076,1,8,0:0:0:0:
106,348,488250,1,2,0:0:0:0:
16,193,488423,2,0,P|29:238|41:293,1,93.5000028533936,2|0,3:2|0:0,0:0:0:0:
164,91,488770,1,10,0:0:0:0:
132,227,488943,1,2,0:0:0:0:
1,98,489117,6,0,B|74:88|39:36|135:27,1,140.25000428009,6|0,3:2|0:0,0:0:0:0:
164,91,489464,2,0,P|171:52|187:-10,1,93.5000028533936,8|0,0:0|0:0,0:0:0:0:
33,173,489811,2,0,P|42:219|52:272,1,93.5000028533936,2|0,3:2|0:0,0:0:0:0:
249,218,490157,2,0,P|261:179|222:108,1,93.5000028533936,10|0,0:0|0:0,0:0:0:0:
135,263,490504,5,6,3:2:0:0:
247,355,490678,1,8,0:0:0:0:
247,355,490764,1,8,0:0:0:0:
247,355,490851,1,2,3:2:0:0:
360,194,491024,1,10,0:0:0:0:
484,380,491198,1,8,0:0:0:0:
443,367,491285,1,8,0:0:0:0:
415,335,491371,1,4,0:3:0:0:
410,293,491458,1,4,0:3:0:0:
425,264,491545,1,10,0:3:0:0:
449,242,491631,1,8,0:3:0:0:
460,216,491718,1,10,0:3:0:0:
458,192,491805,1,0,0:0:0:0:
451,169,491891,6,0,P|442:247|437:331,1,140.25000428009,14|0,0:0|0:0,0:0:0:0:
436,367,492238,1,2,3:2:0:0:
280,230,492412,2,0,P|290:275|299:325,1,93.5000028533936,14|0,0:0|3:0,0:0:0:0:
207,175,492759,1,2,0:0:0:0:
382,99,492932,2,0,P|320:114|254:59,1,140.25000428009,14|0,0:0|0:0,0:0:0:0:
190,4,493279,6,0,P|181:53|174:109,1,93.5000028533936,0|0,3:0|0:0,0:0:0:0:
37,254,493626,2,0,P|13:227|14:157,1,93.5000028533936,8|0,0:0|0:0,0:0:0:0:
190,279,493972,2,0,P|146:299|80:332,1,93.5000028533936,0|0,3:0|0:0,0:0:0:0:
207,175,494319,1,10,0:0:0:0:
283,305,494493,1,0,0:0:0:0:
201,166,494666,6,0,P|265:192|344:223,1,140.25000428009,14|0,0:0|0:0,0:0:0:0:
384,237,495013,1,2,3:2:0:0:
208,346,495186,2,0,P|195:308|233:241,1,93.5000028533936,14|0,0:0|3:0,0:0:0:0:
352,359,495533,1,2,0:0:0:0:
509,174,495706,2,0,P|495:269|486:343,1,140.25000428009,14|0,0:0|0:0,0:0:0:0:
467,384,496053,6,0,P|458:345|441:271,1,93.5000028533936,0|0,3:0|0:0,0:0:0:0:
303,131,496400,2,0,P|282:175|304:233,1,93.5000028533936,8|0,0:0|0:0,0:0:0:0:
464,101,496747,2,0,P|429:90|352:59,1,93.5000028533936,0|0,3:0|0:0,0:0:0:0:
199,10,497094,1,10,0:0:0:0:
115,195,497267,1,10,0:0:0:0:
115,195,497354,1,8,0:0:0:0:
115,195,497441,6,0,P|109:156|92:53,1,140.25000428009,14|0,0:0|0:0,0:0:0:0:
81,0,497787,1,2,3:2:0:0:
206,188,497961,2,0,P|195:243|187:289,1,93.5000028533936,14|0,0:0|3:0,0:0:0:0:
32,219,498308,1,2,0:0:0:0:
209,101,498481,2,0,P|261:115|294:203,1,140.25000428009,14|0,0:0|0:0,0:0:0:0:
279,243,498828,5,0,3:0:0:0:
53,119,499001,2,0,P|59:87|72:8,1,93.5000028533936,14|0,0:0|3:0,0:0:0:0:
177,241,499348,1,10,3:2:0:0:
326,114,499522,2,0,P|319:82|303:5,1,93.5000028533936,14|0,3:2|0:0,0:0:0:0:
115,181,499868,1,10,3:2:0:0:
343,257,500042,1,2,0:0:0:0:
103,370,500215,6,0,P|85:343|98:263,1,93.5000028533936,6|0,3:2|0:0,0:0:0:0:
301,331,500562,2,0,P|252:349|199:370,1,93.5000028533936,8|0,0:0|0:0,0:0:0:0:
111,171,500909,2,0,P|151:188|211:208,1,93.5000028533936,0|0,3:0|0:0,0:0:0:0:
397,321,501256,2,0,P|419:288|409:209,1,93.5000028533936,8|0,0:0|0:0,0:0:0:0:
334,59,501602,5,2,3:2:0:0:
199,281,501776,1,8,0:0:0:0:
199,281,501863,1,8,0:0:0:0:
199,281,501949,1,10,3:2:0:0:
342,254,502123,1,8,0:0:0:0:
107,148,502296,1,10,3:2:0:0:
108,157,502382,1,8,0:3:0:0:
109,166,502469,1,8,0:3:0:0:
111,175,502556,1,8,0:3:0:0:
112,184,502642,1,6,0:3:0:0:
114,194,502729,1,4,0:3:0:0:
115,203,502816,1,6,0:3:0:0:
116,212,502903,1,4,0:3:0:0:
118,221,502989,5,4,3:2:0:0:
118,221,503337,5,6,0:3:0:0:
209,146,503510,1,4,0:3:0:0:
208,282,503683,5,4,3:3:0:0:
199,152,503857,1,8,0:0:0:0:
361,287,504030,5,0,3:0:0:0:
189,158,504204,1,8,3:2:0:0:
471,147,504377,5,8,3:2:0:0:
352,301,504550,1,8,3:2:0:0:
282,48,504724,5,8,3:2:0:0:
343,315,504897,1,8,3:2:0:0:
101,151,505071,5,4,3:2:0:0:
417,374,505244,1,8,0:0:0:0:
439,333,505331,1,8,0:0:0:0:
439,287,505417,1,8,3:2:0:0:
418,246,505504,1,8,0:0:0:0:
380,220,505591,1,8,0:0:0:0:
334,215,505678,1,8,0:0:0:0:
291,232,505764,5,14,0:1:0:0:
439,153,505938,1,2,0:0:0:0:
248,55,506111,5,10,0:0:0:0:
430,153,506285,1,2,3:2:0:0:
204,329,506458,6,0,B|164:288|164:288|183:163,1,165.749992412568,10|0,0:0|0:0,0:0:0:0:
189,121,506805,1,10,0:0:0:0:
342,337,506978,6,0,P|395:359|453:380,1,110.499994941712,2|8,3:2|0:0,0:0:0:0:
270,137,507325,1,2,0:0:0:0:
363,249,507498,1,10,0:0:0:0:
508,36,507672,2,0,P|498:104|489:177,1,110.499994941712,2|8,3:2|0:0,0:0:0:0:
473,291,508019,5,2,3:2:0:0:
370,147,508192,1,10,0:0:0:0:
237,337,508365,1,2,3:2:0:0:
90,181,508539,5,14,0:0:0:0:
225,215,508712,1,2,0:0:0:0:
18,225,508886,5,10,0:0:0:0:
302,197,509059,1,2,3:2:0:0:
25,0,509233,6,0,P|35:52|46:110,1,110.499994941712,10|0,0:0|0:0,0:0:0:0:
98,324,509579,1,10,0:0:0:0:
305,189,509753,6,0,P|354:180|420:170,1,110.499994941712,2|8,3:2|0:0,0:0:0:0:
127,241,510100,2,0,P|75:231|16:222,1,110.499994941712,2|8,3:2|0:0,0:0:0:0:
370,330,510446,2,0,P|425:319|523:300,1,110.499994941712,2|8,3:2|0:0,0:0:0:0:
403,170,510793,1,2,3:2:0:0:
296,372,510967,5,8,0:0:0:0:
189,128,511140,1,8,3:2:0:0:
196,160,511227,1,8,0:0:0:0:
203,192,511313,5,14,0:0:0:0:
174,49,511487,1,2,0:0:0:0:
309,226,511660,5,10,0:0:0:0:
388,23,511834,1,2,3:2:0:0:
212,295,512007,6,0,P|164:271|97:241,1,110.499994941712,10|0,0:0|0:0,0:0:0:0:
294,139,512354,1,10,0:0:0:0:
473,332,512527,6,0,P|508:292|498:210,1,110.499994941712,2|8,3:2|0:0,0:0:0:0:
291,124,512874,1,2,3:2:0:0:
427,262,513048,1,10,0:0:0:0:
512,10,513221,6,0,B|466:17|429:24|429:24|394:-9|394:-9|344:0|278:7,1,220.999989883423,2|0,3:2|3:0,0:0:0:0:
73,37,513741,1,10,0:0:0:0:
73,37,513828,1,8,0:0:0:0:
73,37,513915,1,2,3:2:0:0:
324,340,514088,5,14,3:2:0:0:
324,340,514435,2,0,P|332:305|351:223,1,110.499994941712,8|0,0:0|0:0,0:0:0:0:
103,315,514782,5,10,0:0:0:0:
349,233,514955,1,0,3:0:0:0:
6,188,515128,5,8,0:0:0:0:
262,261,515302,1,0,3:0:0:0:
23,383,515475,6,0,P|14:345|-5:253,1,110.499994941712,10|0,0:0|0:0,0:0:0:0:
284,78,515822,2,0,P|290:139|241:194,1,110.499994941712,8|0,0:0|0:0,0:0:0:0:
108,66,516169,5,10,0:0:0:0:
308,0,516342,1,0,3:0:0:0:
5,17,516516,5,8,0:0:0:0:
214,118,516689,1,0,3:0:0:0:
29,262,516863,6,0,P|39:218|56:133,1,110.499994941712,14|0,0:0|0:0,0:0:0:0:
308,0,517209,2,0,P|319:55|331:108,1,110.499994941712,8|0,0:0|0:0,0:0:0:0:
394,374,517556,5,10,0:0:0:0:
456,189,517730,1,0,3:0:0:0:
208,282,517903,5,8,0:0:0:0:
451,176,518076,1,0,3:0:0:0:
219,29,518250,6,0,P|210:91|202:149,1,110.499994941712,10|0,0:0|0:0,0:0:0:0:
166,384,518597,1,8,0:0:0:0:
455,286,518770,1,8,0:0:0:0:
398,308,518857,1,8,0:0:0:0:
338,299,518943,1,10,0:0:0:0:
285,267,519030,1,8,0:0:0:0:
254,214,519117,1,8,3:2:0:0:
219,164,519204,1,8,0:0:0:0:
163,141,519290,1,8,0:0:0:0:
102,148,519377,1,8,0:0:0:0:
56,188,519464,2,0,P|63:217|70:247,1,55.2499974708558,10|2,3:2|0:0,0:0:0:0:
164,229,519637,6,0,P|158:254|152:279,2,50.9999984436036,2|2|2,0:0|0:0|0:0,0:0:0:0:
51,182,520157,2,0,P|59:207|65:231,2,50.9999984436036,2|2|2,0:0|0:0|0:0,0:0:0:0:
169,234,520678,2,0,P|162:258|156:283,2,50.9999984436036,2|2|2,0:0|0:0|0:0,0:0:0:0:
93,104,521198,5,8,3:2:0:0:
111,47,521285,1,8,3:2:0:0:
165,23,521371,1,8,3:3:0:0:
219,31,521458,1,8,3:3:0:0:
256,69,521545,1,4,3:3:0:0:
259,110,521631,1,4,3:3:0:0:
250,129,521718,6,0,B|208:160|201:205|201:205|204:159|172:109,1,191.250007295609,6|0,3:2|0:0,0:0:0:0:
355,94,522065,6,0,B|419:127|484:154|484:154|445:156|405:185,1,216.750004134178,6|0,3:2|0:0,0:0:0:0:
311,335,522412,6,0,B|336:272|318:214|318:214|363:296|369:387|369:387|387:356|425:348,1,356.999989105225,6|0,3:1|0:0,0:0:0:0:
448,202,523799,6,0,B|497:172|536:229|507:281|441:283|390:220|473:93,1,297.5,6|0,0:0|0:0,0:0:0:0:
173,203,525186,6,0,P|164:312|216:217,1,297.5,6|0,0:0|0:0,0:0:0:0:
66,45,526574,6,0,B|49:35|50:-3|111:-15|136:35|112:87,1,148.75,6|0,0:0|0:0,0:0:0:0:
102,89,527267,2,0,P|91:119|90:152,1,63.75,2|0,0:0|0:0,0:0:0:0:
94,158,527614,2,0,P|122:139|164:127,1,63.75,2|0,0:0|0:0,0:0:0:0:
266,87,527961,6,0,P|259:256|253:388,1,297.5,6|0,3:2|0:0,0:0:0:0:
152,293,529348,6,0,P|146:253|136:197,1,85,6|0,0:0|0:0,0:0:0:0:
44,268,529868,1,0,3:0:0:0:
44,268,529955,1,0,3:0:0:0:
44,268,530042,1,12,0:0:0:0:
44,268,530562,1,0,3:0:0:0:
228,106,530735,5,12,3:2:0:0:
207,35,530851,5,8,0:0:0:0:
145,0,530967,5,8,0:0:0:0:
76,18,531082,5,8,0:0:0:0:
40,82,531198,5,8,0:0:0:0:
59,152,531313,5,8,0:0:0:0:
123,187,531429,5,8,0:3:0:0:
153,185,531544,5,8,0:3:0:0:
167,159,531660,5,8,0:3:0:0:
152,133,531776,5,4,0:3:0:0:
123,134,531891,5,4,0:3:0:0:
108,161,532007,5,4,0:3:0:0:
123,187,532123,6,0,P|135:264|144:327,1,140.25000428009,6|0,3:2|0:0,0:0:0:0:
153,384,532470,1,10,0:0:0:0:
0,91,532643,6,0,B|87:86|51:17|160:15,1,165.749992412568,6|0,3:2|0:0,0:0:0:0:
218,63,532990,1,8,0:0:0:0:
256,93,533076,1,8,0:0:0:0:
311,102,533163,1,8,3:2:0:0:
358,74,533250,1,8,0:0:0:0:
404,32,533337,1,8,0:0:0:0:
468,28,533423,1,8,0:0:0:0:
512,76,533510,6,0,P|507:105|504:125,1,38.2499988327027,4|0,3:2|0:0,0:0:0:0:
494,280,533857,6,0,B|436:288|404:241|423:232|396:186|316:205,1,204,12|0,0:1|0:0,0:0:0:0:
273,223,534204,5,2,3:2:0:0:
346,358,534377,1,2,3:2:0:0:
507,177,534550,2,0,P|496:233|487:286,1,110.499994941712,8|0,0:0|0:0,0:0:0:0:
336,111,534897,5,2,3:2:0:0:
189,315,535071,2,0,P|142:289|62:248,2,110.499994941712,2|8|0,0:0|0:0|0:0,0:0:0:0:
401,186,535591,1,2,3:2:0:0:
244,126,535764,1,2,3:2:0:0:
408,285,535938,2,0,P|456:272|495:211,1,110.499994941712,8|0,0:0|0:0,0:0:0:0:
349,83,536285,5,2,3:2:0:0:
130,229,536458,2,0,B|174:221|216:212|216:212|252:255|252:255|293:247|338:240,1,220.999989883423,2|0,0:0|0:0,0:0:0:0:
238,114,536978,1,2,3:2:0:0:
67,315,537152,2,0,B|18:262|18:262|31:205|55:90,1,220.999989883423,2|0,3:2|0:0,0:0:0:0:
238,114,537672,6,0,P|257:166|234:223,1,110.499994941712,2|0,3:2|0:0,0:0:0:0:
121,63,538019,2,0,P|164:48|235:25,1,110.499994941712,8|0,0:0|0:0,0:0:0:0:
6,6,538365,1,2,3:2:0:0:
6,6,538539,1,0,3:0:0:0:
126,147,538712,1,10,0:0:0:0:
354,3,538886,1,8,0:0:0:0:
354,3,538972,1,8,0:0:0:0:
354,3,539059,5,6,3:2:0:0:
282,120,539233,1,2,0:0:0:0:
87,22,539406,2,0,B|137:12|200:-1|200:-1|181:28|160:61,1,165.749992412568,10|0,0:0|0:0,0:0:0:0:
126,147,539753,2,0,P|118:209|110:279,1,110.499994941712,0|0,3:0|3:0,0:0:0:0:
275,102,540100,1,8,0:0:0:0:
37,186,540273,1,2,0:0:0:0:
215,378,540446,6,0,B|304:355|249:297|356:277,1,165.749992412568,2|0,3:2|0:0,0:0:0:0:
394,273,540793,1,10,0:0:0:0:
151,143,540967,2,0,P|115:130|17:92,1,110.499994941712,2|0,0:0|3:0,0:0:0:0:
193,279,541313,1,2,3:2:0:0:
306,86,541487,1,10,0:0:0:0:
426,197,541660,1,2,0:0:0:0:
176,362,541834,6,0,P|116:324|119:251,1,110.499994941712,2|0,3:2|0:0,0:0:0:0:
343,164,542180,2,0,P|327:225|317:279,1,110.499994941712,10|0,0:0|0:0,0:0:0:0:
153,165,542527,2,0,P|100:143|41:120,1,110.499994941712,2|0,3:2|3:0,0:0:0:0:
328,52,542874,2,0,P|371:35|458:6,1,110.499994941712,10|0,0:0|0:0,0:0:0:0:
150,43,543221,5,6,3:2:0:0:
244,187,543394,1,2,0:0:0:0:
431,14,543568,1,10,0:0:0:0:
143,185,543741,6,0,B|88:176|30:116|30:116|62:164|74:205,1,204,6|0,3:2|0:0,0:0:0:0:
83,256,544088,1,8,0:0:0:0:
70,315,544175,1,8,0:0:0:0:
24,354,544261,1,4,3:3:0:0:
39,359,544348,1,4,0:3:0:0:
54,364,544435,1,4,0:3:0:0:
69,369,544522,1,4,0:3:0:0:
84,374,544608,6,0,B|121:364|158:355|158:355|177:309|177:309|215:300|286:284,1,191.250007295609,6|0,3:1|0:0,0:0:0:0:
321,278,544955,1,10,0:0:0:0:
83,132,545128,6,0,B|54:117|20:92|20:92|54:150|78:221,1,165.749992412568,6|0,3:2|0:0,0:0:0:0:
88,249,545475,1,2,3:2:0:0:
213,148,545649,1,10,0:0:0:0:
296,352,545822,1,2,0:0:0:0:
465,106,545996,6,0,B|458:151|453:183|453:183|477:220|477:220|471:270|466:306,1,191.250007295609,4|0,3:1|0:0,0:0:0:0:
454,366,546342,1,10,0:0:0:0:
213,148,546516,6,0,B|240:130|269:85|269:85|280:136|305:178,1,165.749992412568,6|0,3:2|0:0,0:0:0:0:
338,231,546863,1,2,3:2:0:0:
473,4,547036,2,0,P|461:71|452:131,1,110.499994941712,10|0,0:0|0:0,0:0:0:0:
200,322,547383,6,0,P|207:348|214:375,1,55.2499974708558,6|0,3:2|0:0,0:0:0:0:
460,202,547730,6,0,B|474:185|503:193|503:193|443:165|412:207|425:216|392:250|331:235,1,229.499992996216,14|0,0:1|0:0,0:0:0:0:
287,213,548076,5,2,3:2:0:0:
459,291,548250,1,2,3:2:0:0:
370,47,548423,2,0,P|361:111|353:169,1,110.499994941712,10|0,0:0|0:0,0:0:0:0:
121,69,548770,6,0,P|180:76|214:135,1,110.499994941712,2|0,3:2|0:0,0:0:0:0:
28,308,549117,2,0,P|19:272|-2:195,1,110.499994941712,8|0,0:0|0:0,0:0:0:0:
219,207,549464,1,0,3:0:0:0:
109,365,549637,1,2,3:2:0:0:
233,198,549811,1,8,0:0:0:0:
0,109,549984,1,10,0:0:0:0:
286,277,550157,6,0,P|322:230|256:105,1,191.250007295609,6|0,3:2|0:0,0:0:0:0:
204,100,550504,1,10,0:0:0:0:
16,321,550678,6,0,B|45:329|80:335|80:335|96:370|96:370|137:379|189:392,1,165.749992412568,6|0,3:1|0:0,0:0:0:0:
231,341,551024,1,2,3:2:0:0:
88,190,551198,1,10,0:0:0:0:
151,302,551371,1,2,0:0:0:0:
351,115,551545,6,0,P|333:223|319:334,1,191.250007295609,4|0,3:2|0:0,0:0:0:0:
312,381,551891,1,10,0:0:0:0:
471,170,552065,6,0,B|488:137|519:108|519:108|475:135|412:163,1,165.749992412568,6|0,3:1|0:0,0:0:0:0:
376,190,552412,1,2,3:2:0:0:
191,21,552585,2,0,P|203:84|214:136,1,110.499994941712,10|0,0:0|0:0,0:0:0:0:
113,348,552932,6,0,P|117:328|124:301,1,38.2499988327027,6|0,3:2|0:0,0:0:0:0:
14,197,553279,6,0,B|55:190|96:185|96:185|129:223|129:223|171:218|224:212,1,204,14|0,0:0|0:0,0:0:0:0:
278,200,553626,5,2,3:2:0:0:
120,343,553799,1,2,3:2:0:0:
0,83,553972,2,0,P|11:139|22:207,1,110.499994941712,10|0,0:0|0:0,0:0:0:0:
190,28,554319,5,6,3:2:0:0:
251,279,554493,1,8,0:0:0:0:
251,279,554579,1,8,0:0:0:0:
251,279,554666,2,0,P|221:266|182:252,1,55.2499974708558,0|0,3:0|0:0,0:0:0:0:
218,121,554839,1,8,0:0:0:0:
279,95,554926,1,8,0:0:0:0:
342,113,555013,1,8,3:2:0:0:
383,164,555100,1,8,0:0:0:0:
391,212,555186,1,10,0:0:0:0:
421,244,555273,1,8,0:3:0:0:
459,248,555360,1,8,0:3:0:0:
494,233,555446,1,8,0:3:0:0:
507,208,555533,1,6,0:3:0:0:
508,191,555620,1,4,0:3:0:0:
504,175,555706,6,0,P|494:231|482:329,1,110.499994941712,14|0,3:1|0:0,0:0:0:0:
343,33,556053,1,10,0:0:0:0:
467,100,556227,1,2,0:0:0:0:
219,66,556400,5,10,0:0:0:0:
434,92,556574,1,2,3:2:0:0:
135,210,556747,5,10,0:0:0:0:
365,130,556920,1,2,3:2:0:0:
104,23,557094,5,10,0:0:0:0:
104,23,557180,1,2,0:0:0:0:
104,23,557267,1,2,0:0:0:0:
188,280,557441,1,10,0:0:0:0:
20,245,557614,1,0,0:0:0:0:
253,134,557787,5,10,0:0:0:0:
95,312,557961,1,2,3:2:0:0:
12,104,558134,5,10,0:0:0:0:
93,324,558308,1,2,3:2:0:0:
242,109,558481,5,14,0:0:0:0:
138,185,558654,1,0,0:0:0:0:
372,119,558828,5,10,0:0:0:0:
238,94,559001,1,2,0:0:0:0:
456,238,559175,5,10,0:0:0:0:
380,103,559348,1,2,3:2:0:0:
391,384,559522,5,10,0:0:0:0:
472,235,559695,1,2,3:2:0:0:
227,382,559868,5,10,0:0:0:0:
227,382,559955,1,2,0:0:0:0:
227,382,560042,1,2,0:0:0:0:
372,119,560215,1,10,0:0:0:0:
317,283,560389,1,0,0:0:0:0:
109,68,560562,5,10,0:0:0:0:
0,286,560735,1,10,3:2:0:0:
45,326,560822,1,8,0:0:0:0:
105,333,560909,1,10,0:0:0:0:
159,305,560996,1,8,0:0:0:0:
191,254,561082,1,8,3:2:0:0:
192,193,561169,1,8,0:0:0:0:
156,143,561256,5,14,0:0:0:0:
97,250,561429,1,0,0:0:0:0:
160,124,561602,5,10,0:0:0:0:
238,325,561776,1,2,0:0:0:0:
12,188,561949,5,10,0:0:0:0:
263,89,562123,1,2,3:2:0:0:
0,186,562296,5,10,0:0:0:0:
238,325,562470,1,2,3:2:0:0:
362,121,562643,5,10,0:0:0:0:
362,121,562730,1,2,0:0:0:0:
362,121,562816,1,2,0:0:0:0:
164,232,562990,1,10,0:0:0:0:
292,174,563163,1,0,0:0:0:0:
115,70,563337,5,10,0:0:0:0:
172,221,563510,1,2,3:2:0:0:
378,24,563683,5,10,0:0:0:0:
332,270,563857,1,2,3:2:0:0:
332,270,563943,1,0,0:0:0:0:
332,270,564030,5,14,0:0:0:0:
444,122,564204,1,2,0:0:0:0:
247,82,564377,5,10,0:0:0:0:
330,284,564550,1,2,0:0:0:0:
444,122,564724,5,10,0:0:0:0:
223,161,564897,1,2,3:2:0:0:
511,178,565071,5,10,0:0:0:0:
164,101,565244,1,2,3:2:0:0:
492,49,565417,5,10,0:0:0:0:
492,49,565504,1,2,0:0:0:0:
492,49,565591,1,2,0:0:0:0:
196,239,565764,1,10,0:0:0:0:
412,311,565938,1,2,0:0:0:0:
112,378,566111,5,10,0:0:0:0:
397,302,566285,1,2,3:2:0:0:
137,177,566458,1,10,0:0:0:0:
137,177,566545,1,8,0:3:0:0:
137,177,566631,1,0,3:0:0:0:
337,362,566805,5,14,3:2:0:0:
256,112,566978,1,10,0:0:0:0:
256,112,567065,1,8,0:0:0:0:
256,112,567152,2,0,L|256:180,1,55.2499974708558,10|0,0:0|0:0,0:0:0:0:
256,292,567325,1,2,3:2:0:0:
124,84,567498,6,0,P|133:56|142:17,1,55.2499974708558,10|8,0:0|0:0,0:0:0:0:
388,84,567672,2,0,P|379:56|370:17,1,55.2499974708558,10|0,0:0|0:0,0:0:0:0:
132,380,567845,1,10,0:0:0:0:
380,380,568019,1,6,0:3:0:0:
92,136,568192,6,0,B|36:187|-12:208|-12:208|16:204|32:212|32:212|56:192|92:184|92:184|136:204|180:248|180:248|192:228|220:216|220:216|244:252|224:296|224:296|204:336|132:380|132:380|208:348|232:364|232:364|256:352|280:364|280:364|304:348|380:380|380:380|308:336|288:296|288:296|268:252|292:216|292:216|320:228|332:248|332:248|376:204|420:184|420:184|456:192|480:212|480:212|496:204|524:208|524:208|424:160|388:84|388:84|356:148|316:172|316:172|280:148|280:148|260:92|256:12|256:12|252:92|232:148|232:148|196:172|196:172|156:148|124:84|124:84|116:103|104:122,1,2176,6|0,3:1|0:0,0:0:0:0:
