osu file format v14

[General]
AudioFilename: audio.mp3
AudioLeadIn: 0
PreviewTime: 28058
Countdown: 0
SampleSet: Soft
StackLeniency: 0.5
Mode: 0
LetterboxInBreaks: 0
WidescreenStoryboard: 0

[Editor]
Bookmarks: 62791,63009
DistanceSpacing: 1
BeatDivisor: 4
GridSize: 32
TimelineZoom: 2.4

[Metadata]
Title:Dare demo Ii kara Tsukiaitai
TitleUnicode:誰でもいいから付き合いたい
Artist:Various Artists
ArtistUnicode:Various Artists
Creator:Alumetri
Version:Shmik's Insane
Source:
Tags:I Don't Care Who Somebody Go Out With Me Nico Chorus Takkyuu Shounen Yumeno Haruka 合唱 爽合唱 ひちま Hachima shmiklak marvollo m_a_r_v_o_l_l_o
BeatmapID:1704367
BeatmapSetID:811914

[Difficulty]
HPDrainRate:5
CircleSize:3.8
OverallDifficulty:8
ApproachRate:9
SliderMultiplier:1.5
SliderTickRate:1

[Events]
//Background and Video events
0,0,"bg.jpg",0,0
Video,0,"video.avi"
//Break Periods
//Storyboard Layer 0 (Background)
//Storyboard Layer 1 (Fail)
//Storyboard Layer 2 (Pass)
//Storyboard Layer 3 (Foreground)
//Storyboard Sound Samples

[TimingPoints]
1262,291.26213592233,4,2,0,75,1,0
1262,-100,4,2,0,75,0,0
2427,-80,4,2,0,75,0,0
9344,-80,4,2,0,5,0,0
9417,-80,4,2,0,75,0,0
11747,-100,4,2,0,50,0,0
13422,-100,4,2,0,50,0,0
13495,-100,4,2,0,50,0,0
28058,-100,4,2,0,60,0,0
30388,-76.9230769230769,4,2,0,75,0,0
37305,-76.9230769230769,4,2,0,5,0,0
37378,-76.9230769230769,4,2,0,75,0,0
39635,-76.9230769230769,4,2,0,75,0,0
39708,-76.9230769230769,4,2,0,100,0,0
46698,-80,4,2,0,75,0,0
49028,-76.9230769230769,4,2,0,100,0,0
55946,-76.9230769230769,4,2,0,5,0,0
56019,-76.9230769230769,4,2,0,100,0,0
59951,-76.9230769230769,4,2,0,75,0,0
60024,-76.9230769230769,4,2,0,5,0,0
62718,-100,4,2,0,5,0,0
62936,-76.9230769230769,4,2,0,35,0,0

[Colours]
Combo1 : 192,192,192
Combo2 : 255,255,128
Combo3 : 181,0,0
Combo4 : 85,251,155

[HitObjects]
16,211,1262,6,0,P|61:157|126:182,2,150,4|4|4,0:0|0:0|0:0,0:0:0:0:
138,286,2135,5,2,0:0:0:0:
175,280,2208,1,2,0:0:0:0:
212,274,2280,1,2,0:0:0:0:
249,268,2353,1,2,0:0:0:0:
282,262,2427,6,0,L|270:374,1,93.75,4|0,0:0|0:0,0:0:0:0:
440,293,2718,2,0,L|430:199,1,93.75,0|0,1:0|0:0,0:0:0:0:
271,115,3009,2,0,B|152:144|206:80|83:115,1,187.5,2|0,0:3|1:0,0:0:0:0:
223,18,3446,1,2,0:0:0:0:
141,212,3592,5,0,0:0:0:0:
118,26,3737,1,8,0:3:0:0:
297,124,3883,2,0,P|289:170|243:207,1,93.75,0|0,1:0|0:0,0:0:0:0:
79,257,4174,1,4,0:3:0:0:
251,283,4320,1,0,0:0:0:0:
87,147,4465,2,0,L|97:251,1,93.75,0|0,1:0|0:0,0:0:0:0:
301,348,4757,6,0,P|344:340|394:349,1,93.75,4|0,0:3|0:0,0:0:0:0:
512,270,5048,2,0,P|466:278|420:270,1,93.75,0|0,1:0|0:0,0:0:0:0:
292,147,5339,2,0,B|408:182|351:112|478:147,1,187.5,2|0,0:3|1:0,0:0:0:0:
338,56,5776,1,2,0:0:0:0:
425,251,5922,5,0,0:0:0:0:
457,54,6067,1,8,0:3:0:0:
274,152,6213,2,0,P|201:146|181:135,1,93.75,0|0,1:0|0:0,0:0:0:0:
323,273,6504,2,0,P|401:261|447:263,1,93.75,4|0,0:3|0:0,0:0:0:0:
207,352,6795,2,0,L|223:240,1,93.75,0|0,1:0|0:0,0:0:0:0:
126,82,7087,6,0,P|83:99|24:88,1,93.75,4|0,0:3|0:0,0:0:0:0:
189,151,7378,2,0,P|235:145|278:162,1,93.75,0|0,1:0|0:0,0:0:0:0:
104,359,7669,2,0,P|117:169|117:163,1,187.5,2|0,0:3|1:0,0:0:0:0:
89,17,8106,1,2,0:0:0:0:
32,213,8252,5,0,0:0:0:0:
177,114,8397,1,8,0:3:0:0:
254,313,8543,2,0,L|156:304,1,93.75,0|0,1:0|0:0,0:0:0:0:
295,177,8834,2,0,L|388:168,1,93.75,4|0,0:3|0:0,0:0:0:0:
208,27,9126,2,0,P|181:79|176:116,1,93.75,0|0,1:0|0:0,0:0:0:0:
281,328,9417,5,0,1:0:0:0:
345,100,9562,2,0,P|346:62|314:83,1,93.75,0|0,1:0|0:0,0:0:0:0:
258,339,9999,5,0,1:0:0:0:
381,135,10145,2,0,P|389:97|353:111,1,93.75,0|0,1:0|0:0,0:0:0:0:
281,328,10582,5,4,0:3:0:0:
88,191,10728,2,0,L|105:86,1,93.75,0|0,1:0|0:0,0:0:0:0:
258,339,11019,5,0,1:0:0:0:
64,212,11164,2,0,L|81:107,1,93.75,8|0,0:3|0:0,0:0:0:0:
320,104,11456,2,0,L|334:196,1,93.75,8|0,0:3|0:0,0:0:0:0:
208,48,11747,6,0,P|164:40|120:40,1,75,2|0,0:0|0:0,0:0:0:0:
0,148,12038,1,0,1:0:0:0:
140,224,12184,1,0,0:0:0:0:
4,320,12329,2,0,L|12:156,1,150,8|0,0:3|1:0,0:0:0:0:
120,52,12766,2,0,L|124:148,1,75,2|0,0:0|0:0,0:0:0:0:
256,236,13058,5,8,0:3:0:0:
371,138,13203,2,0,L|278:133,1,75,0|0,1:0|0:0,0:0:0:0:
120,52,13495,2,0,L|127:228,1,150,8|0,0:3|1:0,0:0:0:0:
352,344,14077,6,0,L|344:260,1,75,4|0,0:3|0:0,0:0:0:0:
412,152,14368,2,0,L|419:77,1,75,0|0,1:0|0:0,0:0:0:0:
480,236,14660,1,8,0:3:0:0:
320,180,14805,1,0,0:0:0:0:
436,344,14951,1,0,1:0:0:0:
412,152,15096,1,0,0:0:0:0:
272,296,15242,6,0,P|232:296|176:284,1,75,2|8,0:0|0:3,0:0:0:0:
60,208,15533,2,0,P|97:208|134:202,1,75,0|2,1:0|0:0,0:0:0:0:
288,104,15825,1,8,0:3:0:0:
112,104,15970,1,0,0:0:0:0:
292,200,16116,2,0,P|332:192|380:192,1,75,0|0,1:0|0:0,0:0:0:0:
200,344,16407,6,0,L|204:260,1,75,4|2,0:3|0:0,0:0:0:0:
96,176,16698,2,0,L|92:101,1,75,0|0,1:0|0:0,0:0:0:0:
244,24,16990,1,4,0:3:0:0:
176,160,17135,1,2,0:0:0:0:
360,100,17281,2,0,L|280:96,1,75,0|0,1:0|0:0,0:0:0:0:
460,184,17572,5,2,0:0:0:0:
412,28,17718,1,8,0:3:0:0:
332,200,17863,2,0,P|333:233|340:288,1,75,0|2,1:0|0:0,0:0:0:0:
212,352,18155,2,0,P|232:288|232:184,1,150,8|0,0:3|1:0,0:0:0:0:
68,36,18737,6,0,P|64:80|60:120,1,75,10|0,0:3|0:0,0:0:0:0:
235,205,19028,2,0,P|231:167|227:130,1,75,0|2,1:0|0:0,0:0:0:0:
92,200,19320,2,0,P|88:244|84:284,1,75,8|0,0:3|0:0,0:0:0:0:
259,369,19611,2,0,P|255:331|251:294,1,75,0|0,1:0|0:0,0:0:0:0:
228,104,19902,5,2,0:0:0:0:
360,204,20048,1,8,0:3:0:0:
168,228,20194,2,0,P|130:219|72:212,1,75,0|2,1:0|0:0,0:0:0:0:
240,328,20485,2,0,L|284:320,2,37.5,8|0|0,0:3|0:0|0:0,0:0:0:0:
372,224,20776,2,0,L|416:232,2,37.5,0|0|0,1:0|0:0|0:0,0:0:0:0:
228,32,21067,6,0,L|236:200,1,150,4|0,0:3|1:0,0:0:0:0:
152,72,21504,1,2,0:0:0:0:
312,128,21650,2,0,L|388:120,1,75,8|0,0:3|0:0,0:0:0:0:
148,172,21941,2,0,L|72:164,1,75,0|2,1:0|0:0,0:0:0:0:
252,275,22232,5,4,0:3:0:0:
198,97,22378,1,2,0:0:0:0:
90,262,22524,2,0,L|177:254,1,75,0|2,1:0|0:0,0:0:0:0:
354,345,22815,2,0,P|336:277|338:187,1,150,8|0,0:3|1:0,0:0:0:0:
149,64,23397,5,4,0:3:0:0:
231,191,23543,1,0,0:0:0:0:
324,57,23689,2,0,L|241:66,1,75,0|2,1:0|0:0,0:0:0:0:
411,145,23980,1,8,0:3:0:0:
406,9,24126,1,0,0:0:0:0:
321,147,24271,2,0,P|322:186|331:249,1,75,0|2,1:0|0:0,0:0:0:0:
433,358,24562,5,4,0:3:0:0:
262,315,24708,1,0,0:0:0:0:
442,273,24854,2,0,L|447:371,1,75,0|2,1:0|0:0,0:0:0:0:
248,298,25145,2,0,L|235:132,1,150,8|0,0:3|1:0,0:0:0:0:
445,48,25728,6,0,L|441:139,1,75,4|0,0:3|0:0,0:0:0:0:
346,232,26019,2,0,L|342:157,1,75,0|0,1:0|0:0,0:0:0:0:
433,279,26310,2,0,P|399:321|301:324,1,150,8|0,0:3|1:0,0:0:0:0:
183,277,26747,1,0,0:0:0:0:
286,133,26893,6,0,P|278:94|259:49,1,75,4|2,0:3|0:0,0:0:0:0:
180,194,27184,1,0,1:0:0:0:
284,317,27329,2,0,B|428:354|363:282|515:317,1,225,0|0,0:0|1:0,0:0:0:0:
219,82,28058,6,0,L|139:86,1,75,4|0,0:3|0:0,0:0:0:0:
36,183,28349,2,0,L|116:187,1,75,0|2,1:0|0:0,0:0:0:0:
254,59,28640,2,0,L|174:63,1,75,8|0,0:3|0:0,0:0:0:0:
71,160,28931,2,0,L|151:164,1,75,0|2,1:0|0:0,0:0:0:0:
30,321,29223,6,0,P|96:261|255:295,1,262.5,2|0,3:0|0:0,0:0:0:0:
284,323,29805,2,0,L|331:313,7,37.5,4|2|4|2|8|2|8|2,3:0|0:0|0:3|0:0|0:3|0:0|0:3|0:0,0:0:0:0:
361,300,30388,6,0,P|357:241|349:189,1,97.4999955368044,4|0,0:0|0:0,0:0:0:0:
460,61,30679,2,0,P|453:109|450:157,1,97.4999955368044,0|0,1:0|0:0,0:0:0:0:
340,49,30970,2,0,B|224:83|266:12|128:56,1,194.999991073609,2|0,0:3|1:0,0:0:0:0:
41,132,31407,1,2,0:0:0:0:
200,156,31553,5,2,0:0:0:0:
49,46,31698,1,8,0:3:0:0:
15,226,31844,2,0,P|71:215|124:213,1,97.4999955368044,0|0,1:0|0:0,0:0:0:0:
306,188,32135,1,4,0:3:0:0:
190,329,32281,1,0,0:0:0:0:
144,124,32426,2,0,L|129:240,1,97.4999955368044,0|0,1:0|0:0,0:0:0:0:
248,76,32718,6,0,P|293:84|345:74,1,97.4999955368044,4|0,0:3|0:0,0:0:0:0:
469,157,33009,2,0,P|420:148|372:157,1,97.4999955368044,0|0,1:0|0:0,0:0:0:0:
233,299,33300,2,0,B|112:332|174:264|39:300,1,194.999991073609,2|0,0:3|1:0,0:0:0:0:
187,208,33737,1,2,0:0:0:0:
95,379,33883,5,2,0:0:0:0:
64,189,34028,1,8,0:3:0:0:
233,299,34174,2,0,P|316:289|332:285,1,97.4999955368044,0|0,1:0|0:0,0:0:0:0:
106,359,34465,2,0,P|58:349|9:345,1,97.4999955368044,4|0,0:3|0:0,0:0:0:0:
164,188,34756,2,0,L|148:309,1,97.4999955368044,0|0,1:0|0:0,0:0:0:0:
275,108,35048,6,0,P|324:106|382:80,1,97.4999955368044,4|0,3:0|0:0,0:0:0:0:
163,172,35339,2,0,P|117:154|69:152,1,97.4999955368044,0|0,1:0|0:0,0:0:0:0:
286,271,35630,2,0,P|476:258|486:258,1,194.999991073609,2|0,0:3|1:0,0:0:0:0:
355,351,36067,1,2,0:0:0:0:
419,172,36213,5,2,0:0:0:0:
463,336,36358,1,8,0:3:0:0:
285,243,36504,2,0,L|295:138,1,97.4999955368044,0|0,1:0|0:0,0:0:0:0:
406,59,36795,2,0,L|415:156,1,97.4999955368044,4|0,0:3|0:0,0:0:0:0:
182,130,37087,2,0,L|192:25,1,97.4999955368044,0|0,1:0|0:0,0:0:0:0:
313,218,37378,5,0,1:0:0:0:
38,242,37524,2,0,B|-3:234|-3:234|0:207|0:207|28:206,1,97.4999955368044,0|0,1:0|0:0,0:0:0:0:
318,231,37961,5,0,1:0:0:0:
42,255,38107,2,0,B|2:247|2:247|4:220|4:220|33:219,1,97.4999955368044,0|0,1:0|0:0,0:0:0:0:
332,255,38543,6,0,L|336:153,1,97.4999955368044,0|0,1:0|1:0,0:0:0:0:
68,40,38834,2,0,L|71:137,1,97.4999955368044,8|0,0:3|0:0,0:0:0:0:
414,291,39126,2,0,L|418:189,1,97.4999955368044,8|0,0:3|0:0,0:0:0:0:
150,76,39417,2,0,L|153:173,1,97.4999955368044,8|0,0:3|0:0,0:0:0:0:
407,41,39708,5,4,1:0:0:0:
269,178,39999,1,0,1:0:0:0:
420,304,40291,1,0,1:0:0:0:
340,128,40582,1,0,1:0:0:0:
340,128,40728,1,2,0:0:0:0:
340,128,40873,5,4,1:0:0:0:
192,256,41164,1,0,1:0:0:0:
80,96,41456,1,0,1:0:0:0:
248,192,41747,1,0,1:0:0:0:
248,192,41893,1,2,0:0:0:0:
248,192,42038,5,4,1:0:0:0:
84,296,42329,1,0,1:0:0:0:
188,128,42621,1,0,1:0:0:0:
284,296,42912,1,0,1:0:0:0:
284,296,43058,1,2,0:0:0:0:
284,296,43203,5,4,1:0:0:0:
100,232,43495,1,0,1:0:0:0:
288,184,43786,1,0,1:0:0:0:
152,324,44077,1,0,1:0:0:0:
152,324,44223,1,2,0:0:0:0:
152,324,44368,5,4,1:0:0:0:
24,176,44660,1,0,1:0:0:0:
152,32,44951,1,0,1:0:0:0:
272,188,45242,1,0,1:0:0:0:
272,188,45388,1,2,0:0:0:0:
272,188,45533,5,4,1:0:0:0:
88,124,45825,1,0,1:0:0:0:
276,72,46116,1,0,1:0:0:0:
148,220,46407,1,0,1:0:0:0:
148,220,46553,1,2,0:0:0:0:
148,220,46698,5,4,1:0:0:0:
381,280,46844,1,0,1:0:0:0:
217,71,47281,5,0,1:0:0:0:
244,326,47427,1,0,1:0:0:0:
350,59,47863,5,0,1:0:0:0:
130,140,48009,1,0,1:0:0:0:
286,6,48300,5,0,1:0:0:0:
234,242,48446,2,0,L|227:308,7,46.875,0|0|0|0|0|0|0|0,1:0|0:0|1:0|0:0|1:0|0:0|1:0|0:0,0:0:0:0:
172,361,49028,6,0,L|72:351,1,97.4999955368044,4|0,0:0|0:0,0:0:0:0:
299,324,49320,2,0,L|399:314,1,97.4999955368044,0|0,1:0|0:0,0:0:0:0:
494,180,49611,2,0,P|424:197|305:153,1,194.999991073609,8|2,0:3|1:3,0:0:0:0:
207,63,50047,1,2,0:0:0:0:
337,70,50193,5,4,0:3:0:0:
181,152,50338,1,0,0:0:0:0:
332,270,50485,2,0,L|323:165,1,97.4999955368044,0|0,1:0|0:0,0:0:0:0:
192,42,50775,1,4,0:3:0:0:
347,86,50921,1,0,0:0:0:0:
169,168,51067,2,0,L|179:54,1,97.4999955368044,0|0,1:0|0:0,0:0:0:0:
96,198,51359,6,0,P|50:206|-10:192,1,97.4999955368044,4|0,0:3|0:0,0:0:0:0:
124,277,51650,2,0,P|169:269|225:275,1,97.4999955368044,0|0,1:0|0:0,0:0:0:0:
387,360,51940,2,0,B|271:325|328:395|195:357,1,194.999991073609,8|2,0:3|1:3,0:0:0:0:
329,261,52377,1,2,0:0:0:0:
227,163,52523,5,4,0:3:0:0:
191,350,52668,1,0,0:0:0:0:
350,224,52815,2,0,L|333:127,1,97.4999955368044,0|0,1:0|0:0,0:0:0:0:
478,240,53106,2,0,P|461:291|420:334,1,97.4999955368044,4|0,0:3|0:0,0:0:0:0:
244,230,53397,2,0,L|355:241,1,97.4999955368044,0|0,1:0|0:0,0:0:0:0:
142,65,53689,6,0,P|157:114|161:163,1,97.4999955368044,4|0,0:3|0:0,0:0:0:0:
234,347,53980,2,0,P|238:298|253:252,1,97.4999955368044,0|0,1:0|0:0,0:0:0:0:
354,134,54271,2,0,P|162:159|145:160,1,194.999991073609,8|2,0:3|1:3,0:0:0:0:
33,138,54707,1,2,0:0:0:0:
211,233,54853,5,4,0:3:0:0:
104,92,54998,1,0,0:0:0:0:
64,222,55145,2,0,L|77:326,1,97.4999955368044,0|2,1:0|0:0,0:0:0:0:
222,348,55436,2,0,L|234:251,1,97.4999955368044,4|2,0:3|0:0,0:0:0:0:
407,142,55728,2,0,L|419:238,1,97.4999955368044,0|0,1:0|0:0,0:0:0:0:
259,114,56019,5,0,1:0:0:0:
509,146,56164,1,0,1:0:0:0:
255,135,56601,5,0,1:0:0:0:
505,103,56746,1,0,1:0:0:0:
263,353,57184,5,0,1:0:0:0:
286,84,57329,1,0,1:0:0:0:
112,248,57621,5,0,1:0:0:0:
374,172,57766,2,0,L|425:157,7,48.7499977684022,0|2|0|2|0|2|0|2,1:0|0:0|1:0|0:0|1:0|0:0|1:0|0:0,0:0:0:0:
321,258,58349,5,0,1:0:0:0:
202,36,58495,1,0,1:0:0:0:
222,337,58931,5,0,1:0:0:0:
291,93,59077,1,0,1:0:0:0:
48,308,59660,5,0,1:0:0:0:
173,118,59805,1,0,1:0:0:0:
374,355,59951,1,4,1:2:0:0:
256,192,60096,12,8,62936,3:0:0:0:
