osu file format v14

[General]
AudioFilename: B10.mp3
AudioLeadIn: 0
PreviewTime: 38565
Countdown: 0
SampleSet: None
StackLeniency: 0.7
Mode: 2
LetterboxInBreaks: 0
WidescreenStoryboard: 1

[Editor]
DistanceSpacing: 0.8
BeatDivisor: 4
GridSize: 16
TimelineZoom: 2.799999

[Metadata]
Title:Dan ~ CTB ~ BossMap Pack
TitleUnicode:Dan ~ CTB ~ BossMap Pack
Artist:Various Artists
ArtistUnicode:Various Artists
Creator:Emiru
Version:XINOBIKILL ~ 10th ~ (Marathon)
Source:
Tags:
BeatmapID:3372429
BeatmapSetID:697139

[Difficulty]
HPDrainRate:5
CircleSize:4
OverallDifficulty:9.6
ApproachRate:9.6
SliderMultiplier:2.56
SliderTickRate:2

[Events]
//Background and Video events
0,0,"B10.jpg",0,0
//Break Periods
//Storyboard Layer 0 (Background)
//Storyboard Layer 1 (Fail)
//Storyboard Layer 2 (Pass)
//Storyboard Layer 3 (Foreground)
//Storyboard Layer 4 (Overlay)
//Storyboard Sound Samples

[TimingPoints]
974,365.853658536585,4,2,2,40,1,0
5364,-100,4,2,2,70,0,0
6827,-100,4,2,2,60,0,0
23931,-88.8888888888889,4,2,2,60,0,0
24114,-100,4,2,2,60,0,0
38656,-88.4955752212389,4,2,2,60,0,0
39022,-88.4955752212389,4,2,2,80,0,1
50730,-100,4,2,2,60,0,0
51644,-100,4,2,2,60,0,0
52193,-88.4955752212389,4,2,2,60,0,0
53108,-100,4,2,2,60,0,0
53656,-88.4955752212389,4,2,2,60,0,0
58595,-100,4,2,2,60,0,0
64449,-88.4955752212389,4,2,2,60,0,0
93169,-88.4955752212389,4,2,2,80,0,1
93809,-88.4955752212389,4,2,2,80,0,1
94083,-88.4955752212389,4,2,2,80,0,1
95272,-88.4955752212389,4,2,2,80,0,1
95546,-88.4955752212389,4,2,2,80,0,1
96736,-88.4955752212389,4,2,2,80,0,1
97010,-88.4955752212389,4,2,2,80,0,1
99663,-88.4955752212389,4,2,2,80,0,1
99937,-88.4955752212389,4,2,2,80,0,1
101126,-88.4955752212389,4,2,2,80,0,1
101400,-88.4955752212389,4,2,2,80,0,1
102589,-88.4955752212389,4,2,2,80,0,1
102863,-88.4955752212389,4,2,2,80,0,1
104876,-100,4,2,2,60,0,0
105791,-100,4,2,2,60,0,0
108352,-88.4955752212389,4,2,2,60,0,0
110730,-100,4,2,2,60,0,0

[Colours]
Combo1 : 242,111,111
Combo2 : 21,234,154
Combo3 : 192,192,192
Combo4 : 102,232,255

[HitObjects]
128,64,973,5,0,0:0:0:0:
256,48,1156,1,0,0:0:0:0:
384,64,1339,1,0,0:0:0:0:
256,128,1522,2,0,L|176:128,2,64,0|0|0,0:0|0:0|0:0,0:0:0:0:
336,128,1797,1,0,0:0:0:0:
176,32,1888,6,0,P|112:80|224:208,1,256,0|0,0:0|0:0,0:0:0:0:
256,224,2345,1,0,0:0:0:0:
480,64,2437,2,0,L|496:112,3,42.6666666666667,2|0|0|0,0:0|0:0|0:0|0:0,0:0:0:0:
128,256,2803,1,0,0:0:0:0:
384,64,2986,5,0,0:0:0:0:
256,48,3169,1,0,0:0:0:0:
128,64,3352,1,0,0:0:0:0:
256,128,3534,2,0,L|336:128,2,64,0|0|0,0:0|0:0|0:0,0:0:0:0:
176,128,3809,1,0,0:0:0:0:
336,64,4083,6,0,L|352:144,1,64,0|0,0:0|0:0,0:0:0:0:
176,64,4266,2,0,L|160:144,1,64,0|0,0:0|0:0,0:0:0:0:
336,64,4449,1,0,0:0:0:0:
176,320,4632,6,0,L|160:240,1,64,2|0,0:0|0:0,0:0:0:0:
336,320,4815,2,0,L|352:240,1,64,0|0,0:0|0:0,0:0:0:0:
176,320,4998,1,0,0:0:0:0:
336,192,5181,2,0,L|368:192,2,32,0|0|0,0:0|0:0|0:0,0:0:0:0:
16,64,5364,5,8,0:0:0:0:
128,64,5486,1,0,0:0:0:0:
16,144,5608,1,0,0:0:0:0:
352,224,5730,1,8,0:0:0:0:
256,256,5852,1,0,0:0:0:0:
160,224,5973,1,0,0:0:0:0:
496,64,6095,5,8,0:0:0:0:
384,64,6217,1,0,0:0:0:0:
496,144,6338,1,8,0:0:0:0:
160,320,6461,1,8,0:0:0:0:
256,336,6583,1,0,0:0:0:0:
352,320,6704,1,8,0:0:0:0:
160,80,6827,5,4,0:0:0:0:
80,80,6919,2,0,L|96:144,1,64,0|0,0:0|0:0,0:0:0:0:
352,80,7102,1,4,0:0:0:0:
432,80,7194,2,0,L|416:144,1,64,0|0,0:0|0:0,0:0:0:0:
160,160,7376,2,0,P|96:192|192:240,1,192,4|0,0:0|0:0,0:0:0:0:
352,224,7742,2,0,L|416:224,1,64,8|0,0:0|0:0,0:0:0:0:
144,336,7925,2,0,P|64:288|112:192,1,192,8|0,0:0|0:0,0:0:0:0:
352,80,8291,5,4,0:0:0:0:
432,80,8382,2,0,L|416:144,1,64,0|0,0:0|0:0,0:0:0:0:
160,80,8565,1,4,0:0:0:0:
80,80,8656,2,0,L|96:160,1,64,0|0,0:0|0:0,0:0:0:0:
352,160,8839,2,0,P|416:192|320:240,1,192,4|0,0:0|0:0,0:0:0:0:
160,224,9205,2,0,L|96:224,1,64,8|0,0:0|0:0,0:0:0:0:
368,336,9388,2,0,P|400:304|320:240,1,128,8|0,0:0|0:0,0:0:0:0:
160,128,9663,6,0,L|96:128,2,64,0|4|0,0:0|0:0|0:0,0:0:0:0:
352,128,9937,2,0,L|416:128,2,64,0|4|0,0:0|0:0|0:0,0:0:0:0:
272,128,10211,1,0,0:0:0:0:
32,128,10303,2,0,P|48:208|160:256,1,192,4|0,0:0|0:0,0:0:0:0:
416,304,10669,1,8,0:0:0:0:
256,224,10852,6,0,L|176:224,1,64,8|0,0:0|0:0,0:0:0:0:
256,272,11034,2,0,L|320:272,1,64,0|0,0:0|0:0,0:0:0:0:
160,192,11217,6,0,L|144:128,1,64,4|0,0:0|0:0,0:0:0:0:
224,96,11400,1,0,0:0:0:0:
32,144,11492,2,0,L|16:80,1,64,4|0,0:0|0:0,0:0:0:0:
96,48,11675,1,0,0:0:0:0:
384,32,11766,2,0,P|432:80|336:144,1,192,4|0,0:0|0:0,0:0:0:0:
160,192,12132,6,0,L|144:256,1,64,8|0,0:0|0:0,0:0:0:0:
352,192,12315,2,0,L|368:256,1,64,8|0,0:0|0:0,0:0:0:0:
160,192,12498,2,0,L|144:256,1,64,0|0,0:0|0:0,0:0:0:0:
352,112,12681,6,0,L|496:112,1,128,4|0,0:0|0:0,0:0:0:0:
432,160,12955,1,0,0:0:0:0:
352,160,13047,1,4,0:0:0:0:
192,80,13138,2,0,L|128:80,1,64,8|0,0:0|0:0,0:0:0:0:
352,224,13321,2,0,L|352:352,1,128,4|0,0:0|0:0,0:0:0:0:
160,224,13595,2,0,L|160:352,1,128,8|0,0:0|0:0,0:0:0:0:
352,192,13961,1,8,0:0:0:0:
160,112,14144,6,0,L|16:112,1,128,4|0,0:0|0:0,0:0:0:0:
80,160,14418,1,0,0:0:0:0:
160,160,14510,1,4,0:0:0:0:
320,80,14602,2,0,L|384:80,1,64,8|0,0:0|0:0,0:0:0:0:
160,224,14784,2,0,L|160:352,1,128,4|0,0:0|0:0,0:0:0:0:
352,224,15059,2,0,L|352:352,1,128,4|8,0:0|0:0,0:0:0:0:
160,192,15425,1,0,0:0:0:0:
352,48,15608,6,0,L|336:112,1,64,4|0,0:0|0:0,0:0:0:0:
240,64,15791,2,0,L|224:128,1,64,4|8,0:0|0:0,0:0:0:0:
128,80,15973,2,0,L|112:144,1,64,0|0,0:0|0:0,0:0:0:0:
16,96,16156,1,4,0:0:0:0:
272,176,16339,6,0,L|288:240,1,64,0|0,0:0|0:0,0:0:0:0:
384,192,16522,2,0,L|400:256,1,64,4|0,0:0|0:0,0:0:0:0:
496,208,16704,1,8,0:0:0:0:
160,48,17071,6,0,L|176:112,1,64,4|0,0:0|0:0,0:0:0:0:
272,64,17254,2,0,L|288:128,1,64,4|8,0:0|0:0,0:0:0:0:
384,80,17436,2,0,L|400:144,1,64,0|0,0:0|0:0,0:0:0:0:
496,96,17619,1,4,0:0:0:0:
240,176,17803,6,0,L|224:240,1,64,0|0,0:0|0:0,0:0:0:0:
128,192,17985,2,0,L|112:256,1,64,4|0,0:0|0:0,0:0:0:0:
16,208,18168,1,8,0:0:0:0:
336,32,18534,6,0,L|480:32,1,128,4|0,0:0|0:0,0:0:0:0:
416,80,18809,1,0,0:0:0:0:
336,80,18900,1,4,0:0:0:0:
176,80,18992,2,0,L|112:80,1,64,8|0,0:0|0:0,0:0:0:0:
288,192,19175,2,0,L|416:192,1,128,4|0,0:0|0:0,0:0:0:0:
224,192,19449,2,0,L|96:192,1,128,8|0,0:0|0:0,0:0:0:0:
336,128,19815,1,8,0:0:0:0:
176,32,19998,6,0,L|32:32,1,128,4|0,0:0|0:0,0:0:0:0:
96,80,20273,1,0,0:0:0:0:
176,80,20364,1,4,0:0:0:0:
336,80,20455,2,0,L|400:80,1,64,8|0,0:0|0:0,0:0:0:0:
224,192,20638,2,0,L|96:192,1,128,4|0,0:0|0:0,0:0:0:0:
288,192,20913,2,0,L|416:192,1,128,4|8,0:0|0:0,0:0:0:0:
112,32,21278,6,0,L|144:96,1,64,0|0,0:0|0:0,0:0:0:0:
400,32,21461,2,0,L|368:96,1,64,4|4,0:0|0:0,0:0:0:0:
144,144,21644,2,0,L|80:144,1,64,8|0,0:0|0:0,0:0:0:0:
144,192,21827,2,0,L|224:192,1,64,0|0,0:0|0:0,0:0:0:0:
368,192,22010,2,0,L|432:192,1,64,4|0,0:0|0:0,0:0:0:0:
208,64,22193,2,0,L|128:64,1,64,0|0,0:0|0:0,0:0:0:0:
368,64,22376,2,0,L|432:64,1,64,8|0,0:0|0:0,0:0:0:0:
368,112,22559,2,0,L|288:112,1,64,8|0,0:0|0:0,0:0:0:0:
128,320,22742,6,0,L|352:320,1,192,8|0,0:0|0:0,0:0:0:0:
128,192,23108,1,0,0:0:0:0:
48,192,23199,1,0,0:0:0:0:
128,192,23291,1,8,0:0:0:0:
208,192,23382,1,0,0:0:0:0:
288,192,23473,1,8,0:0:0:0:
208,192,23565,1,0,0:0:0:0:
416,64,23656,6,0,P|480:128|416:160,1,192,4|0,0:0|0:0,0:0:0:0:
256,96,24022,2,0,L|176:96,2,72.0000027465821,8|0|8,0:0|0:0|0:0,0:0:0:0:
336,96,24297,1,0,0:0:0:0:
160,32,24388,6,0,P|96:64|176:128,1,192,4|0,0:0|0:0,0:0:0:0:
320,224,24754,2,0,L|176:224,1,128,8|0,0:0|0:0,0:0:0:0:
352,144,25028,2,0,L|432:144,2,64,8|0|0,0:0|0:0|0:0,0:0:0:0:
192,336,25303,2,0,L|352:336,1,128,4|0,0:0|0:0,0:0:0:0:
80,272,25577,2,0,L|64:208,1,64,0|8,0:0|0:0,0:0:0:0:
144,176,25760,1,8,0:0:0:0:
352,32,25852,6,0,P|416:64|336:128,1,192,4|0,0:0|0:0,0:0:0:0:
192,224,26218,2,0,L|336:224,1,128,8|0,0:0|0:0,0:0:0:0:
160,144,26492,2,0,L|80:144,2,64,8|0|0,0:0|0:0|0:0,0:0:0:0:
320,336,26767,2,0,L|160:336,1,128,4|0,0:0|0:0,0:0:0:0:
432,272,27041,2,0,L|448:208,1,64,0|4,0:0|0:0,0:0:0:0:
368,176,27224,1,0,0:0:0:0:
112,32,27315,6,0,L|240:32,1,128,8|0,0:0|0:0,0:0:0:0:
400,32,27681,2,0,L|272:32,1,128,8|0,0:0|0:0,0:0:0:0:
112,112,27955,2,0,L|240:112,1,128,8|0,0:0|0:0,0:0:0:0:
400,128,28230,2,0,L|400:192,1,64,4|0,0:0|0:0,0:0:0:0:
304,192,28413,2,0,L|304:256,1,64,8|0,0:0|0:0,0:0:0:0:
400,128,28595,2,0,L|400:192,1,64,0|0,0:0|0:0,0:0:0:0:
144,48,28778,5,4,0:0:0:0:
88,73,28869,1,0,0:0:0:0:
86,134,28960,1,0,0:0:0:0:
139,164,29052,1,8,0:0:0:0:
320,336,29144,1,4,0:0:0:0:
192,336,29327,1,8,0:0:0:0:
352,256,29419,6,0,P|445:193|368:110,1,256,4|0,0:0|0:0,0:0:0:0:
192,32,29876,2,0,L|112:32,1,64,4|0,0:0|0:0,0:0:0:0:
128,96,30059,2,0,L|208:96,1,64,8|8,0:0|0:0,0:0:0:0:
368,304,30242,6,0,L|160:304,1,192,4|0,0:0|0:0,0:0:0:0:
400,192,30608,2,0,L|256:192,1,128,8|0,0:0|0:0,0:0:0:0:
96,192,30882,2,0,L|32:192,2,64,8|0|0,0:0|0:0|0:0,0:0:0:0:
304,64,31156,2,0,L|368:64,1,64,4|0,0:0|0:0,0:0:0:0:
208,64,31339,2,0,L|144:64,1,64,8|0,0:0|0:0,0:0:0:0:
304,144,31522,2,0,L|384:144,1,64,0|0,0:0|0:0,0:0:0:0:
144,304,31705,6,0,L|352:304,1,192,4|0,0:0|0:0,0:0:0:0:
112,192,32071,2,0,L|256:192,1,128,8|0,0:0|0:0,0:0:0:0:
416,192,32345,2,0,L|480:192,2,64,8|0|0,0:0|0:0|0:0,0:0:0:0:
208,64,32619,2,0,L|144:64,1,64,4|0,0:0|0:0,0:0:0:0:
304,64,32802,2,0,L|368:64,1,64,8|0,0:0|0:0,0:0:0:0:
208,144,32985,2,0,L|128:144,1,64,0|0,0:0|0:0,0:0:0:0:
352,192,33169,6,0,P|384:256|304:288,1,128,4|0,0:0|0:0,0:0:0:0:
160,192,33443,2,0,P|128:256|208:288,1,128,8|0,0:0|0:0,0:0:0:0:
320,96,33717,2,0,L|384:96,1,64,8|0,0:0|0:0,0:0:0:0:
192,48,33900,2,0,L|64:48,1,128,4|0,0:0|0:0,0:0:0:0:
144,80,34175,1,8,0:0:0:0:
384,240,34266,5,0,0:0:0:0:
416,240,34311,1,0,0:0:0:0:
444,224,34357,1,0,0:0:0:0:
459,197,34403,1,0,0:0:0:0:
458,165,34448,1,8,0:0:0:0:
441,138,34494,1,0,0:0:0:0:
413,124,34540,1,0,0:0:0:0:
381,126,34586,1,0,0:0:0:0:
96,32,34632,6,0,L|240:32,1,128,4|0,0:0|0:0,0:0:0:0:
416,32,34906,2,0,L|272:32,1,128,4|0,0:0|0:0,0:0:0:0:
128,144,35181,2,0,L|48:144,1,64,8|0,0:0|0:0,0:0:0:0:
288,224,35364,2,0,L|432:224,1,128,4|0,0:0|0:0,0:0:0:0:
224,224,35638,2,0,L|80:224,1,128,8|0,0:0|0:0,0:0:0:0:
320,160,35913,2,0,L|400:160,1,64,8|8,0:0|0:0,0:0:0:0:
192,32,36095,6,0,L|208:96,1,64,8|0,0:0|0:0,0:0:0:0:
128,32,36278,2,0,L|144:96,1,64,0|0,0:0|0:0,0:0:0:0:
64,32,36461,2,0,L|80:96,1,64,0|0,0:0|0:0,0:0:0:0:
0,32,36644,2,0,L|16:96,1,64,0|0,0:0|0:0,0:0:0:0:
336,80,36827,6,0,L|384:128,2,64,8|0|0,0:0|0:0|0:0,0:0:0:0:
176,80,37102,1,0,0:0:0:0:
336,192,37193,2,0,L|400:192,2,64,8|0|0,0:0|0:0|0:0,0:0:0:0:
176,192,37468,1,0,0:0:0:0:
336,256,37559,6,0,L|416:256,1,64,8|0,0:0|0:0,0:0:0:0:
176,256,37742,2,0,L|96:256,1,64,8|0,0:0|0:0,0:0:0:0:
352,320,37925,2,0,L|432:320,1,64,8|0,0:0|0:0,0:0:0:0:
144,320,38108,1,8,0:0:0:0:
304,48,38199,6,0,P|402:114|359:225,1,256,8|0,0:0|0:0,0:0:0:0:
128,48,38656,6,0,L|16:48,1,72.3200002207031,0|0,0:0|0:0,0:0:0:0:
272,32,38839,2,0,L|288:112,1,72.3200002207031,0|0,0:0|0:0,0:0:0:0:
64,144,39022,2,0,L|176:144,1,72.3200002207031,4|0,0:0|0:0,0:0:0:0:
400,192,39205,2,0,L|288:192,1,72.3200002207031,8|0,0:0|0:0,0:0:0:0:
112,224,39388,2,0,L|0:224,2,72.3200002207031,8|0|4,0:0|0:0|0:0,0:0:0:0:
352,144,39663,6,0,L|160:144,1,144.640000441406,8|0,0:0|0:0,0:0:0:0:
288,192,39937,1,4,0:0:0:0:
480,160,40028,2,0,L|480:256,1,72.3200002207031,0|8,0:0|0:0,0:0:0:0:
256,64,40211,2,0,L|464:64,1,144.640000441406,8|0,0:0|0:0,0:0:0:0:
480,64,40486,5,4,0:0:0:0:
256,176,40577,1,0,0:0:0:0:
278,243,40668,1,8,0:0:0:0:
334,287,40759,1,0,0:0:0:0:
405,291,40851,1,8,0:0:0:0:
208,336,40943,2,0,L|128:336,1,72.3200002207031,0|4,0:0|0:0,0:0:0:0:
400,48,41126,2,0,L|192:48,1,144.640000441406,8|0,0:0|0:0,0:0:0:0:
176,48,41401,5,4,0:0:0:0:
448,192,41583,1,8,0:0:0:0:
64,192,41766,1,8,0:0:0:0:
336,288,41949,6,0,L|416:288,1,72.3200002207031,4|0,0:0|0:0,0:0:0:0:
112,288,42132,2,0,L|32:288,1,72.3200002207031,8|0,0:0|0:0,0:0:0:0:
208,96,42315,2,0,L|288:96,2,72.3200002207031,8|0|4,0:0|0:0|0:0,0:0:0:0:
368,192,42589,6,0,L|512:192,1,144.640000441406,8|0,0:0|0:0,0:0:0:0:
432,240,42864,1,4,0:0:0:0:
176,224,42955,1,0,0:0:0:0:
336,224,43138,1,8,0:0:0:0:
80,240,43321,1,0,0:0:0:0:
416,32,43413,6,0,L|496:32,1,72.3200002207031,4|0,0:0|0:0,0:0:0:0:
304,96,43595,2,0,L|400:96,1,72.3200002207031,8|0,0:0|0:0,0:0:0:0:
176,160,43778,2,0,L|304:160,1,72.3200002207031,4|8,0:0|0:0,0:0:0:0:
416,160,43961,2,0,L|496:160,1,72.3200002207031,0|4,0:0|0:0,0:0:0:0:
192,240,44144,6,0,L|144:240,1,48.2133334804687,0|0,0:0|0:0,0:0:0:0:
304,240,44266,2,0,L|352:240,1,48.2133334804687,0|0,0:0|0:0,0:0:0:0:
192,304,44388,2,0,L|144:304,1,48.2133334804687,0|0,0:0|0:0,0:0:0:0:
448,48,44510,1,8,0:0:0:0:
426,115,44601,1,0,0:0:0:0:
370,159,44692,1,8,0:0:0:0:
299,163,44784,1,8,0:0:0:0:
96,32,44876,6,0,L|16:32,1,72.3200002207031,4|0,0:0|0:0,0:0:0:0:
208,96,45058,2,0,L|112:96,1,72.3200002207031,8|0,0:0|0:0,0:0:0:0:
336,160,45242,2,0,L|208:160,1,72.3200002207031,8|0,0:0|0:0,0:0:0:0:
96,160,45425,2,0,L|16:160,1,72.3200002207031,4|8,0:0|0:0,0:0:0:0:
256,256,45608,5,0,0:0:0:0:
336,256,45699,1,0,0:0:0:0:
416,256,45791,1,4,0:0:0:0:
336,256,45882,1,0,0:0:0:0:
128,256,45973,1,8,0:0:0:0:
400,80,46065,2,0,L|224:80,1,144.640000441406,8|0,0:0|0:0,0:0:0:0:
80,192,46339,5,4,0:0:0:0:
31,142,46430,1,0,0:0:0:0:
46,74,46521,1,8,0:0:0:0:
112,51,46613,1,0,0:0:0:0:
288,192,46705,2,0,L|368:192,2,72.3200002207031,8|0|4,0:0|0:0|0:0,0:0:0:0:
80,64,46980,6,0,L|240:64,1,144.640000441406,8|0,0:0|0:0,0:0:0:0:
320,64,47254,1,4,0:0:0:0:
80,256,47436,1,8,0:0:0:0:
352,256,47620,1,8,0:0:0:0:
112,51,47803,5,4,0:0:0:0:
46,74,47895,1,0,0:0:0:0:
31,142,47986,1,8,0:0:0:0:
80,192,48077,1,0,0:0:0:0:
256,96,48169,2,0,L|176:96,2,72.3200002207031,8|0|4,0:0|0:0|0:0,0:0:0:0:
432,32,48443,6,0,L|288:32,1,144.640000441406,8|0,0:0|0:0,0:0:0:0:
208,32,48717,1,4,0:0:0:0:
16,272,48809,2,0,L|96:272,1,72.3200002207031,0|8,0:0|0:0,0:0:0:0:
336,336,48992,2,0,L|176:336,1,144.640000441406,8|0,0:0|0:0,0:0:0:0:
432,64,49266,6,0,L|416:112,1,48.2133334804687,4|0,0:0|0:0,0:0:0:0:
288,160,49388,2,0,L|224:160,1,48.2133334804687,0|8,0:0|0:0,0:0:0:0:
112,112,49510,2,0,L|96:64,1,48.2133334804687,0|0,0:0|0:0,0:0:0:0:
432,176,49632,6,0,L|416:224,1,48.2133334804687,4|0,0:0|0:0,0:0:0:0:
288,272,49754,2,0,L|224:272,1,48.2133334804687,0|0,0:0|0:0,0:0:0:0:
112,224,49876,2,0,L|96:176,1,48.2133334804687,0|0,0:0|0:0,0:0:0:0:
400,336,49998,1,0,0:0:0:0:
304,336,50089,1,0,0:0:0:0:
208,336,50181,1,0,0:0:0:0:
304,336,50272,1,0,0:0:0:0:
112,192,50364,6,0,L|208:192,1,72.3200002207031,8|0,0:0|0:0,0:0:0:0:
352,192,50547,2,0,L|432:192,1,72.3200002207031,8|0,0:0|0:0,0:0:0:0:
176,32,50730,5,4,0:0:0:0:
336,32,50913,2,0,L|348:94,1,64,0|8,0:0|0:0,0:0:0:0:
176,32,51187,2,0,L|163:94,1,64,0|8,0:0|0:0,0:0:0:0:
336,32,51461,2,0,L|349:94,1,64,8|0,0:0|0:0,0:0:0:0:
96,144,51644,6,0,L|16:144,1,64,0|0,0:0|0:0,0:0:0:0:
112,192,51827,2,0,L|176:192,1,64,8|0,0:0|0:0,0:0:0:0:
96,240,52010,2,0,L|32:240,1,64,0|0,0:0|0:0,0:0:0:0:
336,192,52193,5,4,0:0:0:0:
164,94,52376,2,0,L|176:16,1,72.3200002207031,0|8,0:0|0:0,0:0:0:0:
348,94,52650,2,0,L|336:16,1,72.3200002207031,0|8,0:0|0:0,0:0:0:0:
164,94,52925,2,0,L|176:16,1,72.3200002207031,8|0,0:0|0:0,0:0:0:0:
416,144,53108,6,0,L|496:144,1,64,0|0,0:0|0:0,0:0:0:0:
400,192,53291,2,0,L|336:192,1,64,8|0,0:0|0:0,0:0:0:0:
416,240,53474,2,0,L|480:240,1,64,0|0,0:0|0:0,0:0:0:0:
160,320,53656,6,0,L|160:240,1,72.3200002207031,4|0,0:0|0:0,0:0:0:0:
256,240,53839,2,0,L|256:160,1,72.3200002207031,8|0,0:0|0:0,0:0:0:0:
352,320,54022,2,0,L|352:240,1,72.3200002207031,8|0,0:0|0:0,0:0:0:0:
160,32,54205,6,0,L|0:32,1,144.640000441406,4|0,0:0|0:0,0:0:0:0:
96,80,54480,1,0,0:0:0:0:
256,192,54571,1,4,0:0:0:0:
176,192,54663,1,0,0:0:0:0:
96,192,54754,1,4,0:0:0:0:
176,192,54845,1,0,0:0:0:0:
496,32,54937,6,0,L|416:32,1,72.3200002207031,4|4,0:0|0:0,0:0:0:0:
272,32,55120,2,0,L|176:32,1,72.3200002207031,8|0,0:0|0:0,0:0:0:0:
32,32,55303,2,0,L|16:112,1,72.3200002207031,0|0,0:0|0:0,0:0:0:0:
320,112,55486,2,0,L|416:112,1,72.3200002207031,8|0,0:0|0:0,0:0:0:0:
192,112,55669,2,0,L|96:112,1,72.3200002207031,0|0,0:0|0:0,0:0:0:0:
336,192,55852,6,0,L|352:240,2,48.2133334804687,8|0|0,0:0|0:0|0:0,0:0:0:0:
176,192,56034,2,0,L|160:240,2,48.2133334804687,0|0|0,0:0|0:0|0:0,0:0:0:0:
336,160,56217,2,0,L|400:160,2,48.2133334804687,8|0|0,0:0|0:0|0:0,0:0:0:0:
176,160,56400,2,0,L|112:160,2,48.2133334804687,8|0|0,0:0|0:0|0:0,0:0:0:0:
336,272,56583,6,0,L|480:272,1,144.640000441406,4|0,0:0|0:0,0:0:0:0:
400,304,56858,1,0,0:0:0:0:
64,48,56949,5,8,0:0:0:0:
48,96,57010,1,0,0:0:0:0:
64,128,57071,1,0,0:0:0:0:
160,48,57132,1,0,0:0:0:0:
144,96,57193,1,0,0:0:0:0:
160,128,57254,1,0,0:0:0:0:
256,48,57315,5,8,0:0:0:0:
256,96,57376,1,0,0:0:0:0:
256,128,57437,1,0,0:0:0:0:
352,48,57498,1,0,0:0:0:0:
368,96,57559,1,0,0:0:0:0:
352,128,57620,1,0,0:0:0:0:
448,48,57681,5,8,0:0:0:0:
464,96,57742,1,0,0:0:0:0:
448,128,57803,1,0,0:0:0:0:
176,192,57864,2,0,L|112:192,2,48.2133334804687,8|0|0,0:0|0:0|0:0,0:0:0:0:
336,192,58047,5,8,0:0:0:0:
176,240,58230,1,0,0:0:0:0:
336,128,58413,1,8,0:0:0:0:
160,48,58595,6,0,L|96:48,1,64,0|0,0:0|0:0,0:0:0:0:
208,96,58778,2,0,L|272:96,1,64,8|0,0:0|0:0,0:0:0:0:
160,144,58961,2,0,L|80:144,1,64,0|0,0:0|0:0,0:0:0:0:
208,192,59144,2,0,L|272:192,1,64,8|0,0:0|0:0,0:0:0:0:
336,48,59327,6,0,L|400:48,1,64,8|0,0:0|0:0,0:0:0:0:
288,96,59510,2,0,L|224:96,1,64,8|0,0:0|0:0,0:0:0:0:
336,144,59693,2,0,L|416:144,1,64,0|0,0:0|0:0,0:0:0:0:
288,192,59876,2,0,L|224:192,1,64,8|0,0:0|0:0,0:0:0:0:
480,336,60059,6,0,L|512:272,1,64,0|0,0:0|0:0,0:0:0:0:
400,256,60242,2,0,L|400:176,1,64,8|0,0:0|0:0,0:0:0:0:
320,192,60425,2,0,L|320:128,1,64,0|0,0:0|0:0,0:0:0:0:
224,112,60608,2,0,L|192:48,1,64,8|0,0:0|0:0,0:0:0:0:
384,32,60791,2,0,L|304:32,1,64,8|0,0:0|0:0,0:0:0:0:
112,32,60973,6,0,L|144:96,1,64,8|0,0:0|0:0,0:0:0:0:
288,208,61156,2,0,L|352:208,1,64,0|8,0:0|0:0,0:0:0:0:
176,288,61339,2,0,L|16:288,1,128,0|0,0:0|0:0,0:0:0:0:
448,48,61705,5,8,0:0:0:0:
464,96,61766,1,0,0:0:0:0:
448,128,61827,1,0,0:0:0:0:
352,48,61888,1,8,0:0:0:0:
368,96,61949,1,0,0:0:0:0:
352,128,62010,1,0,0:0:0:0:
256,48,62071,5,8,0:0:0:0:
256,96,62132,1,0,0:0:0:0:
256,128,62193,1,0,0:0:0:0:
160,48,62254,1,8,0:0:0:0:
144,96,62315,1,0,0:0:0:0:
160,128,62376,1,0,0:0:0:0:
64,48,62437,5,8,0:0:0:0:
48,96,62498,1,0,0:0:0:0:
64,128,62559,1,0,0:0:0:0:
320,224,62620,6,0,L|384:224,2,42.6666666666667,8|0|0,0:0|0:0|0:0,0:0:0:0:
192,224,62803,2,0,L|128:224,2,42.6666666666667,8|0|0,0:0|0:0|0:0,0:0:0:0:
320,304,62986,2,0,L|384:304,2,42.6666666666667,8|0|0,0:0|0:0|0:0,0:0:0:0:
192,304,63169,5,8,0:0:0:0:
304,144,63352,2,0,L|304:64,1,64,0|0,0:0|0:0,0:0:0:0:
208,144,63534,2,0,L|208:64,1,64,8|0,0:0|0:0,0:0:0:0:
304,192,63717,2,0,L|304:272,1,64,0|0,0:0|0:0,0:0:0:0:
208,192,63900,2,0,L|208:272,1,64,8|0,0:0|0:0,0:0:0:0:
400,192,64083,2,0,L|400:272,1,64,0|0,0:0|0:0,0:0:0:0:
112,192,64266,2,0,L|112:272,1,64,8|0,0:0|0:0,0:0:0:0:
304,48,64449,6,0,L|384:48,1,72.3200002207031,0|0,0:0|0:0,0:0:0:0:
208,48,64632,2,0,L|128:48,1,72.3200002207031,8|0,0:0|0:0,0:0:0:0:
384,304,64815,1,0,0:0:0:0:
304,304,64906,1,0,0:0:0:0:
224,304,64997,1,8,0:0:0:0:
144,304,65089,1,0,0:0:0:0:
352,32,65181,6,0,P|416:64|320:144,1,216.960000662109,8|0,0:0|0:0,0:0:0:0:
176,112,65547,1,0,0:0:0:0:
336,112,65730,1,8,0:0:0:0:
176,32,65913,1,8,0:0:0:0:
336,48,66095,6,0,L|256:48,3,72.3200002207031,8|0|0|0,0:0|0:0|0:0|0:0,0:0:0:0:
192,80,66461,2,0,L|272:80,3,72.3200002207031,8|0|0|0,0:0|0:0|0:0|0:0,0:0:0:0:
432,192,66827,6,0,L|352:192,1,72.3200002207031,8|0,0:0|0:0,0:0:0:0:
208,192,67010,2,0,L|128:192,1,72.3200002207031,0|0,0:0|0:0,0:0:0:0:
416,256,67193,2,0,L|320:256,1,72.3200002207031,8|0,0:0|0:0,0:0:0:0:
176,256,67376,2,0,L|80:256,1,72.3200002207031,8|0,0:0|0:0,0:0:0:0:
304,320,67559,2,0,L|416:320,1,72.3200002207031,8|0,0:0|0:0,0:0:0:0:
160,192,67742,2,0,L|80:192,1,72.3200002207031,8|0,0:0|0:0,0:0:0:0:
368,32,67925,5,8,0:0:0:0:
403,36,67970,1,0,0:0:0:0:
429,60,68016,1,0,0:0:0:0:
438,94,68062,1,0,0:0:0:0:
426,128,68107,1,0,0:0:0:0:
398,149,68153,1,0,0:0:0:0:
362,151,68199,1,0,0:0:0:0:
32,192,68291,5,4,0:0:0:0:
160,80,68473,1,8,0:0:0:0:
176,128,68534,1,0,0:0:0:0:
32,256,68656,1,0,0:0:0:0:
176,176,68839,1,8,0:0:0:0:
176,224,68900,1,0,0:0:0:0:
32,112,69022,5,4,0:0:0:0:
176,128,69205,1,8,0:0:0:0:
160,80,69266,1,0,0:0:0:0:
16,32,69388,1,0,0:0:0:0:
256,32,69571,6,0,L|336:32,1,72.3200002207031,8|8,0:0|0:0,0:0:0:0:
256,80,69754,2,0,L|176:80,1,72.3200002207031,4|0,0:0|0:0,0:0:0:0:
256,128,69937,2,0,L|336:128,1,72.3200002207031,4|0,0:0|0:0,0:0:0:0:
16,192,70120,5,8,0:0:0:0:
32,240,70181,1,0,0:0:0:0:
144,272,70303,1,4,0:0:0:0:
192,288,70364,1,0,0:0:0:0:
320,288,70486,1,8,0:0:0:0:
368,272,70547,1,0,0:0:0:0:
480,240,70669,1,4,0:0:0:0:
496,192,70730,1,0,0:0:0:0:
384,128,70852,5,8,0:0:0:0:
128,80,70943,2,0,B|55:80|55:80|156:80,1,144.640000441406,8|0,0:0|0:0,0:0:0:0:
480,192,71217,5,4,0:0:0:0:
352,80,71399,1,8,0:0:0:0:
336,128,71460,1,0,0:0:0:0:
480,256,71582,1,0,0:0:0:0:
336,176,71765,1,8,0:0:0:0:
336,224,71826,1,0,0:0:0:0:
480,112,71948,5,4,0:0:0:0:
336,128,72131,1,8,0:0:0:0:
352,80,72192,1,0,0:0:0:0:
496,32,72314,1,0,0:0:0:0:
256,32,72498,6,0,L|176:32,1,72.3200002207031,8|8,0:0|0:0,0:0:0:0:
256,80,72681,2,0,L|336:80,1,72.3200002207031,4|0,0:0|0:0,0:0:0:0:
256,128,72864,2,0,L|176:128,1,72.3200002207031,0|0,0:0|0:0,0:0:0:0:
496,192,73047,5,8,0:0:0:0:
480,240,73108,1,0,0:0:0:0:
368,272,73230,1,0,0:0:0:0:
320,288,73291,1,0,0:0:0:0:
192,288,73413,1,8,0:0:0:0:
144,272,73474,1,0,0:0:0:0:
32,240,73596,1,0,0:0:0:0:
16,192,73657,1,0,0:0:0:0:
128,128,73779,5,8,0:0:0:0:
320,80,73870,2,0,L|400:80,2,72.3200002207031,0|8|8,0:0|0:0|0:0,0:0:0:0:
32,336,74144,2,0,L|192:336,1,144.640000441406,4|4,0:0|0:0,0:0:0:0:
256,336,74419,1,8,0:0:0:0:
448,240,74510,2,0,L|368:240,1,72.3200002207031,0|0,0:0|0:0,0:0:0:0:
176,240,74693,2,0,L|256:240,1,72.3200002207031,8|0,0:0|0:0,0:0:0:0:
416,144,74876,1,0,0:0:0:0:
256,144,74967,6,0,L|112:144,1,144.640000441406,8|0,0:0|0:0,0:0:0:0:
192,80,75242,2,0,L|352:80,1,144.640000441406,8|0,0:0|0:0,0:0:0:0:
176,32,75516,1,8,0:0:0:0:
336,192,75608,2,0,L|480:192,1,144.640000441406,4|4,0:0|0:0,0:0:0:0:
304,272,75882,2,0,L|224:272,1,72.3200002207031,8|0,0:0|0:0,0:0:0:0:
144,240,76065,2,0,L|224:240,1,72.3200002207031,0|8,0:0|0:0,0:0:0:0:
32,192,76248,2,0,L|112:192,1,72.3200002207031,0|0,0:0|0:0,0:0:0:0:
336,96,76431,6,0,L|176:96,1,144.640000441406,8|0,0:0|0:0,0:0:0:0:
0,48,76705,2,0,L|192:48,1,144.640000441406,8|0,0:0|0:0,0:0:0:0:
224,48,76980,1,8,0:0:0:0:
384,80,77071,5,8,0:0:0:0:
425,103,77131,1,0,0:0:0:0:
444,146,77192,1,0,0:0:0:0:
434,193,77253,1,8,0:0:0:0:
399,224,77314,1,0,0:0:0:0:
352,229,77375,1,0,0:0:0:0:
160,240,77437,5,8,0:0:0:0:
113,235,77498,1,0,0:0:0:0:
78,204,77559,1,0,0:0:0:0:
68,157,77620,1,0,0:0:0:0:
87,114,77681,1,0,0:0:0:0:
128,91,77741,1,0,0:0:0:0:
320,48,77803,5,8,0:0:0:0:
368,80,77864,1,0,0:0:0:0:
384,128,77925,1,0,0:0:0:0:
192,48,77986,5,8,0:0:0:0:
144,80,78047,1,0,0:0:0:0:
128,128,78108,1,0,0:0:0:0:
320,48,78169,5,8,0:0:0:0:
368,80,78230,1,0,0:0:0:0:
384,128,78291,1,0,0:0:0:0:
192,48,78352,5,8,0:0:0:0:
144,80,78413,1,0,0:0:0:0:
128,128,78474,1,0,0:0:0:0:
384,224,78534,5,8,0:0:0:0:
430,232,78594,1,0,0:0:0:0:
462,262,78655,1,0,0:0:0:0:
460,309,78716,1,8,0:0:0:0:
426,342,78777,1,0,0:0:0:0:
379,341,78838,1,0,0:0:0:0:
96,192,78900,5,8,0:0:0:0:
112,144,78961,1,0,0:0:0:0:
256,48,79022,1,0,0:0:0:0:
416,192,79083,5,8,0:0:0:0:
400,144,79144,1,0,0:0:0:0:
256,48,79205,1,0,0:0:0:0:
96,192,79266,5,8,0:0:0:0:
112,144,79327,1,0,0:0:0:0:
256,48,79388,1,0,0:0:0:0:
416,192,79449,5,8,0:0:0:0:
400,144,79510,1,0,0:0:0:0:
256,48,79571,1,0,0:0:0:0:
80,352,79632,5,8,0:0:0:0:
59,333,79663,1,0,0:0:0:0:
46,316,79693,1,0,0:0:0:0:
37,297,79723,1,0,0:0:0:0:
33,273,79754,1,0,0:0:0:0:
32,248,79784,1,0,0:0:0:0:
39,223,79815,1,8,0:0:0:0:
48,203,79845,1,0,0:0:0:0:
64,183,79876,1,0,0:0:0:0:
81,168,79906,1,0,0:0:0:0:
464,32,79998,5,8,0:0:0:0:
368,64,80120,1,8,0:0:0:0:
480,112,80242,1,8,0:0:0:0:
48,32,80364,5,8,0:0:0:0:
144,64,80486,1,8,0:0:0:0:
32,112,80608,1,8,0:0:0:0:
368,192,80730,5,8,0:0:0:0:
144,192,81095,2,0,L|128:240,6,36.1600001103516,0|0|0|0|0|0|0,0:0|0:0|0:0|0:0|0:0|0:0|0:0,0:0:0:0:
432,32,81461,5,4,0:0:0:0:
256,32,81736,1,0,0:0:0:0:
80,32,82010,1,0,0:0:0:0:
352,128,82376,5,0,0:0:0:0:
176,160,82650,1,0,0:0:0:0:
352,192,82925,1,0,0:0:0:0:
176,288,83108,2,0,L|160:208,2,72.3200002207031,0|0|0,0:0|0:0|0:0,0:0:0:0:
352,144,83473,1,0,0:0:0:0:
160,32,83656,6,0,L|144:112,1,72.3200002207031,0|0,0:0|0:0,0:0:0:0:
240,112,83839,2,0,L|256:192,1,72.3200002207031,0|0,0:0|0:0,0:0:0:0:
160,32,84022,2,0,L|144:112,1,72.3200002207031,0|0,0:0|0:0,0:0:0:0:
240,112,84205,2,0,L|256:192,1,72.3200002207031,0|0,0:0|0:0,0:0:0:0:
96,320,84388,6,0,P|32:256|128:112,1,289.280000882812,0|0,0:0|0:0,0:0:0:0:
256,64,84937,2,0,P|352:157|282:271,1,289.280000882812,0|0,0:0|0:0,0:0:0:0:
128,224,85486,2,0,L|384:48,1,289.280000882812,0|0,0:0|0:0,0:0:0:0:
224,48,86034,5,0,0:0:0:0:
144,48,86126,2,0,L|128:128,1,72.3200002207031,0|0,0:0|0:0,0:0:0:0:
208,128,86309,1,0,0:0:0:0:
384,80,86400,2,0,P|448:160|352:192,1,216.960000662109,0|0,0:0|0:0,0:0:0:0:
112,288,86766,5,4,0:0:0:0:
256,304,86949,1,4,0:0:0:0:
400,288,87132,1,4,0:0:0:0:
160,192,87315,5,4,0:0:0:0:
101,170,87406,1,0,0:0:0:0:
64,112,87497,1,0,0:0:0:0:
96,48,87589,1,0,0:0:0:0:
352,192,87681,5,4,0:0:0:0:
411,170,87772,1,0,0:0:0:0:
448,112,87863,1,8,0:0:0:0:
416,48,87955,1,0,0:0:0:0:
176,320,88047,6,0,L|320:320,3,144.640000441406,4|0|4|0,0:0|0:0|0:0|0:0,0:0:0:0:
48,48,88778,5,4,0:0:0:0:
16,112,88870,1,0,0:0:0:0:
53,170,88961,1,0,0:0:0:0:
112,192,89052,1,0,0:0:0:0:
464,48,89144,5,4,0:0:0:0:
496,112,89236,1,0,0:0:0:0:
459,170,89327,1,8,0:0:0:0:
400,192,89418,1,0,0:0:0:0:
160,32,89510,6,0,L|160:112,1,72.3200002207031,4|0,0:0|0:0,0:0:0:0:
256,96,89693,2,0,L|256:192,1,72.3200002207031,0|0,0:0|0:0,0:0:0:0:
352,32,89876,2,0,L|352:112,1,72.3200002207031,4|0,0:0|0:0,0:0:0:0:
160,256,90059,2,0,L|160:176,1,72.3200002207031,0|0,0:0|0:0,0:0:0:0:
336,352,90242,5,4,0:0:0:0:
416,352,90333,1,0,0:0:0:0:
496,352,90425,1,0,0:0:0:0:
416,352,90516,1,0,0:0:0:0:
336,352,90608,1,4,0:0:0:0:
96,352,90791,1,8,0:0:0:0:
336,272,90973,5,4,0:0:0:0:
416,272,91064,1,0,0:0:0:0:
496,272,91156,1,0,0:0:0:0:
416,272,91247,1,0,0:0:0:0:
336,272,91339,1,4,0:0:0:0:
96,256,91431,6,0,L|16:256,2,72.3200002207031,0|0|0,0:0|0:0|0:0,0:0:0:0:
336,192,91705,2,0,L|416:192,2,72.3200002207031,4|0|0,0:0|0:0|0:0,0:0:0:0:
48,192,92071,1,8,0:0:0:0:
464,192,92345,1,8,0:0:0:0:
141,182,92803,5,0,0:0:0:0:
105,180,92848,1,0,0:0:0:0:
74,161,92894,1,0,0:0:0:0:
55,131,92940,1,0,0:0:0:0:
52,95,92985,1,0,0:0:0:0:
66,62,93031,1,0,0:0:0:0:
94,39,93077,1,0,0:0:0:0:
129,31,93123,1,0,0:0:0:0:
336,272,93169,5,4,0:0:0:0:
256,272,93260,1,0,0:0:0:0:
176,272,93352,1,4,0:0:0:0:
256,272,93443,1,0,0:0:0:0:
32,304,93534,2,0,L|32:192,1,72.3200002207031,4|8,0:0|0:0,0:0:0:0:
208,192,93717,1,0,0:0:0:0:
32,128,93809,6,0,L|224:128,1,144.640000441406,4|0,0:0|0:0,0:0:0:0:
80,96,94083,1,4,0:0:0:0:
304,48,94175,2,0,L|232:48,3,72.3200002207031,0|4|8|0,0:0|0:0|0:0|0:0,0:0:0:0:
416,96,94541,2,0,L|496:96,1,72.3200002207031,0|4,0:0|0:0,0:0:0:0:
336,272,94723,5,0,0:0:0:0:
256,272,94814,1,4,0:0:0:0:
176,272,94906,1,0,0:0:0:0:
256,272,94997,1,4,0:0:0:0:
48,192,95089,2,0,L|128:192,1,72.3200002207031,8|0,0:0|0:0,0:0:0:0:
320,96,95272,6,0,L|144:96,1,144.640000441406,4|0,0:0|0:0,0:0:0:0:
256,64,95547,1,4,0:0:0:0:
48,32,95638,2,0,L|48:112,1,72.3200002207031,0|4,0:0|0:0,0:0:0:0:
256,192,95821,2,0,L|256:272,1,72.3200002207031,0|8,0:0|0:0,0:0:0:0:
329,192,96004,2,0,L|249:192,1,72.3200002207031,0|4,0:0|0:0,0:0:0:0:
96,128,96187,2,0,L|192:128,1,72.3200002207031,0|4,0:0|0:0,0:0:0:0:
336,128,96370,2,0,L|256:128,1,72.3200002207031,0|4,0:0|0:0,0:0:0:0:
480,64,96553,2,0,L|400:64,1,72.3200002207031,8|0,0:0|0:0,0:0:0:0:
192,32,96736,6,0,L|368:32,1,144.640000441406,4|0,0:0|0:0,0:0:0:0:
256,80,97010,1,4,0:0:0:0:
480,192,97102,2,0,L|400:192,3,72.3200002207031,0|4|8|0,0:0|0:0|0:0|0:0,0:0:0:0:
208,240,97467,2,0,L|128:240,1,72.3200002207031,0|4,0:0|0:0,0:0:0:0:
336,256,97650,2,0,L|432:256,1,72.3200002207031,0|8,0:0|0:0,0:0:0:0:
208,160,97833,2,0,L|288:160,1,72.3200002207031,0|4,0:0|0:0,0:0:0:0:
112,80,98016,6,0,L|272:80,1,144.640000441406,8|4,0:0|0:0,0:0:0:0:
176,48,98291,1,0,0:0:0:0:
336,32,98382,2,0,L|416:32,1,72.3200002207031,0|4,0:0|0:0,0:0:0:0:
176,32,98565,2,0,L|96:32,1,72.3200002207031,0|4,0:0|0:0,0:0:0:0:
256,96,98748,1,0,0:0:0:0:
96,112,98839,1,8,0:0:0:0:
256,160,98931,1,0,0:0:0:0:
416,112,99022,6,0,L|496:112,2,72.3200002207031,4|0|4,0:0|0:0|0:0,0:0:0:0:
224,144,99297,2,0,L|304:144,1,72.3200002207031,0|4,0:0|0:0,0:0:0:0:
112,64,99480,2,0,L|192:64,1,72.3200002207031,8|0,0:0|0:0,0:0:0:0:
416,240,99663,6,0,L|224:240,1,144.640000441406,4|0,0:0|0:0,0:0:0:0:
192,240,99937,1,4,0:0:0:0:
416,160,100028,2,0,L|416:80,1,72.3200002207031,0|4,0:0|0:0,0:0:0:0:
256,48,100211,2,0,L|336:48,1,72.3200002207031,8|0,0:0|0:0,0:0:0:0:
512,48,100394,2,0,L|512:144,1,72.3200002207031,0|4,0:0|0:0,0:0:0:0:
416,48,100577,2,0,L|416:144,1,72.3200002207031,0|4,0:0|0:0,0:0:0:0:
224,256,100760,2,0,L|304:256,1,72.3200002207031,0|4,0:0|0:0,0:0:0:0:
96,192,100943,2,0,L|168:192,1,72.3200002207031,8|0,0:0|0:0,0:0:0:0:
320,64,101126,6,0,L|160:64,1,144.640000441406,4|0,0:0|0:0,0:0:0:0:
256,96,101400,1,4,0:0:0:0:
480,96,101492,2,0,L|480:192,1,72.3200002207031,0|4,0:0|0:0,0:0:0:0:
407,96,101675,2,0,L|503:96,1,72.3200002207031,0|8,0:0|0:0,0:0:0:0:
288,240,101858,6,0,L|192:240,1,72.3200002207031,0|4,0:0|0:0,0:0:0:0:
48,304,102041,1,0,0:0:0:0:
128,304,102132,1,4,0:0:0:0:
208,304,102223,1,0,0:0:0:0:
128,304,102315,1,4,0:0:0:0:
288,192,102406,2,0,L|368:192,1,72.3200002207031,8|0,0:0|0:0,0:0:0:0:
80,80,102589,6,0,L|224:80,1,144.640000441406,4|0,0:0|0:0,0:0:0:0:
144,48,102864,1,4,0:0:0:0:
352,32,102955,2,0,L|256:32,3,72.3200002207031,0|4|8|0,0:0|0:0|0:0|0:0,0:0:0:0:
432,96,103321,2,0,L|432:192,1,72.3200002207031,0|4,0:0|0:0,0:0:0:0:
256,144,103504,6,0,L|256:224,1,72.3200002207031,0|8,0:0|0:0,0:0:0:0:
432,304,103687,2,0,L|336:304,1,72.3200002207031,0|4,0:0|0:0,0:0:0:0:
192,288,103870,2,0,L|272:288,1,72.3200002207031,8|0,0:0|0:0,0:0:0:0:
32,192,104053,2,0,L|112:192,1,72.3200002207031,4|0,0:0|0:0,0:0:0:0:
256,128,104235,5,0,0:0:0:0:
416,160,104326,1,0,0:0:0:0:
256,208,104418,1,0,0:0:0:0:
416,272,104510,2,0,L|496:272,1,72.3200002207031,4|0,0:0|0:0,0:0:0:0:
240,304,104693,2,0,L|167:304,1,72.3200002207031,8|0,0:0|0:0,0:0:0:0:
336,32,104876,5,4,0:0:0:0:
176,32,105059,2,0,L|164:94,1,64,0|8,0:0|0:0,0:0:0:0:
336,32,105333,2,0,L|349:94,1,64,0|8,0:0|0:0,0:0:0:0:
176,32,105607,2,0,L|163:94,1,64,4|0,0:0|0:0,0:0:0:0:
416,144,105791,6,0,L|480:144,1,64,0|0,0:0|0:0,0:0:0:0:
400,192,105974,2,0,L|336:192,1,64,8|0,0:0|0:0,0:0:0:0:
416,240,106157,2,0,L|480:240,1,64,0|0,0:0|0:0,0:0:0:0:
176,192,106340,5,4,0:0:0:0:
348,94,106523,2,0,L|336:32,1,64,0|8,0:0|0:0,0:0:0:0:
164,94,106797,2,0,L|176:32,1,64,0|8,0:0|0:0,0:0:0:0:
348,94,107072,2,0,L|336:32,1,64,4|0,0:0|0:0,0:0:0:0:
96,144,107255,6,0,L|16:144,1,64,0|0,0:0|0:0,0:0:0:0:
112,192,107438,2,0,L|176:192,1,64,8|0,0:0|0:0,0:0:0:0:
96,240,107621,2,0,L|32:240,1,64,0|0,0:0|0:0,0:0:0:0:
352,320,107803,6,0,L|352:256,1,64,4|0,0:0|0:0,0:0:0:0:
256,240,107986,2,0,L|256:176,1,64,8|0,0:0|0:0,0:0:0:0:
160,320,108169,2,0,L|160:256,1,64,8|0,0:0|0:0,0:0:0:0:
448,96,108352,6,0,L|288:96,1,144.640000441406,4|0,0:0|0:0,0:0:0:0:
224,96,108626,1,0,0:0:0:0:
400,192,108717,2,0,L|320:192,1,72.3200002207031,4|0,0:0|0:0,0:0:0:0:
112,192,108900,2,0,L|192:192,1,72.3200002207031,4|0,0:0|0:0,0:0:0:0:
400,256,109083,2,0,L|320:256,1,72.3200002207031,4|8,0:0|0:0,0:0:0:0:
16,32,109266,6,0,L|96:32,1,72.3200002207031,4|0,0:0|0:0,0:0:0:0:
240,32,109449,2,0,L|320:32,1,72.3200002207031,0|0,0:0|0:0,0:0:0:0:
480,32,109632,2,0,L|496:112,1,72.3200002207031,4|0,0:0|0:0,0:0:0:0:
192,112,109815,2,0,L|96:112,1,72.3200002207031,0|0,0:0|0:0,0:0:0:0:
320,112,109998,2,0,L|416:112,1,72.3200002207031,8|0,0:0|0:0,0:0:0:0:
176,192,110181,6,0,L|160:240,2,48.2133334804687,0|0|0,0:0|0:0|0:0,0:0:0:0:
336,192,110364,2,0,L|352:240,2,48.2133334804687,8|0|0,0:0|0:0|0:0,0:0:0:0:
176,160,110547,2,0,L|112:160,2,48.2133334804687,8|0|0,0:0|0:0|0:0,0:0:0:0:
336,160,110730,5,4,0:0:0:0:
176,96,110913,1,0,0:0:0:0:
336,64,111095,1,4,0:0:0:0:
0,48,111187,6,0,L|128:48,1,128,8|8,0:0|0:0,0:0:0:0:
192,48,111461,1,0,0:0:0:0:
256,48,111553,2,0,L|320:48,1,64,8|0,0:0|0:0,0:0:0:0:
432,48,111827,2,0,L|496:48,1,64,8|0,0:0|0:0,0:0:0:0:
320,128,112010,2,0,L|240:128,1,64,8|0,0:0|0:0,0:0:0:0:
176,128,112193,6,0,L|48:128,1,128,4|0,0:0|0:0,0:0:0:0:
160,64,112559,1,4,0:0:0:0:
512,48,112650,6,0,L|384:48,1,128,8|8,0:0|0:0,0:0:0:0:
320,48,112925,1,0,0:0:0:0:
256,48,113016,2,0,L|192:48,1,64,8|0,0:0|0:0,0:0:0:0:
80,48,113290,2,0,L|16:48,1,64,8|0,0:0|0:0,0:0:0:0:
192,128,113473,2,0,L|272:128,1,64,8|0,0:0|0:0,0:0:0:0:
336,128,113656,6,0,L|464:128,1,128,4|0,0:0|0:0,0:0:0:0:
208,32,113931,2,0,L|112:32,2,64,0|4|8,0:0|0:0|0:0,0:0:0:0:
336,32,114297,1,0,0:0:0:0:
208,192,114388,2,0,L|208:256,1,64,4|0,0:0|0:0,0:0:0:0:
304,192,114571,2,0,L|304:256,1,64,0|0,0:0|0:0,0:0:0:0:
208,192,114753,5,8,0:0:0:0:
480,112,114937,2,0,L|480:256,1,128,8|4,0:0|0:0,0:0:0:0:
208,192,115303,2,0,L|208:256,1,64,0|4,0:0|0:0,0:0:0:0:
304,192,115486,2,0,L|304:256,1,64,8|0,0:0|0:0,0:0:0:0:
208,192,115669,1,0,0:0:0:0:
80,192,115852,5,8,0:0:0:0:
23,172,115944,1,0,0:0:0:0:
10,112,116035,1,0,0:0:0:0:
55,70,116126,1,0,0:0:0:0:
224,64,116217,2,0,L|304:64,1,64,8|0,0:0|0:0,0:0:0:0:
112,16,116400,2,0,L|32:16,1,64,0|0,0:0|0:0,0:0:0:0:
256,288,116583,6,0,L|400:288,1,128,4|0,0:0|0:0,0:0:0:0:
112,192,116949,1,4,0:0:0:0:
48,192,117041,2,0,L|224:192,1,128,8|8,0:0|0:0,0:0:0:0:
336,112,117406,2,0,L|400:112,1,64,4|8,0:0|0:0,0:0:0:0:
176,112,117589,2,0,L|112:112,1,64,0|0,0:0|0:0,0:0:0:0:
256,32,117864,6,0,L|352:32,1,64,4|8,0:0|0:0,0:0:0:0:
384,64,118047,2,0,L|240:64,1,128,4|0,0:0|0:0,0:0:0:0:
400,192,118413,1,4,0:0:0:0:
464,192,118505,2,0,L|288:192,1,128,8|8,0:0|0:0,0:0:0:0:
176,112,118778,2,0,L|112:112,2,64,0|4|8,0:0|0:0|0:0,0:0:0:0:
336,112,119144,6,0,L|400:112,3,64,4|0|0|0,0:0|0:0|0:0|0:0,0:0:0:0:
112,192,119510,2,0,P|80:256|144:304,1,128,4|0,0:0|0:0,0:0:0:0:
336,192,119784,2,0,L|416:192,2,64,0|8|0,0:0|0:0|0:0,0:0:0:0:
112,192,120059,2,0,P|80:256|144:304,1,128,8|0,0:0|0:0,0:0:0:0:
448,48,120425,6,0,L|448:128,1,64,8|0,0:0|0:0,0:0:0:0:
288,224,120608,2,0,L|208:224,1,64,8|0,0:0|0:0,0:0:0:0:
64,48,120791,2,0,L|64:128,1,64,8|0,0:0|0:0,0:0:0:0:
336,32,120973,6,0,L|400:32,2,64,4|0|0,0:0|0:0|0:0,0:0:0:0:
160,32,121248,2,0,L|96:32,2,64,4|0|0,0:0|0:0|0:0,0:0:0:0:
336,96,121522,1,4,0:0:0:0:
496,112,121614,2,0,L|384:112,1,64,0|0,0:0|0:0,0:0:0:0:
176,96,121797,1,4,0:0:0:0:
16,112,121889,2,0,L|80:112,1,64,0|8,0:0|0:0,0:0:0:0:
336,192,122071,1,8,0:0:0:0:
176,192,122163,1,0,0:0:0:0:
336,144,122254,1,8,0:0:0:0:
