osu file format v14

[General]
AudioFilename: Bg.mp3
AudioLeadIn: 0
PreviewTime: 102120
Countdown: 0
SampleSet: None
StackLeniency: 0.7
Mode: 2
LetterboxInBreaks: 0
EpilepsyWarning: 1
WidescreenStoryboard: 1

[Editor]
Bookmarks: 18770
DistanceSpacing: 0.8
BeatDivisor: 4
GridSize: 16
TimelineZoom: 4.399999

[Metadata]
Title:Dan ~ CTB ~ BossMap Pack
TitleUnicode:Dan ~ CTB ~ BossMap Pack
Artist:Various Artists
ArtistUnicode:Various Artists
Creator:Emiru
Version:Ultrasonic Anthem ~ Ghimel ~ (Marathon)
Source:
Tags:
BeatmapID:3372428
BeatmapSetID:697139

[Difficulty]
HPDrainRate:5
CircleSize:4.2
OverallDifficulty:9.7
ApproachRate:9.7
SliderMultiplier:1.8
SliderTickRate:1

[Events]
//Background and Video events
0,0,"Bg.jpg",0,0
//Break Periods
//Storyboard Layer 0 (Background)
//Storyboard Layer 1 (Fail)
//Storyboard Layer 2 (Pass)
//Storyboard Layer 3 (Foreground)
//Storyboard Layer 4 (Overlay)
//Storyboard Sound Samples

[TimingPoints]
1570,200,4,1,2,5,1,0
2670,-125,4,1,2,30,0,0
2970,-125,4,1,2,40,0,0
3170,-125,4,1,3,50,0,0
8770,-125,4,1,3,60,0,0
9170,-125,4,1,3,70,0,0
9570,-125,4,1,3,50,0,0
15720,-100,4,1,2,50,0,0
15970,-125,4,1,2,40,0,0
16320,-100,4,1,2,5,0,0
16370,-125,4,1,2,40,0,0
17520,-100,4,1,2,5,0,0
17570,-125,4,1,2,40,0,0
19120,-100,4,1,2,5,0,0
19170,-100,4,1,3,40,0,0
19570,-100,4,1,3,30,0,0
19970,-100,4,1,3,40,0,0
20370,-100,4,1,3,50,0,0
20570,-100,4,1,3,60,0,0
20770,-100,4,1,3,50,0,0
21170,-100,4,1,3,35,0,0
21570,-100,4,1,3,20,0,0
21970,-100,4,1,3,60,0,0
22370,-100,4,1,3,65,0,1
23570,-100,4,1,3,45,0,1
23970,-100,4,1,3,65,0,1
24770,-133.333333333333,4,1,2,45,0,0
25570,-100,4,1,3,65,0,1
26770,-100,4,1,2,45,0,1
27170,-100,4,1,3,65,0,1
27970,-100,4,1,2,65,0,0
28770,-100,4,1,3,65,0,1
29970,-100,4,1,3,45,0,1
30370,-100,4,1,3,65,0,1
31170,-133.333333333333,4,1,2,45,0,0
31970,-100,4,1,3,65,0,1
33170,-100,4,1,2,45,0,1
33570,-100,4,1,3,65,0,1
34370,-100,4,1,2,45,0,0
35170,-100,4,1,99,65,0,1
35195,-100,4,1,3,65,0,1
36770,-133.333333333333,4,1,3,65,0,0
36795,-133.333333333333,4,1,2,45,0,0
37370,-133.333333333333,4,1,3,65,0,0
37570,-133.333333333333,4,1,2,45,0,0
38370,-100,4,1,3,65,0,1
39970,-133.333333333333,4,1,3,65,0,0
39995,-133.333333333333,4,1,2,45,0,0
40570,-133.333333333333,4,1,3,65,0,0
40595,-133.333333333333,4,1,2,45,0,0
41570,-100,4,1,3,65,0,1
47170,-100,4,1,3,65,0,1
47195,-100,4,1,2,65,0,1
47370,-100,4,1,3,65,0,1
47495,-100,4,1,2,65,0,1
47970,-125,4,1,3,35,0,0
54370,-100,4,1,3,45,0,0
59970,-100,4,1,3,55,0,0
60370,-100,4,1,3,65,0,0
60570,-100,4,1,2,45,0,0
60770,-166.666666666667,4,1,2,35,0,0
61120,-166.666666666667,4,1,2,5,0,0
61170,-166.666666666667,4,1,2,35,0,0
64320,-166.666666666667,4,1,2,5,0,0
64370,-166.666666666667,4,1,2,35,0,0
65570,-166.666666666667,4,1,2,35,0,0
67170,-125,4,1,2,35,0,0
73570,-125,4,1,2,40,0,0
73970,-125,4,1,2,30,0,0
74370,-125,4,1,2,40,0,0
74770,-125,4,1,2,50,0,0
74970,-125,4,1,2,60,0,0
75170,-100,4,1,2,50,0,0
75570,-100,4,1,2,35,0,0
75970,-100,4,1,2,20,0,0
76370,-100,4,1,2,60,0,0
76570,-100,4,1,2,30,0,0
76770,-125,4,1,2,50,0,0
83170,-125,4,1,2,60,0,0
89570,-100,4,1,3,60,0,0
89670,-100,4,1,3,50,0,0
90170,-100,4,1,3,50,0,0
90370,-125,4,1,3,50,0,0
92770,-125,4,1,3,50,0,0
94370,-100,4,1,3,50,0,0
95570,-125,4,1,3,50,0,0
95770,-100,4,1,2,50,0,0
95970,-125,4,1,2,50,0,0
98970,-125,4,1,3,50,0,0
99170,-125,4,1,3,50,0,0
100770,-166.666666666667,4,1,3,50,0,0
102370,-100,4,1,99,75,0,1
102420,-100,4,1,3,75,0,1
105220,-100,4,1,2,55,0,1
105570,-100,4,1,3,75,0,1
108020,-100,4,1,2,55,0,1
108770,-100,4,1,3,75,0,1
110020,-100,4,1,2,55,0,1
110370,-100,4,1,3,75,0,1
111070,-100,4,1,3,75,0,1
111270,-100,4,1,3,75,0,1
111620,-100,4,1,2,55,0,1
111970,-100,4,1,3,75,0,1
113220,-100,4,1,2,55,0,1
113570,-100,4,1,3,75,0,1
113620,-100,4,1,2,55,0,1
113870,-100,4,1,3,75,0,1
113920,-100,4,1,2,55,0,1
114170,-100,4,1,3,75,0,1
114220,-100,4,1,2,55,0,1
114370,-100,4,1,3,75,0,1
114420,-100,4,1,2,55,0,1
114770,-100,4,1,3,75,0,1
114795,-100,4,1,2,55,0,1
115170,-125,4,1,2,45,0,0
121570,-100,4,1,2,65,0,0
126370,-100,4,1,2,60,0,0
126770,-100,4,1,2,50,0,0
126970,-100,4,1,2,40,0,0
127170,-100,4,1,2,50,0,0
127570,-100,4,1,2,70,0,0
127970,-100,4,1,3,75,0,1
130370,-100,4,1,3,55,0,0
130420,-100,4,1,2,55,0,0
131170,-100,4,1,3,75,0,1
133570,-100,4,1,2,55,0,0
134370,-100,4,1,3,75,0,1
139970,-100,4,1,3,65,0,0
153570,-100,4,1,3,45,0,0
153770,-100,4,1,2,45,0,0
153970,-100,4,1,3,45,0,0
154170,-100,4,1,2,45,0,0
154370,-100,4,1,3,45,0,0
154570,-100,4,1,2,45,0,0
154770,-100,4,1,3,45,0,0
154970,-100,4,1,2,45,0,0
156770,-125,4,1,2,45,0,0
162370,-100,4,1,2,45,0,0
166370,-100,4,1,3,75,0,1
177220,-100,4,1,2,55,0,1
177570,-100,4,1,3,75,0,1
177620,-100,4,1,2,55,0,1
177870,-100,4,1,3,75,0,1
177920,-100,4,1,2,55,0,1
178170,-100,4,1,3,75,0,1
178220,-100,4,1,2,55,0,1
178370,-100,4,1,3,75,0,1
178420,-100,4,1,2,55,0,1
178770,-83.3333333333333,4,1,3,75,0,1
178795,-100,4,1,2,55,0,1
179170,-100,4,1,3,45,0,0
195970,-100,4,1,2,5,0,0

[Colours]
Combo1 : 128,0,255
Combo2 : 255,0,0
Combo3 : 255,128,0
Combo4 : 0,255,0

[HitObjects]
256,192,1570,12,0,2370,0:0:0:0:
160,64,2670,6,0,L|128:64,2,18,0|0|0,0:0|0:0|0:0,0:0:0:0:
352,64,2770,2,0,P|384:80|336:160,1,144,0|0,0:0|0:0,0:0:0:0:
256,192,3070,1,0,0:0:0:0:
320,256,3170,6,0,L|160:256,1,144,2|0,0:0|0:0,0:0:0:0:
256,304,3470,1,0,0:0:0:0:
176,64,3570,2,0,P|134:128|192:144,1,144,0|0,0:0|0:0,0:0:0:0:
256,192,3870,1,0,0:0:0:0:
176,192,3970,5,0,0:0:0:0:
256,128,4070,2,0,L|112:128,1,144,2|0,0:0|0:0,0:0:0:0:
192,256,4370,2,0,L|272:256,1,72,0|0,0:0|0:0,0:0:0:0:
336,352,4570,2,0,L|256:352,1,72,0|0,0:0|0:0,0:0:0:0:
32,192,4770,6,0,L|32:352,1,144,2|0,0:0|0:0,0:0:0:0:
128,192,5070,1,0,0:0:0:0:
480,192,5170,2,0,L|480:352,1,144,0|0,0:0|0:0,0:0:0:0:
384,192,5470,1,0,0:0:0:0:
208,272,5570,6,0,L|208:352,1,72,0|2,0:0|0:0,0:0:0:0:
304,272,5770,2,0,L|304:352,1,72,0|0,0:0|0:0,0:0:0:0:
80,336,5970,2,0,L|80:256,1,72,2|0,0:0|0:0,0:0:0:0:
432,336,6170,2,0,L|432:256,1,72,0|0,0:0|0:0,0:0:0:0:
192,256,6370,6,0,L|352:256,1,144,2|0,0:0|0:0,0:0:0:0:
256,304,6670,1,0,0:0:0:0:
336,64,6770,2,0,P|378:128|320:144,1,144,0|0,0:0|0:0,0:0:0:0:
256,192,7070,1,0,0:0:0:0:
336,192,7170,5,0,0:0:0:0:
256,128,7270,2,0,L|400:128,1,144,2|0,0:0|0:0,0:0:0:0:
320,256,7570,2,0,L|240:256,1,72,0|0,0:0|0:0,0:0:0:0:
176,352,7770,2,0,L|256:352,1,72,0|0,0:0|0:0,0:0:0:0:
464,80,7970,6,0,P|464:144|384:192,1,144,2|0,0:0|0:0,0:0:0:0:
320,192,8270,1,0,0:0:0:0:
112,64,8370,2,0,L|272:64,1,144,0|0,0:0|0:0,0:0:0:0:
336,64,8670,1,0,0:0:0:0:
48,80,8770,6,0,P|48:144|128:192,1,144,2|0,0:0|0:0,0:0:0:0:
192,192,9070,1,0,0:0:0:0:
400,64,9170,2,0,L|240:64,1,144,2|0,0:0|0:0,0:0:0:0:
176,64,9470,1,0,0:0:0:0:
464,144,9570,6,0,L|464:288,1,144,2|0,0:0|0:0,0:0:0:0:
400,352,9870,1,0,0:0:0:0:
320,320,9970,2,0,L|480:320,1,144,0|0,0:0|0:0,0:0:0:0:
400,128,10270,1,0,0:0:0:0:
320,128,10370,5,0,0:0:0:0:
400,256,10470,2,0,L|256:256,1,144,2|0,0:0|0:0,0:0:0:0:
176,192,10770,2,0,L|256:192,1,72,0|0,0:0|0:0,0:0:0:0:
176,128,10970,2,0,L|96:128,1,72,0|0,0:0|0:0,0:0:0:0:
432,48,11170,6,0,P|464:64|432:144,1,144,2|0,0:0|0:0,0:0:0:0:
336,160,11470,1,0,0:0:0:0:
80,48,11570,2,0,P|48:64|80:144,1,144,0|0,0:0|0:0,0:0:0:0:
176,160,11870,1,0,0:0:0:0:
336,240,11970,2,0,L|432:240,1,72,0|2,0:0|0:0,0:0:0:0:
336,304,12170,2,0,L|240:304,1,72,0|0,0:0|0:0,0:0:0:0:
336,352,12370,2,0,L|408:352,3,72,2|0|0|0,0:0|0:0|0:0|0:0,0:0:0:0:
48,144,12770,6,0,L|48:288,1,144,2|0,0:0|0:0,0:0:0:0:
112,352,13070,1,0,0:0:0:0:
192,320,13170,2,0,L|32:320,1,144,0|0,0:0|0:0,0:0:0:0:
112,128,13470,1,0,0:0:0:0:
192,128,13570,5,0,0:0:0:0:
112,256,13670,2,0,L|256:256,1,144,2|0,0:0|0:0,0:0:0:0:
336,192,13970,2,0,L|256:192,1,72,0|0,0:0|0:0,0:0:0:0:
336,128,14170,2,0,L|416:128,1,72,0|0,0:0|0:0,0:0:0:0:
128,64,14370,6,0,P|64:80|32:160,1,144,2|0,0:0|0:0,0:0:0:0:
112,192,14670,1,0,0:0:0:0:
368,288,14770,2,0,L|192:288,1,144,0|0,0:0|0:0,0:0:0:0:
144,288,15070,1,0,0:0:0:0:
384,64,15170,2,0,P|448:80|480:160,1,144,2|0,0:0|0:0,0:0:0:0:
400,192,15470,1,0,0:0:0:0:
144,80,15570,2,0,L|144:176,1,72,2|0,0:0|0:0,0:0:0:0:
208,160,15720,1,0,0:0:0:0:
320,192,15770,6,0,L|336:192,4,11.25,0|0|0|0|0,0:0|0:0|0:0|0:0|0:0,0:0:0:0:
192,192,15870,2,0,L|176:192,4,11.25,0|0|0|0|0,0:0|0:0|0:0|0:0|0:0,0:0:0:0:
384,288,15970,6,0,L|128:288,1,252,0|0,0:0|0:0,0:0:0:0:
448,48,16370,2,0,P|368:64|480:288,1,432,0|0,0:0|0:0,0:0:0:0:
304,192,17170,1,0,0:0:0:0:
448,192,17370,1,0,0:0:0:0:
36,32,17570,6,0,P|27:79|483:21,1,864,0|0,0:0|0:0,0:0:0:0:
176,128,18970,1,0,0:0:0:0:
336,128,19170,5,2,0:0:0:0:
176,192,19270,2,0,L|112:192,2,45,0|0|0,0:0|0:0|0:0,0:0:0:0:
336,192,19470,1,0,0:0:0:0:
112,336,19570,1,0,0:0:0:0:
73,316,19620,1,0,0:0:0:0:
59,275,19670,1,0,0:0:0:0:
80,236,19720,1,0,0:0:0:0:
400,336,19770,1,0,0:0:0:0:
439,316,19820,1,0,0:0:0:0:
453,275,19870,1,0,0:0:0:0:
432,236,19920,1,0,0:0:0:0:
256,64,19970,5,0,0:0:0:0:
176,64,20070,1,2,0:0:0:0:
256,64,20170,1,0,0:0:0:0:
432,64,20270,5,0,0:0:0:0:
453,103,20320,1,0,0:0:0:0:
439,144,20370,1,0,0:0:0:0:
400,164,20420,1,0,0:0:0:0:
80,64,20470,1,0,0:0:0:0:
59,103,20520,1,0,0:0:0:0:
73,144,20570,1,0,0:0:0:0:
112,164,20620,1,0,0:0:0:0:
256,192,20670,1,0,0:0:0:0:
464,272,20770,6,0,L|400:272,1,45,2|0,0:0|0:0,0:0:0:0:
304,272,20870,2,0,L|256:272,1,45,0|0,0:0|0:0,0:0:0:0:
48,272,20970,2,0,L|112:272,1,45,0|0,0:0|0:0,0:0:0:0:
208,320,21070,2,0,L|256:320,1,45,0|0,0:0|0:0,0:0:0:0:
416,336,21170,6,0,L|496:336,1,45,0|0,0:0|0:0,0:0:0:0:
279,48,21270,2,0,L|199:48,1,45,0|0,0:0|0:0,0:0:0:0:
96,336,21370,2,0,L|32:336,1,45,0|0,0:0|0:0,0:0:0:0:
233,48,21470,2,0,L|313:48,1,45,0|0,0:0|0:0,0:0:0:0:
464,192,21570,6,0,L|400:192,1,45,0|0,0:0|0:0,0:0:0:0:
279,48,21670,2,0,L|199:48,1,45,0|0,0:0|0:0,0:0:0:0:
48,192,21770,2,0,L|112:192,1,45,0|0,0:0|0:0,0:0:0:0:
233,48,21870,2,0,L|313:48,1,45,0|0,0:0|0:0,0:0:0:0:
464,192,21970,5,4,0:0:0:0:
464,32,22370,6,0,L|342:32,1,90,2|0,0:0|0:0,0:0:0:0:
208,96,22570,2,0,L|298:96,1,90,2|0,0:0|0:0,0:0:0:0:
112,144,22770,2,0,L|112:234,1,90,2|0,0:0|0:0,0:0:0:0:
304,192,22970,1,2,0:0:0:0:
112,304,23070,2,0,L|202:304,1,90,2|0,0:0|0:0,0:0:0:0:
400,304,23270,2,2,L|288:304,2,90,2|2|0,0:0|0:0|0:0,0:0:0:0:
176,256,23570,5,4,1:2:0:0:
336,256,23770,1,4,1:2:0:0:
64,32,23970,6,0,L|64:128,1,90,2|0,0:0|0:0,0:0:0:0:
256,32,24170,2,0,L|144:32,1,90,2|0,0:0|0:0,0:0:0:0:
352,80,24370,2,0,L|448:80,1,90,2|0,0:0|0:0,0:0:0:0:
272,80,24570,1,2,0:0:0:0:
442,80,24670,1,2,0:0:0:0:
176,128,24770,6,0,L|96:128,2,67.5000025749208,0|0|2,0:0|0:0|0:0,0:0:0:0:
352,192,25070,2,0,L|496:192,1,135.000005149842,0|0,0:0|0:0,0:0:0:0:
432,256,25370,1,2,0:0:0:0:
352,256,25470,1,0,0:0:0:0:
128,192,25570,6,0,L|218:192,1,90,2|0,0:0|0:0,0:0:0:0:
16,192,25770,2,0,L|16:288,1,90,2|0,0:0|0:0,0:0:0:0:
224,80,25970,2,0,L|112:80,1,90,2|0,0:0|0:0,0:0:0:0:
320,80,26170,1,2,0:0:0:0:
128,144,26270,2,0,L|224:144,1,90,2|0,0:0|0:0,0:0:0:0:
400,144,26470,2,0,L|310:144,2,90,2|2|0,0:0|0:0|0:0,0:0:0:0:
128,64,26770,6,0,L|96:64,4,22.5,8|0|8|0|8,0:0|0:0|0:0|0:0|0:0,0:0:0:0:
304,32,26970,1,8,0:0:0:0:
208,32,27070,1,8,0:0:0:0:
448,48,27170,6,0,L|448:144,1,90,2|0,0:0|0:0,0:0:0:0:
256,192,27370,2,0,L|352:192,1,90,2|0,0:0|0:0,0:0:0:0:
96,272,27570,2,0,L|208:272,1,90,2|0,0:0|0:0,0:0:0:0:
16,192,27770,1,2,0:0:0:0:
186,272,27870,1,2,0:0:0:0:
352,48,27970,5,4,0:2:0:0:
378,53,27995,1,0,0:0:0:0:
401,65,28020,1,0,0:0:0:0:
420,85,28045,1,0,0:0:0:0:
431,109,28070,1,0,0:0:0:0:
434,136,28095,1,0,0:0:0:0:
429,162,28120,1,0,0:0:0:0:
416,186,28145,1,0,0:0:0:0:
396,204,28170,1,0,0:0:0:0:
372,215,28195,1,0,0:0:0:0:
345,218,28220,1,0,0:0:0:0:
160,48,28270,5,4,0:0:0:0:
134,53,28295,1,0,0:0:0:0:
111,65,28320,1,0,0:0:0:0:
92,85,28345,1,0,0:0:0:0:
81,109,28370,1,0,0:0:0:0:
78,136,28395,1,0,0:0:0:0:
83,162,28420,1,0,0:0:0:0:
96,186,28445,1,0,0:0:0:0:
116,204,28470,1,0,0:0:0:0:
140,215,28495,1,0,0:0:0:0:
167,218,28520,1,0,0:0:0:0:
352,320,28570,6,0,L|384:320,4,22.5,2|0|0|0|2,0:2|0:0|0:0|0:0|0:2,0:0:0:0:
128,320,28770,6,0,L|16:320,1,90,2|0,0:0|0:0,0:0:0:0:
208,256,28970,1,2,0:0:0:0:
38,320,29070,1,0,0:0:0:0:
208,192,29170,2,0,L|320:192,1,90,2|0,0:0|0:0,0:0:0:0:
112,64,29370,2,0,L|112:160,1,90,2|2,0:0|0:0,0:0:0:0:
304,16,29570,2,0,L|192:16,1,90,0|2,0:0|0:0,0:0:0:0:
400,64,29770,2,0,L|400:160,1,90,2|0,0:0|0:0,0:0:0:0:
208,224,29970,6,0,L|304:224,3,90,0|0|0|0,0:0|0:0|0:0|0:0,0:0:0:0:
112,288,30370,6,0,L|208:288,1,90,2|0,0:0|0:0,0:0:0:0:
32,192,30570,1,2,0:0:0:0:
202,288,30670,1,0,0:0:0:0:
384,112,30770,2,0,L|288:112,1,90,2|0,0:0|0:0,0:0:0:0:
496,192,30970,2,0,L|400:192,1,90,2|2,0:0|0:0,0:0:0:0:
176,144,31170,6,0,L|96:144,2,67.5000025749208,0|0|2,0:0|0:0|0:0,0:0:0:0:
336,144,31470,2,0,L|496:144,1,135.000005149842,8|0,0:0|0:0,0:0:0:0:
416,112,31770,1,2,0:0:0:0:
336,112,31870,1,0,0:0:0:0:
160,48,31970,6,0,L|256:48,1,90,2|0,0:0|0:0,0:0:0:0:
48,128,32170,2,0,L|144:128,1,90,2|0,0:0|0:0,0:0:0:0:
336,192,32370,2,0,L|432:192,1,90,2|0,0:0|0:0,0:0:0:0:
256,128,32570,1,2,0:0:0:0:
426,192,32670,1,2,0:0:0:0:
256,256,32770,2,0,L|160:256,1,90,0|2,0:0|0:0,0:0:0:0:
352,352,32970,2,0,L|352:256,1,90,2|0,0:0|0:0,0:0:0:0:
176,48,33170,2,0,P|144:112|192:160,1,135,8|0,0:0|0:0,0:0:0:0:
336,48,33370,2,0,P|368:112|320:160,1,135,8|0,0:0|0:0,0:0:0:0:
176,272,33570,6,0,L|80:272,1,90,2|0,0:0|0:0,0:0:0:0:
256,272,33770,1,2,0:0:0:0:
86,272,33870,1,0,0:0:0:0:
336,128,33970,2,0,L|246:128,1,90,2|0,0:0|0:0,0:0:0:0:
464,48,34170,2,0,L|368:48,1,90,2|2,0:0|0:0,0:0:0:0:
192,240,34370,5,6,0:2:0:0:
170,247,34395,1,0,0:0:0:0:
148,249,34420,1,0,0:0:0:0:
126,244,34445,1,0,0:0:0:0:
106,233,34470,1,0,0:0:0:0:
91,218,34495,1,0,0:0:0:0:
80,198,34520,1,0,0:0:0:0:
75,176,34545,1,0,0:0:0:0:
76,154,34570,1,0,0:0:0:0:
84,133,34595,1,0,0:0:0:0:
98,115,34620,1,0,0:0:0:0:
320,240,34670,5,6,0:2:0:0:
342,247,34695,1,0,0:0:0:0:
364,249,34720,1,0,0:0:0:0:
386,244,34745,1,0,0:0:0:0:
406,233,34770,1,0,0:0:0:0:
421,218,34795,1,0,0:0:0:0:
432,198,34820,1,0,0:0:0:0:
437,176,34845,1,0,0:0:0:0:
436,154,34870,1,0,0:0:0:0:
428,133,34895,1,0,0:0:0:0:
414,115,34920,1,0,0:0:0:0:
208,32,34970,5,2,0:2:0:0:
304,32,35070,1,2,0:2:0:0:
112,192,35170,6,0,L|96:192,1,11.25,6|0,0:0|0:0,0:0:0:0:
256,192,35270,2,0,L|272:192,1,11.25,2|0,0:2|0:0,0:0:0:0:
64,256,35370,6,0,L|48:256,1,11.25,0|0,0:0|0:0,0:0:0:0:
208,256,35470,2,0,L|224:256,1,11.25,2|0,0:2|0:0,0:0:0:0:
400,192,35570,6,0,L|416:192,1,11.25,0|0,0:0|0:0,0:0:0:0:
256,192,35670,2,0,L|240:192,1,11.25,2|0,0:2|0:0,0:0:0:0:
432,256,35770,1,0,0:0:0:0:
368,256,35870,2,0,L|336:256,2,22.5,2|0|0,0:2|0:0|0:0,0:0:0:0:
496,192,35970,6,0,L|496:176,1,11.25,2|0,0:0|0:0,0:0:0:0:
336,96,36070,2,0,L|320:96,1,11.25,2|0,0:2|0:0,0:0:0:0:
496,96,36170,2,0,L|480:96,1,11.25,0|0,0:0|0:0,0:0:0:0:
336,160,36270,2,0,L|336:176,1,11.25,2|0,0:2|0:0,0:0:0:0:
496,32,36370,1,0,0:0:0:0:
416,32,36470,2,0,L|416:128,1,90,2|0,0:2|0:0,0:0:0:0:
256,48,36670,2,0,L|224:48,2,22.5,2|0|0,0:2|0:0|0:0,0:0:0:0:
368,96,36770,6,0,P|400:112|336:240,1,202.500007724762,0|0,0:0|0:0,0:0:0:0:
160,320,37170,2,0,L|363:320,1,202.500007724762,2|0,0:0|0:0,0:0:0:0:
144,96,37570,2,0,P|112:112|176:240,1,202.500007724762,8|0,0:0|0:0,0:0:0:0:
368,320,37970,2,0,L|166:320,1,202.500007724762,2|0,0:0|0:0,0:0:0:0:
400,96,38370,6,0,L|400:112,1,11.25,2|0,0:0|0:0,0:0:0:0:
256,112,38470,2,0,L|256:128,1,11.25,2|0,0:2|0:0,0:0:0:0:
400,64,38570,2,0,L|416:64,1,11.25,0|0,0:0|0:0,0:0:0:0:
256,80,38670,2,0,L|224:80,2,22.5,2|0|0,0:2|0:0|0:0,0:0:0:0:
400,192,38770,2,0,L|416:192,1,11.25,0|0,0:0|0:0,0:0:0:0:
256,192,38870,2,0,L|240:192,1,11.25,2|0,0:2|0:0,0:0:0:0:
96,192,38970,2,0,L|80:224,2,22.5,0|0|0,0:0|0:0|0:0,0:0:0:0:
256,240,39070,2,0,L|272:272,2,22.5,2|0|0,0:2|0:0|0:0,0:0:0:0:
112,144,39170,1,2,0:0:0:0:
64,112,39270,6,0,L|80:112,1,11.25,2|0,0:2|0:0,0:0:0:0:
240,48,39370,2,0,L|272:48,2,22.5,0|0|0,0:0|0:0|0:0,0:0:0:0:
96,48,39470,2,0,L|96:64,1,11.25,2|0,0:2|0:0,0:0:0:0:
256,112,39570,2,0,L|272:112,1,11.25,0|0,0:0|0:0,0:0:0:0:
432,48,39670,2,0,L|432:80,2,22.5,2|0|0,0:2|0:0|0:0,0:0:0:0:
256,160,39770,2,0,L|224:160,2,22.5,0|0|0,0:0|0:0|0:0,0:0:0:0:
304,160,39870,1,2,0:2:0:0:
112,192,39970,6,0,L|32:192,2,67.5000025749208,0|0|0,0:0|0:0|0:0,0:0:0:0:
400,192,40270,2,0,L|480:192,2,67.5000025749208,0|2|0,0:0|0:0|0:0,0:0:0:0:
208,96,40570,1,0,0:0:0:0:
304,96,40670,1,0,0:0:0:0:
64,32,40770,2,0,L|224:32,1,135.000005149842,8|0,0:0|0:0,0:0:0:0:
448,32,41070,2,0,L|288:32,1,135.000005149842,8|0,0:0|0:0,0:0:0:0:
143,101,41370,6,0,L|140:123,4,16.8750006437302,2|0|0|0|0,0:0|0:0|0:0|0:0|0:0,0:0:0:0:
336,192,41570,2,0,L|352:192,1,11.25,2|0,0:0|0:0,0:0:0:0:
176,192,41670,2,0,L|160:192,1,11.25,2|0,0:2|0:0,0:0:0:0:
320,256,41770,1,2,0:0:0:0:
240,256,41870,2,0,L|234:289,2,22.5,2|0|0,0:0|0:0|0:0,0:0:0:0:
384,128,41970,5,0,0:0:0:0:
304,128,42070,2,0,L|304:112,1,11.25,2|0,0:0|0:0,0:0:0:0:
448,48,42170,2,0,L|432:48,1,11.25,2|0,0:0|0:0,0:0:0:0:
272,48,42270,2,0,L|256:48,1,11.25,2|0,0:2|0:0,0:0:0:0:
112,48,42370,2,0,L|112:64,1,11.25,2|0,0:0|0:0,0:0:0:0:
256,112,42470,1,2,0:2:0:0:
176,112,42570,2,0,L|160:144,4,22.5,0|0|0|0|2,0:0|0:0|0:0|0:0|0:2,0:0:0:0:
352,192,42770,5,0,0:0:0:0:
176,192,42870,2,0,L|144:192,4,22.5,2|0|0|0|0,0:2|0:0|0:0|0:0|0:0,0:0:0:0:
352,128,43070,2,0,L|368:128,1,11.25,2|0,0:2|0:0,0:0:0:0:
176,48,43170,5,2,0:0:0:0:
96,48,43270,2,0,L|64:48,2,22.5,2|0|0,0:2|0:0|0:0,0:0:0:0:
256,32,43370,1,0,0:0:0:0:
272,48,43395,1,0,2:0:0:0:
288,64,43420,1,0,0:0:0:0:
298,87,43445,1,0,2:0:0:0:
208,96,43470,1,2,0:2:0:0:
192,112,43495,1,0,2:0:0:0:
176,128,43520,1,0,0:0:0:0:
166,151,43545,1,0,2:0:0:0:
304,192,43570,1,2,0:0:0:0:
368,192,43670,6,0,L|400:192,2,22.5,2|0|0,0:2|0:0|0:0,0:0:0:0:
256,32,43770,1,0,0:0:0:0:
240,48,43795,1,0,2:0:0:0:
224,64,43820,1,0,0:0:0:0:
214,87,43845,1,0,2:0:0:0:
304,96,43870,1,2,0:2:0:0:
320,112,43895,1,0,2:0:0:0:
336,128,43920,1,0,0:0:0:0:
346,151,43945,1,0,2:0:0:0:
208,240,43970,5,0,0:0:0:0:
128,240,44070,2,0,L|128:272,2,22.5,2|0|0,0:2|0:0|0:0,0:0:0:0:
304,256,44170,2,0,L|320:256,1,11.25,0|0,0:0|0:0,0:0:0:0:
368,256,44270,2,0,L|400:256,2,22.5,2|0|0,0:2|0:0|0:0,0:0:0:0:
112,96,44370,6,4,P|32:192|112:288,1,270,4|0,0:2|0:0,0:0:0:0:
320,96,44770,2,0,L|320:112,1,11.25,2|0,0:0|0:0,0:0:0:0:
160,128,44870,2,0,L|144:160,4,22.5,2|0|0|0|2,0:2|0:0|0:0|0:0|0:0,0:0:0:0:
320,48,45070,1,2,0:0:0:0:
400,48,45120,2,0,L|416:80,2,22.5,0|0|0,0:0|0:0|0:0,0:0:0:0:
192,48,45270,1,2,0:0:0:0:
128,48,45370,2,0,L|96:48,2,22.5,2|0|0,0:0|0:0|0:0,0:0:0:0:
192,48,45470,2,0,L|224:48,2,22.5,2|0|0,0:0|0:0|0:0,0:0:0:0:
80,192,45570,5,2,0:0:0:0:
160,192,45670,2,0,L|160:176,1,11.25,2|0,0:2|0:0,0:0:0:0:
16,144,45770,2,0,L|0:112,6,22.5,0|0|0|0|2|0|0,0:0|0:0|0:0|0:0|0:2|0:0|0:0,0:0:0:0:
256,112,45970,5,0,0:0:0:0:
192,80,46070,2,0,L|208:80,1,11.25,2|0,0:2|0:0,0:0:0:0:
368,64,46170,2,0,L|352:64,1,11.25,0|0,0:0|0:0,0:0:0:0:
208,160,46270,2,0,L|208:176,1,11.25,2|0,0:2|0:0,0:0:0:0:
400,192,46370,5,4,0:2:0:0:
480,192,46470,2,0,L|512:192,2,22.5,2|0|0,0:2|0:0|0:0,0:0:0:0:
256,320,46570,1,0,0:0:0:0:
233,318,46595,1,0,0:0:0:0:
213,310,46620,1,0,0:0:0:0:
196,294,46645,1,0,0:0:0:0:
186,274,46670,1,2,0:2:0:0:
183,252,46695,1,0,0:0:0:0:
188,230,46720,1,0,0:0:0:0:
352,96,46770,2,0,L|336:96,1,11.25,4|0,0:2|0:0,0:0:0:0:
176,96,46870,6,0,L|144:96,2,22.5,2|0|0,0:2|0:0|0:0,0:0:0:0:
336,160,46970,2,0,P|336:224|272:256,1,135,0|0,0:0|0:0,0:0:0:0:
64,192,47170,6,0,L|48:208,4,22.5,4|0|0|0|0,0:2|0:0|0:0|0:0|0:0,0:0:0:0:
224,192,47370,1,0,0:0:0:0:
64,48,47470,2,0,P|64:96|192:160,1,180,4|0,0:2|0:0,0:0:0:0:
448,48,47720,2,0,P|448:96|320:160,1,180,0|0,0:0|0:0,0:0:0:0:
192,256,47970,5,0,0:0:0:0:
320,256,48170,2,0,L|400:256,2,72,0|0|2,0:0|0:0|0:0,0:0:0:0:
416,192,48470,2,0,L|512:192,2,72,0|0|0,0:0|0:0|0:0,0:0:0:0:
336,112,48770,1,2,0:0:0:0:
408,112,48870,1,0,0:0:0:0:
480,112,48970,1,0,0:0:0:0:
408,112,49070,1,0,0:0:0:0:
320,192,49170,2,0,L|496:192,1,144,0|0,0:0|0:0,0:0:0:0:
400,240,49470,1,0,0:0:0:0:
144,192,49570,5,0,0:0:0:0:
368,192,49970,1,2,0:0:0:0:
256,80,50170,2,0,L|176:80,2,72,0|0|2,0:0|0:0|0:0,0:0:0:0:
176,160,50470,1,0,0:0:0:0:
256,160,50570,1,0,0:0:0:0:
336,160,50670,1,0,0:0:0:0:
176,240,50770,2,0,L|80:240,2,72,0|0|0,0:0|0:0|0:0,0:0:0:0:
320,256,51170,5,0,0:0:0:0:
192,256,51370,2,0,L|112:256,2,72,0|0|2,0:0|0:0|0:0,0:0:0:0:
96,192,51670,2,0,L|0:192,2,72,0|0|0,0:0|0:0|0:0,0:0:0:0:
176,112,51970,1,2,0:0:0:0:
104,112,52070,1,0,0:0:0:0:
32,112,52170,1,0,0:0:0:0:
104,112,52270,1,0,0:0:0:0:
192,192,52370,2,0,L|16:192,1,144,0|0,0:0|0:0,0:0:0:0:
112,240,52670,1,0,0:0:0:0:
400,192,52770,5,0,0:0:0:0:
112,192,53170,1,2,0:0:0:0:
432,192,53570,1,2,0:0:0:0:
80,192,53970,2,0,L|64:240,6,36,2|0|0|0|0|0|0,0:0|0:0|0:0|0:0|0:0|0:0|0:0,0:0:0:0:
256,64,54370,6,0,P|320:96|240:128,1,180,2|0,0:0|0:0,0:0:0:0:
176,144,54670,1,0,0:0:0:0:
256,224,54770,2,0,L|400:352,1,180,0|0,0:0|0:0,0:0:0:0:
304,352,55070,1,0,0:0:0:0:
224,352,55170,5,0,0:0:0:0:
336,304,55270,2,0,P|384:272|304:192,1,180,2|0,0:0|0:0,0:0:0:0:
256,192,55570,2,0,L|144:192,1,90,0|0,0:0|0:0,0:0:0:0:
256,128,55770,2,0,L|352:128,1,90,0|0,0:0|0:0,0:0:0:0:
256,64,55970,6,0,P|192:96|272:128,1,180,2|0,0:0|0:0,0:0:0:0:
336,144,56270,1,0,0:0:0:0:
256,224,56370,2,0,L|112:352,1,180,0|0,0:0|0:0,0:0:0:0:
208,352,56670,1,0,0:0:0:0:
288,352,56770,5,0,0:0:0:0:
176,304,56870,2,0,P|128:272|208:192,1,180,2|0,0:0|0:0,0:0:0:0:
256,192,57170,2,0,L|368:192,1,90,0|0,0:0|0:0,0:0:0:0:
160,128,57370,2,0,L|144:64,3,45,0|0|0|0,0:0|0:0|0:0|0:0,0:0:0:0:
336,189,57570,6,0,P|393:254|320:301,1,180,2|0,0:0|0:0,0:0:0:0:
256,304,57870,1,0,0:0:0:0:
336,80,57970,2,0,L|128:80,1,180,0|0,0:0|0:0,0:0:0:0:
240,128,58270,1,0,0:0:0:0:
160,192,58370,5,0,0:0:0:0:
240,192,58470,2,0,P|299:240|219:298,1,180,2|0,0:0|0:0,0:0:0:0:
160,320,58770,2,0,L|272:320,1,90,0|0,0:0|0:0,0:0:0:0:
160,272,58970,2,0,L|64:272,1,90,0|0,0:0|0:0,0:0:0:0:
256,64,59170,6,0,L|464:64,1,180,2|0,0:0|0:0,0:0:0:0:
464,128,59470,1,0,0:0:0:0:
256,128,59570,2,0,L|48:128,1,180,0|0,0:0|0:0,0:0:0:0:
48,192,59870,1,0,0:0:0:0:
416,192,59970,2,0,P|464:208|400:288,1,180,2|0,0:0|0:0,0:0:0:0:
320,288,60270,1,0,0:0:0:0:
144,192,60370,1,2,0:0:0:0:
368,192,60470,2,0,L|384:224,8,22.5
256,48,60770,6,0,P|208:96|256:160,1,161.999995056153,2|0,0:0|0:0,0:0:0:0:
368,48,61170,2,0,L|144:48,1,215.999993408203,0|0,0:0|0:0,0:0:0:0:
336,112,61770,1,0,0:0:0:0:
176,112,61970,1,0,0:0:0:0:
336,192,62170,1,0,0:0:0:0:
176,272,62370,6,0,P|208:144|288:80,1,215.999993408203,2|0,0:0|0:0,0:0:0:0:
416,64,62970,1,0,0:0:0:0:
320,112,63170,2,0,P|208:208|336:272,1,323.999990112305,0|0,0:0|0:0,0:0:0:0:
432,256,63970,6,0,P|416:176|336:160,1,161.999995056153,2|0,0:0|0:0,0:0:0:0:
256,160,64370,2,0,P|208:192|272:320,1,215.999993408203,0|0,0:0|0:0,0:0:0:0:
336,192,64970,1,0,0:0:0:0:
176,192,65170,1,2,0:0:0:0:
336,192,65370,1,2,0:0:0:0:
32,32,65570,6,0,P|32:112|496:32,1,809.999975280762,2|0,0:0|0:0,0:0:0:0:
256,48,67170,2,0,P|224:64|272:144,1,144,2|0,0:0|0:0,0:0:0:0:
384,192,67570,1,0,0:0:0:0:
256,256,67770,2,0,L|176:256,4,72,2|0|2|0|0,0:0|0:0|0:0|0:0|0:0,0:0:0:0:
384,256,68370,1,0,0:0:0:0:
256,208,68570,2,0,L|160:208,1,72,2|0,0:0|0:0,0:0:0:0:
368,64,68770,6,0,P|416:96|352:144,1,144,2|0,0:0|0:0,0:0:0:0:
256,160,69170,1,0,0:0:0:0:
128,192,69370,2,0,L|32:192,4,72,2|0|2|0|0,0:0|0:0|0:0|0:0|0:0,0:0:0:0:
256,192,69970,1,0,0:0:0:0:
128,272,70170,2,0,L|48:272,1,72,2|0,0:0|0:0,0:0:0:0:
256,32,70370,6,0,P|304:64|256:112,1,144,2|0,0:0|0:0,0:0:0:0:
128,112,70770,1,0,0:0:0:0:
256,192,70970,2,0,L|336:192,4,72,2|0|2|0|0,0:0|0:0|0:0|0:0|0:0,0:0:0:0:
128,192,71570,1,0,0:0:0:0:
256,256,71770,2,0,L|352:256,1,72,2|0,0:0|0:0,0:0:0:0:
160,32,71970,6,0,P|80:64|192:304,1,432,2|0,0:0|0:0,0:0:0:0:
320,192,72770,2,0,L|416:192,2,72,0|0|0,0:0|0:0|0:0,0:0:0:0:
160,64,73170,2,0,P|96:80|176:160,1,216,2|0,0:0|0:0,0:0:0:0:
352,64,73570,6,0,L|424:64,2,72,4|0|0,0:0|0:0|0:0,0:0:0:0:
160,240,73870,1,0,0:0:0:0:
352,336,73970,1,0,0:0:0:0:
393,323,74020,1,0,0:0:0:0:
403,282,74070,1,0,0:0:0:0:
372,251,74120,1,0,0:0:0:0:
208,192,74170,2,0,L|112:192,1,72,0|0,0:0|0:0,0:0:0:0:
336,64,74370,5,0,0:0:0:0:
176,64,74470,2,0,L|126:64,2,36,4|0|0,0:0|0:0|0:0,0:0:0:0:
336,112,74670,1,0,0:0:0:0:
160,336,74770,1,0,0:0:0:0:
119,323,74820,1,0,0:0:0:0:
109,282,74870,1,0,0:0:0:0:
140,251,74920,1,0,0:0:0:0:
352,336,74970,1,0,0:0:0:0:
393,323,75020,1,0,0:0:0:0:
403,282,75070,1,0,0:0:0:0:
372,251,75120,1,0,0:0:0:0:
64,192,75170,6,0,L|128:192,1,45,4|0,0:0|0:0,0:0:0:0:
230,192,75270,2,0,L|278:192,1,45,0|0,0:0|0:0,0:0:0:0:
448,192,75370,2,0,L|384:192,1,45,0|0,0:0|0:0,0:0:0:0:
275,192,75470,2,0,L|227:192,1,45,0|0,0:0|0:0,0:0:0:0:
112,48,75570,6,0,L|32:48,1,45,0|0,0:0|0:0,0:0:0:0:
233,48,75670,2,0,L|313:48,1,45,0|0,0:0|0:0,0:0:0:0:
400,48,75770,2,0,L|464:48,1,45,0|0,0:0|0:0,0:0:0:0:
279,48,75870,2,0,L|199:48,1,45,0|0,0:0|0:0,0:0:0:0:
64,48,75970,6,0,L|128:48,1,45,0|0,0:0|0:0,0:0:0:0:
233,48,76070,2,0,L|313:48,1,45,0|0,0:0|0:0,0:0:0:0:
448,48,76170,2,0,L|384:48,1,45,0|0,0:0|0:0,0:0:0:0:
279,48,76270,2,0,L|199:48,1,45,0|0,0:0|0:0,0:0:0:0:
64,48,76370,1,4,0:0:0:0:
224,192,76570,6,0,L|288:192,2,45,2|0|2,0:2|0:0|0:2,0:0:0:0:
64,144,76770,6,0,L|64:320,1,144,6|0,0:2|0:0,0:0:0:0:
224,48,77170,2,0,L|128:48,1,72,0|0,0:0|0:0,0:0:0:0:
304,48,77470,2,0,L|304:224,1,144,0|0,0:0|0:0,0:0:0:0:
208,192,77770,1,0,0:0:0:0:
32,288,77970,2,0,L|192:288,1,144,0|0,0:0|0:0,0:0:0:0:
256,288,78270,1,0,0:0:0:0:
416,64,78370,2,0,P|464:96|400:144,1,144,0|0,0:0|0:0,0:0:0:0:
256,192,78770,2,0,L|352:192,1,72,0|0,0:0|0:0,0:0:0:0:
128,64,79070,6,0,P|96:80|144:160,1,144,0|0,0:0|0:0,0:0:0:0:
208,224,79370,2,0,L|64:224,1,144,0|0,0:0|0:0,0:0:0:0:
208,336,79770,2,0,L|128:336,1,72,0|0,0:0|0:0,0:0:0:0:
256,320,79970,2,0,L|256:144,1,144,0|0,0:0|0:0,0:0:0:0:
384,96,80370,2,0,L|312:96,1,72,0|0,0:0|0:0,0:0:0:0:
112,48,80670,2,0,L|256:48,1,144,0|0,0:0|0:0,0:0:0:0:
320,144,80970,2,0,L|160:144,1,144,0|0,0:0|0:0,0:0:0:0:
256,224,81270,2,0,L|336:224,2,72,0|0|0,0:0|0:0|0:0,0:0:0:0:
416,144,81570,6,0,P|447:194|373:241,1,144,0|0,0:0|0:0,0:0:0:0:
192,304,81870,2,0,L|352:304,1,144,0|0,0:0|0:0,0:0:0:0:
118,245,82170,2,0,P|66:203|96:144,1,144,0|0,0:0|0:0,0:0:0:0:
336,352,82470,2,0,L|176:352,1,144,0|0,0:0|0:0,0:0:0:0:
352,144,82770,2,0,P|384:160|336:240,1,144,0|0,0:0|0:0,0:0:0:0:
256,240,83070,1,0,0:0:0:0:
432,80,83170,6,0,L|512:80,2,72,6|0|2,0:2|0:0|0:0,0:0:0:0:
288,80,83570,2,0,L|288:160,1,72,0|0,0:0|0:0,0:0:0:0:
368,192,83770,1,2,0:0:0:0:
144,304,83870,2,0,P|96:256|160:208,1,144,0|0,0:0|0:0,0:0:0:0:
208,192,84170,1,2,0:0:0:0:
288,192,84270,1,0,0:0:0:0:
64,32,84370,2,0,L|64:176,1,144,0|2,0:0|0:0,0:0:0:0:
160,192,84670,1,0,0:0:0:0:
320,96,84770,6,0,L|416:96,2,72,0|0|2,0:0|0:0|0:0,0:0:0:0:
160,336,85170,2,0,L|160:240,1,72,0|0,0:0|0:0,0:0:0:0:
256,256,85370,1,2,0:0:0:0:
96,64,85470,2,0,P|48:96|112:144,1,144,0|0,0:0|0:0,0:0:0:0:
176,160,85770,1,2,0:0:0:0:
256,160,85870,1,0,0:0:0:0:
464,32,85970,2,0,L|464:176,1,144,0|2,0:0|0:0,0:0:0:0:
384,192,86270,1,0,0:0:0:0:
144,240,86370,6,0,L|48:240,2,72,0|0|2,0:0|0:0|0:0,0:0:0:0:
288,224,86770,2,0,L|288:304,1,72,0|0,0:0|0:0,0:0:0:0:
192,304,86970,1,2,0:0:0:0:
400,96,87070,2,0,L|240:96,1,144,0|0,0:0|0:0,0:0:0:0:
320,144,87370,1,2,0:0:0:0:
400,144,87470,1,0,0:0:0:0:
128,192,87570,5,0,0:0:0:0:
16,192,87670,2,0,L|16:256,2,36,0|0|2,0:0|0:0|0:0,0:0:0:0:
128,192,87870,1,0,0:0:0:0:
352,304,87970,6,0,P|416:272|448:192,1,144,0|2,0:0|0:0,0:0:0:0:
176,48,88270,2,0,L|336:48,1,144,0|0,0:0|0:0,0:0:0:0:
160,304,88570,2,0,L|64:304,1,72,2|0,0:0|0:0,0:0:0:0:
336,192,88770,2,0,L|432:192,2,72,0|0|2,0:0|0:0|0:0,0:0:0:0:
160,192,89070,1,0,0:0:0:0:
256,48,89170,5,8,0:0:0:0:
262,47,89182,1,0,0:0:0:0:
272,47,89195,1,0,0:0:0:0:
279,47,89207,1,0,0:0:0:0:
289,50,89220,1,0,0:0:0:0:
298,51,89232,1,0,0:0:0:0:
307,54,89245,1,0,0:0:0:0:
316,58,89257,1,0,0:0:0:0:
324,64,89270,1,0,0:0:0:0:
328,70,89282,1,0,0:0:0:0:
332,78,89295,1,0,0:0:0:0:
335,86,89307,1,0,0:0:0:0:
341,94,89320,1,0,0:0:0:0:
341,104,89332,1,0,0:0:0:0:
341,113,89345,1,0,0:0:0:0:
341,122,89357,1,0,0:0:0:0:
341,130,89370,1,12,0:0:0:0:
337,139,89382,1,0,0:0:0:0:
334,148,89395,1,0,0:0:0:0:
329,154,89407,1,0,0:0:0:0:
323,162,89420,1,0,0:0:0:0:
318,169,89432,1,0,0:0:0:0:
310,175,89445,1,0,0:0:0:0:
302,179,89457,1,0,0:0:0:0:
293,182,89470,1,0,0:0:0:0:
284,184,89482,1,0,0:0:0:0:
276,186,89495,1,0,0:0:0:0:
266,184,89507,1,0,0:0:0:0:
256,182,89520,1,0,0:0:0:0:
32,128,89570,6,0,L|32:224,1,90,6|0,0:0|0:0,0:0:0:0:
112,240,89770,2,0,L|112:336,1,90,2|0,0:0|0:0,0:0:0:0:
32,304,89970,1,2,0:0:0:0:
112,240,90070,1,2,0:0:0:0:
352,48,90170,2,0,P|392:69|343:125,1,135,2|0,2:0|2:0,0:0:0:0:
160,48,90370,6,0,L|64:48,2,72,6|0|0,3:0|3:0|3:0,0:0:0:0:
96,112,90670,2,0,L|0:112,2,72,6|0|0,3:0|3:0|3:0,0:0:0:0:
352,112,90970,6,0,L|352:208,1,72,2|2,2:2|2:2,0:0:0:0:
288,240,91170,2,0,L|368:240,1,72,4|0,0:2|2:0,0:0:0:0:
160,112,91370,2,0,L|160:208,1,72,2|0,2:0|2:0,0:0:0:0:
224,240,91570,2,0,L|144:240,1,72,2|0,2:0|2:0,0:0:0:0:
352,48,91770,6,0,L|416:48,2,36,2|0|2,0:2|0:0|0:2,0:0:0:0:
160,160,91970,5,2,0:0:0:0:
112,160,92003,2,0,L|80:160,2,24,0|0|0,0:0|0:0|0:0,0:0:0:0:
352,160,92170,1,2,0:0:0:0:
416,160,92203,2,0,L|448:160,2,24,0|0|0,0:0|0:0|0:0,0:0:0:0:
160,256,92370,6,0,L|64:256,1,72,2|2,3:0|3:0,0:0:0:0:
160,320,92570,2,0,L|256:320,1,72,2|2,3:0|3:0,0:0:0:0:
432,272,92770,6,0,L|352:272,2,72,6|0|0,0:0|0:0|0:0,0:0:0:0:
352,352,93070,2,0,L|272:352,2,72,2|0|0,0:2|0:0|0:0,0:0:0:0:
432,352,93370,1,2,0:2:0:0:
208,192,93470,2,0,L|208:112,1,72,0|0,0:0|0:0,0:0:0:0:
304,192,93670,2,0,L|304:112,1,72,6|0,0:0|0:0,0:0:0:0:
208,192,93869,1,0,0:0:0:0:
400,96,93970,2,0,P|448:144|384:176,1,144,2|2,2:0|2:0,0:0:0:0:
304,192,94270,1,0,0:0:0:0:
48,112,94370,6,0,P|64:192|176:240,1,180,6|0,0:0|0:0,0:0:0:0:
352,48,94670,2,0,L|160:48,1,180,6|0,0:0|0:0,0:0:0:0:
464,112,94970,2,0,P|448:192|336:240,1,180,6|0,0:0|0:0,0:0:0:0:
176,96,95270,2,0,L|368:96,1,180,6|0,0:0|0:0,0:0:0:0:
176,160,95570,2,0,L|96:160,1,72,2|0,0:0|0:0,0:0:0:0:
367,219,95770,5,8,0:0:0:0:
397,222,95795,1,0,0:0:0:0:
420,241,95820,1,0,0:0:0:0:
429,269,95845,1,0,0:0:0:0:
422,297,95870,1,0,0:0:0:0:
401,318,95895,1,0,0:0:0:0:
368,320,95920,1,0,0:0:0:0:
176,224,95970,6,0,P|144:240|192:320,1,144,8|2,0:0|0:0,0:0:0:0:
320,96,96370,2,0,L|416:96,2,72,8|0|2,0:0|0:0|0:0,0:0:0:0:
400,160,96670,2,0,L|496:160,2,72,0|8|0,0:0|0:0|0:0,0:0:0:0:
176,256,96970,1,2,0:0:0:0:
336,256,97170,2,0,P|384:224|336:176,1,144,8|2,0:0|0:2,0:0:0:0:
128,192,97470,1,0,0:0:0:0:
336,80,97570,6,0,L|432:80,1,72,8|0,3:0|3:0,0:0:0:0:
336,144,97770,2,0,L|240:144,1,72,2|0,3:0|3:0,0:0:0:0:
176,224,97970,2,0,L|272:224,2,72,8|0|2,3:0|3:0|3:0,0:0:0:0:
272,64,98270,2,0,P|320:112|256:144,1,144,8|0,3:0|3:0,0:0:0:0:
176,288,98570,2,0,L|256:288,1,72,2|0,3:0|3:0,0:0:0:0:
320,352,98770,2,0,L|144:352,1,144,8|2,3:0|0:0,0:0:0:0:
256,320,99070,1,2,0:0:0:0:
32,272,99170,6,0,L|32:176,1,72,6|0,0:0|0:0,0:0:0:0:
256,192,99370,2,0,L|176:192,1,72,2|0,0:0|0:0,0:0:0:0:
480,272,99570,2,0,L|480:176,1,72,2|2,0:0|0:0,0:0:0:0:
256,192,99770,2,0,L|336:192,1,72,0|2,0:0|0:0,0:0:0:0:
64,192,99970,5,4,0:0:0:0:
144,192,100070,1,2,0:0:0:0:
64,192,100170,1,2,0:0:0:0:
144,192,100270,1,0,0:0:0:0:
448,192,100370,5,2,0:0:0:0:
368,192,100470,1,0,0:0:0:0:
448,192,100570,1,2,0:0:0:0:
368,192,100670,1,0,0:0:0:0:
32,64,100770,2,0,P|204:81|16:336,1,647.99998022461,4|0,0:0|0:0,0:0:0:0:
208,64,102170,5,0,0:0:0:0:
304,64,102270,1,0,0:0:0:0:
48,128,102370,6,0,L|144:128,1,90,4|0,0:0|0:0,0:0:0:0:
352,128,102570,2,0,L|256:128,1,90,2|0,0:0|0:0,0:0:0:0:
448,128,102770,1,2,0:0:0:0:
262,128,102870,2,0,L|134:128,1,90,2|0,0:0|0:0,0:0:0:0:
400,80,103070,6,0,L|310:80,2,90,2|0|2,0:0|0:0|0:0,0:0:0:0:
160,64,103370,2,0,L|256:64,1,90,2|0,0:0|0:0,0:0:0:0:
464,304,103570,2,0,L|336:304,1,90,2|0,0:0|0:0,0:0:0:0:
144,304,103770,2,0,L|144:208,1,90,2|0,0:0|0:0,0:0:0:0:
352,96,103970,2,0,L|256:96,1,90,6|0,0:0|0:0,0:0:0:0:
96,48,104170,2,0,L|208:48,1,90,2|0,0:0|0:0,0:0:0:0:
0,48,104370,1,2,0:0:0:0:
186,48,104470,2,0,L|74:48,1,90,2|0,0:0|0:0,0:0:0:0:
352,48,104670,6,0,L|262:48,2,90,2|0|2,0:0|0:0|0:0,0:0:0:0:
160,112,104970,2,0,L|256:112,1,90,2|0,0:0|0:0,0:0:0:0:
80,224,105170,1,2,0:0:0:0:
44,199,105220,1,0,0:0:0:0:
40,156,105270,1,0,0:0:0:0:
71,125,105320,1,0,0:0:0:0:
256,128,105370,1,8,0:0:0:0:
287,159,105420,1,0,0:0:0:0:
283,202,105470,1,8,0:0:0:0:
247,227,105520,1,0,0:0:0:0:
32,304,105570,6,0,L|144:304,1,90,6|0,0:0|0:0,0:0:0:0:
336,304,105770,2,0,L|240:304,1,90,2|0,0:0|0:0,0:0:0:0:
416,304,105970,1,2,0:0:0:0:
246,304,106070,2,0,L|150:304,1,90,2|0,0:0|0:0,0:0:0:0:
384,192,106270,2,0,L|288:192,2,90,2|0|2,0:0|0:0|0:0,0:0:0:0:
208,112,106570,2,0,L|112:112,1,90,2|0,0:0|0:0,0:0:0:0:
304,112,106770,2,0,L|400:112,1,90,2|0,0:0|0:0,0:0:0:0:
208,32,106970,1,0,0:0:0:0:
165,44,107020,1,0,0:0:0:0:
135,77,107070,1,0,0:0:0:0:
127,120,107120,1,0,0:0:0:0:
304,224,107170,6,0,L|416:224,1,90,6|0,0:0|0:0,0:0:0:0:
192,224,107370,1,0,0:0:0:0:
394,224,107470,2,0,L|288:224,1,90,2|0,0:0|0:0,0:0:0:0:
96,304,107670,2,0,L|192:304,2,90,2|0|2,0:0|0:0|0:0,0:0:0:0:
304,32,107970,5,2,0:0:0:0:
347,44,108020,1,0,0:0:0:0:
377,77,108070,1,0,0:0:0:0:
385,120,108120,1,0,0:0:0:0:
208,32,108170,1,0,0:0:0:0:
165,44,108220,1,0,0:0:0:0:
135,77,108270,1,8,0:0:0:0:
127,120,108320,1,0,0:0:0:0:
352,192,108370,6,0,L|384:192,6,22.5,0|0|0|0|0|0|0,0:0|0:0|0:0|0:0|0:0|0:0|0:0,0:0:0:0:
160,192,108570,6,0,L|128:192,6,22.5,8|0|0|0|8|0|0,0:0|0:0|0:0|0:0|0:0|0:0|0:0,0:0:0:0:
224,192,108770,5,6,0:0:0:0:
64,192,108870,1,0,0:0:0:0:
224,256,108970,2,0,L|336:256,1,90,2|0,0:0|0:0,0:0:0:0:
144,256,109170,1,2,0:0:0:0:
314,256,109270,2,0,L|414:256,1,90,2|0,0:0|0:0,0:0:0:0:
224,256,109470,5,2,0:0:0:0:
404,256,109570,1,0,0:0:0:0:
224,192,109670,2,0,L|128:192,2,90,2|0|0,0:0|0:0|0:0,0:0:0:0:
400,48,109970,5,2,0:0:0:0:
429,79,110020,1,0,0:0:0:0:
422,121,110070,1,0,0:0:0:0:
383,140,110120,1,0,0:0:0:0:
240,128,110170,1,8,0:0:0:0:
200,109,110220,1,0,0:0:0:0:
193,66,110270,1,8,0:0:0:0:
223,35,110320,1,0,0:0:0:0:
384,224,110370,6,0,L|496:224,1,90,6|0,0:0|0:0,0:0:0:0:
304,288,110570,2,0,L|192:288,1,90,2|0,0:0|0:0,0:0:0:0:
384,288,110770,1,2,0:0:0:0:
208,192,110870,2,0,L|208:352,1,157.5,2|0,0:0|0:0,0:0:0:0:
208,160,111070,6,0,L|272:160,1,45,6|0,0:0|0:0,0:0:0:0:
368,160,111170,2,0,L|432:160,1,45,0|0,0:0|0:0,0:0:0:0:
208,112,111270,2,0,L|112:112,2,90,2|2|0,0:0|0:0|0:0,0:0:0:0:
368,64,111570,2,0,L|256:64,1,90,2|0,0:0|0:0,0:0:0:0:
448,192,111770,2,0,L|480:192,2,22.5,8|0|0,0:0|0:0|0:0,0:0:0:0:
256,192,111870,2,0,L|234:192,2,22.5,8|0|0,0:0|0:0|0:0,0:0:0:0:
368,256,111970,6,0,L|464:256,1,90,6|0,0:0|0:0,0:0:0:0:
288,256,112170,2,0,L|192:256,1,90,2|0,0:0|0:0,0:0:0:0:
368,256,112370,1,2,0:0:0:0:
192,48,112470,1,2,0:0:0:0:
164,81,112520,1,0,0:0:0:0:
164,125,112570,1,0,0:0:0:0:
192,159,112620,1,0,0:0:0:0:
352,64,112670,6,0,P|416:96|336:128,1,180,2|2,0:0|0:0,0:0:0:0:
192,224,112970,2,0,L|80:224,1,90,0|0,0:0|0:0,0:0:0:0:
368,224,113170,2,0,L|256:224,1,90,2|0,0:0|0:0,0:0:0:0:
96,272,113370,2,0,L|96:368,1,90,8|0,0:0|0:0,0:0:0:0:
320,176,113570,6,0,L|352:176,2,22.5,2|0|0,0:0|0:0|0:0,0:0:0:0:
192,176,113670,2,0,L|160:176,2,22.5,0|0|0,0:0|0:0|0:0,0:0:0:0:
256,176,113770,1,8,0:0:0:0:
464,64,113870,6,0,L|496:64,2,22.5,2|0|0,0:0|0:0|0:0,0:0:0:0:
336,64,113970,2,0,L|304:64,2,22.5,0|0|0,0:0|0:0|0:0,0:0:0:0:
400,64,114070,1,8,0:0:0:0:
192,176,114170,6,0,L|160:176,2,22.5,2|0|0,0:0|0:0|0:0,0:0:0:0:
320,176,114270,2,0,L|352:176,2,22.5,8|0|0,0:0|0:0|0:0,0:0:0:0:
256,176,114370,1,2,0:0:0:0:
48,64,114470,6,0,L|16:64,2,22.5,8|0|0,0:0|0:0|0:0,0:0:0:0:
176,64,114570,2,0,L|208:64,2,22.5,8|0|0,0:0|0:0|0:0,0:0:0:0:
112,64,114670,1,8,0:0:0:0:
352,32,114770,5,2,0:0:0:0:
374,32,114795,1,0,0:0:0:0:
395,40,114820,1,0,0:0:0:0:
411,55,114845,1,0,0:0:0:0:
420,76,114870,1,0,0:0:0:0:
420,98,114895,1,0,0:0:0:0:
413,119,114920,1,0,0:0:0:0:
160,32,114970,5,0,0:0:0:0:
137,32,114995,1,0,0:0:0:0:
116,40,115020,1,0,0:0:0:0:
100,55,115045,1,0,0:0:0:0:
91,76,115070,1,0,0:0:0:0:
91,98,115095,1,0,0:0:0:0:
98,119,115120,1,0,0:0:0:0:
368,240,115170,6,0,P|400:192|352:112,1,144,2|0,0:0|0:0,0:0:0:0:
256,64,115570,2,0,L|160:64,2,72,8|0|0,0:0|0:0|0:0,0:0:0:0:
144,240,115870,2,0,P|112:192|160:112,1,144,0|0,0:0|0:0,0:0:0:0:
320,192,116170,1,0,0:0:0:0:
192,192,116370,1,8,0:0:0:0:
320,144,116570,1,0,0:0:0:0:
144,240,116770,6,0,P|112:192|160:112,1,144,0|0,0:0|0:0,0:0:0:0:
256,64,117170,2,0,L|352:64,2,72,8|0|0,0:0|0:0|0:0,0:0:0:0:
368,240,117470,2,0,P|400:192|352:112,1,144,0|0,0:0|0:0,0:0:0:0:
192,192,117770,1,0,0:0:0:0:
320,192,117970,1,8,0:0:0:0:
192,144,118170,1,0,0:0:0:0:
368,240,118370,6,0,P|400:192|352:112,1,144,0|0,0:0|0:0,0:0:0:0:
176,48,118770,2,0,L|352:48,1,144,8|0,0:0|0:0,0:0:0:0:
144,128,119070,1,0,0:0:0:0:
64,160,119170,2,0,P|30:220|64:281,1,144,0|0,0:0|0:0,0:0:0:0:
256,336,119570,2,0,L|112:336,1,144,8|0,0:0|0:0,0:0:0:0:
368,288,119970,6,0,P|416:272|464:176,1,144,0|0,0:0|0:0,0:0:0:0:
144,288,120270,2,0,P|96:272|48:176,1,144,8|0,0:0|0:0,0:0:0:0:
256,64,120570,2,0,L|352:64,1,72,8|0,0:0|0:0,0:0:0:0:
256,112,120770,2,0,L|160:112,1,72,0|0,0:0|0:0,0:0:0:0:
368,128,120970,2,0,P|416:160|352:208,1,144,0|0,0:0|0:0,0:0:0:0:
272,208,121270,1,0,0:0:0:0:
48,192,121370,2,0,L|16:192,4,18,8|0|0|0|0,0:0|0:0|0:0|0:0|0:0,0:0:0:0:
256,64,121570,6,0,L|464:64,1,180,8|0,0:0|0:0,0:0:0:0:
256,128,121970,1,8,0:0:0:0:
352,176,122070,2,0,L|160:176,1,180,4|0,0:0|0:0,0:0:0:0:
256,240,122370,2,0,L|352:240,2,90,8|0|0,0:0|0:0|0:0,0:0:0:0:
160,80,122770,2,0,L|368:80,1,180,4|0,0:0|0:0,0:0:0:0:
340,80,123070,1,0,0:0:0:0:
256,64,123170,6,0,L|48:64,1,180,8|0,0:0|0:0,0:0:0:0:
256,128,123570,1,8,0:0:0:0:
160,176,123670,2,0,L|352:176,1,180,4|0,0:0|0:0,0:0:0:0:
256,240,123970,2,0,L|160:240,2,90,8|0|0,0:0|0:0|0:0,0:0:0:0:
352,80,124370,2,0,L|144:80,1,180,4|0,0:0|0:0,0:0:0:0:
172,80,124670,1,0,0:0:0:0:
416,224,124770,6,0,L|416:128,1,90,8|0,0:0|0:0,0:0:0:0:
256,80,124970,2,0,L|352:80,1,90,0|0,0:0|0:0,0:0:0:0:
176,48,125170,1,8,0:0:0:0:
346,80,125270,1,4,0:0:0:0:
176,112,125370,2,0,L|288:112,1,90,0|0,0:0|0:0,0:0:0:0:
96,224,125570,6,0,L|96:128,1,90,8|0,0:0|0:0,0:0:0:0:
256,80,125770,2,0,L|160:80,1,90,0|0,0:0|0:0,0:0:0:0:
336,48,125970,1,8,0:0:0:0:
166,80,126070,1,0,0:0:0:0:
336,112,126170,2,0,L|224:112,1,90,4|0,0:0|0:0,0:0:0:0:
48,96,126370,5,8,0:0:0:0:
52,140,126420,1,0,0:0:0:0:
79,175,126470,1,0,0:0:0:0:
120,192,126520,1,0,0:0:0:0:
320,192,126570,1,0,0:0:0:0:
361,175,126620,1,0,0:0:0:0:
388,140,126670,1,0,0:0:0:0:
392,96,126720,1,0,0:0:0:0:
192,192,126770,5,8,0:0:0:0:
151,175,126820,1,0,0:0:0:0:
124,140,126870,1,0,0:0:0:0:
120,96,126920,1,0,0:0:0:0:
464,96,126970,1,8,0:0:0:0:
460,140,127020,1,0,0:0:0:0:
433,175,127070,1,0,0:0:0:0:
392,192,127120,1,0,0:0:0:0:
128,256,127170,5,8,0:0:0:0:
107,246,127195,1,0,0:0:0:0:
89,233,127220,1,0,0:0:0:0:
74,216,127245,1,0,0:0:0:0:
64,196,127270,1,0,0:0:0:0:
58,175,127295,1,0,0:0:0:0:
56,152,127320,1,0,0:0:0:0:
384,256,127370,5,0,0:0:0:0:
404,246,127395,1,0,0:0:0:0:
422,233,127420,1,0,0:0:0:0:
437,216,127445,1,0,0:0:0:0:
447,196,127470,1,0,0:0:0:0:
453,175,127495,1,0,0:0:0:0:
455,152,127520,1,0,0:0:0:0:
128,272,127570,5,8,0:0:0:0:
384,336,127970,6,0,L|272:336,1,90,2|0,0:0|0:0,0:0:0:0:
128,192,128170,2,0,L|240:192,1,90,0|0,0:0|0:0,0:0:0:0:
400,192,128370,1,2,0:0:0:0:
218,192,128470,1,0,0:0:0:0:
400,80,128570,2,0,L|272:80,1,90,2|0,0:0|0:0,0:0:0:0:
128,80,128770,6,0,L|240:80,1,90,2|0,0:0|0:0,0:0:0:0:
32,192,128970,2,0,L|32:288,1,90,2|0,0:0|0:0,0:0:0:0:
192,192,129170,2,0,L|194:222,2,22.5,8|0|0,0:0|0:0|0:0,0:0:0:0:
32,192,129270,2,0,L|30:222,2,22.5,0|0|0,0:0|0:0|0:0,0:0:0:0:
192,128,129370,6,0,L|288:128,1,90,8|0,0:0|0:0,0:0:0:0:
448,128,129570,2,0,L|448:240,1,90,2|0,0:0|0:0,0:0:0:0:
256,256,129770,2,0,L|352:256,1,90,0|0,0:0|0:0,0:0:0:0:
160,256,129970,1,2,0:0:0:0:
346,256,130070,1,0,0:0:0:0:
176,192,130170,2,0,L|80:192,1,90,2|0,0:0|0:0,0:0:0:0:
304,192,130370,5,2,0:0:0:0:
348,187,130420,1,0,0:0:0:0:
370,150,130470,1,0,0:0:0:0:
355,109,130520,1,0,0:0:0:0:
160,192,130570,1,0,0:0:0:0:
117,187,130620,1,0,0:0:0:0:
95,150,130670,1,8,0:0:0:0:
110,109,130720,1,0,0:0:0:0:
288,16,130770,1,0,0:0:0:0:
303,57,130820,1,0,0:0:0:0:
281,94,130870,1,0,0:0:0:0:
238,99,130920,1,0,0:0:0:0:
48,256,130970,6,0,L|32:256,12,11.25,8|0|0|0|0|0|0|0|0|0|0|0|0,0:0|0:0|0:0|0:0|0:0|0:0|0:0|0:0|0:0|0:0|0:0|0:0|0:0,0:0:0:0:
208,256,131170,6,0,L|304:256,1,90,2|0,0:0|0:0,0:0:0:0:
80,336,131370,2,0,L|176:336,1,90,0|0,0:0|0:0,0:0:0:0:
336,336,131570,1,2,0:0:0:0:
170,336,131670,1,0,0:0:0:0:
336,272,131770,2,0,L|448:272,1,90,2|0,0:0|0:0,0:0:0:0:
256,224,131970,6,0,L|160:224,1,90,2|0,0:0|0:0,0:0:0:0:
384,144,132170,2,0,L|294:144,1,90,2|0,0:0|0:0,0:0:0:0:
480,64,132370,6,0,L|512:64,3,22.5,8|0|0|0,0:0|0:0|0:0|0:0,0:0:0:0:
464,64,132470,1,0,0:0:0:0:
256,64,132570,2,0,L|224:64,3,22.5,8|0|0|0,0:0|0:0|0:0|0:0,0:0:0:0:
272,64,132670,1,0,0:0:0:0:
480,192,132770,6,0,L|384:192,1,90,2|0,0:0|0:0,0:0:0:0:
208,240,132970,2,0,L|304:240,1,90,0|0,0:0|0:0,0:0:0:0:
112,192,133170,1,2,0:0:0:0:
298,240,133270,1,0,0:0:0:0:
112,128,133370,2,0,L|208:128,1,90,2|0,0:0|0:0,0:0:0:0:
432,64,133570,6,0,L|284:192,1,180,8|0,0:0|0:0,0:0:0:0:
80,64,133870,2,0,L|228:192,1,180,8|0,0:0|0:0,0:0:0:0:
432,64,134170,1,8,0:0:0:0:
176,192,134370,6,0,L|128:192,1,45,2|0,0:0|0:0,0:0:0:0:
336,192,134470,2,0,L|381:192,1,45,0|0,0:0|0:0,0:0:0:0:
176,192,134570,2,0,L|128:192,1,45,2|0,0:0|0:0,0:0:0:0:
336,192,134670,2,0,L|384:192,1,45,0|0,0:0|0:0,0:0:0:0:
112,272,134770,6,0,L|64:272,1,45,2|0,0:0|0:0,0:0:0:0:
208,272,134870,2,0,L|256:272,1,45,0|0,0:0|0:0,0:0:0:0:
400,272,134970,2,0,L|448:272,1,45,2|0,0:0|0:0,0:0:0:0:
304,272,135070,2,0,L|256:272,1,45,2|0,0:0|0:0,0:0:0:0:
128,144,135170,6,0,L|208:144,1,45,2|0,0:0|0:0,0:0:0:0:
384,144,135270,2,0,L|339:144,1,45,2|0,0:0|0:0,0:0:0:0:
128,112,135370,2,0,L|173:112,1,45,0|0,0:0|0:0,0:0:0:0:
384,112,135470,2,0,L|339:112,1,45,0|0,0:0|0:0,0:0:0:0:
128,192,135570,6,0,L|96:192,4,22.5,8|0|0|0|0,0:0|0:0|0:0|0:0|0:0,0:0:0:0:
288,192,135770,1,8,0:0:0:0:
224,192,135870,1,0,0:0:0:0:
384,64,135970,6,0,L|336:64,1,45,2|0,0:0|0:0,0:0:0:0:
128,64,136070,2,0,L|192:64,1,45,0|0,0:0|0:0,0:0:0:0:
384,32,136170,2,0,L|336:32,1,45,2|0,0:0|0:0,0:0:0:0:
128,32,136270,2,0,L|192:32,1,45,0|0,0:0|0:0,0:0:0:0:
336,128,136370,6,0,L|384:128,1,45,2|0,0:0|0:0,0:0:0:0:
256,192,136470,2,0,L|176:192,1,45,0|0,0:0|0:0,0:0:0:0:
48,128,136570,2,0,L|96:128,1,45,2|0,0:0|0:0,0:0:0:0:
211,128,136670,2,0,L|256:128,1,45,2|0,0:0|0:0,0:0:0:0:
384,224,136770,6,0,L|416:224,2,22.5,8|0|0,0:0|0:0|0:0,0:0:0:0:
176,224,136870,2,0,L|131:224,1,45,0|0,0:0|0:0,0:0:0:0:
336,288,136970,2,0,L|384:288,1,45,0|0,0:0|0:0,0:0:0:0:
128,304,137070,6,0,L|96:304,2,22.5,8|0|0,0:0|0:0|0:0,0:0:0:0:
336,352,137170,2,0,L|384:352,1,45,0|0,0:0|0:0,0:0:0:0:
176,304,137270,2,0,L|128:304,1,45,0|0,0:0|0:0,0:0:0:0:
336,96,137370,5,8,0:0:0:0:
356,105,137395,1,0,0:0:0:0:
370,122,137420,1,0,0:0:0:0:
374,144,137445,1,0,0:0:0:0:
368,165,137470,1,0,0:0:0:0:
353,181,137495,1,0,0:0:0:0:
332,189,137520,1,0,0:0:0:0:
144,144,137570,6,0,L|99:144,1,45,2|0,0:0|0:0,0:0:0:0:
240,144,137670,2,0,L|285:144,1,45
416,144,137770,2,0,L|461:144,1,45,2|0,0:0|0:0,0:0:0:0:
288,224,137870,2,0,L|243:224,1,45
80,192,137970,6,0,L|125:192,1,45,2|0,0:0|0:0,0:0:0:0:
240,192,138070,2,0,L|288:192,1,45
464,224,138170,2,0,L|416:224,1,45,2|0,0:0|0:0,0:0:0:0:
288,256,138270,2,0,L|240:256,1,45,2|0,0:0|0:0,0:0:0:0:
128,272,138370,6,0,L|64:272,1,45,2|0,0:0|0:0,0:0:0:0:
336,128,138470,2,0,L|381:128,1,45,0|0,0:0|0:0,0:0:0:0:
176,192,138570,2,0,L|128:192,1,45,2|0,0:0|0:0,0:0:0:0:
336,192,138670,2,0,L|384:192,1,45,0|0,0:0|0:0,0:0:0:0:
144,256,138770,2,0,L|112:256,6,22.5,8|0|0|0|0|0|0,0:0|0:0|0:0|0:0|0:0|0:0|0:0,0:0:0:0:
320,144,138970,6,0,L|352:144,2,22.5,8|0|0,0:0|0:0|0:0,0:0:0:0:
192,144,139070,2,0,L|160:144,2,22.5,0|0|0,0:0|0:0|0:0,0:0:0:0:
384,64,139170,6,0,L|429:64,1,45,2|0,0:0|0:0,0:0:0:0:
288,64,139270,2,0,L|224:64,1,45
128,64,139370,2,0,L|83:64,1,45,2|0,0:0|0:0,0:0:0:0:
240,32,139470,2,0,L|285:32,1,45
448,144,139570,6,0,L|400:144,1,45,2|0,0:0|0:0,0:0:0:0:
288,192,139670,2,0,L|243:192,1,45
64,192,139770,2,0,L|109:192,1,45,2|0,0:0|0:0,0:0:0:0:
240,256,139870,2,0,L|285:256,1,45,2|0,0:0|0:0,0:0:0:0:
480,352,139970,6,0,P|496:288|480:64,1,270,8|0,0:0|0:0,0:0:0:0:
32,352,140370,2,0,P|16:288|32:64,1,270,8|0,0:0|0:0,0:0:0:0:
256,304,140770,6,0,L|448:304,1,180,2|0,0:0|0:0,0:0:0:0:
368,256,141070,1,0,0:0:0:0:
192,304,141170,2,0,L|384:304,1,180,0|8,0:0|0:0,0:0:0:0:
304,256,141470,1,0,0:0:0:0:
128,304,141570,2,0,L|320:304,1,180,2|0,0:0|0:0,0:0:0:0:
240,256,141870,1,0,0:0:0:0:
64,304,141970,2,0,P|0:272|80:128,1,270,8|0,0:0|0:0,0:0:0:0:
352,64,142370,6,0,L|448:64,3,90,8|0|0|0,0:0|0:0|0:0|0:0,0:0:0:0:
256,128,142770,2,0,L|368:128,3,90,8|0|0|0,0:0|0:0|0:0|0:0,0:0:0:0:
96,80,143170,1,8,0:0:0:0:
256,80,143370,1,4,0:0:0:0:
96,80,143570,1,8,0:0:0:0:
416,80,143770,1,0,0:0:0:0:
256,304,143970,6,0,L|64:304,1,180,2|0,0:0|0:0,0:0:0:0:
144,256,144270,1,0,0:0:0:0:
320,304,144370,2,0,L|128:304,1,180,0|8,0:0|0:0,0:0:0:0:
208,256,144670,1,0,0:0:0:0:
384,304,144770,2,0,L|192:304,1,180,2|0,0:0|0:0,0:0:0:0:
272,256,145070,1,0,0:0:0:0:
448,304,145170,2,0,P|512:272|432:128,1,270,8|0,0:0|0:0,0:0:0:0:
160,64,145570,6,0,L|64:64,3,90,8|0|0|0,0:0|0:0|0:0|0:0,0:0:0:0:
256,128,145970,2,0,L|144:128,3,90,8|0|0|0,0:0|0:0|0:0|0:0,0:0:0:0:
368,224,146370,6,2,P|432:170|401:91,1,180,2|0,0:0|0:0,0:0:0:0:
144,224,146670,2,2,P|79:170|110:91,1,180,8|0,0:0|0:0,0:0:0:0:
320,48,146970,1,0,0:0:0:0:
192,48,147170,2,0,P|288:64|176:352,1,540,2|0,0:0|0:0,0:0:0:0:
384,48,147870,1,0,0:0:0:0:
480,48,147970,6,0,L|448:144,1,90,8|0,0:0|0:0,0:0:0:0:
352,144,148170,2,0,L|320:240,1,90,0|0,0:0|0:0,0:0:0:0:
224,224,148370,2,0,L|192:320,1,90,0|0,0:0|0:0,0:0:0:0:
96,288,148570,2,0,L|64:384,1,90,0|0,0:0|0:0,0:0:0:0:
352,48,148770,2,0,P|432:80|336:192,1,270,2|0,0:0|0:0,0:0:0:0:
160,48,149170,2,0,P|80:80|176:192,1,270,8|0,0:0|0:0,0:0:0:0:
464,192,149570,5,2,0:0:0:0:
304,192,149770,1,8,0:0:0:0:
464,192,149970,1,0,0:0:0:0:
192,48,150170,1,0,0:0:0:0:
320,48,150370,6,0,P|224:64|336:352,1,540,2|0,0:0|0:0,0:0:0:0:
128,48,151070,1,0,0:0:0:0:
32,48,151170,6,0,L|64:144,1,90,8|0,0:0|0:0,0:0:0:0:
160,144,151370,2,0,L|192:240,1,90,0|0,0:0|0:0,0:0:0:0:
288,224,151570,2,0,L|320:320,1,90,8|0,0:0|0:0,0:0:0:0:
416,288,151770,2,0,L|448:384,1,90,0|0,0:0|0:0,0:0:0:0:
160,48,151970,2,0,P|80:80|176:192,1,270,8|0,0:0|0:0,0:0:0:0:
368,112,152370,2,0,L|112:256,1,270,8|0,0:0|0:0,0:0:0:0:
352,48,152770,2,0,P|416:96|336:128,1,180,2|0,0:0|0:0,0:0:0:0:
160,48,153070,2,0,P|96:96|176:128,1,180,2|0,0:0|0:0,0:0:0:0:
352,192,153370,1,0,0:0:0:0:
480,144,153570,6,0,L|496:352,1,180,8|0,0:0|0:0,0:0:0:0:
336,144,153970,2,0,L|320:352,1,180,8|0,0:0|0:0,0:0:0:0:
176,144,154370,2,0,L|192:352,1,180,8|0,0:0|0:0,0:0:0:0:
32,144,154770,2,0,L|16:352,1,180,8|0,0:0|0:0,0:0:0:0:
480,144,155170,6,0,L|496:352,1,180,8|0,0:0|0:0,0:0:0:0:
336,144,155570,2,0,L|320:352,1,180,8|0,0:0|0:0,0:0:0:0:
176,144,155970,2,0,L|192:352,1,180,8|0,0:0|0:0,0:0:0:0:
32,144,156370,2,0,L|16:352,1,180,8|0,0:0|0:0,0:0:0:0:
352,48,156770,5,8,0:0:0:0:
448,48,156870,2,0,L|464:80,2,36,0|0|0,0:0|0:0|0:0,0:0:0:0:
352,48,157070,1,0,0:0:0:0:
160,144,157170,2,0,L|64:144,2,72,8|0|0,0:0|0:0|0:0,0:0:0:0:
352,192,157470,2,0,L|400:192,2,36,0|0|8,0:0|0:0|0:0,0:0:0:0:
256,224,157670,2,0,L|256:272,2,36
160,272,157870,2,0,L|64:272,1,72,0|8,0:0|0:0,0:0:0:0:
352,128,158070,2,0,L|416:128,2,36
256,128,158270,1,0,0:0:0:0:
48,80,158370,6,0,P|48:128|128:192,1,144
320,272,158670,2,0,L|160:272,1,144
432,32,158970,2,0,L|480:32,2,36,8|0|0,0:0|0:0|0:0,0:0:0:0:
176,224,159170,2,0,L|336:224,1,144
114,190,159470,2,0,P|57:149|48:80,1,144
256,64,159770,2,0,L|304:64,2,36
32,288,159970,6,0,L|0:288,12,18,2|0|0|0|0|0|0|0|0|0|0|0|0,0:0|0:0|0:0|0:0|0:0|0:0|0:0|0:0|0:0|0:0|0:0|0:0|0:0,0:0:0:0:
208,288,160370,1,8,0:0:0:0:
32,240,160470,1,0,0:0:0:0:
160,240,160670,1,2,0:0:0:0:
480,288,160770,6,0,L|512:288,12,18,0|0|0|0|0|0|0|0|0|0|0|0|0,0:0|0:0|0:0|0:0|0:0|0:0|0:0|0:0|0:0|0:0|0:0|0:0|0:0,0:0:0:0:
304,288,161170,1,8,0:0:0:0:
480,240,161270,1,0,0:0:0:0:
352,240,161470,1,0,0:0:0:0:
160,48,161570,6,0,L|144:64,4,18,2|0|0|0|0,0:0|0:0|0:0|0:0|0:0,0:0:0:0:
352,48,161770,2,0,L|368:64,4,18,0|0|0|0|0,0:0|0:0|0:0|0:0|0:0,0:0:0:0:
160,128,161970,1,8,0:0:0:0:
256,128,162070,2,0,P|295:143|256:192,1,126,0|0,0:0|0:0,0:0:0:0:
224,192,162270,1,10,0:0:0:0:
400,192,162370,6,0,L|400:288,1,90,0|0,0:0|0:0,0:0:0:0:
208,272,162570,2,0,L|304:272,1,90,0|0,0:0|0:0,0:0:0:0:
112,192,162770,2,0,L|112:288,1,90,2|0,0:0|0:0,0:0:0:0:
320,144,162970,1,0,0:0:0:0:
357,121,163020,1,0,0:0:0:0:
363,78,163070,1,0,0:0:0:0:
333,46,163120,1,0,0:0:0:0:
128,32,163170,6,0,L|112:144,1,90,8|0,0:0|0:0,0:0:0:0:
304,192,163370,2,0,L|208:192,1,90,0|0,0:0|0:0,0:0:0:0:
32,192,163570,2,0,L|48:288,1,90,8|0,0:0|0:0,0:0:0:0:
208,288,163770,2,0,L|304:288,1,90,0|0,0:0|0:0,0:0:0:0:
480,32,163970,6,0,L|464:144,1,90,8|0,0:0|0:0,0:0:0:0:
208,176,164170,2,0,L|304:176,1,90,0|0,0:0|0:0,0:0:0:0:
464,208,164370,2,0,L|480:304,1,90,8|0,0:0|0:0,0:0:0:0:
304,288,164570,2,0,L|208:288,1,90,8|0,0:0|0:0,0:0:0:0:
416,48,164770,6,0,L|400:112,1,45,0|0,0:0|0:0,0:0:0:0:
288,112,164870,2,0,L|224:112,1,45,0|0,0:0|0:0,0:0:0:0:
128,144,164970,2,0,L|117:187,1,45,0|0,0:0|0:0,0:0:0:0:
416,48,165070,6,0,L|400:112,1,45,0|0,0:0|0:0,0:0:0:0:
288,112,165170,2,0,L|224:112,1,45,0|0,0:0|0:0,0:0:0:0:
128,144,165270,2,0,L|117:187,1,45,0|0,0:0|0:0,0:0:0:0:
416,48,165370,6,0,L|400:112,1,45,0|0,0:0|0:0,0:0:0:0:
288,112,165470,2,0,L|224:112,1,45,0|0,0:0|0:0,0:0:0:0:
128,96,165570,1,0,0:0:0:0:
106,96,165595,1,0,0:0:0:0:
84,102,165620,1,0,0:0:0:0:
64,112,165645,1,0,0:0:0:0:
47,126,165670,1,0,0:0:0:0:
32,143,165695,1,0,0:0:0:0:
22,163,165720,1,0,0:0:0:0:
17,185,165745,1,0,0:0:0:0:
16,207,165770,1,0,0:0:0:0:
19,229,165795,1,0,0:0:0:0:
28,250,165820,1,0,0:0:0:0:
40,269,165845,1,0,0:0:0:0:
57,284,165870,1,0,0:0:0:0:
76,296,165895,1,0,0:0:0:0:
97,303,165920,1,0,0:0:0:0:
119,306,165945,1,0,0:0:0:0:
336,192,165970,5,8,0:0:0:0:
176,256,166170,2,0,L|288:256,1,90,0|0,0:0|0:0,0:0:0:0:
448,256,166370,5,2,0:0:0:0:
272,320,166470,1,0,0:0:0:0:
448,320,166570,2,0,L|352:320,1,90,2|0,0:0|0:0,0:0:0:0:
176,320,166770,1,2,0:0:0:0:
352,192,166870,2,0,L|448:192,1,90,2|0,0:0|0:0,0:0:0:0:
160,112,167070,6,0,L|352:112,1,180,2|0,0:0|0:0,0:0:0:0:
160,272,167370,1,2,0:0:0:0:
336,272,167470,1,0,0:0:0:0:
160,336,167570,2,0,L|32:336,1,90,2|0,0:0|0:0,0:0:0:0:
256,288,167770,1,0,0:0:0:0:
299,287,167820,1,0,0:0:0:0:
328,255,167870,1,0,0:0:0:0:
323,211,167920,1,0,0:0:0:0:
160,128,167970,6,0,L|256:128,1,90,2|0,0:0|0:0,0:0:0:0:
416,48,168170,2,0,L|320:48,1,90,2|0,0:0|0:0,0:0:0:0:
512,112,168370,1,2,0:0:0:0:
320,176,168470,2,0,L|416:176,1,90,2|0,0:0|0:0,0:0:0:0:
192,176,168670,6,0,L|80:176,1,90,2|0,0:0|0:0,0:0:0:0:
272,176,168870,1,2,0:0:0:0:
96,96,168970,2,0,L|192:96,1,90,2|0,0:0|0:0,0:0:0:0:
384,80,169170,6,0,L|400:112,4,22.5,8|0|0|0|0,0:0|0:0|0:0|0:0|0:0,0:0:0:0:
256,80,169320,1,0,0:0:0:0:
128,80,169370,2,0,L|112:112,4,22.5,8|0|0|0|0,0:0|0:0|0:0|0:0|0:0,0:0:0:0:
256,80,169520,1,0,0:0:0:0:
384,160,169570,6,0,L|288:160,1,90,2|0,0:0|0:0,0:0:0:0:
496,240,169770,2,0,L|384:240,1,90,2|0,0:0|0:0,0:0:0:0:
224,240,169970,1,2,0:0:0:0:
400,336,170070,2,0,L|512:336,1,90,2|0,0:0|0:0,0:0:0:0:
224,304,170270,2,0,L|96:304,1,90,2|0,0:0|0:0,0:0:0:0:
304,256,170470,1,0,0:0:0:0:
128,240,170570,2,0,L|0:240,1,90,2|0,0:0|0:0,0:0:0:0:
224,192,170770,6,0,L|336:192,1,90,2|0,0:0|0:0,0:0:0:0:
480,112,170970,2,0,L|384:112,1,90,0|0,0:0|0:0,0:0:0:0:
224,112,171170,5,2,0:0:0:0:
400,48,171270,2,0,L|304:48,1,90,0|0,0:0|0:0,0:0:0:0:
144,112,171470,1,2,0:0:0:0:
304,160,171570,2,0,L|400:160,1,90,0|0,0:0|0:0,0:0:0:0:
208,160,171770,1,2,0:0:0:0:
394,160,171870,1,0,0:0:0:0:
208,304,171970,5,8,0:0:0:0:
165,303,172020,1,0,0:0:0:0:
136,271,172070,1,0,0:0:0:0:
141,227,172120,1,0,0:0:0:0:
304,304,172170,1,0,0:0:0:0:
347,303,172220,1,0,0:0:0:0:
376,271,172270,1,0,0:0:0:0:
371,227,172320,1,0,0:0:0:0:
144,32,172370,5,8,0:0:0:0:
123,22,172395,1,0,0:0:0:0:
101,19,172420,1,0,0:0:0:0:
80,25,172445,1,0,0:0:0:0:
62,39,172470,1,0,0:0:0:0:
50,58,172495,1,0,0:0:0:0:
45,79,172520,1,0,0:0:0:0:
49,101,172545,1,0,0:0:0:0:
60,121,172570,1,8,0:0:0:0:
78,135,172595,1,0,0:0:0:0:
99,141,172620,1,0,0:0:0:0:
121,140,172645,1,0,0:0:0:0:
142,131,172670,1,8,0:0:0:0:
320,64,172770,6,0,L|352:64,2,22.5,2|0|0,0:0|0:0|0:0,0:0:0:0:
192,64,172870,2,0,L|160:64,2,22.5,0|0|0,0:0|0:0|0:0,0:0:0:0:
368,144,172970,5,0,0:0:0:0:
373,188,173020,1,0,0:0:0:0:
344,220,173070,1,0,0:0:0:0:
301,221,173120,1,0,0:0:0:0:
144,144,173170,1,2,0:0:0:0:
139,188,173220,1,0,0:0:0:0:
168,220,173270,1,2,0:0:0:0:
211,221,173320,1,0,0:0:0:0:
416,96,173370,6,0,L|448:96,6,22.5,0|0|0|0|2|0|0,0:0|0:0|0:0|0:0|0:0|0:0|0:0,0:0:0:0:
176,64,173570,1,0,0:0:0:0:
171,85,173595,1,0,0:0:0:0:
174,107,173620,1,0,0:0:0:0:
185,127,173645,1,0,0:0:0:0:
202,141,173670,1,2,0:0:0:0:
224,148,173695,1,0,0:0:0:0:
246,147,173720,1,0,0:0:0:0:
400,288,173770,5,2,0:0:0:0:
422,289,173795,1,0,0:0:0:0:
444,282,173820,1,0,0:0:0:0:
461,268,173845,1,0,0:0:0:0:
472,248,173870,1,0,0:0:0:0:
475,226,173895,1,0,0:0:0:0:
470,205,173920,1,0,0:0:0:0:
320,192,173970,6,0,L|288:192,2,22.5,2|0|0,0:0|0:0|0:0,0:0:0:0:
464,144,174070,2,0,L|486:144,2,22.5,0|0|0,0:0|0:0|0:0,0:0:0:0:
320,80,174170,2,0,L|224:80,1,90,2|2,0:0|0:0,0:0:0:0:
400,192,174370,2,0,L|400:224,2,22.5,2|0|0,0:0|0:0|0:0,0:0:0:0:
320,192,174470,1,0,0:0:0:0:
112,192,174570,2,0,L|96:208,2,22.5,2|0|0,0:0|0:0|0:0,0:0:0:0:
256,128,174670,2,0,L|368:128,1,90,0|2,0:0|0:0,0:0:0:0:
160,48,174870,2,0,P|118:65|168:138,1,157.5,2|0,0:0|0:0,0:0:0:0:
192,144,175070,1,2,0:0:0:0:
384,64,175170,6,0,L|272:64,1,90,0|0,0:0|0:0,0:0:0:0:
112,64,175370,2,0,L|224:64,1,90,2|2,0:0|0:0,0:0:0:0:
16,144,175570,2,0,L|16:240,1,90,2|0,0:0|0:0,0:0:0:0:
208,192,175770,2,0,L|240:192,2,22.5,2|0|0,0:0|0:0|0:0,0:0:0:0:
144,192,175870,2,0,L|112:192,2,22.5,0|0|0,0:0|0:0|0:0,0:0:0:0:
304,240,175970,6,0,L|400:240,1,90,2|0,0:0|0:0,0:0:0:0:
208,240,176170,2,0,L|112:240,1,90,2|0,0:0|0:0,0:0:0:0:
304,192,176370,1,2,0:0:0:0:
112,96,176470,2,0,L|224:96,1,90,2|0,0:0|0:0,0:0:0:0:
400,96,176670,2,0,L|288:96,1,90,2|0,0:0|0:0,0:0:0:0:
496,96,176870,2,0,L|496:192,1,90,2|2,0:0|0:0,0:0:0:0:
304,256,177070,2,0,L|416:256,1,90,0|2,0:0|0:0,0:0:0:0:
176,192,177270,5,0,0:0:0:0:
336,192,177370,1,8,0:0:0:0:
176,192,177470,1,0,0:0:0:0:
336,112,177570,6,0,L|384:112,1,45,2|0,0:0|0:0,0:0:0:0:
176,112,177670,2,0,L|128:112,1,45,0|0,0:0|0:0,0:0:0:0:
16,192,177770,2,0,L|80:192,1,45,8|0,0:0|0:0,0:0:0:0:
176,192,177870,2,0,L|240:192,1,45,2|0,0:0|0:0,0:0:0:0:
336,192,177970,2,0,L|384:192,1,45,0|0,0:0|0:0,0:0:0:0:
224,256,178070,2,0,L|160:256,1,45,8|0,0:0|0:0,0:0:0:0:
336,256,178170,6,0,L|400:256,1,45,2|0,0:0|0:0,0:0:0:0:
496,192,178270,2,0,L|432:192,1,45,8|0,0:0|0:0,0:0:0:0:
336,192,178370,2,0,L|272:192,1,45,2|0,0:0|0:0,0:0:0:0:
176,192,178470,2,0,L|128:192,1,45,8|0,0:0|0:0,0:0:0:0:
288,256,178570,2,0,L|352:256,1,45,8|0,0:0|0:0,0:0:0:0:
176,256,178670,2,0,L|112:256,1,45,8|0,0:0|0:0,0:0:0:0:
336,32,178770,5,2,0:0:0:0:
363,31,178795,1,0,0:0:0:0:
390,37,178820,1,0,0:0:0:0:
414,48,178845,1,0,0:0:0:0:
435,66,178870,1,0,0:0:0:0:
450,87,178895,1,0,0:0:0:0:
461,112,178920,1,0,0:0:0:0:
176,32,178970,1,0,0:0:0:0:
150,31,178995,1,0,0:0:0:0:
123,37,179020,1,0,0:0:0:0:
99,48,179045,1,0,0:0:0:0:
78,66,179070,1,0,0:0:0:0:
63,87,179095,1,0,0:0:0:0:
52,112,179120,1,0,0:0:0:0:
336,192,179170,5,0,0:0:0:0:
176,192,179570,1,0,0:0:0:0:
368,192,180770,1,0,0:0:0:0:
144,192,181170,1,0,0:0:0:0:
368,256,182370,5,0,0:0:0:0:
144,256,182770,1,0,0:0:0:0:
160,192,183970,1,0,0:0:0:0:
352,192,184370,1,0,0:0:0:0:
144,144,184770,1,0,0:0:0:0:
368,144,185170,1,0,0:0:0:0:
128,96,185570,5,0,0:0:0:0:
384,96,185970,1,0,0:0:0:0:
160,256,187170,1,0,0:0:0:0:
352,256,187570,1,0,0:0:0:0:
144,304,188770,5,0,0:0:0:0:
368,304,189170,1,0,0:0:0:0:
160,192,190370,1,0,0:0:0:0:
352,192,190770,1,0,0:0:0:0:
144,144,191170,1,0,0:0:0:0:
368,144,191570,1,0,0:0:0:0:
128,96,191970,5,0,0:0:0:0:
256,192,192020,12,0,195970,0:0:0:0:
