osu file format v14

[General]
AudioFilename: B1.mp3
AudioLeadIn: 0
PreviewTime: 47924
Countdown: 0
SampleSet: Soft
StackLeniency: 0.7
Mode: 2
LetterboxInBreaks: 0
WidescreenStoryboard: 0

[Editor]
DistanceSpacing: 1.3
BeatDivisor: 4
GridSize: 32
TimelineZoom: 2.1

[Metadata]
Title:Dan ~ CTB ~ BossMap Pack
TitleUnicode:Dan ~ CTB ~ BossMap Pack
Artist:Various Artists
ArtistUnicode:Various Artists
Creator:Emiru
Version:Ifuudoudou ~ 1st ~ (Marathon)
Source:
Tags:
BeatmapID:1841200
BeatmapSetID:697139

[Difficulty]
HPDrainRate:5
CircleSize:4
OverallDifficulty:9
ApproachRate:9
SliderMultiplier:2.2
SliderTickRate:4

[Events]
//Background and Video events
0,0,"B1.jpg",0,0
//Break Periods
//Storyboard Layer 0 (Background)
//Storyboard Layer 1 (Fail)
//Storyboard Layer 2 (Pass)
//Storyboard Layer 3 (Foreground)
//Storyboard Layer 4 (Overlay)
//Storyboard Sound Samples

[TimingPoints]
11751,461.538461538462,4,2,1,60,1,0
19135,-100,4,2,3,60,0,0
19597,-100,4,2,1,60,0,0
22827,-100,4,2,3,60,0,0
23289,-100,4,2,1,60,0,0
32981,-100,4,2,1,60,0,0
33904,-100,4,2,1,60,0,0
40366,-100,4,2,1,50,0,0
40827,-100,4,2,1,40,0,0
41289,-100,4,2,1,60,0,0
47520,-76.9230769230769,4,2,1,60,0,0
47866,-76.9230769230769,4,2,1,60,0,0
47981,-83.3333333333333,4,2,1,50,0,0
48674,-83.3333333333333,4,2,1,70,0,1
56058,-83.3333333333333,4,2,2,80,0,1
63443,-100,4,2,3,60,0,0
63674,-100,4,2,1,60,0,0
67366,-100,4,2,1,60,0,0
67827,-100,4,2,1,60,0,0
68289,-100,4,2,1,60,0,0
68751,-100,4,2,1,60,0,0
69212,-100,4,2,1,60,0,0
69558,-100,4,2,1,60,0,0
69789,-100,4,2,1,5,0,0
69904,-100,4,2,1,40,0,0
70193,-100,4,2,1,40,0,0
70827,-100,4,2,1,60,0,0
77289,-100,4,2,1,60,0,0
77981,-100,4,2,1,60,0,0
84674,-100,4,2,1,50,0,0
85135,-100,4,2,1,40,0,0
85597,-100,4,2,1,60,0,0
91135,-100,4,2,2,70,0,0
92981,-100,4,2,1,80,0,0
93097,-100,4,2,1,5,0,0
93212,-100,4,2,1,80,0,0
93327,-100,4,2,1,5,0,0
93443,-100,4,2,1,80,0,0
93558,-100,4,2,1,5,0,0
93674,-100,4,2,1,80,0,0
93789,-100,4,2,1,5,0,0
93904,-76.9230769230769,4,2,1,80,0,0
94135,-76.9230769230769,4,2,1,50,0,0
94827,-83.3333333333333,4,2,1,70,0,1
102212,-83.3333333333333,4,2,2,80,0,1
109597,-83.3333333333333,4,2,1,70,0,1
120674,-100,4,2,3,50,0,0
121135,-100,4,2,1,50,0,0
128058,-100,4,2,3,60,0,0
128520,-100,4,2,1,60,0,0
131751,-100,4,2,3,60,0,0
132212,-100,4,2,1,60,0,0
135212,-100,4,2,1,40,0,0
135674,-100,4,2,1,40,0,0
136135,-100,4,2,1,40,0,0
136597,-100,4,2,1,40,0,0
137058,-100,4,2,1,40,0,0

[HitObjects]
183,82,11750,6,0,P|108:73|45:93,2,110,6|6|6,0:1|0:1|0:1,0:0:0:0:
340,144,12443,2,0,P|410:143|431:134,2,55,2|0|2,0:0|0:0|0:1,0:0:0:0:
188,74,12904,1,2,0:0:0:0:
360,157,13135,1,2,0:1:0:0:
43,247,13366,6,0,L|156:230,1,110,2|2,0:0|0:1,0:0:0:0:
297,280,13827,1,2,0:0:0:0:
151,228,14058,2,0,L|131:110,1,110,2|2,0:1|0:0,0:0:0:0:
305,127,14520,2,0,L|422:113,1,110,2|2,0:1|0:0,0:0:0:0:
274,244,14981,2,0,L|397:227,1,110,2|2,0:1|0:0,0:0:0:0:
184,151,15443,5,2,0:1:0:0:
331,335,15674,2,0,L|337:220,1,110,2|2,0:0|0:1,0:0:0:0:
170,149,16135,1,2,0:0:0:0:
324,202,16366,2,0,L|459:188,2,110,2|2|2,0:1|0:0|0:1,0:0:0:0:
153,271,17058,6,0,L|390:291,1,220,2|2,0:0|0:0,0:0:0:0:
506,308,17751,1,2,0:1:0:0:
160,189,17981,2,0,L|389:167,1,220,2|2,0:0|0:0,0:0:0:0:
224,91,18674,2,0,L|104:79,1,110,2|2,0:1|0:0,0:0:0:0:
463,22,19135,5,6,0:1:0:0:
317,87,19366,2,0,L|308:156,2,55,2|2|2,0:0|0:0|0:1,0:0:0:0:
463,22,19827,1,2,0:0:0:0:
317,88,20058,2,0,L|189:78,1,110,10|2,0:1|0:0,0:0:0:0:
76,200,20520,2,0,L|208:185,1,110,2|2,0:1|0:0,0:0:0:0:
483,265,20981,5,10,0:1:0:0:
351,202,21212,1,2,0:0:0:0:
296,208,21327,1,0,0:0:0:0:
241,215,21442,1,2,0:1:0:0:
118,232,21674,1,2,0:0:0:0:
291,323,21904,2,0,L|298:197,1,110,10|0,0:1|0:0,0:0:0:0:
453,211,22366,2,0,L|465:90,1,110,2|2,0:1|0:0,0:0:0:0:
174,56,22827,5,6,0:1:0:0:
321,123,23058,1,2,0:0:0:0:
266,122,23173,1,2,0:0:0:0:
211,122,23288,1,2,0:1:0:0:
87,119,23520,1,2,0:0:0:0:
221,172,23751,1,10,0:1:0:0:
80,219,23981,2,0,L|190:218,1,110,2|2,0:0|0:1,0:0:0:0:
344,279,24443,6,0,L|110:278,1,220,2|2,0:0|0:0,0:0:0:0:
3,275,25135,1,2,0:1:0:0:
355,122,25366,2,0,L|133:122,1,220,2|2,0:0|0:0,0:0:0:0:
300,52,26058,2,0,L|417:53,1,110,2|2,0:1|0:0,0:0:0:0:
116,36,26520,5,2,0:1:0:0:
280,233,26751,2,0,L|291:170,1,55,2|0,0:0|0:0,0:0:0:0:
196,166,26981,2,0,L|179:103,1,55,2|0,0:1|0:0,0:0:0:0:
259,73,27212,1,0,0:0:0:0:
439,175,27443,2,0,L|306:160,1,110,2|2,0:1|0:0,0:0:0:0:
183,307,27904,2,0,L|301:293,1,110,2|2,0:1|0:0,0:0:0:0:
98,229,28366,5,2,0:1:0:0:
252,226,28597,2,0,L|266:166,1,55,0|0,0:0|0:0,0:0:0:0:
174,144,28827,2,0,L|158:85,1,55,2|0,0:1|0:0,0:0:0:0:
256,81,29058,2,0,L|318:65,1,55,0|0,0:0|0:0,0:0:0:0:
187,40,29289,2,0,L|57:24,1,110,2|2,0:1|0:0,0:0:0:0:
260,133,29751,2,0,L|381:117,1,110,2|2,0:1|0:0,0:0:0:0:
169,206,30212,5,2,0:1:0:0:
333,320,30443,1,0,0:0:0:0:
382,298,30558,1,0,0:0:0:0:
410,252,30673,1,2,0:1:0:0:
406,198,30789,1,0,0:0:0:0:
371,157,30904,1,0,0:0:0:0:
319,144,31019,1,0,0:0:0:0:
260,144,31135,2,0,L|401:144,1,110,2|2,0:1|0:0,0:0:0:0:
205,78,31597,2,0,L|82:77,1,110,2|2,0:1|0:0,0:0:0:0:
432,21,32058,5,2,0:1:0:0:
314,79,32288,1,0,0:0:0:0:
308,184,32519,1,0,0:1:0:0:
420,241,32750,1,0,0:0:0:0:
250,156,32981,2,0,L|26:179,1,220,0|0,0:1|0:1,0:0:0:0:
41,351,33674,1,0,0:0:0:0:
381,351,33904,5,2,0:1:0:0:
225,265,34135,2,0,L|197:165,1,55,0|0,0:1|0:0,0:0:0:0:
296,206,34366,2,0,L|363:206,1,55,2|0,0:1|0:0,0:0:0:0:
248,136,34597,2,0,L|175:136,1,55,0|0,0:0|0:0,0:0:0:0:
313,86,34827,2,0,L|449:86,1,110,2|2,0:1|0:0,0:0:0:0:
246,34,35289,2,0,L|114:34,1,110,2|2,0:1|0:0,0:0:0:0:
342,20,35751,5,2,0:1:0:0:
182,101,35981,2,0,L|191:164,1,55,0|0,0:0|0:0,0:0:0:0:
270,148,36212,2,0,L|281:217,1,55,2|0,0:1|0:0,0:0:0:0:
362,198,36443,2,0,L|377:266,1,55,0|0,0:0|0:0,0:0:0:0:
274,280,36674,2,0,L|157:299,1,110,2|2,0:1|0:0,0:0:0:0:
494,370,37135,2,0,L|364:361,1,110,2|2,0:1|0:0,0:0:0:0:
175,343,37597,5,2,0:1:0:0:
339,287,37827,2,0,L|346:218,1,55,0|0,0:0|0:0,0:0:0:0:
267,194,38058,2,0,L|208:168,1,55,2|0,0:1|0:0,0:0:0:0:
339,141,38289,2,0,L|353:69,1,55,0|0,0:0|0:0,0:0:0:0:
246,22,38520,1,2,0:1:0:0:
133,58,38750,1,2,0:0:0:0:
125,161,38981,1,2,0:1:0:0:
233,202,39212,1,2,0:0:0:0:
386,195,39443,6,0,L|273:205,1,110,2|0,0:1|0:0,0:0:0:0:
109,293,39904,2,0,L|225:305,1,110,0|0,0:1|0:0,0:0:0:0:
377,343,40366,2,0,L|392:284,1,55,2|2,0:1|0:1,0:0:0:0:
303,248,40597,2,0,L|265:200,1,55,2|2,0:1|0:1,0:0:0:0:
371,167,40827,2,0,L|403:114,1,55,2|2,0:1|0:1,0:0:0:0:
295,106,41058,2,0,L|217:94,1,55,2|2,0:1|0:1,0:0:0:0:
41,236,41289,6,0,L|35:174,1,55,2|0,0:1|0:0,0:0:0:0:
110,140,41520,1,0,0:0:0:0:
241,171,41751,1,2,0:1:0:0:
96,123,41981,1,0,0:0:0:0:
254,167,42212,2,0,L|377:150,1,110,2|2,0:1|0:0,0:0:0:0:
503,258,42674,2,0,L|380:243,1,110,2|2,0:1|0:0,0:0:0:0:
84,338,43135,5,2,0:1:0:0:
231,299,43366,2,0,L|230:188,1,110,2|2,0:0|0:1,0:0:0:0:
88,140,43827,1,2,0:0:0:0:
292,166,44058,2,0,L|409:153,1,110,2|2,0:1|0:0,0:0:0:0:
228,68,44520,2,0,L|116:52,1,110,2|0,0:1|0:0,0:0:0:0:
421,32,44981,6,0,L|437:146,1,110,2|2,0:1|0:0,0:0:0:0:
304,167,45443,1,2,0:1:0:0:
446,256,45674,2,0,L|224:241,1,220,2|2,0:0|0:0,0:0:0:0:
81,308,46366,2,0,L|67:191,1,110,2|2,0:1|0:0,0:0:0:0:
375,189,46827,5,0,0:0:0:0:
240,176,47058,1,0,0:0:0:0:
101,159,47289,1,0,0:0:0:0:
404,47,47520,6,0,P|482:96|407:161,1,214.49999018097,0|0,0:0|0:0,0:0:0:0:
204,186,47981,2,0,L|111:185,1,65.9999979858399,2|2,0:0|0:0,0:0:0:0:
354,257,48212,2,0,L|500:257,1,131.99999597168,2|2,0:0|0:0,0:0:0:0:
413,232,48558,1,2,0:0:0:0:
157,343,48674,6,0,L|132:275,1,65.9999979858399,6|0,0:1|0:0,0:0:0:0:
228,258,48904,2,0,L|258:195,1,65.9999979858399,2|0,0:0|0:0,0:0:0:0:
152,187,49135,2,0,L|21:170,1,131.99999597168,10|2,0:0|0:0,0:0:0:0:
347,120,49597,2,0,L|487:110,1,131.99999597168,2|2,0:1|0:0,0:0:0:0:
403,84,49943,1,2,0:0:0:0:
173,28,50058,1,10,0:0:0:0:
113,46,50173,1,2,0:0:0:0:
107,108,50288,1,2,0:0:0:0:
162,137,50404,1,2,0:0:0:0:
380,159,50520,6,0,L|397:235,1,65.9999979858399,2|0,0:1|0:0,0:0:0:0:
301,240,50751,2,0,L|281:306,1,65.9999979858399,2|0,0:0|0:0,0:0:0:0:
366,336,50981,2,0,L|511:363,1,131.99999597168,10|2,0:0|0:0,0:0:0:0:
167,207,51443,2,0,L|27:219,1,131.99999597168,2|2,0:1|0:0,0:0:0:0:
112,185,51789,1,2,0:0:0:0:
326,253,51904,2,0,L|337:186,1,65.9999979858399,10|2,0:0|0:0,0:0:0:0:
241,172,52135,2,0,L|221:106,1,65.9999979858399,2|2,0:0|0:0,0:0:0:0:
438,154,52366,6,0,L|505:133,1,65.9999979858399,2|0,0:1|0:0,0:0:0:0:
404,131,52597,2,0,L|331:116,1,65.9999979858399,2|0,0:0|0:0,0:0:0:0:
439,154,52827,2,0,P|484:97|435:48,1,131.99999597168,10|2,0:0|0:0,0:0:0:0:
383,50,53174,1,2,0:0:0:0:
173,49,53289,6,0,L|27:49,1,131.99999597168,2|2,0:1|0:0,0:0:0:0:
113,78,53635,1,2,0:0:0:0:
309,98,53751,2,0,L|330:177,1,65.9999979858399,10|2,0:0|0:0,0:0:0:0:
235,175,53981,2,0,L|157:195,1,65.9999979858399,2|0,0:0|0:0,0:0:0:0:
413,346,54212,6,0,L|440:273,1,65.9999979858399,2|0,0:1|0:0,0:0:0:0:
329,259,54443,2,0,L|306:189,1,65.9999979858399,2|0,0:0|0:0,0:0:0:0:
407,182,54674,2,0,L|434:109,1,65.9999979858399,10|0,0:0|0:0,0:0:0:0:
323,95,54905,2,0,L|300:25,1,65.9999979858399,2|0,0:0|0:0,0:0:0:0:
490,11,55135,5,2,0:1:0:0:
296,41,55366,2,0,L|285:119,1,65.9999979858399,2|2,0:0|0:0,0:0:0:0:
189,105,55597,2,0,L|178:181,1,65.9999979858399,10|0,0:0|0:0,0:0:0:0:
83,182,55827,2,0,L|69:269,1,65.9999979858399,2|2,0:0|0:0,0:0:0:0:
351,321,56058,6,0,L|495:308,1,131.99999597168,10|2,0:1|0:0,0:0:0:0:
164,353,56520,2,0,L|22:338,1,131.99999597168,10|2,0:1|0:0,0:0:0:0:
351,321,56981,2,0,L|495:308,1,131.99999597168,10|0,0:1|0:0,0:0:0:0:
409,289,57327,1,2,0:0:0:0:
329,285,57443,2,0,L|312:219,1,65.9999979858399,10|2,0:1|0:0,0:0:0:0:
395,205,57674,2,0,L|377:118,1,65.9999979858399,2|0,0:0|0:0,0:0:0:0:
164,73,57904,6,0,L|-6:56,1,131.99999597168,10|2,0:1|0:0,0:0:0:0:
348,311,58366,2,0,L|518:328,1,131.99999597168,10|2,0:1|0:0,0:0:0:0:
164,73,58827,2,0,L|-6:56,1,131.99999597168,10|0,0:1|0:0,0:0:0:0:
99,90,59174,1,2,0:0:0:0:
165,101,59289,2,0,L|234:101,1,65.9999979858399,10|2,0:1|0:0,0:0:0:0:
153,118,59520,2,0,L|73:118,1,65.9999979858399,2|0,0:0|0:0,0:0:0:0:
342,189,59751,6,0,L|513:189,1,131.99999597168,10|2,0:1|0:0,0:0:0:0:
152,189,60212,2,0,L|-19:189,1,131.99999597168,10|2,0:1|0:0,0:0:0:0:
342,189,60674,2,0,L|513:189,1,131.99999597168,10|0,0:1|0:0,0:0:0:0:
394,241,61020,2,0,L|385:159,1,65.9999979858399,2|10,0:0|0:1,0:0:0:0:
472,167,61251,2,0,L|467:97,1,65.9999979858399,0|2,0:0|0:0,0:0:0:0:
381,81,61481,1,2,0:0:0:0:
143,39,61597,6,0,L|11:39,1,131.99999597168,10|2,0:1|0:0,0:0:0:0:
369,345,62058,2,0,L|501:345,1,131.99999597168,10|2,0:1|0:0,0:0:0:0:
143,39,62520,2,0,L|11:39,1,131.99999597168,10|2,0:1|0:0,0:0:0:0:
319,183,62981,2,0,L|159:183,1,131.99999597168,10|2,0:1|0:0,0:0:0:0:
486,320,63443,6,0,L|490:203,1,110,6|2,0:1|0:0,0:0:0:0:
327,182,63904,1,2,0:1:0:0:
180,275,64135,1,2,0:0:0:0:
176,220,64250,1,0,0:0:0:0:
173,165,64365,1,10,0:1:0:0:
316,186,64597,1,2,0:0:0:0:
164,117,64827,2,0,L|41:110,1,110,2|2,0:1|0:0,0:0:0:0:
364,61,65289,6,0,L|477:48,2,110,10|2|2,0:1|0:0|0:1,0:0:0:0:
161,146,65981,2,0,L|153:78,2,55,2|0|10,0:0|0:0|0:1,0:0:0:0:
317,194,66443,1,2,0:0:0:0:
13,202,66674,2,0,L|19:327,1,110,2|2,0:1|0:0,0:0:0:0:
190,341,67135,5,2,0:1:0:0:
326,296,67366,2,0,L|345:242,1,55,2|2,0:0|0:0,0:0:0:0:
159,186,67827,2,0,L|150:129,1,55,2|2,0:0|0:0,0:0:0:0:
351,301,68289,2,0,L|370:247,1,55,2|2,0:0|0:0,0:0:0:0:
159,186,68750,2,0,L|150:129,1,55,2|2,0:0|0:0,0:0:0:0:
306,117,69212,2,0,L|365:102,1,55,2|2,0:0|0:0,0:0:0:0:
200,42,69558,1,0,0:0:0:0:
388,128,69904,6,0,L|464:146,2,55,0|0|0,0:0|0:0|0:0,0:0:0:0:
348,129,70193,1,0,0:0:0:0:
321,135,70250,1,0,0:0:0:0:
298,150,70308,1,0,0:0:0:0:
282,172,70366,1,0,0:0:0:0:
274,198,70423,1,0,0:0:0:0:
275,225,70481,1,0,0:0:0:0:
285,251,70539,1,0,0:0:0:0:
303,271,70596,1,0,0:0:0:0:
328,284,70654,1,0,0:0:0:0:
355,288,70712,1,0,0:0:0:0:
88,296,70827,5,2,0:1:0:0:
256,347,71058,2,0,L|275:268,1,55,0|0,0:0|0:0,0:0:0:0:
180,263,71289,2,0,L|162:194,1,55,2|0,0:1|0:0,0:0:0:0:
265,180,71520,1,0,0:0:0:0:
130,131,71751,2,0,L|245:131,1,110,2|2,0:1|0:0,0:0:0:0:
436,186,72212,2,0,L|445:69,1,110,2|2,0:1|0:0,0:0:0:0:
303,30,72674,5,2,0:1:0:0:
172,92,72904,2,0,L|191:161,1,55,0|0,0:0|0:0,0:0:0:0:
291,169,73135,2,0,L|276:252,1,55,2|0,0:1|0:0,0:0:0:0:
175,255,73366,2,0,L|188:315,1,55,0|0,0:0|0:0,0:0:0:0:
283,329,73597,2,0,L|411:342,1,110,2|2,0:1|0:0,0:0:0:0:
195,236,74058,2,0,L|76:254,1,110,2|2,0:1|0:0,0:0:0:0:
281,321,74520,5,2,0:1:0:0:
112,280,74751,1,0,0:0:0:0:
61,260,74866,1,0,0:0:0:0:
32,214,74981,1,2,0:1:0:0:
36,160,75097,1,0,0:0:0:0:
70,119,75212,1,0,0:0:0:0:
122,105,75327,1,0,0:0:0:0:
178,105,75443,2,0,L|304:104,1,110,2|2,0:1|0:0,0:0:0:0:
102,46,75904,2,0,L|88:189,1,110,2|2,0:1|0:0,0:0:0:0:
223,195,76366,5,2,0:1:0:0:
393,220,76597,1,0,0:0:0:0:
223,195,76827,1,0,0:0:0:0:
393,220,77058,1,0,0:0:0:0:
202,195,77289,2,0,P|141:116|231:43,1,220,0|0,0:0|0:0,0:0:0:0:
347,33,77981,1,2,0:0:0:0:
19,71,78212,6,0,L|143:62,1,110,2|2,0:1|0:0,0:0:0:0:
266,116,78674,2,0,L|408:107,1,110,8|0,0:0|0:0,0:0:0:0:
213,294,79135,2,0,L|190:165,1,110,2|0,0:0|0:0,0:0:0:0:
383,213,79597,2,0,L|438:199,1,55,2|0,0:1|0:0,0:0:0:0:
321,161,79827,2,0,L|251:152,1,55,0|0,0:0|0:0,0:0:0:0:
384,214,80058,6,0,L|506:197,1,110,2|2,0:1|0:0,0:0:0:0:
308,320,80520,2,0,L|286:256,1,55,8|2,0:0|0:1,0:0:0:0:
385,240,80750,2,0,L|430:187,1,55,2|0,0:0|0:0,0:0:0:0:
326,166,80981,2,0,L|203:149,1,110,0|0,0:0|0:0,0:0:0:0:
64,267,81443,2,0,L|184:256,1,110,2|2,0:1|0:0,0:0:0:0:
478,354,81904,6,0,L|236:325,1,220,2|8,0:1|0:0,0:0:0:0:
102,345,82597,1,2,0:0:0:0:
281,317,82827,2,0,L|292:194,1,110,2|2,0:1|0:0,0:0:0:0:
138,221,83289,1,8,0:0:0:0:
334,244,83520,6,0,P|402:177|305:103,1,220,2|2,0:1|0:0,0:0:0:0:
139,73,84212,2,0,L|114:162,1,55,8|2,0:0|0:1,0:0:0:0:
217,152,84443,2,0,L|229:216,1,55,0|0,0:0|0:0,0:0:0:0:
121,269,84674,1,2,0:1:0:0:
72,246,84789,1,2,0:1:0:0:
51,197,84904,1,2,0:1:0:0:
69,146,85020,1,2,0:1:0:0:
119,128,85135,2,0,L|179:128,1,55,2|2,0:0|0:0,0:0:0:0:
86,98,85366,2,0,L|11:98,1,55,2|2,0:0|0:0,0:0:0:0:
276,47,85597,6,0,L|407:47,1,110,2|0,0:1|0:0,0:0:0:0:
218,113,86058,2,0,L|76:112,2,110,2|0|2,0:1|0:0|0:1,0:0:0:0:
376,112,86751,1,2,0:0:0:0:
220,136,86981,2,0,L|81:135,1,110,2|2,0:1|0:0,0:0:0:0:
456,303,87443,6,0,L|466:190,1,110,2|2,0:1|0:0,0:0:0:0:
331,149,87904,2,0,L|463:132,1,110,2|2,0:1|0:0,0:0:0:0:
142,253,88366,2,0,L|10:236,1,110,2|2,0:1|0:0,0:0:0:0:
213,191,88827,2,0,L|361:172,1,110,2|0,0:1|0:0,0:0:0:0:
151,137,89289,6,0,L|129:17,1,110,2|0,0:1|0:0,0:0:0:0:
275,66,89751,1,2,0:1:0:0:
117,173,89981,2,0,L|356:191,1,220,0|2,0:0|0:0,0:0:0:0:
472,250,90674,2,0,L|480:128,1,110,2|2,0:1|0:0,0:0:0:0:
403,108,91020,1,0,0:0:0:0:
184,45,91135,6,0,L|56:62,1,110,10|2,0:1|0:0,0:0:0:0:
389,186,91597,2,0,L|504:206,1,110,10|2,0:1|0:0,0:0:0:0:
184,339,92058,2,0,L|56:322,1,110,10|2,0:1|0:0,0:0:0:0:
389,198,92520,2,0,L|504:178,1,110,10|2,0:1|0:0,0:0:0:0:
204,340,92981,6,0,L|189:281,1,55,2|0,0:1|0:0,0:0:0:0:
289,269,93212,2,0,L|301:216,1,55,2|0,0:1|0:0,0:0:0:0:
209,171,93443,2,0,L|194:112,1,55,2|0,0:1|0:0,0:0:0:0:
322,134,93674,2,0,L|334:81,1,55,2|0,0:1|0:0,0:0:0:0:
78,30,93904,5,0,0:1:0:0:
214,73,94135,2,0,L|294:71,1,71.4999967269899,2|2,0:0|0:0,0:0:0:0:
68,214,94366,2,0,P|16:159|72:99,1,142.99999345398,2|2,0:0|0:0,0:0:0:0:
114,96,94712,1,2,0:0:0:0:
372,60,94827,6,0,L|362:147,1,65.9999979858399,6|0,0:1|0:0,0:0:0:0:
256,130,95058,2,0,L|245:205,1,65.9999979858399,2|0,0:0|0:0,0:0:0:0:
329,234,95289,2,0,L|457:263,1,131.99999597168,10|2,0:0|0:0,0:0:0:0:
147,292,95751,2,0,L|7:307,1,131.99999597168,2|2,0:1|0:0,0:0:0:0:
81,270,96097,1,2,0:0:0:0:
294,338,96212,2,0,L|300:242,1,65.9999979858399,10|2,0:0|0:0,0:0:0:0:
204,258,96443,2,0,L|204:190,1,65.9999979858399,0|2,0:0|0:0,0:0:0:0:
401,237,96674,6,0,L|444:187,1,65.9999979858399,2|0,0:1|0:0,0:0:0:0:
353,144,96904,2,0,L|335:61,1,65.9999979858399,2|0,0:0|0:0,0:0:0:0:
448,68,97135,2,0,L|303:48,1,131.99999597168,10|2,0:0|0:0,0:0:0:0:
16,186,97597,2,0,L|161:172,1,131.99999597168,2|2,0:1|0:0,0:0:0:0:
231,162,97943,1,2,0:0:0:0:
486,259,98058,1,10,0:0:0:0:
400,252,98173,1,2,0:0:0:0:
315,241,98288,1,2,0:0:0:0:
229,228,98404,1,0,0:0:0:0:
465,176,98520,6,0,L|478:97,1,65.9999979858399,2|0,0:1|0:0,0:0:0:0:
377,85,98751,2,0,L|295:59,1,65.9999979858399,2|0,0:0|0:0,0:0:0:0:
215,66,98981,2,0,L|69:85,1,131.99999597168,10|2,0:0|0:0,0:0:0:0:
451,331,99443,2,0,L|473:179,1,131.99999597168,2|2,0:1|0:0,0:0:0:0:
381,162,99790,1,2,0:0:0:0:
160,298,99904,2,0,L|154:220,1,65.9999979858399,10|0,0:0|0:0,0:0:0:0:
252,247,100135,2,0,L|335:238,1,65.9999979858399,2|0,0:0|0:0,0:0:0:0:
71,181,100366,6,0,P|25:108|92:63,1,131.99999597168,2|2,0:1|0:0,0:0:0:0:
348,45,100827,2,0,L|492:40,1,131.99999597168,10|2,0:0|0:0,0:0:0:0:
414,77,101174,1,0,0:0:0:0:
156,149,101289,2,0,L|8:158,1,131.99999597168,2|2,0:1|0:0,0:0:0:0:
87,182,101635,1,0,0:0:0:0:
303,236,101751,2,0,L|391:237,1,65.9999979858399,10|2,0:0|0:0,0:0:0:0:
272,237,101981,2,0,L|180:237,1,65.9999979858399,2|2,0:0|0:0,0:0:0:0:
463,331,102212,6,0,L|480:191,1,131.99999597168,10|0,0:1|0:0,0:0:0:0:
49,331,102674,2,0,L|32:191,1,131.99999597168,10|0,0:1|0:0,0:0:0:0:
352,159,103135,2,0,L|180:159,1,131.99999597168,10|2,0:1|0:0,0:0:0:0:
139,158,103481,1,2,0:0:0:0:
220,159,103597,2,0,L|288:160,1,65.9999979858399,10|0,0:1|0:0,0:0:0:0:
180,133,103827,2,0,L|95:132,1,65.9999979858399,2|2,0:0|0:0,0:0:0:0:
354,80,104058,6,0,L|511:80,1,131.99999597168,10|0,0:1|0:0,0:0:0:0:
158,304,104520,2,0,L|1:304,1,131.99999597168,10|0,0:1|0:0,0:0:0:0:
354,80,104981,2,0,L|511:80,1,131.99999597168,10|2,0:1|0:0,0:0:0:0:
419,48,105327,1,2,0:0:0:0:
343,49,105443,2,0,L|259:50,1,65.9999979858399,10|0,0:1|0:0,0:0:0:0:
203,47,105674,2,0,L|127:48,1,65.9999979858399,2|2,0:0|0:0,0:0:0:0:
416,237,105904,6,0,L|435:81,1,131.99999597168,10|2,0:1|0:0,0:0:0:0:
96,237,106366,2,0,L|77:81,1,131.99999597168,10|2,0:1|0:0,0:0:0:0:
416,237,106827,2,0,L|435:81,1,131.99999597168,10|2,0:1|0:0,0:0:0:0:
345,67,107174,1,2,0:0:0:0:
241,77,107289,2,0,L|244:147,1,65.9999979858399,10|2,0:1|0:0,0:0:0:0:
342,156,107520,2,0,L|345:253,1,65.9999979858399,2|0,0:0|0:0,0:0:0:0:
153,236,107751,6,0,P|60:234|6:268,1,131.99999597168,10|2,0:1|0:0,0:0:0:0:
359,148,108212,2,0,P|452:150|506:116,1,131.99999597168,10|2,0:1|0:0,0:0:0:0:
185,268,108674,2,0,P|278:270|332:236,1,131.99999597168,10|2,0:1|0:0,0:0:0:0:
9,158,109135,2,0,P|102:160|156:126,1,131.99999597168,10|2,0:1|0:0,0:0:0:0:
441,229,109597,5,6,0:1:0:0:
318,292,109827,2,0,L|228:277,1,65.9999979858399,0|0,0:0|0:0,0:0:0:0:
41,209,110058,2,0,L|194:199,1,131.99999597168,10|0,0:0|0:0,0:0:0:0:
392,146,110520,2,0,L|244:138,1,131.99999597168,2|2,0:1|0:0,0:0:0:0:
120,124,110981,1,10,0:0:0:0:
323,173,111212,1,2,0:0:0:0:
6,166,111443,6,0,L|142:153,1,131.99999597168,2|0,0:1|0:0,0:0:0:0:
308,130,111904,1,10,0:0:0:0:
139,51,112135,1,0,0:0:0:0:
457,321,112366,2,0,L|468:183,1,131.99999597168,2|2,0:1|0:0,0:0:0:0:
303,166,112827,2,0,L|446:150,1,131.99999597168,10|2,0:0|0:0,0:0:0:0:
78,44,113289,5,2,0:1:0:0:
229,190,113520,2,0,L|239:59,1,131.99999597168,0|10,0:0|0:0,0:0:0:0:
71,42,113981,1,0,0:0:0:0:
242,122,114212,2,0,L|381:111,1,131.99999597168,2|2,0:1|0:0,0:0:0:0:
199,213,114674,2,0,L|60:198,1,131.99999597168,8|2,0:0|0:0,0:0:0:0:
415,343,115135,6,0,P|491:281|483:206,1,131.99999597168,2|0,0:1|0:0,0:0:0:0:
176,235,115597,2,0,P|100:173|108:98,1,131.99999597168,10|0,0:0|0:0,0:0:0:0:
280,103,116058,2,0,L|443:90,1,131.99999597168,2|0,0:1|0:0,0:0:0:0:
241,193,116520,2,0,L|73:181,1,131.99999597168,10|0,0:0|0:0,0:0:0:0:
463,315,116981,6,0,L|303:324,1,131.99999597168,2|0,0:1|0:0,0:0:0:0:
172,253,117443,1,10,0:0:0:0:
335,167,117674,1,0,0:0:0:0:
155,248,117904,2,0,L|12:237,1,131.99999597168,2|2,0:1|0:0,0:0:0:0:
361,167,118366,2,0,L|492:157,1,131.99999597168,10|2,0:0|0:0,0:0:0:0:
292,83,118827,6,0,L|154:63,1,131.99999597168,2|0,0:1|0:0,0:0:0:0:
491,222,119289,2,0,L|332:241,1,131.99999597168,10|0,0:0|0:0,0:0:0:0:
187,186,119751,2,0,L|45:202,1,131.99999597168,2|0,0:1|0:0,0:0:0:0:
275,103,120212,2,0,L|410:116,1,131.99999597168,10|2,0:0|0:0,0:0:0:0:
51,32,120674,5,6,0:1:0:0:
196,123,120904,2,0,L|285:109,2,55,2|2|2,0:0|0:0|0:1,0:0:0:0:
51,32,121366,1,2,0:0:0:0:
205,126,121597,2,0,L|342:109,1,110,2|2,0:1|0:0,0:0:0:0:
158,230,122058,2,0,L|37:216,1,110,2|2,0:1|0:0,0:0:0:0:
384,34,122520,5,2,0:1:0:0:
226,83,122751,1,2,0:0:0:0:
228,137,122866,1,0,0:0:0:0:
230,192,122981,1,2,0:1:0:0:
384,34,123212,1,2,0:0:0:0:
211,219,123443,2,0,L|87:205,1,110,2|2,0:1|0:0,0:0:0:0:
274,304,123904,2,0,L|402:294,1,110,2|2,0:1|0:0,0:0:0:0:
182,248,124366,5,2,0:1:0:0:
302,325,124597,1,2,0:0:0:0:
306,270,124712,1,0,0:0:0:0:
311,215,124827,1,2,0:1:0:0:
159,235,125058,1,2,0:0:0:0:
304,181,125289,2,0,L|434:200,2,110,2|2|2,0:1|0:0|0:1,0:0:0:0:
150,138,125981,6,0,L|379:121,1,220,2|2,0:0|0:0,0:0:0:0:
497,104,126674,1,2,0:1:0:0:
186,273,126904,2,0,L|407:287,1,220,2|2,0:0|0:0,0:0:0:0:
247,162,127597,2,0,L|100:178,1,110,2|2,0:1|0:0,0:0:0:0:
455,45,128058,6,0,L|468:177,1,110,6|2,0:1|0:0,0:0:0:0:
296,202,128520,1,2,0:1:0:0:
128,192,128751,1,2,0:0:0:0:
136,246,128866,1,0,0:0:0:0:
144,300,128981,1,10,0:1:0:0:
278,209,129212,1,2,0:0:0:0:
117,143,129443,2,0,L|2:161,1,110,2|2,0:1|0:0,0:0:0:0:
382,61,129904,6,0,L|530:82,2,110,10|2|2,0:1|0:0|0:1,0:0:0:0:
231,133,130597,2,0,L|142:148,2,55,2|0|10,0:0|0:0|0:1,0:0:0:0:
353,38,131058,1,2,0:0:0:0:
159,62,131289,2,0,L|31:43,1,110,2|2,0:1|0:0,0:0:0:0:
382,236,131751,6,0,L|514:219,2,110,6|2|2,0:1|0:0|0:1,0:0:0:0:
204,341,132443,1,2,0:0:0:0:
197,286,132558,1,0,0:0:0:0:
190,231,132673,1,10,0:1:0:0:
341,236,132904,1,2,0:0:0:0:
183,178,133135,1,2,0:1:0:0:
334,238,133366,6,0,P|404:184|325:91,1,220,2|2,0:0|0:0,0:0:0:0:
165,90,134058,1,2,0:1:0:0:
481,68,134289,2,0,L|254:68,1,220,2|2,0:0|0:0,0:0:0:0:
86,44,134981,2,0,L|69:167,1,110,2|2,0:1|0:0,0:0:0:0:
346,239,135674,6,0,L|403:248,1,55,2|2,0:0|0:0,0:0:0:0:
184,158,136135,2,0,L|124:169,1,55,2|2,0:0|0:0,0:0:0:0:
346,239,136597,6,0,L|403:248,1,55,2|2,0:0|0:0,0:0:0:0:
184,158,137058,2,0,L|124:169,1,55,2|2,0:0|0:0,0:0:0:0:
