osu file format v14

[General]
AudioFilename: B2.mp3
AudioLeadIn: 0
PreviewTime: 67044
Countdown: 0
SampleSet: Soft
StackLeniency: 0.7
Mode: 2
LetterboxInBreaks: 0
WidescreenStoryboard: 1

[Editor]
Bookmarks: 11666,22333,32999,43666,67666,94333
DistanceSpacing: 1.4
BeatDivisor: 4
GridSize: 32
TimelineZoom: 1.6

[Metadata]
Title:Dan ~ CTB ~ BossMap Pack
TitleUnicode:Dan ~ CTB ~ BossMap Pack
Artist:Various Artists
ArtistUnicode:Various Artists
Creator:Emiru
Version:GO MY WAY!! ~ 2nd ~ (Marathon)
Source:
Tags:
BeatmapID:1476686
BeatmapSetID:697139

[Difficulty]
HPDrainRate:5
CircleSize:4
OverallDifficulty:9
ApproachRate:9
SliderMultiplier:1.9
SliderTickRate:2

[Events]
//Background and Video events
0,0,"B2.jpg",0,0
//Break Periods
//Storyboard Layer 0 (Background)
//Storyboard Layer 1 (Fail)
//Storyboard Layer 2 (Pass)
//Storyboard Layer 3 (Foreground)
//Storyboard Layer 4 (Overlay)
//Storyboard Sound Samples

[TimingPoints]
1055,333.333333333333,4,2,0,40,1,0
1888,-100,4,2,0,45,0,0
2054,-100,4,2,0,50,0,0
2221,-100,4,2,0,55,0,0
2388,-100,4,2,0,65,0,0
2721,-100,4,2,0,40,0,0
3221,-100,4,2,0,45,0,0
3388,-100,4,2,0,55,0,0
3554,-100,4,2,0,35,0,0
3721,-100,4,2,0,60,0,0
4054,-100,4,2,0,40,0,0
4388,-100,4,2,0,45,0,0
4721,-100,4,2,0,50,0,0
5054,-100,4,2,0,60,0,0
5221,-100,4,2,0,40,0,0
5388,-100,4,2,0,35,0,0
5554,-100,4,2,0,30,0,0
5721,-100,4,2,0,45,0,0
5888,-100,4,2,0,35,0,0
6054,-100,4,2,0,30,0,0
6221,-100,4,2,0,25,0,0
6388,-100,4,2,0,60,0,0
6721,-100,4,2,0,40,0,0
7388,-100,4,2,0,50,0,0
7554,-100,4,2,0,35,0,0
7721,-100,4,2,0,60,0,0
7888,-100,4,2,0,40,0,0
8054,-100,4,2,0,45,0,0
8221,-100,4,2,0,50,0,0
8388,-100,4,2,0,65,0,0
8554,-100,4,2,0,45,0,0
8721,-100,4,2,0,35,0,0
8888,-100,4,2,0,30,0,0
9054,-100,4,2,0,60,0,0
9388,-100,4,2,0,40,0,0
10388,-100,4,2,0,60,0,0
10888,-100,4,2,0,40,0,0
11054,-100,4,3,0,47,0,0
11138,-100,4,3,0,42,0,0
11221,-100,4,3,0,37,0,0
11304,-100,4,3,0,32,0,0
11388,-100,4,3,0,50,0,0
11471,-100,4,3,0,35,0,0
11554,-100,4,3,0,32,0,0
11638,-100,4,3,0,24,0,0
11711,333.333333333333,4,2,1,65,1,0
11711,-100,4,2,1,65,0,0
11877,-100,4,2,1,40,0,0
12377,-100,4,2,1,37,0,0
12544,-100,4,2,1,33,0,0
12710,-100,4,2,1,43,0,0
12877,-100,4,2,1,35,0,0
13044,-100,4,2,1,46,0,0
13210,-100,4,2,1,34,0,0
13377,-100,4,2,1,42,0,0
13544,-100,4,2,1,48,0,0
13877,-100,4,2,1,40,0,0
14044,-100,4,2,1,46,0,0
14210,-100,4,2,1,36,0,0
14377,-100,4,2,1,44,0,0
14544,-100,4,2,1,33,0,0
14710,-100,4,2,1,42,0,0
15044,-100,4,2,1,36,0,0
15210,-100,4,2,1,33,0,0
15377,-100,4,2,1,40,0,0
15544,-100,4,2,1,36,0,0
15877,-100,4,2,1,47,0,0
16210,-100,4,2,1,39,0,0
16377,-100,4,2,1,34,0,0
16544,-100,4,2,1,38,0,0
16710,-100,4,2,1,47,0,0
16877,-100,4,2,1,37,0,0
17044,-100,4,2,1,46,0,0
17210,-100,4,2,1,38,0,0
17377,-100,4,2,1,50,0,0
17710,-100,4,2,1,43,0,0
17877,-100,4,2,1,35,0,0
18044,-100,4,2,1,44,0,0
18210,-100,4,2,1,37,0,0
18377,-100,4,2,1,43,0,0
18544,-100,4,2,1,35,0,0
18710,-100,4,2,1,47,0,0
18877,-100,4,2,1,42,0,0
19377,-100,4,2,1,54,0,0
19544,-100,4,2,1,32,0,0
19627,-100,4,2,1,26,0,0
19710,-100,4,2,1,55,0,0
19877,-100,4,2,1,45,0,0
20044,-100,4,2,1,47,0,0
20210,-100,4,2,1,61,0,0
20377,-100,4,2,1,41,0,0
20544,-100,4,2,1,31,0,0
20710,-100,4,2,1,57,0,0
20877,-100,4,2,1,61,0,0
21044,-100,4,2,1,60,0,0
21210,-100,4,2,1,40,0,0
21377,-100,4,2,1,50,0,0
21544,-100,4,2,1,30,0,0
21710,-100,4,2,1,40,0,0
21877,-100,4,2,1,20,0,0
22044,-100,4,2,1,68,0,0
22377,-100,4,2,1,52,0,0
22544,-100,4,2,1,43,0,0
23710,-100,4,2,1,56,0,0
23877,-100,4,2,1,44,0,0
25044,-100,4,2,1,62,0,0
25210,-100,4,2,1,45,0,0
26377,-100,4,2,1,60,0,0
26544,-100,4,2,1,40,0,0
27044,-100,4,2,1,70,0,0
27210,-100,4,2,1,43,0,0
27710,-100,4,2,1,75,0,0
27877,-100,4,2,1,42,0,0
29044,-100,4,2,1,58,0,0
29210,-100,4,2,1,41,0,0
30377,-100,4,2,1,64,0,0
30544,-100,4,2,1,45,0,0
31044,-100,4,2,1,69,0,0
31210,-100,4,2,1,40,0,0
31877,-100,4,2,1,50,0,0
32044,-100,4,2,1,61,0,0
32210,-100,4,2,1,69,0,0
32377,-100,4,2,1,46,0,0
32544,-100,4,2,1,34,0,0
32710,-100,4,2,1,55,0,0
32877,-100,4,2,1,35,0,0
33044,-100,4,2,1,75,0,0
33210,-100,4,2,1,45,0,0
33377,-100,4,2,1,52,0,0
33544,-100,4,2,1,44,0,0
34044,-100,4,2,1,54,0,0
34377,-100,4,2,1,43,0,0
34710,-100,4,2,1,54,0,0
34877,-100,4,2,1,42,0,0
35377,-100,4,2,1,58,0,0
35544,-100,4,2,1,41,0,0
36044,-100,4,2,1,52,0,0
36377,-100,4,2,1,43,0,0
36710,-100,4,2,1,56,0,0
37044,-100,4,2,1,44,0,0
37377,-100,4,2,1,64,0,0
37544,-100,4,2,1,52,0,0
37710,-100,4,2,1,42,0,0
38044,-100,4,2,1,55,0,0
38210,-100,4,2,1,40,0,0
38377,-100,4,2,1,60,0,0
38544,-100,4,2,1,40,0,0
38710,-100,4,2,1,54,0,0
39044,-100,4,2,1,43,0,0
39377,-100,4,2,1,52,0,0
39710,-100,4,2,1,43,0,0
40044,-100,4,2,1,54,0,0
40210,-100,4,2,1,45,0,0
40377,-100,4,2,1,41,0,0
40710,-100,4,2,1,53,0,0
41044,-100,4,2,1,43,0,0
41377,-100,4,2,1,65,0,0
41544,-100,4,2,1,40,0,0
41710,-100,4,2,1,55,0,0
41877,-100,4,2,1,36,0,0
42044,-100,4,2,1,60,0,0
42210,-100,4,2,1,42,0,0
42377,-100,4,2,1,46,0,0
42544,-100,4,2,1,57,0,0
42710,-100,4,2,1,63,0,0
42877,-100,4,2,1,48,0,0
43044,-100,4,2,1,42,0,0
43294,-100,4,2,1,15,0,0
43377,-100,4,2,1,40,0,0
43710,-100,4,2,2,65,0,0
44044,-100,4,2,2,45,0,0
44710,-100,4,2,2,55,0,0
44877,-100,4,2,2,40,0,0
45377,-100,4,2,2,57,0,0
45544,-100,4,2,2,42,0,0
45710,-100,4,2,2,32,0,0
46044,-100,4,2,2,45,0,0
46377,-100,4,2,2,50,0,0
46710,-100,4,2,2,43,0,0
46877,-100,4,2,2,46,0,0
47377,-100,4,2,2,52,0,0
47544,-100,4,2,2,43,0,0
47710,-100,4,2,2,58,0,0
47877,-100,4,2,2,41,0,0
48044,-100,4,2,2,55,0,0
48210,-100,4,2,2,40,0,0
48377,-100,4,2,2,35,0,0
48877,-100,4,2,2,39,0,0
49044,-100,4,2,2,67,0,0
49210,-100,4,2,2,40,0,0
50377,-100,4,2,2,50,0,0
50544,-100,4,2,2,40,0,0
50710,-100,4,2,2,57,0,0
50877,-100,4,2,2,40,0,0
50960,-100,4,2,2,34,0,0
51044,-100,4,2,2,58,0,0
51210,-100,4,2,2,40,0,0
51377,-100,4,2,2,47,0,0
51544,-100,4,2,2,35,0,0
51710,-100,4,2,2,55,0,0
52044,-100,4,2,2,52,0,0
52210,-100,4,2,2,40,0,0
52294,-100,4,2,2,33,0,0
52377,-100,4,2,2,56,0,0
52544,-100,4,2,2,42,0,0
52710,-100,4,2,2,63,0,0
52877,-100,4,2,2,45,0,0
53044,-100,4,2,2,70,0,0
53127,-100,4,2,2,40,0,0
53210,-100,4,2,2,47,0,0
53294,-100,4,2,2,35,0,0
53377,-100,4,2,2,30,0,0
53544,-100,4,2,2,56,0,0
53710,-100,4,3,0,42,0,0
53794,-100,4,3,0,32,0,0
53877,-100,4,3,0,57,0,0
53960,-100,4,3,0,44,0,0
54044,-100,4,3,0,55,0,0
54127,-100,4,3,0,35,0,0
54210,-100,4,3,0,29,0,0
54294,-100,4,3,0,24,0,0
54377,-100,4,2,1,68,0,0
54388,-100,4,2,1,65,0,0
54544,-100,4,2,1,45,0,0
54710,-100,4,2,1,55,0,0
54877,-100,4,2,1,40,0,0
55377,-100,4,2,1,48,0,0
55544,-100,4,2,1,39,0,0
56044,-100,4,2,1,47,0,0
56210,-100,4,2,1,42,0,0
56377,-100,4,2,1,35,0,0
57044,-100,4,2,1,50,0,0
57377,-100,4,2,1,40,0,0
57544,-100,4,2,1,45,0,0
57710,-100,4,2,1,37,0,0
58044,-100,4,2,1,46,0,0
58210,-100,4,2,1,35,0,0
58377,-100,4,2,1,57,0,0
58710,-100,4,2,1,46,0,0
58877,-100,4,2,1,42,0,0
59710,-100,4,2,1,60,0,0
59877,-100,4,2,1,35,0,0
60044,-100,4,2,1,55,0,0
60210,-100,4,2,1,47,0,0
60377,-100,4,2,1,42,0,0
60544,-100,4,2,1,36,0,0
61044,-100,4,2,1,57,0,0
61210,-100,4,2,1,43,0,0
61710,-100,4,2,1,37,0,0
62044,-100,4,2,1,44,0,0
62377,-100,4,2,1,54,0,0
62544,-100,4,2,1,40,0,0
62710,-100,4,2,1,33,0,0
63044,-100,4,2,1,42,0,0
63377,-100,4,2,1,37,0,0
63544,-100,4,2,1,44,0,0
63710,-100,4,2,1,40,0,0
64210,-100,4,2,1,48,0,0
64377,-100,4,2,1,42,0,0
64877,-100,4,2,1,35,0,0
65044,-100,4,2,1,65,0,0
65210,-100,4,2,1,54,0,0
65377,-100,4,2,1,40,0,0
66044,-100,4,2,1,60,0,0
66210,-100,4,2,1,49,0,0
66377,-100,4,2,1,39,0,0
66544,-100,4,2,1,45,0,0
66710,-100,4,2,1,56,0,0
66877,-100,4,2,1,67,0,0
67044,-100,4,2,1,43,0,0
67210,-100,4,2,1,37,0,0
67221,-100,4,2,1,37,0,0
67294,-100,4,2,1,33,0,0
67377,-100,4,2,1,43,0,0
67544,-100,4,2,1,47,0,0
67710,-100,4,2,1,65,0,1
67960,-100,4,2,1,25,0,1
68044,-100,4,2,1,45,0,1
68377,-100,4,2,1,38,0,1
68544,-100,4,2,1,48,0,1
69044,-100,4,2,1,56,0,1
69294,-100,4,2,1,23,0,1
69377,-100,4,2,1,58,0,1
69710,-100,4,2,1,43,0,1
70044,-100,4,2,1,49,0,1
70210,-100,4,2,1,38,0,1
70377,-100,4,2,1,65,0,1
70544,-100,4,2,1,42,0,1
70710,-100,4,2,1,50,0,1
71044,-100,4,2,1,39,0,1
71377,-100,4,2,1,55,0,1
71710,-100,4,2,1,68,0,1
71877,-100,4,2,1,42,0,1
72044,-100,4,2,1,60,0,1
72210,-100,4,2,1,38,0,1
72377,-100,4,3,1,46,0,1
72460,-100,4,3,1,40,0,1
72544,-100,4,3,1,52,0,1
72627,-100,4,3,1,30,0,1
72710,-100,4,2,1,57,0,1
72877,-100,4,2,1,43,0,1
73044,-100,4,2,1,65,0,1
73210,-100,4,2,1,40,0,1
73377,-100,4,2,1,53,0,1
73544,-100,4,2,1,42,0,1
73710,-100,4,2,1,56,0,1
74044,-100,4,2,1,50,0,1
74210,-100,4,2,1,42,0,1
74377,-100,4,2,1,65,0,1
74544,-100,4,2,1,41,0,1
74710,-100,4,2,1,55,0,1
74877,-100,4,2,1,42,0,1
75210,-100,4,2,1,48,0,1
75377,-100,4,2,1,54,0,1
75544,-100,4,2,1,43,0,1
75710,-100,4,2,1,65,0,1
75877,-100,4,2,1,40,0,1
76044,-100,4,2,1,49,0,1
76210,-100,4,2,1,38,0,1
76377,-100,4,2,1,45,0,1
76544,-100,4,2,1,36,0,1
76710,-100,4,2,1,57,0,1
76877,-100,4,2,1,42,0,1
77044,-100,4,2,1,60,0,1
77210,-100,4,2,1,45,0,1
77294,-100,4,2,1,34,0,1
77377,-100,4,2,1,45,0,1
77460,-100,4,2,1,30,0,1
77544,-100,4,2,1,40,0,1
77710,-100,4,3,1,40,0,1
77752,-100,4,3,1,35,0,1
77794,-100,4,3,1,30,0,1
77835,-100,4,3,1,26,0,1
77877,-100,4,3,1,24,0,1
77919,-100,4,3,1,19,0,1
77960,-100,4,3,1,34,0,1
78044,-100,4,2,1,45,0,1
78127,-100,4,2,1,32,0,1
78210,-100,4,2,1,37,0,1
78294,-100,4,2,1,27,0,1
78377,-100,4,2,1,65,0,1
78627,-100,4,2,1,25,0,1
78710,-100,4,2,1,50,0,1
78877,-100,4,2,1,43,0,1
79377,-100,4,2,1,56,0,1
79544,-100,4,2,1,40,0,1
79710,-100,4,2,1,60,0,1
79960,-100,4,2,1,15,0,1
80044,-100,4,2,1,54,0,1
80377,-100,4,2,1,40,0,1
80877,-100,4,2,1,35,0,1
81044,-100,4,2,1,60,0,1
81377,-100,4,2,1,48,0,1
81544,-100,4,2,1,39,0,1
81710,-100,4,2,1,46,0,1
81877,-100,4,2,1,35,0,1
82044,-100,4,2,1,58,0,1
82210,-100,4,2,1,40,0,1
82377,-100,4,2,1,65,0,1
82544,-100,4,2,1,43,0,1
82710,-100,4,2,1,50,0,1
82877,-100,4,2,1,42,0,1
83044,-100,4,3,1,46,0,1
83127,-100,4,3,1,35,0,1
83210,-100,4,3,1,32,0,1
83294,-100,4,3,1,26,0,1
83377,-100,4,2,1,50,0,1
83477,-100,4,2,1,40,0,1
83710,-100,4,2,1,65,0,1
84044,-100,4,2,1,43,0,1
84210,-100,4,2,1,37,0,1
84377,-100,4,2,1,50,0,1
84710,-100,4,2,1,43,0,1
84877,-100,4,2,1,36,0,1
85044,-100,4,2,1,65,0,1
85210,-100,4,2,1,40,0,1
85377,-100,4,2,1,49,0,1
85544,-100,4,2,1,58,0,1
85877,-100,4,2,1,43,0,1
86044,-100,4,2,1,54,0,1
86210,-100,4,2,1,40,0,1
86377,-100,4,2,1,65,0,1
86544,-100,4,2,1,40,0,1
86710,-100,4,2,1,50,0,1
86877,-100,4,2,1,40,0,1
87377,-100,4,2,1,50,0,1
87544,-100,4,2,1,38,0,1
87710,-100,4,2,1,60,0,1
87877,-100,4,2,1,40,0,1
88044,-100,4,2,1,30,0,1
88210,-100,4,2,1,40,0,1
88294,-100,4,2,1,35,0,1
88377,-100,4,2,1,42,0,1
88460,-100,4,2,1,34,0,1
88544,-100,4,2,1,28,0,1
88627,-100,4,2,1,24,0,1
88710,-100,4,2,1,29,0,1
88794,-100,4,2,1,20,0,1
88877,-100,4,2,1,32,0,1
88960,-100,4,2,1,15,0,1
89044,-100,4,2,1,65,0,0
89210,-100,4,2,1,40,0,0
89377,-100,4,2,1,47,0,0
89710,-100,4,2,1,40,0,0
89877,-100,4,2,1,50,0,0
90044,-100,4,2,1,41,0,0
90210,-100,4,2,1,37,0,0
90377,-100,4,2,1,45,0,0
90710,-100,4,2,1,40,0,0
90877,-100,4,2,1,50,0,0
91210,-100,4,2,1,42,0,0
91377,-100,4,2,1,49,0,0
91544,-100,4,2,1,38,0,0
91710,-100,4,2,1,46,0,0
91877,-100,4,2,1,56,0,0
92044,-100,4,2,1,42,0,0
92377,-100,4,2,1,38,0,0
92544,-100,4,2,1,44,0,0
92585,-100,4,2,1,35,0,0
92627,-100,4,2,1,32,0,0
92710,-100,4,2,1,50,0,0
92877,-100,4,2,1,58,0,0
93044,-100,4,2,1,42,0,0
93210,-100,4,2,1,48,0,0
93377,-100,4,2,1,41,0,0
93544,-100,4,2,1,52,0,0
93710,-100,4,2,1,56,0,0
93877,-100,4,2,1,44,0,0
93960,-100,4,2,1,36,0,0
94044,-100,4,2,1,40,0,0
94377,-100,4,2,1,65,0,1
94627,-100,4,2,1,20,0,1
94710,-100,4,2,1,60,0,1
95044,-100,4,2,1,42,0,1
95210,-100,4,2,1,46,0,1
95377,-100,4,2,1,50,0,1
95544,-100,4,2,1,40,0,1
95710,-100,4,2,1,65,0,1
95960,-100,4,2,1,25,0,1
96044,-100,4,2,1,50,0,1
96377,-100,4,2,1,44,0,1
96544,-100,4,2,1,36,0,1
96710,-100,4,2,1,46,0,1
97044,-100,4,2,1,60,0,1
97210,-100,4,2,1,40,0,1
97377,-100,4,2,1,55,0,1
97710,-100,4,2,1,46,0,1
97877,-100,4,2,1,39,0,1
98044,-100,4,2,1,58,0,1
98210,-100,4,2,1,44,0,1
98377,-100,4,2,1,65,0,1
98544,-100,4,2,1,50,0,1
98710,-100,4,2,1,45,0,1
98877,-100,4,2,1,40,0,1
99044,-100,4,3,1,45,0,1
99127,-100,4,3,1,35,0,1
99210,-100,4,3,1,46,0,1
99294,-100,4,3,1,28,0,1
99377,-100,4,2,1,54,0,1
99544,-100,4,2,1,43,0,1
99710,-100,4,2,1,62,0,1
99877,-100,4,2,1,43,0,1
100044,-100,4,2,1,50,0,1
100210,-100,4,2,1,40,0,1
100710,-100,4,2,1,56,0,1
100877,-100,4,2,1,42,0,1
101044,-100,4,2,1,65,0,1
101210,-100,4,2,1,46,0,1
101377,-100,4,2,1,41,0,1
101544,-100,4,2,1,50,0,1
101877,-100,4,2,1,45,0,1
102044,-100,4,2,1,55,0,1
102210,-100,4,2,1,42,0,1
102377,-100,4,2,1,65,0,1
102544,-100,4,2,1,38,0,1
102710,-100,4,2,1,48,0,1
102877,-100,4,2,1,36,0,1
103044,-100,4,2,1,42,0,1
103377,-100,4,2,1,56,0,1
103544,-100,4,2,1,40,0,1
103710,-100,4,2,1,65,0,1
103877,-100,4,2,1,42,0,1
104044,-100,4,2,1,54,0,1
104210,-100,4,2,1,46,0,1
104377,-100,4,2,1,40,0,1
104419,-100,4,2,1,36,0,1
104460,-100,4,2,1,33,0,1
104502,-100,4,2,1,29,0,1
104544,-100,4,2,1,25,0,1
104585,-100,4,2,1,21,0,1
104710,-100,4,2,1,45,0,1
104877,-100,4,2,1,48,0,1
105044,-100,4,2,1,54,0,1
105210,-100,4,2,1,43,0,1
105377,-100,4,2,1,59,0,1
105544,-100,4,2,1,42,0,1
105710,-100,4,2,1,47,0,1
105877,-100,4,2,1,41,0,1
106044,-100,4,2,1,49,0,1
106210,-100,4,2,1,39,0,1
106377,-100,4,2,1,56,0,1
106544,-100,4,2,1,40,0,1
106710,-100,4,2,1,60,0,1
106877,-100,4,2,1,39,0,1
107044,-100,4,2,1,53,0,1
107210,-100,4,2,1,45,0,1
107377,-100,4,2,1,52,0,1
107544,-100,4,2,1,40,0,1
107710,-100,4,2,1,58,0,1
107877,-100,4,2,1,38,0,1
108044,-100,4,2,1,59,0,1
108210,-100,4,2,1,39,0,1
108377,-100,4,2,1,61,0,1
108544,-100,4,2,1,40,0,1
108710,-100,4,2,1,54,0,1
108877,-100,4,2,1,42,0,1
109044,-100,4,2,1,62,0,1
109210,-100,4,2,1,49,0,1
109377,-100,4,2,1,42,0,1
109544,-100,4,2,1,50,0,1
109710,-100,4,3,1,45,0,1
109794,-100,4,3,1,38,0,1
109877,-100,4,3,1,33,0,1
109960,-100,4,3,1,28,0,1
110044,-100,4,2,1,54,0,1
110210,-100,4,2,1,44,0,1
110377,-100,4,2,1,65,0,1
110544,-100,4,2,1,42,0,1
110710,-100,4,2,1,52,0,1
110877,-100,4,2,1,39,0,1
111044,-100,4,2,1,55,0,1
111210,-100,4,2,1,41,0,1
111377,-100,4,2,1,60,0,1
111544,-100,4,2,1,38,0,1
111710,-100,4,2,1,65,0,1
111877,-100,4,2,1,42,0,1
112044,-100,4,2,1,50,0,1
112210,-100,4,2,1,40,0,1
112377,-100,4,2,1,51,0,1
112544,-100,4,2,1,42,0,1
112710,-100,4,2,1,60,0,1
112877,-100,4,2,1,50,0,1
113044,-100,4,2,1,64,0,1
113210,-100,4,2,1,40,0,1
113377,-100,4,2,1,55,0,1
113544,-100,4,2,1,38,0,1
113710,-100,4,2,1,59,0,1
113877,-100,4,2,1,36,0,1
114044,-100,4,2,1,45,0,1
114210,-100,4,2,1,37,0,1
114377,-100,4,2,1,68,0,1
114544,-100,4,2,1,43,0,1
114710,-100,4,2,1,48,0,1
114877,-100,4,2,1,42,0,1
115044,-100,4,3,1,65,0,1
115127,-100,4,3,1,39,0,1
115210,-100,4,3,1,32,0,1
115294,-100,4,3,1,27,0,1
115377,-100,4,3,1,50,0,1
115460,-100,4,3,1,42,0,1
115544,-100,4,3,1,32,0,1
115627,-100,4,3,1,22,0,1
115710,-100,4,2,1,75,0,0
115877,-100,4,2,1,50,0,0
116044,-100,4,2,1,46,0,0
116210,-100,4,2,1,43,0,0
116377,-100,4,2,1,38,0,0
116544,-100,4,2,1,35,0,0
116710,-100,4,2,1,32,0,0
116877,-100,4,2,1,27,0,0
117044,-100,4,2,1,23,0,0
117210,-100,4,2,1,17,0,0
117377,-100,4,2,1,14,0,0
117544,-100,4,2,1,6,0,0
118127,-100,4,3,1,45,0,0
118210,-100,4,3,1,34,0,0
118294,-100,4,3,1,45,0,0
118377,-100,4,3,1,55,0,0

[Colours]
Combo1 : 240,240,240
Combo2 : 108,255,108
Combo3 : 251,251,0

[HitObjects]
111,193,1055,6,0,L|252:195,1,95,2|0,0:0|0:0,0:0:0:0:
111,193,1388,1,0,0:0:0:0:
275,265,1554,2,0,P|324:227|248:145,1,190,0|0,0:0|0:0,0:0:0:0:
146,142,2054,1,0,0:0:0:0:
31,143,2221,1,0,0:0:0:0:
256,160,2388,6,0,L|397:162,1,95,2|0,0:0|0:0,0:0:0:0:
256,160,2721,1,0,0:0:0:0:
420,248,2888,2,0,P|444:182|330:149,1,190,0|0,0:0|0:0,0:0:0:0:
240,133,3388,1,0,0:0:0:0:
354,132,3554,1,0,0:0:0:0:
130,221,3721,6,0,P|83:191|165:103,1,190,2|0,0:0|0:0,0:0:0:0:
251,95,4221,1,0,0:0:0:0:
106,96,4388,2,0,L|220:88,1,95,2|0,0:0|0:0,0:0:0:0:
352,80,4721,2,0,L|466:72,1,95,2|0,0:0|0:0,0:0:0:0:
220,229,5054,6,0,L|223:101,1,95,2|0,0:0|0:0,0:0:0:0:
377,131,5388,2,0,L|471:129,1,95,2|0,0:0|0:0,0:0:0:0:
308,106,5721,2,0,L|402:108,2,95,2|2|2,0:0|0:0|0:0,0:0:0:0:
430,104,6221,1,0,0:0:0:0:
203,264,6388,6,0,P|174:203|270:160,1,190,2|0,0:0|0:0,0:0:0:0:
387,147,6888,1,0,0:0:0:0:
221,140,7054,2,0,L|457:144,1,190,2|0,0:0|0:0,0:0:0:0:
296,136,7554,1,0,0:0:0:0:
131,128,7721,6,0,L|23:131,2,95,0|0|0,0:0|0:0|0:0,0:0:0:0:
245,121,8221,1,0,0:0:0:0:
20,84,8388,2,0,L|145:85,1,95,2|0,0:0|0:0,0:0:0:0:
283,76,8721,2,0,L|377:75,1,95,2|0,0:0|0:0,0:0:0:0:
149,179,9054,6,0,P|55:142|5:48,2,190,4|0|2,0:0|0:0|0:0,0:0:0:0:
390,176,10054,1,2,0:0:0:0:
114,195,10388,2,0,L|319:188,1,190,4|0,0:0|0:0,0:0:0:0:
456,183,10888,1,0,0:0:0:0:
230,227,11054,5,8,0:0:0:0:
163,227,11138,1,8,0:0:0:0:
163,160,11221,1,8,0:0:0:0:
230,158,11304,1,8,0:0:0:0:
296,154,11388,2,0,L|185:152,1,95,0|0,0:0|0:0,0:0:0:0:
427,190,11711,6,0,L|432:52,1,95,4|0,0:0|0:0,0:0:0:0:
203,228,12044,2,0,P|147:147|239:116,1,190,8|0,0:0|0:0,0:0:0:0:
332,112,12544,1,0,0:0:0:0:
209,108,12710,1,8,0:0:0:0:
85,104,12877,1,0,0:0:0:0:
316,188,13044,6,0,L|434:188,2,95,0|0|8,0:0|0:0|0:0,0:0:0:0:
81,177,13544,2,0,L|314:171,1,190,0|0,0:0|0:0,0:0:0:0:
425,151,14044,2,0,L|296:148,1,95,8|0,0:0|0:0,0:0:0:0:
174,146,14377,6,0,L|45:143,1,95,0|0,0:0|0:0,0:0:0:0:
306,226,14710,2,0,P|310:129|210:149,1,190,8|0,0:0|0:0,0:0:0:0:
402,121,15210,2,0,L|525:119,1,95,0|8,0:0|0:0,0:0:0:0:
335,91,15544,2,0,L|240:94,1,95,0|0,0:0|0:0,0:0:0:0:
470,202,15877,6,0,L|354:198,1,95,0|12,0:0|0:0,0:0:0:0:
210,185,16210,2,0,L|115:188,1,95,0|0,0:0|0:0,0:0:0:0:
343,156,16544,2,0,L|248:154,2,95,0|8|0,0:0|0:0|0:0,0:0:0:0:
466,151,17044,2,0,L|363:146,1,95,0|0,0:0|0:0,0:0:0:0:
141,231,17377,6,0,P|72:176|155:138,1,190,8|0,0:0|0:0,0:0:0:0:
8,127,17877,1,0,0:0:0:0:
132,128,18044,1,8,0:0:0:0:
8,127,18210,1,0,0:0:0:0:
235,118,18377,6,0,L|140:118,2,95,0|0|8,0:0|0:0|0:0,0:0:0:0:
459,169,18877,2,0,L|226:163,1,190,0|0,0:0|0:0,0:0:0:0:
411,127,19377,1,8,0:0:0:0:
269,124,19544,2,0,L|191:117,1,47.5,0|0,0:0|0:0,0:0:0:0:
374,124,19710,6,0,L|491:123,2,95,12|8|0,0:0|0:0|0:0,0:0:0:0:
206,142,20210,1,8,0:0:0:0:
339,136,20377,1,8,0:0:0:0:
471,135,20544,1,0,0:0:0:0:
236,127,20710,2,0,L|112:121,1,95,12|0,0:0|0:0,0:0:0:0:
369,131,21044,6,0,L|463:135,1,95,8|0,0:0|0:0,0:0:0:0:
303,120,21377,2,0,L|386:53,1,95,8|0,0:0|0:0,0:0:0:0:
215,150,21710,2,0,L|214:39,1,95,8|0,0:0|0:0,0:0:0:0:
453,151,22044,2,0,L|348:151,1,95,8|0,0:0|0:0,0:0:0:0:
131,153,22377,5,4,0:0:0:0:
245,157,22544,2,0,P|314:96|239:47,1,190,2|0,0:0|0:0,0:0:0:0:
133,36,23044,2,0,L|336:31,1,190,2|0,0:0|0:0,0:0:0:0:
199,36,23544,1,2,0:0:0:0:
423,128,23710,5,0,0:0:0:0:
309,147,23877,2,0,P|240:86|315:37,1,190,2|0,0:0|0:0,0:0:0:0:
423,36,24377,2,0,L|220:31,1,190,2|0,0:0|0:0,0:0:0:0:
357,36,24877,1,2,0:0:0:0:
133,147,25044,5,2,0:0:0:0:
249,150,25210,2,0,L|365:152,2,95,0|0|0,0:0|0:0|0:0,0:0:0:0:
126,135,25710,2,0,L|350:135,1,190,2|2,0:0|0:0,0:0:0:0:
439,141,26210,1,0,0:0:0:0:
214,115,26377,6,0,L|330:117,2,95,2|2|0,0:0|0:0|0:0,0:0:0:0:
90,115,26877,1,2,0:0:0:0:
326,245,27044,2,0,P|321:157|233:171,1,190,0|0,0:0|0:0,0:0:0:0:
115,166,27544,1,0,0:0:0:0:
342,172,27710,5,2,0:0:0:0:
228,161,27877,2,0,L|458:151,1,190,2|0,0:0|0:0,0:0:0:0:
294,154,28377,2,0,P|232:104|321:66,1,190,2|0,0:0|0:0,0:0:0:0:
424,55,28877,1,2,0:0:0:0:
197,164,29044,5,2,0:0:0:0:
311,153,29210,2,0,L|191:146,2,95,2|2|0,0:0|0:0|0:0,0:0:0:0:
160,224,29710,2,0,L|365:215,1,190,2|2,0:0|0:0,0:0:0:0:
473,207,30210,1,0,0:0:0:0:
248,207,30377,6,0,L|153:202,1,95,2|0,0:0|0:0,0:0:0:0:
379,188,30710,2,0,L|473:183,1,95,2|0,0:0|0:0,0:0:0:0:
242,168,31044,2,0,L|336:173,2,95,2|2|2,0:0|0:0|0:0,0:0:0:0:
408,136,31544,6,0,L|191:138,1,190,2|2,0:0|0:0,0:0:0:0:
380,135,32044,1,2,0:0:0:0:
218,137,32210,1,2,0:0:0:0:
443,214,32377,2,0,P|461:139|360:132,1,190,2|2,0:0|0:0,0:0:0:0:
105,130,33044,5,4,0:0:0:0:
234,124,33210,2,0,L|139:124,2,95,0|8|0,0:0|0:0|0:0,0:0:0:0:
398,121,33710,2,0,L|287:117,1,95,0|0,0:0|0:0,0:0:0:0:
177,92,34044,2,0,L|288:88,1,95,8|0,0:0|0:0,0:0:0:0:
34,220,34377,5,0,0:0:0:0:
156,222,34544,2,0,L|158:109,1,95,0|8,0:0|0:0,0:0:0:0:
33,121,34877,1,8,0:0:0:0:
190,122,35044,2,0,L|68:124,1,95,0|0,0:0|0:0,0:0:0:0:
259,120,35377,2,0,L|381:122,1,95,8|0,0:0|0:0,0:0:0:0:
130,93,35710,5,0,0:0:0:0:
259,87,35877,2,0,L|164:87,2,95,0|8|0,0:0|0:0|0:0,0:0:0:0:
394,83,36377,2,0,L|187:78,1,190,0|8,0:0|0:0,0:0:0:0:
327,72,36877,1,0,0:0:0:0:
102,87,37044,6,0,L|7:89,1,95,0|0,0:0|0:0,0:0:0:0:
170,60,37377,2,0,L|75:57,1,95,8|8,0:0|0:0,0:0:0:0:
302,163,37710,2,0,L|299:45,1,95,0|0,0:0|0:0,0:0:0:0:
135,63,38044,2,0,L|250:63,1,95,8|0,0:0|0:0,0:0:0:0:
457,114,38377,5,4,0:0:0:0:
343,108,38544,2,0,L|437:108,2,95,0|8|0,0:0|0:0|0:0,0:0:0:0:
181,122,39044,2,0,L|292:116,1,95,0|0,0:0|0:0,0:0:0:0:
439,132,39377,2,0,L|344:126,1,95,8|0,0:0|0:0,0:0:0:0:
116,132,39710,5,0,0:0:0:0:
230,126,39877,2,0,L|136:126,2,95,0|8|8,0:0|0:0|0:0,0:0:0:0:
69,191,40377,2,0,P|35:87|98:94,1,190,0|8,0:0|0:0,0:0:0:0:
183,81,40877,1,0,0:0:0:0:
411,86,41044,6,0,L|316:86,1,95,0|0,0:0|0:0,0:0:0:0:
87,90,41377,2,0,L|182:90,1,95,12|0,0:0|0:0,0:0:0:0:
346,89,41710,2,0,L|215:91,2,95,0|0|12,0:0|0:0|0:0,0:0:0:0:
460,87,42210,1,0,0:0:0:0:
228,154,42377,5,2,0:0:0:0:
341,152,42544,2,0,L|245:151,2,95,10|10|10,0:0|0:0|0:0,0:0:0:0:
115,222,43044,2,0,L|110:86,1,95,10|0,0:0|0:0,0:0:0:0:
362,224,43377,1,4,0:0:0:0:
135,220,43710,6,0,L|269:221,1,95,2|0,0:0|0:0,0:0:0:0:
362,224,44044,2,0,L|456:221,1,95,10|0,0:0|0:0,0:0:0:0:
313,252,44377,2,0,P|255:203|325:138,1,190,2|10,0:0|0:0,0:0:0:0:
443,138,44877,1,0,0:0:0:0:
301,137,45044,6,0,L|430:133,1,95,2|0,0:0|0:0,0:0:0:0:
236,138,45377,2,0,L|107:134,1,95,10|0,0:0|0:0,0:0:0:0:
293,125,45710,2,0,L|205:57,1,95,2|0,0:0|0:0,0:0:0:0:
372,144,46044,2,0,L|374:33,1,95,10|0,0:0|0:0,0:0:0:0:
145,229,46377,6,0,P|86:207|160:124,1,190,2|10,0:0|0:0,0:0:0:0:
254,113,46877,1,0,0:0:0:0:
130,116,47044,2,0,L|336:104,1,190,2|10,0:0|0:0,0:0:0:0:
443,98,47544,1,0,0:0:0:0:
217,170,47710,6,0,L|103:168,2,95,2|2|10,0:0|0:0|0:0,0:0:0:0:
353,170,48210,2,0,L|243:168,1,95,2|0,0:0|0:0,0:0:0:0:
95,164,48544,2,0,L|189:165,2,95,10|8|0,0:0|0:0|0:0,0:0:0:0:
323,163,49044,6,0,L|457:164,1,95,4|0,0:0|0:0,0:0:0:0:
266,179,49377,2,0,L|264:64,1,95,10|0,0:0|0:0,0:0:0:0:
415,83,49710,2,0,L|191:84,1,190,2|10,0:0|0:0,0:0:0:0:
348,73,50210,1,0,0:0:0:0:
187,181,50377,6,0,P|165:135|214:102,1,95,2|0,0:0|0:0,0:0:0:0:
340,152,50710,2,0,L|246:82,1,95,10|0,0:0|0:0,0:0:0:0:
417,127,51044,2,0,L|299:128,1,95,0|0,0:0|0:0,0:0:0:0:
162,150,51377,2,0,L|163:34,1,95,10|0,0:0|0:0,0:0:0:0:
421,233,51710,6,0,P|451:169|337:149,1,190,2|10,0:0|0:0,0:0:0:0:
238,126,52210,1,0,0:0:0:0:
114,124,52377,2,0,L|235:124,2,95,0|0|8,0:0|0:0|0:0,0:0:0:0:
9,124,52877,1,0,0:0:0:0:
234,276,53044,5,0,0:0:0:0:
277,261,53127,1,0,0:0:0:0:
294,219,53210,1,0,0:0:0:0:
273,178,53294,1,0,0:0:0:0:
228,168,53377,1,0,0:0:0:0:
94,166,53544,1,0,0:0:0:0:
257,172,53710,6,0,L|335:170,1,47.5,0|0,0:0|0:0,0:0:0:0:
223,161,53877,2,0,L|164:165,1,47.5,0|0,0:0|0:0,0:0:0:0:
256,146,54044,2,0,L|392:143,1,95,0|0,0:0|0:0,0:0:0:0:
122,109,54377,6,0,L|222:106,1,95,4|0,0:0|0:0,0:0:0:0:
384,110,54710,1,8,0:0:0:0:
261,110,54877,2,0,L|488:118,1,190,8|0,0:0|0:0,0:0:0:0:
292,154,55377,2,0,L|172:150,1,95,8|0,0:0|0:0,0:0:0:0:
359,153,55710,6,0,L|470:146,1,95,4|0,0:0|0:0,0:0:0:0:
290,200,56044,1,8,0:0:0:0:
457,203,56210,1,8,0:0:0:0:
230,201,56377,2,0,L|108:199,1,95,0|0,0:0|0:0,0:0:0:0:
299,184,56710,2,0,L|421:182,1,95,8|0,0:0|0:0,0:0:0:0:
169,313,57044,6,0,P|153:257|260:228,1,190,4|8,0:0|0:0,0:0:0:0:
420,228,57544,1,8,0:0:0:0:
296,230,57710,2,0,L|403:228,2,95,0|0|8,0:0|0:0|0:0,0:0:0:0:
132,236,58210,2,0,L|6:241,1,95,0|0,0:0|0:0,0:0:0:0:
276,223,58544,6,0,L|145:228,2,95,0|8|8,0:0|0:0|0:0,0:0:0:0:
97,196,59044,2,0,L|191:198,1,95,0|0,0:0|0:0,0:0:0:0:
33,154,59377,2,0,L|127:153,1,95,8|0,0:0|0:0,0:0:0:0:
442,257,59710,6,0,L|442:152,1,95,8|0,0:0|0:0,0:0:0:0:
289,167,60044,2,0,L|408:166,1,95,8|0,0:0|0:0,0:0:0:0:
157,257,60377,2,0,L|157:152,1,95,8|0,0:0|0:0,0:0:0:0:
309,156,60710,2,0,L|403:156,1,95,8|0,0:0|0:0,0:0:0:0:
179,155,61044,6,0,L|301:155,1,95,12|0,0:0|0:0,0:0:0:0:
427,158,61377,2,0,L|430:32,1,95,8|0,0:0|0:0,0:0:0:0:
204,151,61710,2,0,L|109:151,1,95,8|0,0:0|0:0,0:0:0:0:
261,148,62044,2,0,L|261:243,1,95,8|0,0:0|0:0,0:0:0:0:
33,232,62377,6,0,L|156:230,2,95,8|0|0,0:0|0:0|0:0,0:0:0:0:
261,235,62877,1,12,0:0:0:0:
147,228,63044,1,0,0:0:0:0:
33,219,63210,1,0,0:0:0:0:
194,185,63377,2,0,L|95:182,1,95,8|0,0:0|0:0,0:0:0:0:
329,182,63710,6,0,L|452:180,2,95,8|0|0,0:0|0:0|0:0,0:0:0:0:
105,192,64210,1,8,0:0:0:0:
333,196,64377,2,0,L|210:194,2,95,0|0|8,0:0|0:0|0:0,0:0:0:0:
456,193,64877,1,0,0:0:0:0:
215,260,65044,5,8,0:0:0:0:
334,258,65210,2,0,P|431:227|325:129,1,285,8|0,0:0|0:0,0:0:0:0:
223,119,65877,1,0,0:0:0:0:
450,129,66044,6,0,L|342:129,2,95,8|8|0,0:0|0:0|0:0,0:0:0:0:
288,102,66544,2,0,L|382:104,1,95,8|8,0:0|0:0,0:0:0:0:
156,100,66877,1,8,0:0:0:0:
382,104,67044,1,12,0:0:0:0:
267,104,67210,6,0,L|200:102,2,47.5,0|0|0,0:0|0:0|0:0,0:0:0:0:
381,106,67544,1,8,0:0:0:0:
156,151,67710,6,0,L|21:153,1,95,4|0,0:0|0:0,0:0:0:0:
306,235,68044,2,0,P|351:214|280:118,1,190,8|0,0:0|0:0,0:0:0:0:
150,115,68544,2,0,L|260:113,1,95,0|8,0:0|0:0,0:0:0:0:
470,111,68877,6,0,L|348:104,2,95,0|4|0,0:0|0:0|0:0,0:0:0:0:
227,226,69377,2,0,P|182:205|253:109,1,190,8|0,0:0|0:0,0:0:0:0:
351,105,69877,2,0,L|250:106,2,95,0|8|0,0:0|0:0|0:0,0:0:0:0:
124,178,70377,6,0,L|333:158,1,190,4|8,0:0|0:0,0:0:0:0:
190,145,70877,1,0,0:0:0:0:
353,149,71044,2,0,L|249:146,1,95,0|0,0:0|0:0,0:0:0:0:
93,186,71377,2,0,L|96:79,1,95,8|0,0:0|0:0,0:0:0:0:
321,93,71710,2,0,L|198:94,2,95,4|0|8,0:0|0:0|0:0,0:0:0:0:
444,100,72210,1,0,0:0:0:0:
218,269,72377,5,8,0:0:0:0:
160,247,72460,1,8,0:0:0:0:
162,185,72544,1,8,0:0:0:0:
218,160,72627,1,8,0:0:0:0:
367,157,72710,2,0,L|488:154,1,95,8|0,0:0|0:0,0:0:0:0:
230,192,73044,6,0,P|223:103|321:100,1,190,4|8,0:0|0:0,0:0:0:0:
429,93,73544,1,0,0:0:0:0:
265,104,73710,2,0,L|471:103,1,190,0|8,0:0|0:0,0:0:0:0:
331,108,74210,1,0,0:0:0:0:
105,133,74377,6,0,L|212:131,2,95,4|0|8,0:0|0:0|0:0,0:0:0:0:
331,234,74877,2,0,P|322:161|192:161,1,190,0|0,0:0|0:0,0:0:0:0:
56,145,75377,2,0,L|150:143,1,95,8|0,0:0|0:0,0:0:0:0:
378,160,75710,6,0,L|165:164,1,190,4|8,0:0|0:0,0:0:0:0:
311,149,76210,1,0,0:0:0:0:
144,152,76377,2,0,L|49:155,1,95,0|0,0:0|0:0,0:0:0:0:
218,140,76710,2,0,L|339:136,1,95,8|0,0:0|0:0,0:0:0:0:
88,122,77044,6,0,L|205:123,2,95,4|0|8,0:0|0:0|0:0,0:0:0:0:
315,165,77544,1,0,0:0:0:0:
204,195,77710,5,0,0:0:0:0:
153,171,77794,1,0,0:0:0:0:
133,119,77877,1,0,0:0:0:0:
153,68,77960,1,0,0:0:0:0:
203,43,78044,2,0,L|305:42,1,95,8|0,0:0|0:0,0:0:0:0:
69,172,78377,6,0,L|71:74,1,95,4|0,0:0|0:0,0:0:0:0:
309,206,78710,2,0,P|294:134|170:138,1,190,8|0,0:0|0:0,0:0:0:0:
32,112,79210,2,0,L|139:116,1,95,0|8,0:0|0:0,0:0:0:0:
353,110,79544,6,0,L|252:108,2,95,0|4|0,0:0|0:0|0:0,0:0:0:0:
114,207,80044,2,0,P|129:135|253:139,1,190,8|0,0:0|0:0,0:0:0:0:
391,115,80544,2,0,L|284:119,2,95,0|8|0,0:0|0:0|0:0,0:0:0:0:
162,178,81044,6,0,L|371:158,1,190,4|8,0:0|0:0,0:0:0:0:
474,150,81544,1,0,0:0:0:0:
310,143,81710,2,0,L|216:141,1,95,0|0,0:0|0:0,0:0:0:0:
378,142,82044,2,0,L|473:140,1,95,8|0,0:0|0:0,0:0:0:0:
190,131,82377,2,0,L|285:131,2,95,4|0|8,0:0|0:0|0:0,0:0:0:0:
66,128,82877,1,0,0:0:0:0:
291,269,83044,5,8,0:0:0:0:
349,247,83127,1,8,0:0:0:0:
347,185,83210,1,8,0:0:0:0:
291,160,83294,1,8,0:0:0:0:
142,157,83377,2,0,L|21:154,1,95,8|8,0:0|0:0,0:0:0:0:
275,241,83710,6,0,P|272:176|153:177,1,190,4|8,0:0|0:0,0:0:0:0:
42,163,84210,1,0,0:0:0:0:
201,210,84377,2,0,P|257:160|177:94,1,190,0|8,0:0|0:0,0:0:0:0:
70,106,84877,1,0,0:0:0:0:
297,95,85044,6,0,L|184:99,2,95,4|0|0,0:0|0:0|0:0,0:0:0:0:
66,204,85544,2,0,P|3:166|65:87,1,190,0|0,0:0|0:0,0:0:0:0:
188,77,86044,2,0,L|66:77,1,95,8|0,0:0|0:0,0:0:0:0:
322,164,86377,6,0,L|125:180,1,190,4|8,0:0|0:0,0:0:0:0:
256,178,86877,1,0,0:0:0:0:
95,217,87044,2,0,P|36:147|116:106,1,190,0|8,0:0|0:0,0:0:0:0:
221,110,87544,1,0,0:0:0:0:
450,94,87710,6,0,L|250:97,1,190,4|8,0:0|0:0,0:0:0:0:
107,100,88210,1,0,0:0:0:0:
202,102,88377,2,0,L|247:85,1,47.5,0|0,0:0|0:0,0:0:0:0:
97,98,88544,2,0,L|52:81,1,47.5,0|0,0:0|0:0,0:0:0:0:
196,197,88710,1,8,0:0:0:0:
254,176,88794,1,8,0:0:0:0:
252,114,88877,1,8,0:0:0:0:
192,99,88960,1,8,0:0:0:0:
50,143,89044,6,0,L|160:142,1,95,4|0,0:0|0:0,0:0:0:0:
381,234,89377,2,0,P|369:160|252:156,1,190,8|0,0:0|0:0,0:0:0:0:
144,139,89877,1,0,0:0:0:0:
268,142,90044,1,8,0:0:0:0:
144,139,90210,1,0,0:0:0:0:
370,140,90377,6,0,L|275:140,2,95,0|0|8,0:0|0:0|0:0,0:0:0:0:
144,225,90877,2,0,P|84:164|169:120,1,190,0|0,0:0|0:0,0:0:0:0:
287,123,91377,2,0,L|180:116,1,95,8|0,0:0|0:0,0:0:0:0:
422,162,91710,6,0,L|282:160,1,95,8|0,0:0|0:0,0:0:0:0:
170,128,92044,2,0,L|299:124,1,95,2|0,0:0|0:0,0:0:0:0:
107,107,92377,1,2,0:0:0:0:
229,112,92544,2,0,L|309:110,1,47.5,0|0,0:0|0:0,0:0:0:0:
123,106,92710,6,0,L|-5:104,1,95,8|8,0:0|0:0,0:0:0:0:
151,109,93044,1,0,0:0:0:0:
383,126,93210,2,0,L|259:124,2,95,8|8|8,0:0|0:0|0:0,0:0:0:0:
159,131,93710,5,8,0:0:0:0:
273,117,93877,2,0,L|135:105,1,95,8|8,0:3|0:3,0:0:0:0:
65,105,94210,1,8,0:3:0:0:
294,153,94377,6,0,L|297:48,1,95,4|0,0:0|0:0,0:0:0:0:
63,155,94710,2,0,L|274:159,1,190,8|0,0:0|0:0,0:0:0:0:
376,155,95210,2,0,L|281:163,2,95,0|8|0,0:0|0:0|0:0,0:0:0:0:
151,136,95710,6,0,L|22:132,1,95,4|0,0:0|0:0,0:0:0:0:
294,167,96044,2,0,L|83:171,1,190,8|0,0:0|0:0,0:0:0:0:
226,151,96544,1,0,0:0:0:0:
102,154,96710,1,8,0:0:0:0:
226,151,96877,1,0,0:0:0:0:
0,137,97044,6,0,L|199:142,1,190,4|8,0:0|0:0,0:0:0:0:
313,140,97544,1,0,0:0:0:0:
158,206,97710,2,0,P|99:148|196:100,1,190,0|8,0:0|0:0,0:0:0:0:
285,95,98210,1,0,0:0:0:0:
55,92,98377,6,0,L|195:94,2,95,4|0|8,0:0|0:0|0:0,0:0:0:0:
178,89,98877,1,0,0:0:0:0:
291,269,99044,5,8,0:0:0:0:
349,247,99127,1,8,0:0:0:0:
347,185,99210,1,8,0:0:0:0:
291,160,99294,1,8,0:0:0:0:
142,157,99377,2,0,L|21:154,1,95,8|0,0:0|0:0,0:0:0:0:
279,230,99710,6,0,P|266:181|145:183,1,190,4|8,0:0|0:0,0:0:0:0:
280,175,100210,1,0,0:0:0:0:
110,148,100377,2,0,L|335:150,1,190,0|8,0:0|0:0,0:0:0:0:
167,136,100877,1,0,0:0:0:0:
397,139,101044,6,0,L|271:134,2,95,4|0|8,0:0|0:0|0:0,0:0:0:0:
168,180,101544,2,0,L|388:160,1,190,0|0,0:0|0:0,0:0:0:0:
209,126,102044,2,0,L|335:123,1,95,8|0,0:0|0:0,0:0:0:0:
77,209,102377,6,0,P|17:163|97:92,1,190,4|8,0:0|0:0,0:0:0:0:
207,85,102877,1,0,0:0:0:0:
372,95,103044,2,0,L|160:98,1,190,0|8,0:0|0:0,0:0:0:0:
315,96,103544,1,0,0:0:0:0:
85,112,103710,6,0,L|223:115,2,95,4|0|8,0:0|0:0|0:0,0:0:0:0:
315,155,104210,2,0,L|126:156,1,190,0|0,0:0|0:0,0:0:0:0:
353,173,104710,2,0,L|413:143,1,47.5,12|0,0:0|0:0,0:0:0:0:
234,178,104877,2,0,L|174:148,1,47.5,0|0,0:0|0:0,0:0:0:0:
353,173,105044,6,0,L|447:176,1,95,8|0,0:0|0:0,0:0:0:0:
207,157,105377,2,0,L|320:153,1,95,8|0,0:0|0:0,0:0:0:0:
145,153,105710,1,8,0:0:0:0:
389,133,105877,2,0,L|295:125,2,95,0|8|0,0:0|0:0|0:0,0:0:0:0:
161,141,106377,2,0,L|67:139,1,95,8|0,0:0|0:0,0:0:0:0:
307,115,106710,6,0,L|213:113,1,95,8|0,0:0|0:0,0:0:0:0:
374,94,107044,1,8,0:0:0:0:
213,88,107210,2,0,L|311:92,2,95,0|8|0,0:0|0:0|0:0,0:0:0:0:
451,126,107710,6,0,L|351:123,1,95,8|0,0:0|0:0,0:0:0:0:
201,119,108044,2,0,L|71:110,1,95,8|0,0:0|0:0,0:0:0:0:
272,194,108377,2,0,L|278:78,1,95,8|0,0:0|0:0,0:0:0:0:
115,193,108710,2,0,L|109:77,1,95,8|0,0:0|0:0,0:0:0:0:
348,156,109044,6,0,L|213:156,2,95,8|0|8,0:0|0:0|0:0,0:0:0:0:
472,158,109544,1,0,0:0:0:0:
247,208,109710,5,8,0:0:0:0:
192,179,109794,1,8,0:0:0:0:
194,117,109877,1,8,0:0:0:0:
252,99,109960,1,8,0:0:0:0:
399,99,110044,2,0,L|493:102,1,95,8|0,0:0|0:0,0:0:0:0:
217,139,110377,6,0,L|311:142,1,95,12|0,0:0|0:0,0:0:0:0:
477,147,110710,2,0,L|383:144,1,95,8|0,0:0|0:0,0:0:0:0:
155,134,111044,2,0,L|36:134,1,95,8|0,0:0|0:0,0:0:0:0:
227,126,111377,2,0,L|322:126,1,95,8|0,0:0|0:0,0:0:0:0:
87,113,111710,6,0,L|181:111,2,95,8|0|8,0:0|0:0|0:0,0:0:0:0:
325,150,112210,2,0,L|189:155,1,95,0|8,0:0|0:0,0:0:0:0:
107,159,112544,1,0,0:0:0:0:
336,149,112710,2,0,L|430:145,1,95,8|0,0:0|0:0,0:0:0:0:
193,177,113044,6,0,L|77:174,1,95,8|0,0:0|0:0,0:0:0:0:
261,142,113377,2,0,L|125:147,1,95,8|0,0:0|0:0,0:0:0:0:
403,150,113710,2,0,L|542:152,1,95,8|0,0:0|0:0,0:0:0:0:
335,93,114044,2,0,L|454:94,1,95,8|0,0:0|0:0,0:0:0:0:
136,226,114377,6,0,L|134:121,1,95,12|0,0:0|0:0,0:0:0:0:
296,132,114710,2,0,L|157:134,1,95,8|0,0:0|0:0,0:0:0:0:
434,278,115044,1,8,0:0:0:0:
494,252,115127,1,8,0:0:0:0:
492,185,115210,1,8,0:0:0:0:
429,162,115294,1,8,0:0:0:0:
259,168,115377,2,0,L|187:170,1,47.5,0|0,0:0|0:0,0:0:0:0:
388,168,115544,2,0,L|460:170,1,47.5,0|0,0:0|0:0,0:0:0:0:
194,178,115710,5,4,0:0:0:0:
256,192,115877,12,0,117544,0:0:0:0:
241,156,118127,6,0,L|192:156,2,47.5,0|0|0,0:0|0:0|0:0,0:0:0:0:
409,155,118377,1,4,0:0:0:0:
