osu file format v14

[General]
AudioFilename: By.mp3
AudioLeadIn: 0
PreviewTime: 100841
Countdown: 0
SampleSet: Soft
StackLeniency: 0.7
Mode: 2
LetterboxInBreaks: 0
WidescreenStoryboard: 1

[Editor]
Bookmarks: 1144,35428,74279,111016,133429,169998,200287,234697,270124,305555,337563,378699
DistanceSpacing: 1
BeatDivisor: 4
GridSize: 16
TimelineZoom: 4.099999

[Metadata]
Title:Dan ~ CTB ~ BossMap Pack
TitleUnicode:Dan ~ CTB ~ BossMap Pack
Artist:Various Artists
ArtistUnicode:Various Artists
Creator:Emiru
Version:Catch The Glory 1.325x (cut) ~ Yod ~ (Marathon)
Source:
Tags:
BeatmapID:4002400
BeatmapSetID:697139

[Difficulty]
HPDrainRate:3
CircleSize:4.2
OverallDifficulty:10
ApproachRate:10
SliderMultiplier:1.62
SliderTickRate:2

[Events]
//Background and Video events
0,0,"By.jpg",0,0
//Break Periods
//Storyboard Layer 0 (Background)
//Storyboard Layer 1 (Fail)
//Storyboard Layer 2 (Pass)
//Storyboard Layer 3 (Foreground)
//Storyboard Layer 4 (Overlay)
//Storyboard Sound Samples

[TimingPoints]
861,215.935896406049,4,2,3,50,1,0
82917,226.732691226352,4,2,3,50,1,0
83145,238.66599076458,4,2,3,50,1,0
83383,251.925212473725,4,2,3,50,1,0
83634,266.744342619237,4,2,3,50,1,0
83900,283.41586403294,4,2,3,50,1,0
90701,-100,4,2,1,40,0,0
91835,-71.4285714285714,4,2,4,60,0,0
92402,-71.4285714285714,4,2,6,60,0,0
92969,266.744342619237,4,2,4,60,1,0
92969,-76.9230769230769,4,2,4,60,0,0
95103,251.925212473725,4,2,4,60,1,0
95103,-80,4,2,4,60,0,0
97118,238.66599076458,4,2,4,70,1,0
97118,-83.3333333333333,4,2,4,70,0,0
99027,226.732691226352,4,2,4,70,1,0
99027,-86.9565217391304,4,2,4,70,0,0
99933,-86.9565217391304,4,2,5,70,0,0
100387,-86.9565217391304,4,2,6,70,0,0
100841,215.935896406049,4,2,1,70,1,1
104511,-47.6190476190476,4,2,1,70,0,1
104727,-100,4,2,1,70,0,1
106347,-47.6190476190476,4,2,1,70,0,1
106563,-100,4,2,1,70,0,1
106941,-100,4,2,5,70,0,1
107319,-100,4,2,6,70,0,1
107750,-100,4,2,1,70,0,1
112609,-47.6190476190476,4,2,1,70,0,1
112825,-100,4,2,1,70,0,1
113850,-100,4,2,5,70,0,1
114229,-100,4,2,6,70,0,1
114660,-100,4,2,1,70,0,1
120167,-47.6190476190476,4,2,1,70,0,1
120383,-100,4,2,1,70,0,1
120761,-100,4,2,5,70,0,1
121138,-100,4,2,6,70,0,1
121570,-100,4,2,3,70,0,1
121786,-100,4,2,1,70,0,1
123514,-47.6190476190476,4,2,1,70,0,1
123730,-100,4,2,1,70,0,1
123838,-47.6190476190476,4,2,1,70,0,1
124054,-47.6190476190476,4,2,3,70,0,1
124081,-47.6190476190476,4,2,1,70,0,1
124108,-100,4,2,1,70,0,1
126429,-47.6190476190476,4,2,1,70,0,1
126645,-100,4,2,1,70,0,1
128480,-100,4,2,1,70,0,0
128696,-100,4,2,5,70,0,1
128750,-100,4,2,5,70,0,0
128839,-100,4,2,5,60,0,0
131072,-100,4,2,6,60,0,0
131287,-100,4,2,5,60,0,0
134095,-100,4,2,6,60,0,0
134311,-100,4,2,5,60,0,0
134383,-100,4,2,6,60,0,0
134742,-100,4,2,5,60,0,0
137981,-100,4,2,6,60,0,0
138197,-100,4,2,5,60,0,0
142300,283.41586403294,4,2,4,60,1,0
146834,-100,4,2,4,65,0,0
149101,-83.3333333333333,4,2,4,70,0,0
150235,-83.3333333333333,4,2,4,75,0,0
150802,-100,4,2,4,80,0,0
151085,-100,4,2,4,90,0,0
151369,-100,4,2,5,80,0,0
151440,-71.4285714285714,4,2,1,70,0,0
153636,-71.4285714285714,4,2,1,60,0,0
154770,-71.4285714285714,4,2,1,50,0,0
155337,-71.4285714285714,4,2,1,60,0,0
159375,-71.4285714285714,4,2,5,60,0,0
159517,-71.4285714285714,4,2,2,60,0,0
159588,-71.4285714285714,4,2,6,60,0,0
159730,-71.4285714285714,4,2,3,60,0,0
159800,-71.4285714285714,4,2,5,60,0,0
159942,-71.4285714285714,4,2,4,60,0,0
160155,-71.4285714285714,4,2,5,60,0,0
160296,-71.4285714285714,4,2,6,60,0,0
160366,-71.4285714285714,4,2,5,60,0,0
160438,-71.4285714285714,4,2,1,60,0,0
160580,-71.4285714285714,4,2,2,60,0,0
164973,-71.4285714285714,4,2,1,60,0,0
165114,-71.4285714285714,4,2,2,60,0,0
168586,-29.2397660818713,4,2,1,60,0,0
168727,-29.2397660818713,4,2,2,60,0,0
168799,-58.4795321637427,4,2,3,60,0,0
168940,-58.4795321637427,4,2,2,60,0,0
169011,-29.2397660818713,4,2,5,60,0,0
169152,-29.2397660818713,4,2,2,60,0,0
169224,-29.2397660818713,4,2,1,60,0,0
169509,266.744342619237,4,2,1,60,1,0
169642,-76.9230769230769,4,2,2,60,0,0
170575,-76.9230769230769,4,2,1,60,0,0
170709,-76.9230769230769,4,2,2,60,0,0
171642,251.925212473725,4,2,1,60,1,0
171767,-83.3333333333333,4,2,2,60,0,0
172649,-83.3333333333333,4,2,1,60,0,0
172774,-83.3333333333333,4,2,2,60,0,0
173656,238.66599076458,4,2,1,60,1,0
173775,-90.9090909090909,4,2,2,60,0,0
174610,-90.9090909090909,4,2,1,60,0,0
174729,-90.9090909090909,4,2,2,60,0,0
175566,226.732691226352,4,2,1,60,1,0
175679,-100,4,2,2,60,0,0
175736,-95.2380952380952,4,2,2,60,0,0
176472,-95.2380952380952,4,2,1,60,0,0
176585,-95.2380952380952,4,2,2,60,0,0
177380,215.935896406049,4,2,1,60,1,0
178243,-100,4,2,6,60,0,0
178675,-100,4,2,1,60,0,0
178728,-100,4,2,6,60,0,0
179107,-100,4,2,1,60,0,0
179323,-47.6190476190476,4,2,1,60,0,0
179539,-100,4,2,1,60,0,0
179971,-100,4,2,5,60,0,0
180403,-100,4,2,1,60,0,0
180456,-100,4,2,5,60,0,0
180834,-100,4,2,1,60,0,0
181698,-100,4,2,6,60,0,0
182130,-100,4,2,1,60,0,0
182183,-100,4,2,6,60,0,0
182669,-100,4,2,1,60,0,0
182778,-47.6190476190476,4,2,1,60,0,0
182994,-100,4,2,1,60,0,0
183426,-100,4,2,5,60,0,0
183858,-100,4,2,6,60,0,0
184289,-100,4,2,1,60,0,0
185530,-100,4,2,6,60,0,0
185801,-100,4,2,1,60,0,0
185854,-100,4,2,6,60,0,0
186017,-100,4,2,1,60,0,0
187258,-100,4,2,5,60,0,0
187528,-100,4,2,1,60,0,0
187581,-100,4,2,5,60,0,0
187744,-100,4,2,1,60,0,0
188985,-100,4,2,6,60,0,0
189256,-100,4,2,1,60,0,0
189309,-100,4,2,6,60,0,0
189472,-100,4,2,2,60,0,0
189580,-100,4,2,1,60,0,0
190120,-100,4,2,3,60,0,0
190335,-100,4,2,1,60,0,0
190444,-100,4,2,4,60,0,0
190552,-47.6190476190476,4,2,4,60,0,0
190659,-47.6190476190476,4,2,1,60,0,0
190768,-50,4,2,3,60,0,0
190875,-50,4,2,1,60,0,0
190983,-47.6190476190476,4,2,3,70,0,0
191090,-47.6190476190476,4,2,3,60,0,0
191199,-100,4,2,1,70,0,0
191252,-100,4,2,6,70,0,0
192711,-47.6190476190476,4,2,7,85,0,0
192818,-47.6190476190476,4,2,8,100,0,0
192927,-100,4,2,1,60,0,0
192980,-100,4,2,6,70,0,0
194222,-47.6190476190476,4,2,7,70,0,0
194654,-100,4,2,1,70,0,0
194707,-100,4,2,6,70,0,0
195950,-100,4,2,9,70,0,0
196382,-100,4,2,1,70,0,0
196435,-100,4,2,6,70,0,0
198109,-47.6190476190476,4,2,2,70,0,0
199567,-47.6190476190476,4,2,6,70,0,0
199837,-47.6190476190476,4,2,1,85,0,0
201132,-47.6190476190476,4,2,3,85,0,0
201456,-47.6190476190476,4,2,6,90,0,0
201780,-100,4,2,1,60,0,0
203076,-100,4,2,6,60,0,0
204264,-100,4,2,1,70,0,0
204803,-100,4,2,4,70,0,0
204857,-100,4,2,1,70,0,0
205019,-100,4,2,3,70,0,0
205235,-100,4,2,2,70,0,1
205343,-47.6190476190476,4,2,1,70,0,1
205559,-100,4,2,1,70,0,1
205667,-47.6190476190476,4,2,1,70,0,1
205883,-100,4,2,4,70,0,1
205991,-47.6190476190476,4,2,1,70,0,1
206207,-100,4,2,5,70,0,1
206315,-47.6190476190476,4,2,1,70,0,1
206531,-47.6190476190476,4,2,3,70,0,1
206585,-47.6190476190476,4,2,1,70,0,1
206747,-100,4,2,3,60,0,0
206963,-100,4,2,1,70,0,1
207611,-100,4,2,6,70,0,1
208474,-100,4,2,5,70,0,1
208582,-100,4,2,1,70,0,1
209230,-100,4,2,6,70,0,1
209554,-100,4,2,5,70,0,1
209770,-100,4,2,1,70,0,1
212145,-100,4,2,2,70,0,1
212253,-47.6190476190476,4,2,1,70,0,1
212469,-100,4,2,1,70,0,1
212577,-47.6190476190476,4,2,1,70,0,1
212793,-100,4,2,4,70,0,1
212901,-47.6190476190476,4,2,1,70,0,1
213117,-100,4,2,5,70,0,1
213225,-47.6190476190476,4,2,1,70,0,1
213441,-47.6190476190476,4,2,3,70,0,1
213495,-47.6190476190476,4,2,1,70,0,1
213657,-100,4,2,3,70,0,1
213873,-100,4,2,1,70,0,1
214520,-100,4,2,6,70,0,1
215384,-100,4,2,5,70,0,1
215456,-100,4,2,1,65,0,1
217975,-100,4,2,5,60,0,1
218028,-100,4,2,8,65,0,1
218623,-100,4,2,4,65,0,1
218677,-100,4,2,6,65,0,1
219055,-100,4,2,2,70,0,1
219163,-47.6190476190476,4,2,1,70,0,1
219379,-100,4,2,1,70,0,1
219487,-47.6190476190476,4,2,1,70,0,1
219703,-100,4,2,4,70,0,1
219811,-47.6190476190476,4,2,1,70,0,1
220027,-100,4,2,5,70,0,1
220135,-47.6190476190476,4,2,1,70,0,1
220351,-47.6190476190476,4,2,3,70,0,1
220405,-47.6190476190476,4,2,1,70,0,1
220567,-100,4,2,3,70,0,1
220783,-100,4,2,1,70,0,1
221430,-100,4,2,6,70,0,1
222294,-100,4,2,5,70,0,1
222402,-100,4,2,1,70,0,1
223050,-100,4,2,6,70,0,1
223374,-100,4,2,5,70,0,1
223590,-100,4,2,1,70,0,1
225677,-100,4,2,1,70,0,0
225965,-100,4,2,2,80,0,0
229420,-100,4,2,7,70,0,0
229473,-100,4,2,1,30,0,0
229852,-100,4,2,1,40,0,0
230121,-100,4,2,1,50,0,0
230392,-100,4,2,1,60,0,0
230608,-100,4,2,1,70,0,0
230716,-100,4,2,1,75,0,0
230824,-100,4,2,1,80,0,0
231256,-100,4,2,2,80,0,0
231471,-100,4,2,1,80,0,0
231579,-47.6190476190476,4,2,1,60,0,0
231795,-100,4,2,5,60,0,0
232659,-100,4,2,6,75,0,0
233091,-100,4,2,6,70,0,0
233523,-100,4,2,5,60,0,0
233739,-100,4,2,6,60,0,0
233955,-100,4,2,6,55,0,0
234171,-100,4,2,6,50,0,0
234818,-100,4,2,1,60,0,0
235250,-100,4,2,6,65,0,0
235682,-100,4,2,5,65,0,0
236114,-100,4,2,2,65,0,0
236329,-100,4,2,1,60,0,0
236546,-100,4,2,3,50,0,0
239569,-100,4,2,3,55,0,0
243024,-100,4,2,3,60,0,0
246479,-47.6190476190476,4,2,1,60,0,0
247775,-100,4,2,6,60,0,0
247991,-100,4,2,5,60,0,0
248206,-100,4,2,1,60,0,0
251661,-100,4,2,1,65,0,0
252525,-100,4,2,1,70,0,0
252957,-100,4,2,1,74,0,0
253389,-100,4,2,1,78,0,0
253821,-100,4,2,1,82,0,0
254253,-100,4,2,1,85,0,0
254469,-100,4,2,5,70,0,0
254685,-100,4,2,6,70,0,0
255116,-100,4,2,1,70,0,1
255224,-100,4,2,2,70,0,1
255548,-100,4,2,1,70,0,1
256844,-100,4,2,2,70,0,1
257276,-100,4,2,1,70,0,1
258140,-100,4,2,5,70,0,1
258355,-100,4,2,6,70,0,1
258571,-100,4,2,1,70,0,1
258679,-100,4,2,2,70,0,1
259003,-100,4,2,1,70,0,1
260299,-100,4,2,2,70,0,1
260731,-100,4,2,1,70,0,1
261594,-100,4,2,5,70,0,1
261810,-100,4,2,6,70,0,1
262026,-100,4,2,1,70,0,1
262782,-100,4,2,7,70,0,1
263051,-100,4,2,1,70,0,1
263646,-100,4,2,7,70,0,1
263915,-100,4,2,1,70,0,1
264510,-100,4,2,7,70,0,1
264779,-100,4,2,1,70,0,1
265157,-100,4,2,6,70,0,1
265373,-100,4,2,7,70,0,1
265426,-100,4,2,1,70,0,1
266237,-100,4,2,7,70,0,1
266506,-100,4,2,1,70,0,1
267101,-100,4,2,7,70,0,1
267316,-100,4,2,1,70,0,1
267965,-100,4,2,7,70,0,1
268019,-100,4,2,1,70,0,1
268504,-100,4,2,6,70,0,1
268684,-100,4,2,5,70,0,1
268828,-100,4,2,7,70,0,1
268989,-100,4,2,1,70,0,1
269692,-100,4,2,7,70,0,1
269745,-100,4,2,1,70,0,1
270556,-100,4,2,7,70,0,1
270771,-100,4,2,1,70,0,1
271420,-100,4,2,7,70,0,1
271689,-100,4,2,1,70,0,1
271905,-100,4,2,5,70,0,1
272067,-100,4,2,6,70,0,1
272283,-100,4,2,1,70,0,1
275738,-100,4,2,1,70,0,0
277790,-100,4,2,6,70,0,0
278545,-100,4,2,1,60,0,0
278833,-100,4,2,3,60,0,0
279121,-100,4,2,4,60,0,0
279516,-100,4,2,1,60,0,1
281029,-100,4,2,1,60,0,0

[Colours]
Combo1 : 255,207,64
Combo2 : 166,124,0
Combo3 : 255,191,0
Combo4 : 191,155,48

[HitObjects]
256,272,90701,6,0,L|80:272,1,162,2|0,2:3|2:0,2:0:0:0:
304,272,91268,2,0,L|496:272,1,162,2|0,2:0|2:0,2:0:0:0:
384,224,91693,1,2,2:0:0:0:
96,96,91835,6,0,L|96:160,1,56.7,12|8,2:3|2:3,2:0:0:0:
256,272,91977,2,0,L|256:352,1,56.7,8|8,2:3|2:3,2:0:0:0:
464,144,92119,2,0,L|400:144,1,56.7,8|8,2:3|2:3,2:0:0:0:
256,64,92260,2,0,L|320:64,1,56.7,8|8,2:3|2:3,2:0:0:0:
128,304,92402,5,12,2:0:0:0:
73,296,92473,1,12,2:0:0:0:
49,248,92544,1,12,2:0:0:0:
76,200,92615,1,12,2:0:0:0:
336,192,92685,2,0,L|336:272,1,56.7,12|12,2:3|2:3,2:0:0:0:
192,192,92827,2,0,L|192:288,1,56.7,12|12,2:3|2:3,2:0:0:0:
432,352,92969,6,0,L|304:352,1,105.3,6|8,3:2|2:0,2:0:0:0:
272,352,93169,1,8,2:0:0:0:
432,64,93235,2,0,L|304:64,1,105.3,2|8,3:2|2:0,2:0:0:0:
368,96,93435,1,8,2:0:0:0:
80,304,93502,6,0,L|192:304,1,105.3,2|8,3:2|2:0,2:0:0:0:
240,304,93702,1,8,2:0:0:0:
80,64,93769,2,0,L|192:64,1,105.3,2|8,3:2|2:0,2:0:0:0:
144,96,93969,1,8,2:0:0:0:
400,192,94035,6,0,B|454:192|454:192|400:192,1,105.3,2|8,3:2|2:0,2:0:0:0:
352,192,94236,1,8,2:0:0:0:
192,256,94302,2,0,L|336:256,1,105.3,2|8,3:0|2:0,2:0:0:0:
352,256,94502,1,8,2:0:0:0:
112,128,94569,6,0,B|59:128|59:128|113:128,1,105.3,2|8,3:2|2:0,2:0:0:0:
160,128,94769,1,8,2:0:0:0:
320,32,94836,2,0,L|193:32,1,105.3,2|8,3:2|2:0,2:0:0:0:
160,32,95036,1,8,2:0:0:0:
464,336,95103,6,0,L|320:336,1,101.25,2|8,3:2|2:0,2:0:0:0:
416,304,95291,1,8,2:0:0:0:
208,192,95354,2,0,B|156:192|156:192|208:192,1,101.25,2|8,3:2|2:0,2:0:0:0:
256,192,95543,1,8,2:0:0:0:
48,336,95606,6,0,L|174:336,1,101.25,2|8,3:2|2:0,2:0:0:0:
96,304,95795,1,8,2:0:0:0:
304,192,95858,2,0,B|355:192|355:192|304:192,1,101.25,2|8,3:2|2:0,2:0:0:0:
256,192,96047,1,8,2:0:0:0:
496,48,96110,6,0,L|368:48,1,101.25,2|8,3:2|2:0,2:0:0:0:
352,48,96299,1,8,2:0:0:0:
16,48,96362,2,0,L|128:48,1,101.25,2|8,3:2|2:0,2:0:0:0:
160,48,96551,1,8,2:0:0:0:
432,272,96614,6,0,L|448:336,1,50.625,2|2,3:2|2:0,2:0:0:0:
304,240,96740,2,0,L|352:272,1,50.625,10|10,2:0|2:0,2:0:0:0:
80,272,96866,2,0,L|64:336,1,50.625,2|2,3:2|2:0,2:0:0:0:
208,240,96992,2,0,L|160:272,1,50.625,10|10,2:0|2:0,2:0:0:0:
480,32,97118,6,0,L|432:32,1,48.6,2|0,3:2|2:0,2:0:0:0:
304,80,97237,2,0,L|368:80,1,48.6,8|8,2:0|2:0,2:0:0:0:
480,80,97356,1,2,3:2:0:0:
192,192,97475,2,0,L|128:192,1,48.6,8|8,2:0|2:0,2:0:0:0:
336,192,97595,2,0,L|400:192,1,48.6,2|0,3:2|2:0,2:0:0:0:
256,128,97714,1,2,3:2:0:0:
32,32,97833,6,0,L|80:32,1,48.6,0|0,2:0|2:0,2:0:0:0:
208,80,97953,2,0,L|160:80,1,48.6,8|8,2:0|2:0,2:0:0:0:
32,80,98072,1,2,3:2:0:0:
320,304,98191,6,0,L|368:304,1,48.6,8|0,2:0|2:0,2:0:0:0:
176,304,98311,2,0,L|128:304,1,48.6,2|0,3:2|2:0,2:0:0:0:
256,256,98430,1,8,2:0:0:0:
480,192,98549,6,0,L|432:192,1,48.6,2|0,3:2|2:0,2:0:0:0:
288,144,98669,2,0,L|240:144,1,48.6,8|8,2:0|2:0,2:0:0:0:
32,192,98788,2,0,L|144:192,1,97.2,2|8,3:2|2:0,2:0:0:0:
448,288,99027,6,0,L|459:352,1,46.575,2|2,3:2|3:2,2:0:0:0:
320,288,99140,2,0,L|312:351,1,46.575,10|10,3:2|3:2,2:0:0:0:
192,288,99253,2,0,L|200:351,1,46.575,2|2,3:2|3:2,2:0:0:0:
64,240,99367,2,0,L|56:303,1,46.575,10|10,3:2|3:2,2:0:0:0:
256,192,99480,6,0,L|304:192,1,46.575,2|2,3:2|3:2,2:0:0:0:
160,192,99593,1,10,3:2:0:0:
32,192,99650,1,10,3:2:0:0:
160,144,99707,1,2,3:2:0:0:
208,144,99763,1,2,3:2:0:0:
160,144,99820,1,10,3:2:0:0:
304,144,99877,1,10,3:2:0:0:
160,32,99933,6,0,L|96:32,1,46.575,14|12,2:3|2:3,2:0:0:0:
160,64,100047,2,0,L|224:64,1,46.575,14|12,2:3|2:3,2:0:0:0:
384,96,100160,2,0,L|400:160,1,46.575,14|12,2:3|2:3,2:0:0:0:
256,224,100274,2,0,L|256:288,1,46.575,14|12,2:3|2:3,2:0:0:0:
384,352,100387,6,0,L|432:352,1,46.575,14|12,2:3|2:3,2:0:0:0:
256,320,100500,2,0,L|256:384,1,46.575,12|12,2:3|2:3,2:0:0:0:
128,352,100614,2,0,L|80:352,1,46.575,14|12,1:3|2:3,2:0:0:0:
256,64,100727,2,0,L|192:64,1,46.575,12|12,2:3|2:3,2:0:0:0:
32,224,100841,6,0,L|128:224,1,81,4|2,3:1|1:2,2:0:0:0:
64,192,101002,1,2,1:2:0:0:
256,128,101056,2,0,L|144:128,1,81,8|2,3:2|1:2,2:0:0:0:
208,160,101218,1,2,1:2:0:0:
368,192,101272,6,0,L|384:128,1,40.5,2|2,3:2|2:0,2:0:0:0:
256,288,101380,2,0,L|256:224,1,40.5,2|2,2:0|2:0,2:0:0:0:
368,352,101488,2,0,L|320:352,1,40.5,10|0,3:2|2:0,2:0:0:0:
192,352,101596,1,2,1:2:0:0:
328,352,101650,1,2,1:2:0:0:
464,272,101704,6,0,L|368:272,1,81,2|2,3:2|3:2,2:0:0:0:
432,240,101866,1,2,1:2:0:0:
256,64,101920,2,0,L|368:64,1,81,10|2,3:2|1:2,2:0:0:0:
288,96,102082,1,2,1:2:0:0:
144,192,102136,6,0,L|128:128,1,40.5,2|2,3:2|2:0,2:0:0:0:
256,256,102244,2,0,L|256:192,1,40.5,2|2,3:2|1:2,2:0:0:0:
144,304,102352,2,0,L|192:304,1,40.5,10|2,3:2|1:2,2:0:0:0:
336,304,102460,2,0,L|288:304,1,40.5,2|2,1:2|1:2,2:0:0:0:
432,192,102568,5,2,3:2:0:0:
416,192,102595,1,0,2:0:0:0:
400,192,102622,1,0,2:0:0:0:
352,192,102676,1,2,3:2:0:0:
400,144,102730,1,2,3:2:0:0:
224,144,102784,2,0,L|320:144,1,81,10|2,3:2|1:2,2:0:0:0:
288,112,102919,1,2,1:2:0:0:
272,112,102946,1,2,1:2:0:0:
256,112,102973,1,2,1:2:0:0:
240,352,103000,6,0,L|288:352,1,40.5,2|2,3:2|2:0,2:0:0:0:
128,256,103108,2,0,L|176:256,1,40.5,2|2,3:2|1:2,2:0:0:0:
32,240,103216,2,0,L|32:192,1,40.5,10|2,3:2|1:2,2:0:0:0:
240,64,103324,1,2,3:2:0:0:
208,64,103351,1,2,2:0:0:0:
176,64,103378,1,2,3:2:0:0:
304,272,103432,6,0,L|304:224,1,40.5,2|2,3:2|2:0,2:0:0:0:
192,16,103540,2,0,L|240:16,1,40.5,2|2,3:2|1:2,2:0:0:0:
384,16,103648,2,0,L|336:16,1,40.5,10|2,3:2|1:2,2:0:0:0:
192,352,103756,2,0,L|160:352,2,27,2|2|2,3:2|1:2|3:2,2:0:0:0:
304,192,103864,6,0,L|256:192,1,40.5,2|2,3:2|3:2,2:0:0:0:
96,128,103972,2,0,L|96:80,1,40.5,2|2,3:2|1:2,2:0:0:0:
256,112,104080,2,0,L|304:112,1,40.5,10|2,3:2|1:2,2:0:0:0:
160,192,104188,2,0,L|208:192,1,40.5,2|2,3:2|1:2,2:0:0:0:
368,304,104295,6,0,L|400:304,2,27,2|2|2,3:2|1:2|1:2,2:0:0:0:
256,352,104403,2,0,L|304:352,1,40.5,2|2,3:2|3:2,2:0:0:0:
480,32,104511,2,0,L|272:32,1,170.1,10|2,3:2|1:2,2:0:0:0:
368,64,104673,1,2,1:2:0:0:
160,192,104727,6,0,L|160:240,1,40.5,2|2,3:2|1:2,2:0:0:0:
224,192,104835,2,0,L|224:240,1,40.5,2|2,3:2|1:2,2:0:0:0:
64,80,104943,2,0,L|112:80,1,40.5,10|2,3:2|1:2,2:0:0:0:
272,80,105051,1,2,1:2:0:0:
254,80,105078,1,0,2:0:0:0:
240,80,105105,1,2,1:2:0:0:
384,288,105159,6,0,L|288:288,1,81,2|2,3:2|3:2,2:0:0:0:
336,256,105321,1,2,1:2:0:0:
128,288,105375,2,0,L|224:288,1,81,10|2,3:2|1:2,2:0:0:0:
176,256,105537,1,2,1:2:0:0:
384,128,105591,6,0,L|400:64,1,40.5,2|2,3:2|1:2,2:0:0:0:
256,192,105699,2,0,L|256:144,1,40.5,2|2,3:2|1:2,2:0:0:0:
128,128,105807,2,0,L|112:64,1,40.5,10|2,3:2|1:2,2:0:0:0:
256,192,105915,2,0,L|256:144,1,40.5,10|10,3:2|3:2,2:0:0:0:
368,352,106023,6,0,B|272:352,1,81,6|2,3:2|3:2,2:0:0:0:
256,320,106185,1,2,3:2:0:0:
416,272,106239,1,10,3:2:0:0:
176,16,106347,6,0,L|416:16,1,170.1,6|0,3:2|2:0,2:0:0:0:
176,288,106563,2,0,P|176:256|176:176,1,81,10|2,3:2|1:2,2:0:0:0:
256,144,106725,1,2,1:2:0:0:
128,80,106779,6,0,L|240:80,1,81,6|2,3:2|1:2,2:0:0:0:
256,80,106941,1,8,2:3:0:0:
144,192,106995,2,0,L|96:192,1,40.5,10|8,2:3|2:3,2:0:0:0:
256,256,107103,2,0,L|256:304,1,40.5,10|8,2:3|2:3,2:0:0:0:
368,192,107211,2,0,L|416:192,1,40.5,10|8,2:3|2:3,2:0:0:0:
256,368,107319,6,0,L|256:320,1,40.5,14|12,2:3|2:3,2:0:0:0:
144,272,107427,2,0,L|96:272,1,40.5,14|12,2:3|2:3,2:0:0:0:
256,192,107535,2,0,L|304:192,1,40.5,14|12,1:3|2:3,2:0:0:0:
176,128,107642,1,14,2:3:0:0:
297,192,107696,1,12,2:3:0:0:
464,32,107750,6,0,L|352:32,1,81,6|2,3:1|1:2,2:0:0:0:
416,64,107912,1,2,1:2:0:0:
256,96,107966,2,0,L|352:96,1,81,8|2,3:2|1:2,2:0:0:0:
304,64,108128,1,2,1:2:0:0:
144,192,108182,6,0,L|128:128,1,40.5,2|2,3:2|2:0,2:0:0:0:
304,304,108290,2,0,L|304:240,1,40.5,2|2,2:0|2:0,2:0:0:0:
144,352,108398,2,0,L|192:352,1,40.5,10|0,3:2|2:0,2:0:0:0:
304,352,108506,1,2,1:2:0:0:
185,352,108560,1,2,1:2:0:0:
32,256,108614,6,0,L|144:256,1,81,2|2,3:2|3:2,2:0:0:0:
80,224,108776,1,2,1:2:0:0:
256,64,108830,2,0,L|144:64,1,81,10|2,3:2|1:2,2:0:0:0:
208,96,108992,1,2,1:2:0:0:
368,192,109046,6,0,L|384:128,1,40.5,2|2,3:2|2:0,2:0:0:0:
224,240,109154,2,0,L|240:176,1,40.5,2|2,3:2|1:2,2:0:0:0:
368,304,109262,2,0,L|320:304,1,40.5,10|2,3:2|1:2,2:0:0:0:
192,304,109370,2,0,L|236:304,1,40.5,2|2,1:2|1:2,2:0:0:0:
80,192,109478,5,2,3:2:0:0:
96,192,109505,1,0,2:0:0:0:
112,192,109532,1,0,2:0:0:0:
160,192,109586,1,2,3:2:0:0:
112,144,109640,1,2,3:2:0:0:
288,32,109694,2,0,L|192:32,1,81,10|2,3:2|1:2,2:0:0:0:
207,32,109829,1,2,1:2:0:0:
320,96,109856,1,2,1:2:0:0:
352,96,109883,1,2,1:2:0:0:
208,368,109910,6,0,L|160:368,1,40.5,2|2,3:2|1:2,2:0:0:0:
320,336,110018,2,0,L|320:272,1,40.5,2|2,3:2|1:2,2:0:0:0:
256,288,110126,2,0,L|256:224,1,40.5,10|2,3:2|1:2,2:0:0:0:
368,192,110234,5,2,3:2:0:0:
256,192,110261,1,2,1:2:0:0:
144,192,110288,2,0,L|96:192,2,40.5,0|2|2,1:2|3:2|2:0,2:0:0:0:
320,16,110450,2,0,L|320:64,1,40.5,2|2,3:2|2:0,2:0:0:0:
160,112,110558,2,0,L|112:112,1,40.5,10|2,3:2|2:0,2:0:0:0:
256,144,110666,6,0,L|160:144,2,81,2|2|2,3:2|3:2|3:2,2:0:0:0:
288,144,110936,1,2,3:2:0:0:
112,32,110989,2,0,L|160:32,1,40.5,10|2,3:2|2:0,2:0:0:0:
272,64,111097,2,0,L|320:64,1,40.5,2|2,3:2|2:0,2:0:0:0:
112,288,111205,6,0,L|224:288,1,81,2|2,3:2|3:2,2:0:0:0:
224,288,111367,1,2,3:2:0:0:
416,304,111421,2,0,L|416:240,1,40.5,10|2,3:2|2:0,2:0:0:0:
352,256,111529,2,0,L|352:192,1,40.5,2|2,1:2|1:2,2:0:0:0:
176,128,111637,6,0,L|128:128,1,40.5,2|2,3:2|2:0,2:0:0:0:
256,208,111745,2,0,L|208:208,1,40.5,2|2,3:2|2:0,2:0:0:0:
48,192,111853,2,0,L|48:256,1,40.5,10|2,3:2|2:0,2:0:0:0:
112,192,111961,2,0,L|112:256,1,40.5,2|2,3:2|2:0,2:0:0:0:
256,128,112069,6,0,L|304:128,1,40.5,2|2,3:2|2:0,2:0:0:0:
128,48,112177,2,0,L|176:48,1,40.5,2|2,3:2|2:0,2:0:0:0:
352,32,112285,2,0,L|400:32,2,40.5,10|2|2,3:2|2:0|3:2,2:0:0:0:
320,32,112447,1,2,2:0:0:0:
176,304,112501,6,0,L|224:304,1,40.5,2|2,3:2|1:2,2:0:0:0:
432,352,112609,2,0,L|224:352,1,170.1,2|10,3:2|3:2,2:0:0:0:
176,256,112825,2,0,L|144:256,2,27,2|2|2,3:2|3:2|3:2,2:0:0:0:
304,256,112933,5,2,3:2:0:0:
112,192,113041,1,2,3:1:0:0:
295,96,113149,2,0,L|183:96,1,81,14|2,3:2|1:2,2:0:0:0:
464,144,113365,5,2,3:1:0:0:
214,96,113473,2,0,L|295:96,1,81,14|2,3:2|1:2,2:0:0:0:
48,144,113689,1,2,3:1:0:0:
320,192,113797,6,0,L|320:144,1,40.5,14|12,3:2|2:3,2:0:0:0:
192,192,113905,2,0,L|192:144,1,40.5,14|12,2:3|2:3,2:0:0:0:
320,192,114013,2,0,L|320:144,1,40.5,14|12,2:3|2:3,2:0:0:0:
464,192,114121,2,0,L|464:144,1,40.5,14|12,2:3|2:3,2:0:0:0:
320,272,114229,6,0,L|272:272,2,40.5,14|12|12,2:3|2:3|2:3,2:0:0:0:
464,272,114390,1,12,2:3:0:0:
320,352,114444,2,0,L|272:352,1,40.5,14|12,1:3|2:3,2:0:0:0:
400,64,114552,2,0,L|352:64,1,40.5,14|12,2:3|2:3,2:0:0:0:
208,16,114660,6,0,L|304:16,1,81,4|2,3:1|1:2,2:0:0:0:
256,48,114822,1,2,1:2:0:0:
384,128,114876,2,0,L|288:128,1,81,8|2,3:2|1:2,2:0:0:0:
336,160,115038,1,2,1:2:0:0:
480,192,115092,6,0,L|464:128,1,40.5,2|2,3:2|2:0,2:0:0:0:
336,288,115200,2,0,L|336:240,1,40.5,2|2,2:0|2:0,2:0:0:0:
208,288,115308,2,0,L|224:224,1,40.5,10|0,3:2|2:0,2:0:0:0:
336,304,115416,1,2,1:2:0:0:
480,304,115470,1,2,1:2:0:0:
336,352,115524,6,0,L|240:352,1,81,2|2,3:2|3:2,2:0:0:0:
288,320,115686,1,2,1:2:0:0:
160,80,115740,2,0,L|256:80,1,81,10|2,3:2|1:2,2:0:0:0:
208,112,115902,1,2,1:2:0:0:
64,192,115956,6,0,L|80:144,1,40.5,2|2,3:2|2:0,2:0:0:0:
208,240,116064,2,0,L|208:192,1,40.5,2|2,3:2|1:2,2:0:0:0:
336,256,116172,2,0,L|384:256,1,40.5,10|2,3:2|1:2,2:0:0:0:
256,304,116280,2,0,L|208:304,1,40.5,2|2,1:2|1:2,2:0:0:0:
336,192,116388,5,2,3:2:0:0:
320,192,116415,1,0,2:0:0:0:
304,192,116442,1,0,2:0:0:0:
256,192,116496,1,2,3:2:0:0:
304,144,116550,1,2,3:2:0:0:
144,16,116604,2,0,L|240:16,1,81,10|2,3:2|1:2,2:0:0:0:
192,48,116739,1,2,1:2:0:0:
96,80,116766,1,2,1:2:0:0:
64,80,116793,1,2,1:2:0:0:
192,352,116820,6,0,L|240:352,1,40.5,2|2,3:2|2:0,2:0:0:0:
96,288,116928,2,0,L|144:288,1,40.5,2|2,3:2|1:2,2:0:0:0:
304,304,117036,2,0,L|304:256,1,40.5,10|2,3:2|1:2,2:0:0:0:
192,144,117144,1,2,3:2:0:0:
208,144,117171,1,2,2:0:0:0:
224,144,117198,1,2,3:2:0:0:
96,224,117252,6,0,L|96:176,1,40.5,2|2,3:2|2:0,2:0:0:0:
224,96,117360,2,0,L|272:96,1,40.5,2|2,3:2|1:2,2:0:0:0:
144,96,117468,2,0,L|96:96,1,40.5,10|2,3:2|1:2,2:0:0:0:
272,192,117576,2,0,L|304:192,2,20.25,2|2|2,3:2|1:2|3:2,2:0:0:0:
144,272,117683,6,0,L|192:272,1,40.5,2|2,3:2|3:2,2:0:0:0:
320,112,117791,2,0,L|320:64,1,40.5,2|2,3:2|1:2,2:0:0:0:
192,32,117899,2,0,L|144:32,1,40.5,10|2,3:2|1:2,2:0:0:0:
304,240,118007,2,0,L|256:240,1,40.5,2|2,3:2|1:2,2:0:0:0:
384,352,118115,6,0,L|384:304,1,40.5,2|2,3:2|2:0,2:0:0:0:
234,336,118223,2,0,L|282:336,1,40.5,2|2,3:2|3:2,2:0:0:0:
128,352,118331,2,0,L|128:288,1,50.625,10|2,3:2|2:0,2:0:0:0:
275,336,118439,2,0,L|219:336,1,40.5,2|2,3:2|3:2,2:0:0:0:
384,224,118547,6,0,L|368:160,1,40.5,2|2,3:2|2:0,2:0:0:0:
256,112,118655,2,0,L|256:48,1,40.5,2|2,3:2|3:2,2:0:0:0:
128,224,118763,2,0,L|144:160,1,40.5,10|2,3:2|2:0,2:0:0:0:
256,272,118871,2,0,L|256:208,1,40.5,2|2,3:2|3:2,2:0:0:0:
384,192,118979,6,0,L|400:128,1,40.5,2|2,3:2|2:0,2:0:0:0:
256,192,119087,2,0,L|256:144,1,40.5,2|2,3:2|3:2,2:0:0:0:
128,192,119195,2,0,L|112:144,1,40.5,10|2,3:2|2:0,2:0:0:0:
256,48,119303,2,0,L|304:48,1,40.5,2|2,3:2|3:2,2:0:0:0:
176,48,119411,6,0,L|128:48,1,40.5,2|2,3:2|2:0,2:0:0:0:
256,352,119519,2,0,L|304:352,1,40.5,2|2,3:2|3:2,2:0:0:0:
176,256,119627,1,10,3:2:0:0:
304,256,119681,1,2,3:2:0:0:
432,256,119735,1,2,3:2:0:0:
304,240,119789,1,2,3:2:0:0:
176,176,119843,6,0,B|272:176,1,81,6|2,3:2|3:2,2:0:0:0:
304,176,120005,1,2,3:2:0:0:
176,304,120059,1,10,3:2:0:0:
432,112,120167,6,0,L|192:112,1,170.1,6|0,3:2|2:0,2:0:0:0:
96,176,120383,2,0,P|96:144|96:80,1,81,10|2,3:2|1:2,2:0:0:0:
160,80,120545,1,2,1:2:0:0:
368,32,120599,6,0,L|256:32,1,81,6|2,3:2|1:2,2:0:0:0:
256,64,120761,1,12,2:3:0:0:
400,256,120815,2,0,L|448:256,1,40.5,12|12,2:3|2:3,2:0:0:0:
304,240,120923,2,0,L|304:288,1,40.5,12|12,2:3|2:3,2:0:0:0:
176,336,121031,2,0,L|128:336,1,40.5,12|12,2:3|2:3,2:0:0:0:
256,288,121138,6,0,L|256:240,1,40.5,12|12,2:3|2:3,2:0:0:0:
400,192,121246,2,0,L|448:192,1,40.5,12|12,2:3|2:3,2:0:0:0:
304,192,121354,2,0,L|256:192,1,40.5,12|12,2:3|2:3,2:0:0:0:
400,144,121462,1,12,2:3:0:0:
264,192,121516,1,12,2:3:0:0:
144,288,121570,6,0,P|144:240|144:192,1,81,10|2,3:1|3:2,2:0:0:0:
264,192,121732,1,2,3:2:0:0:
144,112,121786,2,0,L|256:112,1,81,4|2,3:1|1:2,2:0:0:0:
256,112,121948,1,2,1:2:0:0:
64,256,122002,6,0,L|80:192,1,40.5,0|0,3:2|2:0,2:0:0:0:
192,320,122110,2,0,L|192:272,1,40.5,2|2,3:2|2:0,2:0:0:0:
336,320,122218,2,0,L|320:256,1,40.5,10|2,3:2|2:0,2:0:0:0:
192,352,122326,1,2,3:2:0:0:
64,352,122380,1,2,3:2:0:0:
192,240,122434,6,0,L|288:240,1,81,2|2,3:2|1:2,2:0:0:0:
240,208,122596,1,2,1:2:0:0:
384,48,122650,2,0,L|272:48,1,81,10|2,3:2|1:2,2:0:0:0:
336,80,122812,1,2,1:2:0:0:
480,288,122866,6,0,L|464:224,1,40.5,2|0,3:2|2:0,2:0:0:0:
320,240,122974,2,0,L|320:176,1,40.5,2|2,3:2|3:2,2:0:0:0:
192,304,123082,2,0,L|144:304,1,40.5,10|0,3:2|2:0,2:0:0:0:
288,304,123190,2,0,L|336:304,1,40.5,2|2,3:2|3:2,2:0:0:0:
176,192,123298,5,6,3:2:0:0:
192,192,123325,1,0,2:0:0:0:
208,192,123352,1,0,2:0:0:0:
256,192,123406,1,2,3:2:0:0:
208,144,123460,1,2,1:2:0:0:
336,16,123514,2,0,L|128:16,1,170.1,10|6,3:2|3:2,2:0:0:0:
144,16,123649,1,2,2:0:0:0:
256,80,123676,1,2,2:0:0:0:
272,80,123703,1,2,2:0:0:0:
160,144,123730,6,0,L|160:96,1,40.5,2|2,3:2|3:2,2:0:0:0:
336,352,123838,2,0,L|128:352,1,170.1,2|10,3:1|3:2,2:0:0:0:
208,320,124000,1,2,2:0:0:0:
352,256,124054,5,6,3:2:0:0:
256,256,124081,1,2,1:2:0:0:
160,256,124108,2,0,B|119:256|119:256|160:256,1,81,2|0,1:2|2:0,2:0:0:0:
224,32,124270,2,0,L|224:80,1,40.5,2|2,3:2|3:2,2:0:0:0:
96,80,124378,2,0,L|144:80,1,40.5,10|2,3:2|2:0,2:0:0:0:
288,144,124485,6,0,L|176:144,2,81,6|2|2,3:2|3:2|3:2,2:0:0:0:
336,144,124755,1,2,2:0:0:0:
144,352,124809,2,0,L|144:304,1,40.5,10|2,3:2|2:0,2:0:0:0:
256,208,124917,2,0,L|208:208,1,40.5,2|2,3:2|3:2,2:0:0:0:
336,64,125025,6,0,L|224:64,1,81,2|2,3:2|3:2,2:0:0:0:
288,96,125187,1,2,3:2:0:0:
128,192,125241,2,0,L|128:256,1,40.5,10|0,3:2|2:0,2:0:0:0:
192,192,125349,2,0,L|192:256,1,40.5,2|2,3:2|3:2,2:0:0:0:
336,320,125457,6,0,L|384:320,1,40.5,2|2,3:2|2:0,2:0:0:0:
256,272,125565,2,0,L|304:272,1,40.5,2|2,3:2|3:2,2:0:0:0:
464,192,125673,2,0,L|464:128,1,40.5,10|2,3:2|2:0,2:0:0:0:
400,192,125781,2,0,L|400:128,1,40.5,2|2,3:2|3:2,2:0:0:0:
256,32,125889,6,0,L|208:32,1,40.5,2|0,3:2|2:0,2:0:0:0:
336,80,125997,2,0,L|288:80,1,40.5,2|2,3:2|3:2,2:0:0:0:
128,128,126105,2,0,L|80:128,2,40.5,10|2|2,3:2|2:0|3:2,2:0:0:0:
176,128,126267,1,2,3:2:0:0:
336,320,126321,6,0,L|377:320,1,40.5,2|2,3:2|2:0,2:0:0:0:
336,288,126429,2,0,L|144:288,1,170.1,2|10,3:2|3:2,2:0:0:0:
288,208,126645,2,0,L|320:208,2,20.25,2|2|2,3:2|3:2|3:2,2:0:0:0:
96,240,126753,6,0,L|16:240,1,54,2|2,3:2|3:2,2:0:0:0:
176,192,126897,1,2,3:2:0:0:
32,192,126969,1,10,3:2:0:0:
416,240,127185,6,0,L|496:240,1,54,2|2,3:2|3:2,2:0:0:0:
336,192,127329,1,2,3:2:0:0:
480,192,127401,1,10,3:2:0:0:
192,256,127617,6,0,L|256:256,1,54,10|2,3:2|3:2,2:0:0:0:
112,256,127761,1,2,3:2:0:0:
320,256,127832,2,0,L|256:256,1,54,10|2,3:2|3:2,2:0:0:0:
400,256,127976,1,2,3:2:0:0:
176,336,128048,5,10,3:2:0:0:
336,336,128120,1,10,3:2:0:0:
176,336,128192,1,10,3:2:0:0:
336,336,128264,1,10,3:2:0:0:
176,336,128336,1,10,3:2:0:0:
336,336,128408,1,10,3:2:0:0:
80,16,128480,6,0,P|48:64|96:112,1,121.5,2|0,2:0|2:0,2:0:0:0:
315,80,128696,6,0,L|187:80,1,108,12|0,3:1|2:0,2:0:0:0:
256,144,128912,2,0,L|336:144,2,54,0|0|0,3:1|3:1|3:1,2:0:0:0:
80,224,129128,2,0,L|144:224,2,54,8|0|0,3:2|3:0|3:0,2:0:0:0:
288,336,129344,6,0,L|144:336,1,108,0|0,3:0|3:0,2:0:0:0:
128,336,129560,1,8,2:0:0:0:
336,224,129704,1,2,2:3:0:0:
480,128,129776,2,0,L|416:128,2,54,0|0|0,3:0|3:0|3:0,2:0:0:0:
320,48,129992,2,0,L|240:48,2,54,8|0|0,3:2|3:2|3:2,2:0:0:0:
464,304,130208,6,0,L|336:304,1,108,0|0,3:2|2:0,2:0:0:0:
201,144,130424,2,0,L|313:144,1,108,8|0,3:2|2:0,2:0:0:0:
64,272,130640,6,0,L|144:272,1,54,2|2,3:1|3:1,2:0:0:0:
64,304,130784,1,2,3:1:0:0:
256,352,130856,2,0,L|256:256,1,54,8|0,3:2|3:2,2:0:0:0:
192,272,131000,1,0,3:2:0:0:
384,336,131072,6,0,L|400:336,1,13.5,2|0,3:1|2:1,2:0:0:0:
336,304,131144,2,0,L|320:304,1,13.5,2|0,2:1|2:1,2:0:0:0:
384,272,131215,2,0,L|400:272,1,13.5,2|0,3:1|2:1,2:0:0:0:
192,224,131287,2,0,P|168:175|208:128,1,108,8|0,2:0|2:0,2:0:0:0:
448,48,131503,6,0,L|393:48,1,54,2|2,3:0|3:0,2:0:0:0:
256,48,131647,1,2,3:0:0:0:
400,128,131719,2,0,L|320:128,1,54,10|2,3:2|3:0,2:0:0:0:
208,128,131863,1,2,3:0:0:0:
352,352,131935,6,0,L|352:208,1,108,4|0,3:2|2:0,2:0:0:0:
208,352,132151,2,0,L|336:352,1,108,8|0,3:2|2:0,2:0:0:0:
176,272,132367,6,0,L|96:272,1,54,0|0,3:0|3:0,2:0:0:0:
151,272,132511,2,0,L|199:272,1,27,2|2,3:1|3:1,2:0:0:0:
32,240,132583,2,0,L|32:144,1,54,8|0,3:2|3:0,2:0:0:0:
80,144,132727,1,0,3:0:0:0:
304,192,132799,6,0,L|304:176,1,13.5,2|0,3:1|2:0,2:0:0:0:
256,144,132871,2,0,L|256:128,1,13.5,2|0,3:1|2:0,2:0:0:0:
304,96,132943,2,0,L|304:80,1,13.5,2|0,3:1|2:0,2:0:0:0:
144,32,133015,2,0,L|32:32,1,81,8|2,3:2|2:1,2:0:0:0:
112,64,133177,1,0,2:0:0:0:
304,272,133231,6,0,L|224:272,2,54,2|2|2,3:0|3:0|3:0,2:0:0:0:
448,352,133447,2,0,L|352:352,1,54,8|2,3:2|3:0,2:0:0:0:
256,352,133591,1,2,3:0:0:0:
400,288,133663,6,0,L|400:128,1,108,0|0,3:2|2:0,2:0:0:0:
192,208,133879,2,0,L|224:208,1,27,8|2,3:2|2:1,2:0:0:0:
256,208,133951,1,2,2:1:0:0:
192,144,134023,1,0,3:0:0:0:
336,32,134095,6,0,L|320:32,1,13.5,2|0,3:1|2:0,2:0:0:0:
256,32,134167,1,0,3:2:0:0:
192,32,134239,1,0,3:2:0:0:
336,64,134311,1,8,3:2:0:0:
192,80,134383,2,0,L|176:80,1,13.5,2|0,3:1|2:0,2:0:0:0:
224,80,134455,1,0,3:0:0:0:
368,272,134526,6,0,L|240:272,1,108,0|0,3:0|3:0,2:0:0:0:
416,192,134742,1,8,3:2:0:0:
368,192,134814,2,0,L|368:128,1,54,0|0,3:2|3:2,2:0:0:0:
160,320,134958,6,0,L|224:320,1,54,2|2,3:1|3:1,2:0:0:0:
256,320,135102,1,0,3:2:0:0:
80,144,135174,2,0,L|160:144,2,54,8|2|2,3:2|3:1|3:1,2:0:0:0:
224,192,135390,5,4,3:2:0:0:
96,192,135534,1,2,2:3:0:0:
256,128,135606,2,0,L|256:-16,1,108,8|0,3:2|2:0,2:0:0:0:
400,240,135822,6,0,L|304:240,1,54,0|0,3:2|3:2,2:0:0:0:
400,240,135966,1,0,3:2:0:0:
192,352,136038,2,0,L|272:352,1,54,8|0,3:2|3:2,2:0:0:0:
304,352,136182,1,0,3:2:0:0:
128,32,136254,6,0,L|128:192,1,108,0|0,3:0|3:0,2:0:0:0:
320,192,136470,1,8,3:2:0:0:
192,192,136614,1,2,2:3:0:0:
368,96,136686,6,0,L|304:96,2,54,0|0|0,3:0|3:0|3:0,2:0:0:0:
144,96,136902,2,0,L|224:96,2,54,8|0|0,3:2|3:0|3:0,2:0:0:0:
368,304,137118,6,0,L|368:144,1,108,0|0,3:0|2:0,2:0:0:0:
208,352,137334,2,0,L|336:352,1,108,8|0,3:2|2:0,2:0:0:0:
160,160,137550,6,0,L|160:240,1,54,2|2,3:0|3:0,2:0:0:0:
224,240,137694,1,2,3:0:0:0:
384,192,137766,2,0,L|304:192,1,54,8|0,3:2|3:2,2:0:0:0:
384,192,137909,1,0,3:2:0:0:
160,304,137981,6,0,L|176:304,1,13.5,2|0,3:1|2:0,2:0:0:0:
240,336,138053,2,0,L|224:336,1,13.5,2|0,3:1|2:0,2:0:0:0:
160,368,138125,2,0,L|176:368,1,13.5,2|0,3:1|2:0,2:0:0:0:
384,256,138197,2,0,P|416:304|384:336,1,108,8|0,2:0|2:0,2:0:0:0:
224,32,138413,6,0,L|320:32,2,54,2|2|0,3:1|3:1|3:0,2:0:0:0:
32,96,138629,2,0,L|128:96,1,54,8|2,3:2|3:1,2:0:0:0:
224,96,138773,1,2,3:1:0:0:
400,192,138845,5,4,3:2:0:0:
272,192,138989,1,2,2:3:0:0:
128,352,139061,2,0,L|128:224,1,108,8|0,3:2|2:0,2:0:0:0:
182,244,139277,6,0,L|96:244,1,54,0|0,3:0|3:0,2:0:0:0:
288,336,139421,2,0,L|320:336,1,27,2|2,3:1|3:1,2:0:0:0:
128,352,139493,2,0,L|128:288,1,54,8|2,3:2|3:0,2:0:0:0:
192,288,139637,1,2,3:0:0:0:
368,32,139709,6,0,L|304:32,1,54,2|2,3:0|3:0,2:0:0:0:
256,32,139853,1,2,3:0:0:0:
400,128,139925,1,8,3:2:0:0:
272,128,140069,1,2,2:3:0:0:
432,288,140141,6,0,L|368:288,2,54,2|2|2,3:0|3:0|3:0,2:0:0:0:
224,352,140357,2,0,L|256:256,1,54,8|2,3:2|3:0,2:0:0:0:
304,272,140501,1,2,3:0:0:0:
128,144,140573,6,0,L|48:144,1,54,10|8,3:0|3:0,2:0:0:0:
224,192,140717,1,8,3:0:0:0:
64,256,140789,2,0,L|144:256,2,54,8|8|8,3:2|3:0|3:0,2:0:0:0:
304,32,141005,6,0,L|208:32,1,54,10|8,3:0|3:0,2:0:0:0:
384,112,141149,1,8,3:0:0:0:
208,48,141221,2,0,L|288:48,1,54,8|8,3:2|3:0,2:0:0:0:
128,112,141364,1,8,3:0:0:0:
336,240,141436,6,0,L|416:240,1,54,10|10,3:0|3:0,2:0:0:0:
256,192,141580,1,10,3:0:0:0:
64,192,141652,2,0,L|144:192,2,54,8|8|8,3:2|3:0|3:0,2:0:0:0:
256,304,141868,6,0,L|160:304,1,54,10|10,3:0|3:0,2:0:0:0:
336,304,142012,1,10,3:0:0:0:
192,352,142084,2,0,L|256:352,1,54,8|10,3:2|3:0,2:0:0:0:
416,304,142228,1,10,3:0:0:0:
256,192,142300,6,0,L|256:0,1,162,6|8,3:1|1:0,2:0:0:0:
48,48,142725,1,0,2:0:0:0:
256,32,142866,2,0,L|256:144,1,81,8|0,1:0|2:0,2:0:0:0:
352,192,143150,1,8,1:0:0:0:
256,256,143291,1,0,1:0:0:0:
464,352,143433,6,0,L|464:80,1,243,8|8,1:0|1:0,2:0:0:0:
208,64,144000,2,0,L|272:64,1,40.5,8|0,1:0|1:0,2:0:0:0:
304,64,144142,1,0,1:0:0:0:
96,192,144283,1,8,1:0:0:0:
416,192,144425,1,0,1:0:0:0:
48,32,144567,6,0,L|48:208,1,162,8|8,1:0|1:0,2:0:0:0:
256,192,144992,1,0,2:0:0:0:
48,368,145134,2,0,L|144:368,1,81,8|0,1:0|2:0,2:0:0:0:
169,368,145346,2,0,L|105:368,1,40.5,0|8,1:0|1:0,2:0:0:0:
352,96,145559,1,0,1:0:0:0:
48,32,145700,6,0,L|48:288,1,243,8|8,1:0|1:0,2:0:0:0:
304,352,146267,2,0,L|240:352,1,40.5,8|0,1:0|1:0,2:0:0:0:
208,352,146409,1,0,1:0:0:0:
416,256,146551,1,8,1:0:0:0:
112,256,146692,2,0,L|112:192,1,40.5,0|0,1:0|1:0,2:0:0:0:
368,80,146834,5,8,1:0:0:0:
464,80,146976,2,0,L|464:144,1,40.5,0|0,1:0|1:0,2:0:0:0:
368,160,147118,1,8,1:0:0:0:
144,160,147259,1,0,1:0:0:0:
368,304,147401,2,0,L|304:304,1,40.5,8|0,1:0|1:0,2:0:0:0:
256,304,147543,1,0,1:0:0:0:
464,352,147684,1,8,1:0:0:0:
368,256,147826,1,0,2:0:0:0:
320,256,147897,1,0,2:0:0:0:
96,224,147968,5,8,1:0:0:0:
176,192,148110,2,0,L|240:192,1,40.5,0|0,1:0|1:0,2:0:0:0:
48,32,148251,1,8,1:0:0:0:
48,112,148393,1,0,1:0:0:0:
256,64,148535,2,0,L|192:64,1,40.5,8|0,1:0|1:0,2:0:0:0:
48,272,148676,1,0,1:0:0:0:
256,272,148818,1,8,1:0:0:0:
176,336,148960,2,0,L|224:336,1,40.5,0|0,1:0|1:0,2:0:0:0:
480,336,149101,6,0,L|480:256,1,48.6,8|0,1:0|1:0,2:0:0:0:
352,256,149243,2,0,L|432:256,1,48.6,8|0,1:0|1:0,2:0:0:0:
256,192,149385,2,0,L|256:128,1,48.6,8|0,1:0|1:0,2:0:0:0:
112,80,149527,2,0,L|176:80,1,48.6,8|0,1:0|1:0,2:0:0:0:
32,192,149668,2,0,L|32:128,1,48.6,8|0,1:0|1:0,2:0:0:0:
304,336,149810,2,0,L|240:336,1,48.6,8|0,1:0|1:0,2:0:0:0:
64,336,149952,2,0,L|64:272,1,48.6,8|0,1:0|1:0,2:0:0:0:
256,272,150093,2,0,L|192:272,1,48.6,8|0,1:0|1:0,2:0:0:0:
475,273,150235,5,8,1:0:0:0:
461,234,150271,1,0,1:0:0:0:
439,199,150306,1,0,1:0:0:0:
409,171,150341,1,0,1:0:0:0:
374,150,150377,1,8,1:0:0:0:
335,139,150412,1,0,1:0:0:0:
294,136,150448,1,0,1:0:0:0:
44,205,150519,5,8,1:0:0:0:
58,166,150554,1,0,1:0:0:0:
80,131,150589,1,0,1:0:0:0:
110,103,150625,1,0,1:0:0:0:
145,82,150660,1,8,1:0:0:0:
184,71,150696,1,0,1:0:0:0:
225,68,150731,1,0,1:0:0:0:
480,96,150802,6,0,L|480:128,1,20.25,8|8,1:0|1:0,2:0:0:0:
352,32,150873,1,8,1:0:0:0:
32,96,150944,2,0,L|32:128,1,20.25,8|8,1:0|1:0,2:0:0:0:
160,32,151015,1,8,1:0:0:0:
480,272,151085,6,0,L|448:272,1,20.25,8|8,1:0|1:0,2:0:0:0:
320,304,151156,1,8,1:0:0:0:
32,272,151227,2,0,L|64:272,1,20.25,8|8,1:0|1:0,2:0:0:0:
192,304,151298,1,8,1:0:0:0:
400,192,151369,5,4,3:1:0:0:
256,128,151440,2,0,L|336:128,2,56.7,2|2|0,2:1|3:1|3:0,2:0:0:0:
112,192,151652,1,2,3:1:0:0:
256,192,151723,2,0,L|160:192,2,56.7,2|2|0,2:1|3:1|3:0,2:0:0:0:
400,112,151936,5,2,3:1:0:0:
256,80,152006,2,0,L|352:80,2,56.7,2|2|0,2:1|3:1|3:0,2:0:0:0:
112,112,152219,1,2,3:1:0:0:
256,32,152290,2,0,L|176:32,2,56.7,2|2|0,2:1|3:1|3:0,2:0:0:0:
416,192,152502,5,2,3:1:0:0:
224,352,152573,2,0,L|224:240,1,56.7,2|2,2:1|3:1,2:0:0:0:
288,224,152715,1,0,3:0:0:0:
112,256,152786,1,2,3:1:0:0:
288,352,152857,2,0,L|288:256,1,56.7,2|2,2:1|3:1,2:0:0:0:
224,224,152998,1,0,3:0:0:0:
400,256,153069,5,2,3:1:0:0:
208,112,153140,1,2,2:1:0:0:
256,112,153211,1,2,3:1:0:0:
304,112,153282,1,0,3:0:0:0:
112,32,153353,1,2,3:1:0:0:
304,48,153424,1,2,2:1:0:0:
256,48,153494,1,2,3:1:0:0:
208,48,153565,1,0,3:0:0:0:
400,32,153636,5,2,3:1:0:0:
224,224,153707,1,2,2:1:0:0:
288,352,153778,2,0,L|288:272,1,56.7,2|0,3:1|3:0,2:0:0:0:
112,192,153920,1,2,3:1:0:0:
288,224,153990,1,2,2:1:0:0:
224,352,154061,2,0,L|224:256,1,56.7,2|0,3:1|3:0,2:0:0:0:
400,192,154203,5,2,3:1:0:0:
256,128,154274,2,0,L|176:128,2,56.7,2|2|0,2:1|3:1|3:0,2:0:0:0:
112,128,154486,1,2,3:1:0:0:
256,192,154557,2,0,L|336:192,2,56.7,2|2|0,2:1|3:1|3:0,2:0:0:0:
400,128,154770,5,2,3:1:0:0:
256,320,154841,2,0,L|176:320,2,56.7,2|2|0,2:1|3:1|3:0,2:0:0:0:
112,192,155053,1,2,3:1:0:0:
256,256,155124,2,0,L|336:256,2,56.7,2|2|0,2:1|3:1|3:0,2:0:0:0:
400,64,155337,5,2,3:2:0:0:
464,64,155407,1,2,3:2:0:0:
256,64,155478,2,0,L|256:144,1,56.7,2|0,3:2|3:0,2:0:0:0:
112,64,155620,1,2,3:2:0:0:
48,64,155691,1,2,3:2:0:0:
256,64,155762,2,0,L|256:128,1,56.7,2|0,3:2|3:0,2:0:0:0:
464,352,155903,6,0,L|464:240,1,56.7,2|0,3:2|3:2,2:0:0:0:
384,352,156045,2,0,L|384:256,1,56.7,2|0,3:2|3:2,2:0:0:0:
216,192,156187,2,0,L|216:112,1,56.7,2|0,3:2|3:2,2:0:0:0:
296,192,156329,2,0,L|296:112,1,56.7,2|0,3:2|3:2,2:0:0:0:
48,352,156470,6,0,L|48:256,1,56.7,2|0,3:2|3:2,2:0:0:0:
128,352,156612,2,0,L|128:272,1,56.7,2|0,3:2|3:2,2:0:0:0:
296,192,156754,2,0,L|296:80,1,56.7,2|0,3:2|3:2,2:0:0:0:
216,192,156895,2,0,L|216:96,1,56.7,2|0,3:2|3:2,2:0:0:0:
464,272,157037,6,0,L|464:160,1,56.7,2|0,3:2|3:2,2:0:0:0:
296,192,157179,2,0,L|296:96,1,56.7,2|0,3:2|3:2,2:0:0:0:
216,192,157321,1,2,3:2:0:0:
352,32,157391,2,0,L|432:32,1,56.7,2|0,3:2|3:2,2:0:0:0:
352,64,157533,1,2,3:2:0:0:
192,32,157604,6,0,L|112:32,1,56.7,2|0,3:2|3:2,2:0:0:0:
192,64,157746,1,0,3:2:0:0:
32,336,157817,2,0,L|32:256,1,56.7,2|0,3:2|3:2,2:0:0:0:
96,240,157958,1,0,3:2:0:0:
256,144,158029,2,0,L|160:144,1,56.7,2|0,3:2|3:2,2:0:0:0:
352,336,158171,5,2,3:2:0:0:
288,336,158242,1,0,3:2:0:0:
480,256,158312,1,2,3:2:0:0:
416,256,158383,1,0,3:2:0:0:
480,256,158454,1,0,3:2:0:0:
288,256,158525,1,2,3:2:0:0:
352,256,158596,1,0,3:2:0:0:
288,256,158667,1,0,3:2:0:0:
32,256,158738,5,2,3:2:0:0:
96,256,158808,1,0,3:2:0:0:
32,256,158879,1,0,3:2:0:0:
160,256,158950,1,2,3:2:0:0:
224,256,159021,1,0,3:2:0:0:
160,256,159092,1,0,3:2:0:0:
416,192,159163,1,2,3:2:0:0:
352,192,159234,1,0,3:2:0:0:
192,48,159304,5,6,3:2:0:0:
256,48,159375,2,0,L|256:144,1,56.7,4|4,2:3|2:3,2:0:0:0:
320,48,159517,1,4,3:2:0:0:
256,48,159588,2,0,L|256:128,1,56.7,4|4,2:3|2:3,2:0:0:0:
192,128,159730,5,4,3:2:0:0:
256,48,159800,2,0,L|256:128,1,56.7,8|8,2:3|2:3,2:0:0:0:
320,128,159942,1,4,3:2:0:0:
256,192,160013,2,0,L|256:256,1,56.7,8|8,2:3|2:3,2:0:0:0:
112,352,160155,6,0,L|176:352,1,56.7,4|12,3:2|2:3,2:0:0:0:
336,352,160296,2,0,L|400:352,1,56.7,4|12,3:2|2:3,2:0:0:0:
256,192,160438,6,0,L|256:272,1,56.7,4|0,3:0|2:0,2:0:0:0:
400,64,160580,2,0,L|288:64,1,56.7,2|0,1:3|1:0,2:0:0:0:
400,64,160722,1,0,3:0:0:0:
256,192,160792,2,0,L|256:272,1,56.7,2|0,2:3|1:0,2:0:0:0:
192,288,160934,5,0,1:0:0:0:
336,288,161005,1,2,3:0:0:0:
192,64,161076,2,0,L|288:64,1,56.7,0|0,2:0|1:0,2:0:0:0:
96,128,161218,1,2,1:3:0:0:
160,128,161288,2,0,L|160:208,1,56.7,0|0,3:0|2:0,2:0:0:0:
304,128,161430,2,0,L|224:128,1,56.7,2|0,1:3|1:0,2:0:0:0:
416,256,161572,6,0,L|416:336,1,56.7,0|0,3:0|2:0,2:0:0:0:
256,352,161713,2,0,L|320:352,1,56.7,2|0,1:3|1:0,2:0:0:0:
256,320,161855,1,0,3:0:0:0:
112,240,161926,2,0,L|112:320,1,56.7,2|0,2:3|1:0,2:0:0:0:
176,320,162068,1,0,1:0:0:0:
16,160,162139,5,2,3:0:0:0:
176,64,162209,2,0,L|96:64,1,56.7,0|0,2:0|1:0,2:0:0:0:
256,160,162351,1,2,1:3:0:0:
119,64,162422,2,0,L|179:65,1,56.7,0|0,3:0|2:0,2:0:0:0:
384,64,162564,2,0,L|320:64,1,56.7,2|0,1:3|1:0,2:0:0:0:
112,192,162705,6,0,L|112:272,1,56.7,0|0,3:0|2:0,2:0:0:0:
256,224,162847,2,0,L|256:304,1,56.7,2|0,1:3|1:0,2:0:0:0:
192,320,162989,1,0,3:0:0:0:
336,320,163060,1,2,2:3:0:0:
192,368,163131,2,0,L|96:368,1,56.7,0|0,1:0|1:0,2:0:0:0:
320,128,163272,5,2,3:0:0:0:
464,128,163343,2,0,L|384:128,1,56.7,0|0,2:0|1:0,2:0:0:0:
256,128,163485,1,2,1:3:0:0:
320,192,163556,2,0,L|320:256,1,56.7,0|0,3:0|2:0,2:0:0:0:
144,256,163697,2,0,L|224:256,1,56.7,2|0,1:3|1:0,2:0:0:0:
32,128,163839,5,2,3:0:0:0:
96,128,163910,2,0,L|96:208,1,56.7,0|0,2:0|1:0,2:0:0:0:
320,272,164052,1,2,1:3:0:0:
256,272,164123,2,0,L|256:352,1,56.7,0|0,3:0|2:0,2:0:0:0:
480,128,164264,5,2,1:3:0:0:
416,128,164335,2,0,L|416:208,1,56.7,0|0,1:0|3:0,2:0:0:0:
192,272,164477,1,2,2:3:0:0:
256,272,164548,2,0,L|256:336,1,56.7,0|0,1:0|1:0,2:0:0:0:
91,176,164689,2,0,L|240:176,1,113.4,2|0,3:0|1:0,2:0:0:0:
160,144,164902,1,2,1:3:0:0:
304,80,164973,6,0,L|304:160,1,56.7,4|0,3:0|2:0,2:0:0:0:
80,64,165114,2,0,L|176:64,1,56.7,2|0,1:3|1:0,2:0:0:0:
80,64,165256,1,0,3:0:0:0:
256,192,165327,2,0,L|256:272,1,56.7,2|0,2:3|1:0,2:0:0:0:
320,288,165469,5,0,1:0:0:0:
160,288,165540,1,2,3:0:0:0:
320,352,165610,2,0,L|240:352,1,56.7,0|0,2:0|1:0,2:0:0:0:
432,144,165752,1,2,1:3:0:0:
368,144,165823,2,0,L|368:218,1,56.7,0|0,3:0|2:0,2:0:0:0:
208,128,165965,2,0,L|304:128,1,56.7,2|0,1:3|1:0,2:0:0:0:
64,256,166106,6,0,L|64:336,1,56.7,2|0,3:0|2:0,2:0:0:0:
256,192,166248,2,0,L|176:192,1,56.7,2|0,1:3|1:0,2:0:0:0:
256,192,166390,1,0,3:0:0:0:
416,256,166461,2,0,L|416:336,1,56.7,2|0,2:3|1:0,2:0:0:0:
352,336,166602,1,0,1:0:0:0:
480,192,166673,5,2,3:0:0:0:
336,64,166744,2,0,L|416:64,1,56.7,0|0,2:0|1:0,2:0:0:0:
256,112,166886,1,2,1:3:0:0:
392,64,166957,2,0,L|328:64,1,56.7,2|0,3:0|2:0,2:0:0:0:
128,64,167098,2,0,L|192:64,1,56.7,2|0,1:3|1:0,2:0:0:0:
384,128,167240,6,0,L|384:208,1,56.7,0|0,3:0|2:0,2:0:0:0:
208,320,167382,1,2,1:3:0:0:
400,320,167453,2,0,L|304:320,1,56.7,0|0,1:0|3:0,2:0:0:0:
400,320,167594,1,2,2:3:0:0:
256,208,167665,2,0,L|256:288,1,56.7,0|0,1:0|1:0,2:0:0:0:
96,160,167807,6,0,L|192:160,1,56.7,2|0,3:0|2:0,2:0:0:0:
96,160,167949,1,0,1:0:0:0:
256,96,168019,2,0,L|257:20,1,56.7,2|0,1:3|3:0,2:0:0:0:
192,32,168161,1,0,2:0:0:0:
336,256,168232,2,0,L|240:256,1,56.7,2|0,1:3|1:0,2:0:0:0:
112,320,168374,6,0,L|256:320,1,113.4,6|0,3:2|1:2,2:0:0:0:
384,192,168586,2,0,L|76:192,1,277.02,6|0,3:2|1:2,2:0:0:0:
384,32,168799,6,0,L|384:176,1,138.51,4|0,3:2|1:0,2:0:0:0:
112,128,169011,2,0,L|405:128,1,277.02,4|0,3:2|1:0,2:0:0:0:
112,80,169224,1,6,3:2:0:0:
16,80,169366,1,6,3:2:0:0:
112,80,169509,5,6,3:0:0:0:
256,144,169642,2,0,L|256:240,1,52.65,2|0,1:3|1:0,2:0:0:0:
192,144,169775,1,0,3:0:0:0:
352,272,169842,2,0,L|352:368,1,52.65,2|0,2:3|1:0,2:0:0:0:
288,272,169975,1,0,1:0:0:0:
432,352,170042,5,2,3:0:0:0:
304,352,170175,1,0,1:0:0:0:
480,192,170242,2,0,L|480:288,1,52.65,2|0,1:3|3:0,2:0:0:0:
416,192,170375,1,0,2:0:0:0:
256,240,170442,2,0,L|336:240,1,52.65,2|0,1:3|1:0,2:0:0:0:
483,66,170575,5,6,3:0:0:0:
352,32,170709,2,0,L|352:128,1,52.65,2|0,1:3|1:0,2:0:0:0:
416,128,170842,1,0,3:0:0:0:
256,112,170909,2,0,L|256:208,1,52.65,2|0,2:3|1:0,2:0:0:0:
320,192,171042,1,0,1:0:0:0:
144,320,171109,5,2,3:0:0:0:
256,288,171242,1,0,1:0:0:0:
96,288,171309,2,0,L|16:288,2,52.65,2|0|0,1:3|3:0|2:0,2:0:0:0:
256,144,171509,2,0,L|160:144,1,52.65,2|0,1:3|1:0,2:0:0:0:
336,32,171642,5,6,3:0:0:0:
256,32,171767,2,0,L|256:128,1,48.6,2|0,1:3|1:0,2:0:0:0:
256,192,171893,1,0,3:0:0:0:
128,352,171956,1,2,2:3:0:0:
256,352,172019,2,0,L|352:352,1,48.6,0|0,1:0|1:0,2:0:0:0:
128,112,172145,5,2,3:0:0:0:
256,112,172271,1,0,1:0:0:0:
128,256,172334,2,0,L|32:256,2,48.6,2|0|0,1:3|3:0|2:0,2:0:0:0:
304,256,172523,2,0,L|240:256,1,48.6,2|0,1:3|1:0,2:0:0:0:
128,192,172649,6,0,B|78:192|78:192|127:192,1,97.2,6|0,3:0|1:0,2:0:0:0:
320,16,172838,2,0,L|320:96,1,48.6,2|0,1:3|3:0,2:0:0:0:
256,144,172964,1,0,2:0:0:0:
384,191,173027,6,0,B|433:191|433:191|384:191,1,97.2,2|0,1:3|3:0,2:0:0:0:
192,256,173216,1,2,2:3:0:0:
256,288,173279,2,0,L|256:336,1,48.6,0|0,1:0|1:0,2:0:0:0:
112,48,173405,5,2,3:0:0:0:
240,48,173531,2,0,L|192:48,1,48.6,0|0,1:0|1:0,2:0:0:0:
128,192,173656,5,6,3:0:0:0:
320,48,173775,2,0,L|320:112,1,44.55,2|0,1:3|1:0,2:0:0:0:
256,144,173894,1,0,3:0:0:0:
400,192,173954,2,0,L|448:192,2,44.55,2|0|0,2:3|1:0|1:0,2:0:0:0:
256,192,174133,5,2,3:0:0:0:
320,192,174192,2,0,L|320:272,1,44.55,0|0,2:0|1:0,2:0:0:0:
144,272,174312,1,2,1:3:0:0:
208,272,174371,2,0,L|208:336,1,44.55,0|0,3:0|2:0,2:0:0:0:
48,224,174491,2,0,L|128:224,1,44.55,2|0,1:3|1:0,2:0:0:0:
256,48,174610,5,6,3:0:0:0:
352,112,174729,2,0,L|288:112,1,44.55,2|0,1:3|1:0,2:0:0:0:
352,112,174849,1,0,3:0:0:0:
176,80,174908,2,0,L|176:160,1,44.55,2|0,2:3|1:0,2:0:0:0:
240,160,175028,1,0,1:0:0:0:
96,304,175087,5,2,3:0:0:0:
144,304,175147,2,0,L|144:384,1,44.55,0|0,2:0|1:0,2:0:0:0:
304,240,175266,1,2,1:3:0:0:
256,240,175326,2,0,L|256:320,1,44.55,2|0,3:0|2:0,2:0:0:0:
432,352,175445,2,0,L|352:352,1,44.55,2|0,1:3|1:0,2:0:0:0:
256,320,175566,5,6,3:0:0:0:
144,192,175679,1,2,1:3:0:0:
288,32,175736,2,0,L|336:32,1,42.525,0|0,1:0|3:0,2:0:0:0:
144,96,175849,1,2,2:3:0:0:
192,96,175906,2,0,L|144:96,1,42.525,0|0,1:0|1:0,2:0:0:0:
304,192,176019,6,0,L|304:111,1,42.525,2|0,3:0|2:0,2:0:0:0:
256,144,176132,1,0,1:0:0:0:
400,96,176189,2,0,L|450:96,2,42.525,2|0|0,1:3|3:0|2:0,2:0:0:0:
256,80,176359,2,0,L|336:80,1,42.525,2|0,1:3|1:0,2:0:0:0:
144,320,176472,5,6,3:0:0:0:
96,304,176529,2,0,L|96:224,1,42.525,0|0,3:0|1:0,2:0:0:0:
256,352,176642,2,0,L|256:272,1,42.525,2|0,1:3|3:0,2:0:0:0:
208,272,176756,1,0,3:0:0:0:
368,288,176813,5,2,1:3:0:0:
416,288,176869,2,0,L|416:208,1,42.525,0|0,1:0|3:0,2:0:0:0:
256,240,176983,2,0,L|256:160,1,42.525,2|0,3:0|1:0,2:0:0:0:
304,160,177096,1,0,1:0:0:0:
176,96,177153,5,10,3:0:0:0:
80,96,177266,1,10,3:0:0:0:
176,96,177380,5,4,3:1:0:0:
368,192,177487,2,0,L|448:192,2,81,2|2|2,1:2|1:2|1:2,2:0:0:0:
64,320,177811,2,0,L|48:224,1,81,10|2,3:2|1:2,2:0:0:0:
256,48,178027,2,0,L|160:48,1,81,2|2,3:2|1:2,2:0:0:0:
384,336,178243,6,0,L|432:336,2,40.5,8|8|8,3:0|2:3|2:3,2:0:0:0:
256,336,178405,1,8,3:0:0:0:
384,272,178459,2,0,L|304:272,1,81,8|8,2:3|2:3,2:0:0:0:
336,256,178621,1,8,2:3:0:0:
208,144,178675,2,0,L|208:96,1,40.5,10|12,3:2|2:3,2:0:0:0:
336,80,178783,2,0,L|336:32,1,40.5,12|12,2:3|2:3,2:0:0:0:
464,144,178891,2,0,L|464:96,1,40.5,12|12,2:3|2:3,2:0:0:0:
336,144,178999,2,0,L|336:192,1,40.5,12|12,2:3|2:3,2:0:0:0:
208,240,179107,6,0,L|128:240,1,81,6|2,3:2|1:2,2:0:0:0:
160,208,179269,1,2,1:2:0:0:
336,32,179323,2,0,L|144:32,1,170.1,2|2,3:2|1:2,2:0:0:0:
352,368,179539,2,0,L|352:272,1,81,10|2,3:2|1:2,2:0:0:0:
176,368,179755,2,0,L|176:272,1,81,2|2,3:2|1:2,2:0:0:0:
464,240,179971,6,0,L|480:176,2,40.5,8|8|8,2:3|2:3|2:3,2:0:0:0:
336,240,180133,1,8,2:3:0:0:
464,128,180187,2,0,L|512:128,2,40.5,8|8|8,2:3|2:3|2:3,2:0:0:0:
416,128,180349,1,8,2:3:0:0:
256,256,180403,2,0,L|208:256,1,40.5,10|12,3:2|2:3,2:0:0:0:
256,224,180511,2,0,L|304:224,1,40.5,12|12,2:3|2:3,2:0:0:0:
96,64,180619,1,12,2:3:0:0:
137,64,180673,1,12,2:3:0:0:
272,64,180727,1,12,2:3:0:0:
231,64,180780,1,12,2:3:0:0:
400,192,180834,5,6,3:2:0:0:
144,192,180942,2,0,L|128:272,2,81,2|2|2,1:2|1:2|1:2,2:0:0:0:
384,352,181266,2,0,L|400:256,1,81,10|2,3:2|1:2,2:0:0:0:
208,16,181482,2,0,L|288:16,1,81,2|2,3:2|1:2,2:0:0:0:
112,320,181698,6,0,L|64:320,2,40.5,8|8|8,3:0|2:3|2:3,2:0:0:0:
256,320,181860,1,8,3:0:0:0:
128,240,181914,2,0,L|96:192,2,40.5,8|8|8,2:3|2:3|2:3,2:0:0:0:
176,240,182076,1,8,2:3:0:0:
304,128,182130,2,0,L|304:80,1,40.5,8|12,3:2|2:3,2:0:0:0:
176,64,182238,2,0,L|176:16,1,40.5,12|12,2:3|2:3,2:0:0:0:
48,128,182346,2,0,L|48:80,1,40.5,12|12,2:3|2:3,2:0:0:0:
176,128,182454,2,0,L|176:176,1,40.5,12|12,2:3|2:3,2:0:0:0:
352,256,182562,6,0,L|432:256,1,81,2|2,3:2|1:2,2:0:0:0:
400,224,182724,1,2,1:2:0:0:
256,64,182778,2,0,L|448:64,1,170.1,2|2,3:2|1:2,2:0:0:0:
160,368,182994,2,0,L|160:272,1,81,10|2,3:2|1:2,2:0:0:0:
352,368,183210,2,0,L|352:272,1,81,2|2,3:2|1:2,2:0:0:0:
80,272,183426,6,0,L|64:224,2,40.5,8|8|8,3:0|2:3|2:3,2:0:0:0:
208,192,183588,1,8,3:0:0:0:
80,192,183642,2,0,L|32:192,2,40.5,8|8|8,3:0|2:3|2:3,2:0:0:0:
128,192,183804,1,8,2:3:0:0:
304,64,183858,5,10,2:0:0:0:
330,66,183894,1,2,2:0:0:0:
352,81,183930,1,2,2:0:0:0:
366,104,183966,1,2,2:0:0:0:
367,131,184002,1,2,2:0:0:0:
356,155,184038,1,2,2:0:0:0:
208,64,184074,1,2,2:0:0:0:
181,66,184110,1,2,2:0:0:0:
159,81,184145,1,2,2:0:0:0:
145,104,184181,1,2,2:0:0:0:
144,131,184217,1,2,2:0:0:0:
155,155,184253,1,2,2:0:0:0:
384,256,184289,5,6,3:2:0:0:
216,336,184397,2,0,L|296:336,1,81,2|10,3:2|3:2,2:0:0:0:
128,256,184613,1,6,3:2:0:0:
297,336,184721,2,0,L|201:336,1,81,2|10,3:2|3:2,2:0:0:0:
416,192,184937,5,6,3:2:0:0:
216,336,185045,2,0,L|332:336,1,81,2|10,3:2|3:2,2:0:0:0:
96,192,185261,1,6,3:2:0:0:
416,64,185369,1,2,3:2:0:0:
176,128,185477,6,0,L|224:128,1,40.5,10|8,3:2|3:0,2:0:0:0:
352,112,185585,2,0,L|400:112,1,40.5,8|8,3:0|2:3,2:0:0:0:
352,144,185693,2,0,L|304:144,1,40.5,8|8,3:0|2:3,2:0:0:0:
176,256,185801,2,0,L|128:256,1,40.5,10|12,3:2|3:0,2:0:0:0:
176,304,185909,2,0,L|224:304,1,40.5,12|12,3:0|2:3,2:0:0:0:
96,32,186017,5,6,3:2:0:0:
297,336,186125,2,0,L|217:336,1,81,2|10,3:2|3:2,2:0:0:0:
416,32,186341,1,6,3:2:0:0:
216,336,186449,2,0,L|312:336,1,81,2|10,3:2|3:2,2:0:0:0:
64,112,186665,5,6,3:2:0:0:
297,336,186773,2,0,L|185:336,1,81,2|10,3:2|3:2,2:0:0:0:
448,112,186989,1,6,3:2:0:0:
64,192,187097,1,2,3:2:0:0:
336,192,187205,6,0,L|336:144,1,40.5,10|8,3:2|3:0,2:0:0:0:
208,192,187313,2,0,L|160:192,1,40.5,8|8,3:0|2:3,2:0:0:0:
167,192,187421,2,0,L|215:192,1,40.5,8|8,3:0|2:3,2:0:0:0:
336,96,187528,2,0,L|384:96,1,40.5,10|12,3:2|3:0,2:0:0:0:
208,96,187636,2,0,L|160:96,1,40.5,12|12,3:0|2:3,2:0:0:0:
448,256,187744,5,6,3:2:0:0:
216,336,187852,2,0,L|296:336,1,81,2|10,3:2|3:2,2:0:0:0:
64,256,188068,1,6,3:2:0:0:
297,336,188176,2,0,L|201:336,1,81,2|10,3:2|3:2,2:0:0:0:
480,128,188392,5,6,3:2:0:0:
216,336,188500,2,0,L|332:336,1,81,2|10,3:2|3:2,2:0:0:0:
32,128,188716,1,6,3:2:0:0:
480,48,188824,1,2,3:2:0:0:
208,192,188932,6,0,L|256:192,1,40.5,10|8,3:2|3:0,2:0:0:0:
368,128,189040,2,0,L|416:128,1,40.5,8|8,3:0|2:3,2:0:0:0:
368,80,189148,2,0,L|320:80,1,40.5,8|8,3:0|2:3,2:0:0:0:
208,256,189256,2,0,L|208:304,1,40.5,10|12,3:2|3:0,2:0:0:0:
368,336,189364,2,0,L|320:336,1,40.5,12|12,3:0|2:3,2:0:0:0:
32,224,189472,5,6,3:1:0:0:
297,336,189580,2,0,L|201:336,1,81,2|10,3:2|3:2,2:0:0:0:
480,224,189796,1,6,3:2:0:0:
216,336,189904,2,0,L|328:336,1,81,2|10,3:2|3:2,2:0:0:0:
0,144,190120,5,6,3:2:0:0:
297,336,190228,2,0,L|201:336,1,81,2|10,3:2|3:2,2:0:0:0:
512,144,190444,1,6,3:2:0:0:
151,256,190552,2,0,L|375:256,1,170.1,2|10,3:2|3:2,2:0:0:0:
322,256,190714,1,10,3:2:0:0:
256,32,190768,6,0,L|48:32,1,162,4|8,3:1|3:2,2:0:0:0:
94,32,190929,1,8,3:2:0:0:
256,144,190983,2,0,L|448:144,1,170.1,12|0,3:1|2:0,2:0:0:0:
426,144,191145,1,0,2:0:0:0:
256,96,191199,6,0,L|208:96,2,40.5,6|8|8,3:2|2:3|2:3,2:0:0:0:
384,96,191361,1,12,3:0:0:0:
256,240,191415,2,0,L|256:288,1,40.5,8|8,2:3|2:3,2:0:0:0:
144,336,191523,2,0,L|192:336,1,40.5,12|0,3:0|2:0,2:0:0:0:
320,336,191631,6,0,L|368:336,2,40.5,6|8|8,3:2|2:3|2:3,2:0:0:0:
176,256,191793,1,12,3:0:0:0:
320,208,191847,2,0,L|320:256,1,40.5,8|8,2:3|2:3,2:0:0:0:
464,256,191955,2,0,L|416:256,1,40.5,12|8,3:0|2:3,2:0:0:0:
256,32,192063,6,0,L|208:32,2,40.5,6|8|0,3:2|2:3|2:3,2:0:0:0:
384,32,192225,1,12,3:0:0:0:
256,96,192279,2,0,L|208:96,1,40.5,8|8,2:3|2:3,2:0:0:0:
384,192,192387,1,12,3:0:0:0:
256,192,192441,1,8,2:3:0:0:
64,192,192495,6,0,L|48:144,2,40.5,8|4|4,3:1|2:3|2:3,2:0:0:0:
256,352,192711,2,0,L|32:352,1,170.1,2|2,3:1|3:1,2:0:0:0:
256,32,192927,6,0,L|304:32,2,40.5,6|8|8,3:2|2:3|2:3,2:0:0:0:
128,32,193089,1,12,3:0:0:0:
256,192,193143,2,0,L|256:240,1,40.5,8|8,2:3|2:3,2:0:0:0:
384,288,193251,2,0,L|336:288,1,40.5,12|8,3:0|2:3,2:0:0:0:
192,96,193359,6,0,L|144:96,2,40.5,6|8|8,3:2|2:3|2:3,2:0:0:0:
320,96,193521,1,12,3:0:0:0:
192,192,193575,2,0,L|192:240,1,40.5,8|8,2:3|2:3,2:0:0:0:
80,304,193683,2,0,L|128:304,1,40.5,12|8,3:0|2:3,2:0:0:0:
256,32,193791,6,0,L|304:32,2,40.5,6|8|8,3:2|2:3|2:3,2:0:0:0:
128,32,193953,1,12,3:0:0:0:
256,304,194007,2,0,L|304:304,1,40.5,8|8,2:3|2:3,2:0:0:0:
144,240,194115,1,12,3:0:0:0:
256,240,194169,1,8,2:3:0:0:
496,64,194222,6,0,L|288:64,1,170.1,2|2,3:1|1:3,2:0:0:0:
304,112,194344,1,0,1:0:0:0:
288,112,194357,1,0,1:0:0:0:
272,112,194371,1,0,1:0:0:0:
256,112,194384,1,0,1:0:0:0:
16,64,194438,2,0,L|224:64,1,170.1,2|2,3:1|1:2,2:0:0:0:
208,112,194560,1,0,1:0:0:0:
224,112,194573,1,0,1:0:0:0:
240,112,194587,1,0,1:0:0:0:
256,112,194600,1,0,1:0:0:0:
384,352,194654,6,0,L|432:352,2,40.5,6|8|8,3:2|2:3|2:3,2:0:0:0:
256,352,194816,1,12,3:0:0:0:
384,240,194870,2,0,L|432:240,1,40.5,8|8,2:3|2:3,2:0:0:0:
256,240,194978,2,0,L|304:240,1,40.5,12|0,3:0|2:0,2:0:0:0:
128,352,195086,6,0,L|80:352,2,40.5,6|8|8,3:2|2:3|2:3,2:0:0:0:
256,352,195248,1,12,3:0:0:0:
384,192,195302,2,0,L|432:192,1,40.5,8|8,2:3|2:3,2:0:0:0:
256,48,195410,2,0,L|304:48,1,40.5,12|0,3:0|2:0,2:0:0:0:
128,288,195518,6,0,L|80:288,2,40.5,6|8|0,3:2|2:3|2:3,2:0:0:0:
256,288,195680,1,12,3:0:0:0:
128,192,195734,2,0,L|176:192,1,40.5,8|8,2:3|2:3,2:0:0:0:
384,96,195842,2,0,L|336:96,1,40.5,12|8,3:0|2:3,2:0:0:0:
192,48,195950,6,0,L|160:48,2,27,14|8|8,3:0|2:3|2:3,2:0:0:0:
320,48,196058,2,0,L|352:48,2,27,12|8|8,3:0|2:3|2:3,2:0:0:0:
128,144,196166,1,12,3:0:0:0:
160,144,196202,1,8,2:3:0:0:
192,144,196238,1,8,2:3:0:0:
320,144,196274,1,14,3:0:0:0:
352,144,196310,1,8,2:3:0:0:
384,144,196346,1,8,2:3:0:0:
256,352,196382,6,0,L|208:352,2,40.5,6|8|8,3:2|2:3|2:3,2:0:0:0:
384,352,196544,1,12,3:0:0:0:
256,256,196598,2,0,L|304:256,1,40.5,8|8,2:3|2:3,2:0:0:0:
128,224,196706,2,0,L|176:224,1,40.5,12|8,3:0|2:3,2:0:0:0:
384,304,196814,6,0,L|432:304,2,40.5,6|8|8,3:2|2:3|2:3,2:0:0:0:
256,304,196976,1,12,3:0:0:0:
384,224,197030,2,0,L|336:224,1,40.5,8|8,2:3|2:3,2:0:0:0:
496,128,197138,2,0,L|448:128,1,40.5,12|8,3:0|2:3,2:0:0:0:
256,192,197246,6,0,L|192:192,1,54,12|12,2:3|2:3,2:0:0:0:
256,192,197390,1,12,2:3:0:0:
112,352,197462,2,0,L|48:352,1,54,12|12,2:3|2:3,2:0:0:0:
112,352,197605,1,12,2:3:0:0:
320,48,197677,5,12,2:3:0:0:
352,48,197713,1,12,2:3:0:0:
352,96,197749,1,12,2:3:0:0:
320,96,197785,1,12,2:3:0:0:
192,48,197821,1,12,2:3:0:0:
160,48,197857,1,12,2:3:0:0:
160,96,197893,1,4,2:3:0:0:
192,96,197929,1,4,2:3:0:0:
352,160,197965,1,4,2:3:0:0:
256,160,198001,1,4,2:3:0:0:
160,160,198037,1,4,2:3:0:0:
256,160,198073,1,4,2:3:0:0:
496,320,198109,6,0,L|272:320,1,170.1,6|0,3:2|2:0,2:0:0:0:
325,320,198271,2,0,L|519:320,1,170.1,4|0,3:2|2:0,2:0:0:0:
496,320,198433,1,4,3:2:0:0:
16,320,198757,6,0,L|224:320,1,170.1,6|0,3:2|2:0,2:0:0:0:
186,320,198919,2,0,L|10:320,1,170.1,4|0,3:2|2:0,2:0:0:0:
16,320,199081,1,4,3:2:0:0:
256,192,199405,6,0,L|432:192,1,170.1,6|8,3:2|2:3,2:0:0:0:
464,192,199567,1,8,2:3:0:0:
512,240,199621,1,4,2:3:0:0:
464,240,199675,1,4,2:3:0:0:
416,240,199729,1,4,2:3:0:0:
368,240,199783,1,4,2:3:0:0:
0,32,199837,6,0,L|208:32,1,170.1,6|0,3:2|2:0,2:0:0:0:
170,32,199999,2,0,L|-6:32,1,170.1,6|0,3:2|2:0,2:0:0:0:
0,32,200161,1,6,3:2:0:0:
512,32,200485,6,0,L|288:32,1,170.1,6|0,3:2|2:0,2:0:0:0:
341,32,200647,2,0,L|533:32,1,170.1,6|0,3:2|2:0,2:0:0:0:
512,32,200809,1,6,3:2:0:0:
0,336,201132,6,0,L|208:336,1,170.1,6|0,3:2|2:0,2:0:0:0:
170,336,201294,2,0,L|-6:336,1,170.1,6|0,3:2|2:0,2:0:0:0:
0,336,201456,1,14,3:2:0:0:
400,96,201780,6,0,L|400:48,3,40.5,2|2|2|2,1:2|2:0|2:0|2:0,2:0:0:0:
256,64,201996,2,0,L|256:16,3,40.5,2|2|2|2,1:2|2:0|2:0|2:0,2:0:0:0:
112,96,202212,2,0,L|112:32,3,40.5,2|2|2|2,1:2|2:0|2:0|2:0,2:0:0:0:
320,272,202428,5,2,1:2:0:0:
368,272,202482,1,2,2:0:0:0:
368,336,202536,1,2,2:0:0:0:
320,336,202590,1,2,2:0:0:0:
192,272,202644,1,2,2:0:0:0:
144,272,202698,1,2,2:0:0:0:
144,336,202752,1,2,2:0:0:0:
192,336,202806,1,2,2:0:0:0:
320,128,202860,6,0,L|368:128,1,40.5,2|2,1:2|2:0,2:0:0:0:
192,128,202968,2,0,L|144:128,1,40.5,2|2,2:0|2:0,2:0:0:0:
320,64,203076,2,0,L|368:64,1,40.5,8|8,3:0|2:3,2:0:0:0:
192,64,203184,2,0,L|144:64,1,40.5,4|4,2:3|2:3,2:0:0:0:
432,256,203292,6,0,L|448:304,1,40.5,2|2,3:2|3:2,2:0:0:0:
320,272,203400,2,0,L|320:320,1,40.5,2|2,3:2|3:2,2:0:0:0:
192,272,203508,2,0,L|192:320,1,40.5,2|2,3:2|3:2,2:0:0:0:
80,256,203616,2,0,L|64:304,1,40.5,2|2,3:2|3:2,2:0:0:0:
432,144,203724,5,2,3:2:0:0:
464,144,203760,1,2,3:2:0:0:
432,144,203796,1,2,3:2:0:0:
256,144,203832,1,2,3:2:0:0:
224,144,203868,1,2,3:2:0:0:
256,144,203904,1,2,3:2:0:0:
464,192,203940,1,2,3:2:0:0:
432,192,203976,1,2,3:2:0:0:
288,192,204012,1,2,3:2:0:0:
256,192,204048,1,2,3:2:0:0:
144,336,204084,1,2,3:2:0:0:
256,336,204120,1,2,3:2:0:0:
368,336,204156,1,2,3:2:0:0:
80,192,204264,6,0,L|80:144,1,40.5,2|0,3:1|3:0,2:0:0:0:
256,80,204371,2,0,L|256:32,1,40.5,2|0,3:1|3:0,2:0:0:0:
432,192,204479,2,0,L|432:128,1,40.5,2|0,3:1|3:0,2:0:0:0:
256,256,204587,2,0,L|192:256,1,40.5,2|0,3:1|3:0,2:0:0:0:
384,256,204695,2,0,L|448:256,1,40.5,2|0,3:1|3:0,2:0:0:0:
256,288,204803,5,12,3:0:0:0:
80,288,204857,1,8,3:0:0:0:
256,288,204911,1,8,3:0:0:0:
432,288,204965,1,8,3:0:0:0:
256,192,205019,6,0,L|192:192,1,40.5,2|2,3:1|2:0,2:0:0:0:
256,160,205127,2,2,L|304:160,1,40.5,2|2,2:0|2:0,2:0:0:0:
432,48,205235,6,0,L|384:48,1,40.5,6|0,3:2|2:0,2:0:0:0:
167,96,205343,2,0,L|391:96,1,170.1,2|10,3:1|3:2,2:0:0:0:
338,96,205505,1,2,1:2:0:0:
176,240,205559,6,0,L|176:176,1,40.5,6|0,3:2|2:0,2:0:0:0:
344,352,205667,2,0,L|136:352,1,170.1,2|10,3:1|3:2,2:0:0:0:
174,352,205829,1,2,1:2:0:0:
336,240,205883,6,0,L|336:192,1,40.5,6|0,3:2|2:0,2:0:0:0:
167,32,205991,2,0,L|407:32,1,170.1,2|10,3:1|3:2,2:0:0:0:
338,32,206153,1,2,3:2:0:0:
128,144,206207,6,0,L|128:208,1,40.5,4|0,3:2|2:0,2:0:0:0:
344,352,206315,2,0,L|136:352,1,170.1,2|10,3:1|3:2,2:0:0:0:
174,352,206477,1,2,3:2:0:0:
384,144,206531,5,6,3:2:0:0:
256,96,206585,1,8,3:0:0:0:
128,144,206639,1,8,3:0:0:0:
256,144,206693,1,8,3:0:0:0:
384,240,206747,6,0,L|432:240,1,40.5,2|2,3:1|2:0,2:0:0:0:
424,240,206855,2,2,L|376:240,1,40.5,2|2,2:0|2:0,2:0:0:0:
256,240,206963,5,6,3:1:0:0:
160,240,207071,2,0,L|208:240,1,40.5,0|0,3:0|3:0,2:0:0:0:
352,32,207179,1,2,3:1:0:0:
256,32,207287,2,0,L|304:32,1,40.5,0|0,3:0|3:0,2:0:0:0:
160,32,207395,1,10,3:2:0:0:
384,320,207503,5,2,3:1:0:0:
256,320,207557,1,0,3:0:0:0:
128,322,207611,2,0,L|128:256,1,40.5,8|8,3:0|2:3,2:0:0:0:
384,272,207718,2,0,L|384:208,1,40.5,10|8,3:0|2:3,2:0:0:0:
256,144,207826,2,0,L|320:144,1,40.5,8|8,2:3|2:3,2:0:0:0:
112,144,207934,6,0,L|48:144,1,40.5,6|4,3:0|2:3,2:0:0:0:
112,112,208042,2,0,L|48:112,1,40.5,4|4,2:3|2:3,2:0:0:0:
256,64,208150,2,0,L|320:64,1,40.5,6|4,3:0|2:3,2:0:0:0:
176,192,208258,2,0,L|176:256,1,40.5,4|4,2:3|2:3,2:0:0:0:
48,272,208366,2,0,L|112:272,1,40.5,6|4,3:0|2:3,2:0:0:0:
336,368,208474,6,0,L|272:368,1,40.5,4|0,3:1|2:0,2:0:0:0:
176,320,208582,2,0,L|240:320,1,40.5,2|0,1:0|1:0,2:0:0:0:
368,320,208690,1,10,3:2:0:0:
224,272,208744,2,0,L|208:208,2,40.5,2|2|2,1:2|1:2|1:2,2:0:0:0:
368,224,208906,6,0,L|304:224,1,40.5,2|2,3:1|2:0,2:0:0:0:
208,144,209014,2,0,L|256:144,1,40.5,2|2,3:2|2:0,2:0:0:0:
96,192,209122,2,0,L|96:128,1,40.5,10|2,3:2|2:0,2:0:0:0:
256,64,209230,2,0,L|304:64,1,40.5,4|4,2:3|2:3,2:0:0:0:
144,64,209338,6,0,L|112:64,2,27,4|4|4,3:0|2:3|2:3,2:0:0:0:
304,144,209446,2,0,L|336:144,2,27,4|4|4,2:3|2:3|2:3,2:0:0:0:
176,240,209554,1,8,3:0:0:0:
137,249,209590,1,8,2:3:0:0:
120,282,209626,1,8,2:3:0:0:
138,316,209662,1,8,2:3:0:0:
177,324,209698,1,8,2:3:0:0:
432,224,209770,6,0,L|440:184,2,27,2|2|2,3:2|2:0|2:0,2:0:0:0:
288,304,209878,2,0,L|256:304,2,27,2|2|2,3:2|2:0|2:0,2:0:0:0:
432,304,209986,2,0,L|464:304,2,27,8|2|2,3:2|2:0|2:0,2:0:0:0:
224,192,210094,2,0,L|256:192,1,27,2|2,3:2|2:0,2:0:0:0:
352,144,210166,1,2,2:0:0:0:
496,96,210202,5,2,3:1:0:0:
496,160,210256,1,2,1:2:0:0:
432,192,210310,1,2,1:2:0:0:
256,32,210364,1,2,3:1:0:0:
208,80,210418,1,2,1:2:0:0:
256,128,210472,1,2,1:2:0:0:
96,32,210526,2,0,L|144:32,1,40.5,10|2,3:2|2:0,2:0:0:0:
336,240,210634,5,2,3:1:0:0:
336,288,210688,1,2,1:2:0:0:
336,336,210742,1,2,1:2:0:0:
176,240,210796,1,2,3:1:0:0:
176,288,210850,1,2,1:2:0:0:
176,336,210904,1,2,1:2:0:0:
32,192,210958,2,0,L|96:192,1,40.5,10|2,3:2|2:0,2:0:0:0:
304,80,211065,6,0,L|256:80,1,40.5,2|2,3:1|1:2,2:0:0:0:
208,80,211173,1,2,1:2:0:0:
368,192,211227,2,0,L|432:192,2,40.5,2|2|2,3:1|1:2|1:2,2:0:0:0:
208,272,211389,2,0,L|208:208,1,40.5,10|2,3:2|2:0,2:0:0:0:
32,96,211497,6,0,L|96:96,1,40.5,2|2,3:1|1:2,2:0:0:0:
112,96,211605,1,2,1:2:0:0:
304,288,211659,2,0,L|304:352,1,40.5,2|2,3:1|1:2,2:0:0:0:
256,352,211767,1,2,1:2:0:0:
416,272,211821,6,0,L|464:272,1,40.5,14|2,3:2|3:2,2:0:0:0:
416,240,211929,1,2,3:2:0:0:
304,192,211983,1,2,3:2:0:0:
176,96,212037,2,0,L|224:96,1,40.5,2|2,3:2|3:2,2:0:0:0:
416,96,212145,6,0,L|352:96,1,40.5,6|0,3:2|2:0,2:0:0:0:
176,304,212253,2,0,L|416:304,1,170.1,2|10,3:1|3:2,2:0:0:0:
304,256,212415,1,2,1:2:0:0:
144,192,212469,6,0,L|96:192,1,40.5,6|0,3:2|2:0,2:0:0:0:
368,64,212577,2,0,L|144:64,1,170.1,2|10,3:1|3:2,2:0:0:0:
160,64,212739,1,2,1:2:0:0:
368,160,212793,6,0,L|304:160,1,40.5,6|0,3:2|2:0,2:0:0:0:
144,368,212901,2,0,L|336:368,1,170.1,2|10,3:1|3:2,2:0:0:0:
352,368,213063,1,2,3:2:0:0:
96,288,213117,6,0,L|96:224,1,40.5,4|0,3:2|2:0,2:0:0:0:
368,208,213225,2,0,L|160:208,1,170.1,2|10,3:1|3:2,2:0:0:0:
160,208,213387,1,2,3:2:0:0:
320,64,213441,5,6,3:2:0:0:
368,64,213495,1,8,3:0:0:0:
208,160,213549,1,8,3:0:0:0:
320,160,213603,1,8,3:0:0:0:
480,160,213657,6,0,L|480:96,3,40.5,10|2|2|2,3:1|2:0|2:0|2:0,2:0:0:0:
256,320,213873,5,6,3:1:0:0:
336,368,213981,2,0,L|288:368,1,40.5,0|0,3:0|3:0,2:0:0:0:
96,288,214089,1,2,3:1:0:0:
176,240,214197,2,0,L|112:240,1,40.5,0|0,3:0|3:0,2:0:0:0:
320,192,214305,1,10,3:2:0:0:
128,128,214413,5,2,3:1:0:0:
256,96,214466,1,0,3:0:0:0:
384,128,214520,2,0,L|336:128,1,40.5,8|8,3:0|2:3,2:0:0:0:
128,48,214628,2,0,L|80:48,1,40.5,10|8,3:0|2:3,2:0:0:0:
256,160,214736,2,0,L|256:208,1,40.5,8|8,2:3|2:3,2:0:0:0:
384,256,214844,5,6,3:0:0:0:
256,336,214898,1,4,2:3:0:0:
128,336,214952,2,0,L|176:336,1,40.5,4|4,2:3|2:3,2:0:0:0:
336,336,215060,2,0,L|384:336,1,40.5,14|12,3:0|2:3,2:0:0:0:
256,288,215168,2,0,L|256:224,1,40.5,4|4,2:3|2:3,2:0:0:0:
128,224,215276,2,0,L|176:224,1,40.5,6|4,3:0|2:3,2:0:0:0:
432,32,215384,5,4,3:1:0:0:
288,32,215456,1,2,2:0:0:0:
256,96,215528,1,2,2:0:0:0:
288,160,215600,1,10,3:2:0:0:
432,160,215672,1,2,2:0:0:0:
288,224,215744,1,2,2:0:0:0:
496,288,215816,6,0,L|432:288,2,54,2|2|2,3:2|2:0|3:2,2:0:0:0:
352,352,216032,2,0,L|288:352,2,54,10|2|2,3:2|2:0|2:0,2:0:0:0:
176,320,216248,6,0,L|256:320,2,54,2|2|2,3:2|2:0|2:0,2:0:0:0:
32,256,216464,2,0,L|112:256,1,54,10|2,3:2|2:0,2:0:0:0:
256,256,216608,1,2,2:0:0:0:
80,160,216680,5,2,3:2:0:0:
224,160,216752,1,2,2:0:0:0:
256,96,216824,1,2,3:2:0:0:
224,32,216896,1,10,3:2:0:0:
80,32,216968,1,2,2:0:0:0:
224,32,217040,1,2,2:0:0:0:
400,192,217112,5,2,3:2:0:0:
256,192,217184,2,0,L|256:256,1,54,2|2,2:0|2:0,2:0:0:0:
112,192,217328,1,10,3:2:0:0:
256,368,217400,2,0,L|256:288,1,54,2|2,2:0|2:0,2:0:0:0:
400,256,217544,5,2,3:2:0:0:
346,256,217616,2,0,L|426:256,1,54,2|2,2:0|3:2,2:0:0:0:
201,256,217760,2,0,L|281:256,1,54,10|2,3:2|2:0,2:0:0:0:
112,256,217903,1,2,2:0:0:0:
256,128,217975,6,0,L|256:64,1,40.5,6|10,3:2|2:3,2:0:0:0:
32,128,218083,2,0,L|32:80,1,40.5,10|10,2:3|2:3,2:0:0:0:
144,112,218191,2,0,L|144:64,1,40.5,10|10,2:3|2:3,2:0:0:0:
288,32,218299,2,0,L|352:32,1,40.5,10|10,2:3|2:3,2:0:0:0:
192,192,218407,2,0,L|144:192,1,40.5,6|6,2:3|2:3,2:0:0:0:
192,192,218515,2,0,L|128:192,1,40.5,6|6,2:3|2:3,2:0:0:0:
384,352,218623,5,12,3:0:0:0:
256,352,218677,1,12,3:0:0:0:
128,352,218731,1,12,3:0:0:0:
48,288,218839,2,0,L|96:288,1,40.5,2|2,3:2|3:2,2:0:0:0:
256,192,218947,1,2,3:2:0:0:
288,192,219001,1,2,3:2:0:0:
176,96,219055,6,0,L|240:96,1,40.5,6|0,3:2|2:0,2:0:0:0:
64,32,219163,2,0,L|256:32,1,170.1,2|10,3:1|3:2,2:0:0:0:
272,32,219325,1,2,1:2:0:0:
96,240,219379,6,0,L|32:240,1,40.5,6|0,3:2|2:0,2:0:0:0:
368,144,219487,2,0,L|160:144,1,170.1,2|10,3:1|3:2,2:0:0:0:
160,144,219649,1,2,1:2:0:0:
416,240,219703,6,0,L|464:240,1,40.5,6|0,3:2|2:0,2:0:0:0:
176,352,219811,2,0,L|416:352,1,170.1,2|10,3:1|3:2,2:0:0:0:
384,352,219973,1,2,3:2:0:0:
96,288,220027,6,0,L|48:288,1,40.5,4|0,3:2|2:0,2:0:0:0:
176,224,220135,2,0,L|368:224,1,170.1,2|10,3:1|3:2,2:0:0:0:
384,224,220297,1,2,3:2:0:0:
224,304,220351,5,6,3:2:0:0:
272,304,220405,1,8,3:0:0:0:
224,304,220459,1,8,3:0:0:0:
272,304,220513,1,8,3:0:0:0:
480,304,220567,6,0,L|480:240,3,40.5,10|2|2|2,3:1|2:0|2:0|2:0,2:0:0:0:
256,192,220783,5,6,3:1:0:0:
336,128,220891,2,0,L|272:128,1,40.5,0|0,3:0|3:0,2:0:0:0:
112,128,220999,1,2,3:1:0:0:
192,48,221107,2,0,L|128:48,1,40.5,0|0,3:0|3:0,2:0:0:0:
336,48,221214,1,10,3:2:0:0:
112,256,221322,5,2,3:1:0:0:
256,256,221376,1,0,3:0:0:0:
400,256,221430,2,0,L|400:192,1,40.5,8|8,3:0|2:3,2:0:0:0:
256,96,221538,2,0,L|304:96,1,40.5,10|8,3:0|2:3,2:0:0:0:
144,352,221646,2,0,L|80:352,1,40.5,8|8,2:3|2:3,2:0:0:0:
320,320,221754,6,0,L|384:320,1,40.5,6|4,3:0|2:3,2:0:0:0:
320,352,221862,2,0,L|384:352,1,40.5,4|4,2:3|2:3,2:0:0:0:
144,320,221970,2,0,L|80:320,1,40.5,6|4,3:0|2:3,2:0:0:0:
256,352,222078,2,0,L|256:288,1,40.5,4|4,2:3|2:3,2:0:0:0:
400,192,222186,2,0,L|336:192,1,40.5,6|4,3:0|2:3,2:0:0:0:
208,192,222294,6,0,L|144:192,1,40.5,4|0,3:1|2:0,2:0:0:0:
208,160,222402,2,0,L|272:160,1,40.5,2|0,1:0|1:0,2:0:0:0:
80,288,222510,1,10,3:2:0:0:
208,288,222564,2,0,L|224:224,2,40.5,2|2|2,1:2|1:2|1:2,2:0:0:0:
80,192,222726,6,0,L|144:192,1,40.5,2|2,3:1|2:0,2:0:0:0:
288,112,222834,2,0,L|240:112,1,40.5,2|2,3:2|2:0,2:0:0:0:
400,144,222942,2,0,L|400:80,1,40.5,10|2,3:2|2:0,2:0:0:0:
256,48,223050,2,0,L|304:48,1,40.5,4|4,2:3|2:3,2:0:0:0:
144,96,223158,6,0,L|112:96,2,27,4|4|4,3:0|2:3|2:3,2:0:0:0:
256,224,223266,2,0,L|256:192,2,27,4|4|4,2:3|2:3|2:3,2:0:0:0:
144,240,223374,2,0,L|112:240,2,27,8|8|8,3:0|2:3|2:3,2:0:0:0:
336,288,223482,2,0,L|368:288,2,27,8|8|8,2:3|2:3|2:3,2:0:0:0:
224,368,223590,6,0,L|256:368,1,27,2|2,3:2|2:0,2:0:0:0:
352,368,223662,2,0,L|384:368,1,27,2|2,2:0|3:2,2:0:0:0:
256,320,223734,2,0,L|206:319,1,27,2|2,2:0|2:0,2:0:0:0:
112,320,223806,5,8,3:2:0:0:
80,272,223842,1,2,2:0:0:0:
112,320,223878,1,2,2:0:0:0:
256,160,223914,1,2,2:0:0:0:
224,160,223950,1,2,3:2:0:0:
192,160,223986,1,2,2:0:0:0:
352,48,224022,6,0,L|352:112,1,40.5,2|2,3:1|1:2,2:0:0:0:
304,112,224130,1,2,1:2:0:0:
432,192,224184,2,0,L|432:256,1,40.5,2|2,3:1|1:2,2:0:0:0:
384,272,224292,1,2,1:2:0:0:
240,272,224346,2,0,L|304:272,1,40.5,10|2,3:2|2:0,2:0:0:0:
112,192,224454,5,2,3:1:0:0:
80,144,224508,1,2,1:2:0:0:
112,96,224561,1,2,1:2:0:0:
256,16,224615,1,2,3:1:0:0:
256,48,224669,1,2,1:2:0:0:
256,80,224723,1,2,1:2:0:0:
416,192,224777,2,0,L|352:192,1,40.5,10|2,3:2|2:0,2:0:0:0:
160,336,224885,6,0,L|208:336,1,40.5,2|2,3:1|1:2,2:0:0:0:
320,336,224993,1,2,1:2:0:0:
160,256,225047,2,0,L|96:256,2,40.5,2|2|2,3:1|1:2|1:2,2:0:0:0:
320,192,225209,2,0,L|320:256,1,40.5,10|2,3:2|2:0,2:0:0:0:
496,288,225317,6,0,L|448:288,1,40.5,2|2,3:1|1:2,2:0:0:0:
416,288,225425,1,2,1:2:0:0:
256,144,225479,2,0,L|215:144,1,40.5,2|2,3:1|1:2,2:0:0:0:
256,144,225587,1,2,1:2:0:0:
464,48,225641,1,2,3:2:0:0:
368,48,225677,1,2,3:2:0:0:
16,48,225965,5,4,3:0:0:0:
256,192,226073,12,0,228988,2:0:0:0:
288,320,229420,6,0,L|304:256,1,40.5,12|2,3:0|2:1,2:0:0:0:
224,320,229528,2,0,L|208:256,1,40.5,2|2,2:1|2:1,2:0:0:0:
288,320,229636,2,0,L|304:256,1,40.5,2|2,2:1|2:1,2:0:0:0:
224,320,229744,2,0,L|208:256,1,40.5,2|2,2:1|2:1,2:0:0:0:
288,320,229852,2,0,L|304:256,1,40.5,2|2,2:1|2:1,2:0:0:0:
224,320,229960,2,0,L|208:256,1,40.5,2|2,2:1|2:1,2:0:0:0:
352,224,230068,6,0,L|368:160,1,40.5,2|2,2:1|2:1,2:0:0:0:
160,224,230176,2,0,L|144:160,1,40.5,2|2,2:1|2:1,2:0:0:0:
352,224,230284,2,0,L|368:160,1,40.5,2|2,2:1|2:1,2:0:0:0:
160,224,230392,2,0,L|144:176,1,40.5,2|2,2:1|2:1,2:0:0:0:
352,224,230500,2,0,L|368:176,1,40.5,2|2,2:1|2:1,2:0:0:0:
80,320,230608,6,0,L|64:256,1,40.5,2|2,2:1|2:1,2:0:0:0:
256,256,230716,2,0,L|256:208,1,40.5,2|2,2:1|2:1,2:0:0:0:
432,320,230824,2,0,L|448:256,1,40.5,2|2,2:1|2:1,2:0:0:0:
80,112,230932,6,0,B|160:112|160:112|64:112,1,162,6|8,3:2|2:3,2:0:0:0:
256,112,231202,1,8,2:3:0:0:
432,112,231256,2,0,B|352:112|352:112|448:112,1,162,6|8,3:2|2:3,2:0:0:0:
208,112,231525,1,8,2:3:0:0:
160,288,231579,2,0,L|400:288,1,170.1,6|8,3:2|3:0,2:0:0:0:
128,48,231795,6,0,L|176:48,1,40.5,8|8,3:0|2:3,2:0:0:0:
304,48,231903,1,8,2:3:0:0:
128,192,232011,2,0,L|176:192,1,40.5,8|8,3:0|2:3,2:0:0:0:
336,192,232119,2,0,L|288:192,1,40.5,8|8,2:3|2:3,2:0:0:0:
448,272,232227,6,0,L|400:272,1,40.5,8|8,3:0|2:3,2:0:0:0:
224,272,232335,2,0,L|265:272,1,40.5,8|8,2:3|2:3,2:0:0:0:
80,112,232443,2,0,L|128:112,1,40.5,8|8,3:0|2:3,2:0:0:0:
288,112,232551,2,0,L|247:112,1,40.5,8|8,3:0|2:3,2:0:0:0:
432,80,232659,6,0,L|432:0,1,54,12|12,2:3|2:3,2:0:0:0:
256,192,232803,1,12,2:3:0:0:
432,112,232875,2,0,L|384:176,1,54,12|12,2:3|2:3,2:0:0:0:
208,192,233019,1,12,2:3:0:0:
400,208,233091,6,0,L|320:240,1,54,4|4,2:3|2:3,2:0:0:0:
160,192,233235,1,4,2:3:0:0:
368,288,233307,2,0,L|304:288,1,54,4|4,2:3|2:3,2:0:0:0:
112,192,233451,1,4,2:3:0:0:
288,352,233523,5,8,2:3:0:0:
328,352,233559,1,8,2:3:0:0:
344,328,233595,1,8,2:3:0:0:
326,304,233631,1,8,2:3:0:0:
160,288,233685,1,8,2:3:0:0:
288,144,233739,1,12,2:3:0:0:
332,144,233775,1,12,2:3:0:0:
332,192,233811,1,12,2:3:0:0:
288,192,233847,1,12,2:3:0:0:
112,288,233901,1,12,2:3:0:0:
288,80,233955,5,12,2:3:0:0:
328,80,233991,1,12,2:3:0:0:
344,56,234027,1,12,2:3:0:0:
328,32,234063,1,12,2:3:0:0:
112,336,234117,1,12,2:3:0:0:
328,168,234171,1,4,2:3:0:0:
364,168,234207,1,4,2:3:0:0:
364,216,234243,1,4,2:3:0:0:
328,216,234279,1,4,2:3:0:0:
112,368,234333,1,4,2:3:0:0:
320,272,234387,6,0,L|400:272,2,54,4|4|4,3:0|3:0|3:0,2:0:0:0:
184,272,234603,1,4,3:0:0:0:
164,248,234639,1,0,3:0:0:0:
164,216,234674,1,0,3:0:0:0:
184,192,234710,1,4,3:0:0:0:
216,192,234746,1,0,3:0:0:0:
256,192,234782,1,0,3:0:0:0:
400,192,234818,5,2,2:1:0:0:
415,158,234854,1,2,2:1:0:0:
400,124,234890,1,2,2:1:0:0:
256,128,234926,2,0,L|224:128,2,27,2|2|2,2:1|2:1|2:1,2:0:0:0:
384,320,235034,1,2,2:1:0:0:
352,320,235070,1,2,2:1:0:0:
320,320,235106,1,2,2:1:0:0:
432,64,235142,2,0,L|464:64,2,27,2|2|2,2:1|2:1|2:1,2:0:0:0:
256,48,235250,6,0,L|256:96,3,40.5,12|12|12|12,3:0|3:0|3:0|3:0,2:0:0:0:
112,128,235466,2,0,L|112:80,3,40.5,12|12|12|12,3:0|3:0|3:0|3:0,2:0:0:0:
304,320,235682,6,0,L|256:320,1,40.5,12|12,3:0|3:0,2:0:0:0:
128,256,235790,2,0,L|176:256,1,40.5,12|12,3:0|3:0,2:0:0:0:
304,192,235898,2,0,L|304:144,1,40.5,12|12,3:0|3:0,2:0:0:0:
160,160,236006,2,0,L|208:160,1,40.5,12|12,3:0|3:0,2:0:0:0:
48,112,236114,6,0,P|32:192|48:288,1,162,6|2,3:1|2:0,2:0:0:0:
336,80,236546,2,0,L|160:80,1,162,6|0,2:3|2:0,2:0:0:0:
336,272,236978,2,0,L|256:272,2,81,2|8|2,2:0|2:3|2:0,2:0:0:0:
176,272,237410,1,6,2:3:0:0:
336,192,237626,2,0,L|256:192,1,81,4|4,2:3|2:3,2:0:0:0:
48,112,237842,6,0,P|32:192|48:272,1,162,4|2,2:3|2:0,2:0:0:0:
336,64,238273,2,0,L|160:64,1,162,2|8,2:3|2:3,2:0:0:0:
464,272,238705,2,0,P|480:192|464:112,1,162,8|2,2:3|2:0,2:0:0:0:
176,336,239137,2,0,L|352:336,1,162,2|4,2:3|2:3,2:0:0:0:
256,192,239461,1,4,2:3:0:0:
464,112,239569,6,0,P|480:192|448:288,1,162,0|2,2:0|2:0,2:0:0:0:
176,48,240001,2,0,L|352:48,1,162,2|8,2:3|2:3,2:0:0:0:
48,192,240433,2,0,L|128:192,2,81,4|4|8,2:3|2:3|2:3,2:0:0:0:
336,304,240865,2,0,L|160:304,1,162,2|4,2:3|2:3,2:0:0:0:
256,192,241189,1,8,2:3:0:0:
464,112,241297,6,0,P|480:192|464:272,1,162,4|2,2:3|2:0,2:0:0:0:
176,48,241728,2,0,L|352:48,1,162,6|8,2:3|2:3,2:0:0:0:
48,272,242160,2,0,P|32:192|48:96,1,162,4|2,2:3|2:0,2:0:0:0:
336,336,242592,2,0,L|160:336,1,162,2|4,2:3|2:3,2:0:0:0:
256,240,242916,1,8,2:3:0:0:
80,64,243024,6,0,L|160:64,1,81,4|0,2:3|2:0,2:0:0:0:
432,64,243240,2,0,L|352:64,1,81,2|8,2:0|2:3,2:0:0:0:
96,192,243456,2,0,L|272:192,1,162,6|2,2:3|2:0,2:0:0:0:
176,144,243780,1,4,2:3:0:0:
352,320,243888,6,0,L|432:320,1,81,4|4,2:3|2:3,2:0:0:0:
176,320,244104,2,0,L|96:320,1,81,8|2,2:3|2:0,2:0:0:0:
336,240,244320,2,0,L|160:240,1,162,2|4,2:3|2:3,2:0:0:0:
256,128,244644,1,8,2:3:0:0:
496,48,244751,6,0,L|320:48,2,162,4|2|10,2:3|2:0|2:3,2:0:0:0:
176,80,245399,2,0,L|256:80,1,81,4|4,2:3|2:3,2:0:0:0:
80,192,245615,6,0,L|80:112,1,81,8|8,2:3|2:3,2:0:0:0:
256,240,245831,2,0,L|176:240,1,81,8|8,2:3|2:3,2:0:0:0:
352,32,246047,2,0,L|176:32,1,162,2|4,2:3|2:3,2:0:0:0:
272,128,246371,1,4,2:3:0:0:
32,192,246479,6,0,L|272:192,1,170.1,6|0,3:2|1:0,2:0:0:0:
336,112,246600,1,0,2:0:0:0:
357,118,246614,1,0,2:0:0:0:
371,132,246627,1,0,2:0:0:0:
379,148,246641,1,0,2:0:0:0:
380,167,246654,1,0,2:0:0:0:
372,188,246668,1,0,2:0:0:0:
355,202,246681,1,0,2:0:0:0:
334,205,246695,1,0,2:0:0:0:
32,48,246803,5,2,2:3:0:0:
112,48,246816,1,0,2:3:0:0:
304,48,247127,1,0,2:0:0:0:
224,48,247140,1,0,2:0:0:0:
32,288,247343,6,0,L|272:288,1,170.1,6|0,3:2|1:0,2:0:0:0:
336,352,247464,1,0,2:0:0:0:
357,346,247478,1,0,2:0:0:0:
371,332,247491,1,0,2:0:0:0:
379,316,247505,1,0,2:0:0:0:
380,297,247518,1,0,2:0:0:0:
372,276,247532,1,0,2:0:0:0:
355,262,247545,1,0,2:0:0:0:
334,259,247559,1,0,2:0:0:0:
160,96,247667,5,0,2:0:0:0:
128,96,247680,1,0,2:0:0:0:
304,128,247775,2,8,L|352:128,1,40.5,8|8,2:0|2:0,2:0:0:0:
304,160,247883,2,8,L|256:160,1,40.5,8|8,2:0|2:0,2:0:0:0:
128,272,247991,2,8,L|80:272,1,40.5,8|8,2:0|2:0,2:0:0:0:
128,304,248099,2,8,L|176:304,1,40.5,8|8,2:0|2:0,2:0:0:0:
320,352,248206,6,0,L|320:272,1,81,6|2,3:2|1:2,2:0:0:0:
192,352,248422,2,0,L|192:256,1,81,0|2,3:0|1:2,2:0:0:0:
400,224,248638,2,0,L|320:224,1,81,0|2,3:0|1:2,2:0:0:0:
496,144,248854,2,0,L|416:144,1,81,0|2,3:0|1:2,2:0:0:0:
80,192,249070,5,2,3:0:0:0:
256,192,249178,2,0,L|256:96,1,81,2|0,1:2|3:0,2:0:0:0:
432,192,249394,1,2,1:2:0:0:
80,272,249502,1,0,3:0:0:0:
256,256,249610,2,0,L|256:352,1,81,2|0,1:2|3:0,2:0:0:0:
432,272,249826,1,2,1:2:0:0:
160,192,249934,6,0,L|160:96,1,81,2|2,3:0|1:2,2:0:0:0:
352,192,250150,2,0,L|352:96,1,81,0|2,3:0|1:2,2:0:0:0:
80,128,250366,2,0,L|176:128,1,81,0|2,3:0|1:2,2:0:0:0:
336,80,250582,2,0,L|256:80,1,81,0|2,3:0|1:2,2:0:0:0:
80,352,250798,5,2,3:0:0:0:
256,256,250906,2,0,L|176:256,2,81,2|0|2,1:2|3:0|1:2,2:0:0:0:
432,352,251230,1,0,3:0:0:0:
256,192,251338,2,0,L|336:192,2,81,2|0|2,1:2|3:0|1:2,2:0:0:0:
32,96,251661,5,2,3:0:0:0:
112,96,251769,1,2,3:2:0:0:
32,128,251877,1,0,3:0:0:0:
112,128,251985,1,2,3:2:0:0:
480,288,252093,1,2,3:0:0:0:
400,288,252201,1,2,3:2:0:0:
480,256,252309,1,0,3:0:0:0:
400,256,252417,1,2,3:2:0:0:
32,96,252525,5,2,3:0:0:0:
112,96,252633,1,2,3:2:0:0:
384,128,252741,1,0,3:0:0:0:
192,128,252849,1,2,3:2:0:0:
480,336,252957,1,2,3:0:0:0:
400,336,253065,1,2,3:2:0:0:
128,256,253173,1,0,3:0:0:0:
320,256,253281,1,2,3:2:0:0:
28,96,253389,6,0,L|80:96,1,40.5,2|0,3:0|3:0,2:0:0:0:
212,192,253497,2,0,L|160:192,1,40.5,0|0,3:0|3:0,2:0:0:0:
300,192,253605,2,0,L|352:192,1,40.5,0|0,3:0|3:0,2:0:0:0:
484,96,253713,2,0,L|432:96,1,40.5,0|0,3:0|3:0,2:0:0:0:
300,192,253821,6,0,L|352:192,1,40.5,2|0,3:0|3:0,2:0:0:0:
212,192,253929,2,0,L|160:192,1,40.5,0|0,3:0|3:0,2:0:0:0:
28,96,254037,2,0,L|80:96,1,40.5,0|0,3:0|3:0,2:0:0:0:
208,96,254145,2,0,L|248:96,1,40.5,0|0,3:0|3:0,2:0:0:0:
448,256,254253,6,0,P|448:272|448:368,1,81,6|0,3:2|3:0,2:0:0:0:
256,336,254469,1,8,2:3:0:0:
208,336,254523,1,8,2:3:0:0:
256,336,254577,1,8,2:3:0:0:
208,336,254631,1,8,2:3:0:0:
368,192,254685,5,12,2:3:0:0:
256,192,254739,1,12,2:3:0:0:
212,192,254793,1,12,2:3:0:0:
256,192,254847,1,12,2:3:0:0:
368,128,254900,1,12,2:3:0:0:
256,128,254954,1,12,2:3:0:0:
144,128,255008,1,12,2:3:0:0:
256,128,255062,1,12,2:3:0:0:
384,304,255116,5,4,3:1:0:0:
208,256,255224,2,0,L|144:256,1,40.5,4|0,3:2|2:0,2:0:0:0:
336,256,255332,2,0,L|288:256,1,40.5,4|0,3:2|2:0,2:0:0:0:
112,304,255440,5,4,3:2:0:0:
288,352,255548,2,0,L|336:352,1,40.5,4|0,3:2|2:0,2:0:0:0:
160,352,255656,2,0,L|208:352,1,40.5,4|0,3:2|2:0,2:0:0:0:
448,304,255764,2,0,L|352:304,1,81,4|0,3:2|3:2,2:0:0:0:
400,272,255926,1,0,3:2:0:0:
256,192,255980,6,0,B|208:192|208:192|160:192,1,81,0|0,3:2|3:2,2:0:0:0:
208,160,256142,1,0,3:2:0:0:
64,336,256196,2,0,L|64:272,1,40.5,0|0,3:2|2:0,2:0:0:0:
128,240,256304,2,0,L|128:192,1,40.5,0|0,3:2|3:2,2:0:0:0:
256,128,256412,6,0,L|256:64,1,40.5,0|0,3:2|2:0,2:0:0:0:
224,48,256520,2,0,L|176:48,1,40.5,0|0,3:2|3:2,2:0:0:0:
368,96,256628,2,0,L|416:96,1,40.5,0|0,3:2|2:0,2:0:0:0:
256,304,256736,2,0,L|256:240,1,40.5,0|0,3:2|3:2,2:0:0:0:
144,352,256844,5,4,3:2:0:0:
256,352,256952,2,0,L|305:352,1,40.5,4|0,3:2|2:0,2:0:0:0:
160,272,257060,2,0,L|208:272,1,40.5,4|0,3:2|2:0,2:0:0:0:
400,304,257168,5,4,3:2:0:0:
224,224,257276,2,0,L|176:224,1,40.5,4|0,3:2|2:0,2:0:0:0:
352,224,257384,2,0,L|304:224,1,40.5,4|0,3:2|2:0,2:0:0:0:
64,304,257492,2,0,L|176:304,1,81,4|0,3:2|3:2,2:0:0:0:
112,272,257654,1,0,3:2:0:0:
256,128,257708,6,0,B|304:128|304:128|368:128,1,81,0|0,3:2|3:2,2:0:0:0:
304,160,257870,1,0,3:2:0:0:
80,224,257924,1,0,2:0:0:0:
32,224,257978,1,0,2:0:0:0:
80,192,258032,1,0,2:0:0:0:
32,192,258086,1,0,2:0:0:0:
272,304,258140,5,10,3:0:0:0:
288,304,258167,1,8,2:3:0:0:
304,304,258194,1,8,2:3:0:0:
192,192,258247,1,10,2:3:0:0:
80,144,258301,1,8,2:3:0:0:
208,80,258355,1,10,2:3:0:0:
256,80,258409,1,8,2:3:0:0:
208,80,258463,1,10,2:3:0:0:
352,144,258517,1,8,2:3:0:0:
208,32,258571,5,4,3:1:0:0:
112,80,258679,2,0,L|176:80,1,40.5,4|0,3:2|2:0,2:0:0:0:
352,352,258787,2,0,L|304:352,1,40.5,4|0,3:2|2:0,2:0:0:0:
432,304,258895,5,4,3:2:0:0:
256,304,259003,2,0,L|208:304,1,40.5,4|0,3:2|2:0,2:0:0:0:
384,224,259111,2,0,L|448:224,1,40.5,4|0,3:2|2:0,2:0:0:0:
256,224,259219,2,0,L|144:224,1,81,4|0,3:2|3:2,2:0:0:0:
208,192,259381,1,0,3:2:0:0:
384,128,259435,6,0,B|425:128|425:128|386:128,1,81,0|0,3:2|3:2,2:0:0:0:
336,128,259597,1,0,3:2:0:0:
131,144,259651,2,0,L|192:144,1,40.5,0|0,3:2|2:0,2:0:0:0:
32,80,259759,2,0,L|72:80,1,40.5,0|0,3:2|3:2,2:0:0:0:
288,336,259867,6,0,L|288:272,1,40.5,0|0,3:2|2:0,2:0:0:0:
224,336,259975,2,0,L|224:272,1,40.5,0|0,3:2|3:2,2:0:0:0:
384,240,260083,2,0,L|320:240,1,40.5,0|0,3:2|2:0,2:0:0:0:
128,240,260191,2,0,L|176:240,1,40.5,0|0,3:2|3:2,2:0:0:0:
381,144,260299,6,0,L|432:144,1,40.5,4|0,3:2|2:0,2:0:0:0:
256,192,260407,2,0,L|304:192,1,40.5,4|0,3:2|2:0,2:0:0:0:
131,144,260515,2,0,L|64:144,1,40.5,4|0,3:2|2:0,2:0:0:0:
208,64,260623,1,4,3:2:0:0:
352,64,260677,1,0,2:0:0:0:
208,32,260731,5,4,3:2:0:0:
80,32,260785,1,0,2:0:0:0:
208,288,260839,2,0,L|256:288,1,40.5,4|0,3:2|2:0,2:0:0:0:
67,176,260947,1,4,3:2:0:0:
80,176,260974,1,0,2:0:0:0:
96,176,261001,1,0,2:0:0:0:
256,112,261055,2,0,L|192:112,1,40.5,0|0,3:2|3:2,2:0:0:0:
384,256,261163,6,0,L|392:303,1,40.5,0|0,3:2|2:0,2:0:0:0:
256,352,261271,2,0,L|304:352,1,40.5,0|0,3:2|3:2,2:0:0:0:
128,352,261379,2,0,L|80:352,2,40.5,0|0|0,3:2|2:0|3:2,2:0:0:0:
256,320,261541,1,0,3:2:0:0:
128,112,261594,5,10,3:0:0:0:
96,112,261648,1,8,2:3:0:0:
252,47,261702,1,10,2:3:0:0:
384,112,261756,1,8,2:3:0:0:
256,192,261810,1,10,2:3:0:0:
224,192,261864,1,8,2:3:0:0:
336,192,261918,1,10,2:3:0:0:
224,160,261972,1,8,2:3:0:0:
384,48,262026,6,0,L|448:48,1,40.5,14|2,3:2|2:0,2:0:0:0:
288,256,262134,2,0,L|240:256,1,40.5,2|2,3:2|3:2,2:0:0:0:
416,288,262242,2,0,L|352:288,1,40.5,10|0,3:2|2:0,2:0:0:0:
176,288,262350,2,0,L|240:288,1,40.5,10|0,3:2|2:0,2:0:0:0:
384,352,262458,5,10,3:2:0:0:
256,336,262512,1,2,2:0:0:0:
128,352,262566,1,10,3:2:0:0:
256,336,262620,1,2,2:0:0:0:
368,224,262674,2,0,L|320:224,1,40.5,0|0,3:0|3:0,2:0:0:0:
144,272,262782,6,0,P|80:208|160:144,1,202.5,4|2,3:0|2:0,2:0:0:0:
368,128,263106,1,14,3:2:0:0:
144,128,263214,1,14,3:2:0:0:
368,128,263322,1,14,3:2:0:0:
64,144,263430,2,0,P|33:199|78:245,1,121.5,14|0,3:2|2:0,2:0:0:0:
352,352,263646,6,0,L|144:352,1,202.5,4|0,3:0|2:0,2:0:0:0:
272,288,263970,2,0,L|272:224,1,40.5,14|2,3:2|2:0,2:0:0:0:
144,224,264078,2,0,L|184:224,1,40.5,14|2,3:2|2:0,2:0:0:0:
32,192,264186,1,14,3:2:0:0:
208,128,264294,2,0,L|48:128,1,121.5,14|0,3:2|2:0,2:0:0:0:
256,208,264510,6,0,P|320:128|240:80,1,202.5,4|2,3:0|2:0,2:0:0:0:
480,192,264834,2,0,L|480:256,1,40.5,14|2,3:2|2:0,2:0:0:0:
336,256,264942,2,0,L|400:256,1,40.5,14|2,3:2|2:0,2:0:0:0:
240,144,265049,1,10,3:2:0:0:
416,32,265157,2,0,L|480:32,1,40.5,12|12,2:3|2:3,2:0:0:0:
456,32,265265,2,0,L|408:32,1,40.5,12|12,2:3|2:3,2:0:0:0:
256,304,265373,6,0,L|208:304,1,40.5,4|2,3:0|2:0,2:0:0:0:
336,224,265481,1,2,2:0:0:0:
396,215,265535,1,2,2:0:0:0:
423,160,265589,1,2,2:0:0:0:
393,106,265643,1,2,2:0:0:0:
192,64,265697,2,0,L|144:64,1,40.5,14|2,3:2|2:0,2:0:0:0:
320,32,265805,2,0,L|272:32,1,40.5,14|2,3:2|2:0,2:0:0:0:
128,288,265913,5,14,3:2:0:0:
256,336,265967,1,2,3:2:0:0:
384,288,266021,1,14,3:2:0:0:
256,336,266075,1,2,3:2:0:0:
128,352,266129,2,0,L|176:352,1,40.5,2|2,3:2|3:2,2:0:0:0:
384,272,266237,6,0,P|448:208|352:144,1,202.5,4|2,3:0|2:0,2:0:0:0:
128,96,266561,1,14,3:2:0:0:
384,96,266669,1,14,3:2:0:0:
128,128,266777,1,14,3:2:0:0:
448,144,266885,2,0,P|470:207|428:272,1,121.5,14|0,3:2|2:0,2:0:0:0:
256,352,267101,6,0,L|432:352,1,162,4|2,3:0|2:0,2:0:0:0:
368,320,267371,1,2,2:0:0:0:
256,240,267425,2,0,L|208:240,1,40.5,14|2,3:2|2:0,2:0:0:0:
368,176,267533,2,0,L|368:224,1,40.5,14|2,3:2|2:0,2:0:0:0:
208,112,267641,2,0,L|256:112,1,40.5,14|2,3:2|2:0,2:0:0:0:
80,176,267749,2,0,L|32:176,1,40.5,14|2,3:2|2:0,2:0:0:0:
80,128,267857,2,0,L|128:128,1,40.5,2|2,2:0|2:0,2:0:0:0:
256,32,267965,5,4,3:0:0:0:
286,86,268019,1,2,2:0:0:0:
259,141,268073,1,2,2:0:0:0:
199,150,268127,1,2,2:0:0:0:
336,256,268181,2,0,L|384:256,2,27,2|2|2,3:2|2:0|2:0,2:0:0:0:
240,208,268289,2,0,L|192:208,1,27,10|2,3:2|2:0,2:0:0:0:
320,144,268360,1,2,2:0:0:0:
416,80,268396,2,0,L|368:80,1,27,10|2,3:2|2:0,2:0:0:0:
256,32,268468,1,2,2:0:0:0:
128,32,268504,6,0,L|96:32,2,27,12|12|12,2:3|2:3|2:3,2:0:0:0:
256,208,268612,2,0,L|288:208,1,27,12|12,2:3|2:3,2:0:0:0:
176,176,268684,1,8,2:3:0:0:
80,128,268720,2,0,L|128:128,1,27,8|8,2:3|2:3,2:0:0:0:
256,32,268792,1,8,2:3:0:0:
386,28,268828,6,0,P|415:92|384:128,1,121.5,4|0,3:0|2:0,2:0:0:0:
224,288,269044,2,0,L|160:288,1,40.5,2|2,3:2|2:0,2:0:0:0:
352,240,269152,2,0,L|384:240,1,20.25,10|2,3:2|3:2,2:0:0:0:
270,96,269206,2,0,L|238:96,1,20.25,2|2,3:2|3:2,2:0:0:0:
160,240,269260,2,0,L|128:240,1,20.25,10|2,3:2|3:2,2:0:0:0:
249,96,269314,2,0,L|281:96,1,20.25,2|2,3:2|3:2,2:0:0:0:
368,192,269368,6,0,L|432:192,1,40.5,10|2,3:2|2:0,2:0:0:0:
257,143,269476,1,10,3:2:0:0:
98,112,269530,1,2,2:0:0:0:
256,208,269584,2,0,L|256:256,1,40.5,2|2,2:0|2:0,2:0:0:0:
96,64,269692,6,0,L|160:64,1,40.5,4|2,3:0|2:0,2:0:0:0:
336,48,269800,1,2,2:0:0:0:
384,48,269854,1,2,2:0:0:0:
384,112,269908,1,2,2:0:0:0:
352,112,269944,1,2,2:0:0:0:
320,112,269980,1,2,2:0:0:0:
128,304,270016,6,0,L|96:304,1,20.25,10|2,3:2|3:2,2:0:0:0:
208,352,270070,2,0,L|240:352,1,20.25,2|2,3:2|3:2,2:0:0:0:
336,272,270124,2,0,L|368:272,1,20.25,10|2,3:2|3:2,2:0:0:0:
256,272,270178,2,0,L|224:272,1,20.25,2|2,3:2|3:2,2:0:0:0:
112,256,270232,6,0,L|64:256,1,27,10|2,3:2|2:0,2:0:0:0:
192,192,270304,1,2,2:0:0:0:
336,192,270340,2,0,L|384:192,1,27,10|2,3:2|2:0,2:0:0:0:
256,128,270412,1,2,2:0:0:0:
160,32,270448,2,0,L|112:32,2,27,2|2|2,2:0|2:0|2:0,2:0:0:0:
336,64,270556,6,0,L|160:64,1,162,4|0,3:0|2:0,2:0:0:0:
128,64,270826,1,2,2:0:0:0:
352,336,270880,2,0,L|384:336,1,20.25,10|0,3:2|3:0,2:0:0:0:
464,208,270934,2,0,L|432:208,1,20.25,0|0,3:0|3:0,2:0:0:0:
352,256,270988,2,0,L|320:256,1,20.25,10|0,3:2|3:0,2:0:0:0:
240,208,271042,2,0,L|272:208,1,20.25,0|0,3:0|3:0,2:0:0:0:
352,144,271096,5,10,3:2:0:0:
384,144,271132,1,0,2:0:0:0:
416,144,271168,1,0,2:0:0:0:
256,80,271204,2,0,L|208:80,2,27,10|0|0,3:2|2:0|2:0,2:0:0:0:
416,144,271312,1,2,2:0:0:0:
384,144,271348,1,2,2:0:0:0:
352,144,271384,1,2,2:0:0:0:
176,256,271420,6,0,L|384:256,1,202.5,4|2,3:0|2:0,2:0:0:0:
176,128,271743,2,0,L|144:128,1,20.25,10|0,3:2|3:2,2:0:0:0:
64,192,271797,2,0,L|96:192,1,20.25,0|0,3:2|3:2,2:0:0:0:
176,192,271851,2,0,L|208:192,1,20.25,10|0,3:2|3:2,2:0:0:0:
288,192,271905,2,0,L|256:192,1,20.25,8|8,3:0|3:0,2:0:0:0:
176,320,271959,5,8,2:3:0:0:
144,320,271995,1,8,2:3:0:0:
112,320,272031,1,8,2:3:0:0:
256,64,272067,2,0,L|299:64,1,40.5,12|12,2:3|2:3,2:0:0:0:
144,32,272175,2,0,L|192:32,1,40.5,12|12,2:3|2:3,2:0:0:0:
448,304,272283,6,0,P|496:240|432:192,1,162,4|2,3:0|2:0,2:0:0:0:
384,192,272553,1,2,2:0:0:0:
240,160,272607,2,0,L|208:160,1,20.25,10|0,3:2|3:0,2:0:0:0:
112,192,272661,2,0,L|80:192,1,20.25,0|0,3:0|3:0,2:0:0:0:
208,96,272715,2,0,L|240:96,1,20.25,10|0,3:2|3:0,2:0:0:0:
320,224,272769,2,0,L|352:224,1,20.25,0|0,3:0|3:0,2:0:0:0:
256,240,272823,5,10,3:2:0:0:
144,240,272877,1,0,3:0:0:0:
256,48,272931,2,0,L|208:48,1,40.5,10|0,3:2|3:0,2:0:0:0:
336,304,273039,2,0,L|384:304,1,40.5,10|0,3:2|3:0,2:0:0:0:
206,368,273147,6,0,P|142:303|211:244,1,202.5,4|2,3:0|2:0,2:0:0:0:
480,128,273471,2,0,L|448:128,1,20.25,10|0,3:2|3:2,2:0:0:0:
368,64,273525,2,0,L|336:64,1,20.25,0|0,3:2|3:2,2:0:0:0:
240,128,273579,2,0,L|272:128,1,20.25,10|0,3:2|3:2,2:0:0:0:
352,160,273633,2,0,L|384:160,1,20.25,0|0,3:2|3:2,2:0:0:0:
256,208,273687,5,10,3:2:0:0:
144,160,273741,1,0,3:2:0:0:
256,320,273795,2,0,L|304:320,1,27,10|0,3:2|3:2,2:0:0:0:
176,272,273867,1,0,3:2:0:0:
48,320,273903,2,0,L|96:320,1,27,10|0,3:2|3:2,2:0:0:0:
176,272,273975,1,0,3:2:0:0:
352,336,274011,6,0,P|388:273|336:224,1,141.75,4|0,3:0|2:0,2:0:0:0:
256,192,274227,5,0,1:0:0:0:
160,160,274240,1,0,1:0:0:0:
141,156,274254,1,0,1:0:0:0:
128,144,274267,1,0,1:0:0:0:
123,126,274281,1,0,1:0:0:0:
129,109,274294,1,0,1:0:0:0:
144,98,274308,1,0,1:0:0:0:
162,96,274321,1,0,1:0:0:0:
256,192,274335,5,0,1:0:0:0:
352,160,274348,1,0,1:0:0:0:
370,156,274362,1,0,1:0:0:0:
383,144,274375,1,0,1:0:0:0:
388,126,274389,1,0,1:0:0:0:
382,109,274402,1,0,1:0:0:0:
367,98,274416,1,0,1:0:0:0:
256,64,274429,1,0,1:0:0:0:
128,304,274443,6,0,P|89:239|128:224,1,141.75,4|0,3:0|2:0,2:0:0:0:
256,192,274659,5,0,1:0:0:0:
352,160,274672,1,0,1:0:0:0:
370,156,274686,1,0,1:0:0:0:
383,144,274699,1,0,1:0:0:0:
388,126,274713,1,0,1:0:0:0:
382,109,274726,1,0,1:0:0:0:
367,98,274740,1,0,1:0:0:0:
349,96,274753,1,0,1:0:0:0:
256,192,274767,5,0,1:0:0:0:
160,160,274780,1,0,1:0:0:0:
141,156,274794,1,0,1:0:0:0:
128,144,274807,1,0,1:0:0:0:
123,126,274821,1,0,1:0:0:0:
129,109,274834,1,0,1:0:0:0:
144,98,274848,1,0,1:0:0:0:
256,64,274861,1,0,1:0:0:0:
385,300,274875,6,0,P|426:237|385:206,1,141.75,4|0,3:0|2:0,2:0:0:0:
256,192,275090,5,0,1:0:0:0:
160,160,275104,1,0,1:0:0:0:
141,156,275117,1,0,1:0:0:0:
128,144,275131,1,0,1:0:0:0:
123,126,275144,1,0,1:0:0:0:
129,109,275158,1,0,1:0:0:0:
144,98,275171,1,0,1:0:0:0:
162,96,275185,1,0,1:0:0:0:
256,192,275198,5,0,1:0:0:0:
352,160,275212,1,0,1:0:0:0:
370,156,275225,1,0,1:0:0:0:
383,144,275239,1,0,1:0:0:0:
388,126,275252,1,0,1:0:0:0:
382,109,275266,1,0,1:0:0:0:
367,98,275279,1,0,1:0:0:0:
256,64,275293,1,0,1:0:0:0:
128,352,275306,6,0,L|96:352,2,27,0|0|0,3:0|3:0|3:0,2:0:0:0:
384,352,275414,2,0,L|416:352,2,27,0|0|0,3:0|3:0|3:0,2:0:0:0:
128,224,275522,6,0,L|96:224,1,27,0|0,3:0|3:0,2:0:0:0:
256,208,275594,1,0,3:0:0:0:
411,205,275630,2,0,L|385:205,1,27,0|0,3:0|3:0,2:0:0:0:
256,208,275702,1,0,3:0:0:0:
128,224,275738,2,0,L|112:272,1,40.5,2|2,3:2|3:2,2:0:0:0:
256,240,275846,6,0,L|256:304,1,54,2|2,2:0|2:0,2:0:0:0:
384,224,275954,2,0,L|400:288,1,54,2|2,2:0|2:0,2:0:0:0:
256,240,276062,2,0,L|256:304,1,54,2|2,2:0|2:0,2:0:0:0:
384,224,276170,2,0,L|400:288,1,54,2|2,2:0|2:0,2:0:0:0:
256,48,276278,6,0,L|256:112,1,54,2|2,2:0|2:0,2:0:0:0:
128,224,276386,2,0,L|112:288,1,54,2|2,2:0|2:0,2:0:0:0:
256,240,276494,2,0,L|256:304,1,54,2|2,2:0|2:0,2:0:0:0:
128,224,276602,2,0,L|112:288,1,54,2|2,2:0|2:0,2:0:0:0:
256,144,276710,6,0,L|288:144,1,27,2|2,2:0|2:0,2:0:0:0:
320,160,276782,2,0,L|282:160,1,27,2|2,2:0|2:0,2:0:0:0:
256,176,276854,2,0,L|288:176,1,27,2|2,2:0|2:0,2:0:0:0:
432,112,276926,6,0,L|464:112,1,27,2|2,2:0|2:0,2:0:0:0:
432,144,276998,2,0,L|400:144,1,27,2|2,2:0|2:0,2:0:0:0:
432,176,277070,2,0,L|464:176,1,27,2|2,2:0|2:0,2:0:0:0:
256,352,277142,6,0,L|224:352,1,27,2|2,2:0|2:0,2:0:0:0:
256,320,277214,2,0,L|288:320,1,27,2|2,2:0|2:0,2:0:0:0:
256,288,277286,2,0,L|224:288,1,27,2|2,2:0|2:0,2:0:0:0:
48,128,277358,6,0,L|80:128,1,27,2|2,2:0|2:0,2:0:0:0:
112,160,277430,2,0,L|80:160,1,27,2|2,2:0|2:0,2:0:0:0:
48,192,277502,2,0,L|80:192,1,27,2|2,2:0|2:0,2:0:0:0:
256,32,277574,6,0,L|288:32,1,27,2|2,2:0|2:0,2:0:0:0:
256,64,277646,2,0,L|224:64,1,27,2|2,2:0|2:0,2:0:0:0:
336,112,277718,2,0,L|368:112,1,27,2|2,2:0|2:0,2:0:0:0:
256,224,277790,6,0,L|224:224,1,27,4|4,2:3|2:3,2:0:0:0:
256,192,277862,2,0,L|288:192,1,27,4|4,2:3|2:3,2:0:0:0:
176,272,277934,2,0,L|144:272,1,27,4|4,2:3|2:3,2:0:0:0:
336,272,278006,6,0,L|368:272,1,27,4|4,2:3|2:3,2:0:0:0:
256,160,278078,2,0,L|224:160,1,27,4|4,2:3|2:3,2:0:0:0:
384,208,278150,2,0,L|416:208,1,27,4|4,2:3|2:3,2:0:0:0:
176,208,278222,6,0,L|144:208,1,27,12|12,2:3|2:3,2:0:0:0:
256,336,278294,2,0,L|288:336,1,27,12|12,2:3|2:3,2:0:0:0:
128,272,278366,2,0,L|64:272,1,54,12|12,2:3|2:3,2:0:0:0:
400,80,278545,6,0,L|480:128,1,81,6|0,3:2|2:0,2:0:0:0:
256,32,278689,2,0,L|336:80,1,81,6|0,3:2|2:0,2:0:0:0:
112,80,278833,6,0,L|16:128,1,81,6|0,3:2|2:0,2:0:0:0:
256,32,278977,2,0,L|160:80,1,81,6|0,3:2|2:0,2:0:0:0:
400,320,279121,2,6,P|504:243|408:157,1,297,6|4,2:0|2:0,2:0:0:0:
256,192,279544,1,2,2:0:0:0:
112,320,279571,1,2,2:0:0:0:
256,192,279679,12,0,282756,2:0:0:0:
