osu file format v14

[General]
AudioFilename: Encore.mp3
AudioLeadIn: 0
PreviewTime: 30182
Countdown: 0
SampleSet: Normal
StackLeniency: 0.7
Mode: 3
LetterboxInBreaks: 0
SpecialStyle: 0
WidescreenStoryboard: 1

[Editor]
Bookmarks: 31415,44565,57716,98811,111962,125112,138263,149770,179153,207304,220455,233606
DistanceSpacing: 1
BeatDivisor: 4
GridSize: 32
TimelineZoom: 2.999999

[Metadata]
Title:Damned's LN KPOP Pack #1
TitleUnicode:Damned's LN KPOP Pack #1
Artist:Various Artists
ArtistUnicode:Various Artists
Creator:Damned
Version:Stage 9 JYP Nation - Encore (4K Ver.)
Source:
Tags:
BeatmapID:3398768
BeatmapSetID:1587521

[Difficulty]
HPDrainRate:8
CircleSize:4
OverallDifficulty:1
ApproachRate:5
SliderMultiplier:1.4
SliderTickRate:1

[Events]
//Background and Video events
0,0,"jypne.jpg",0,0
//Break Periods
//Storyboard Layer 0 (Background)
//Storyboard Layer 1 (Fail)
//Storyboard Layer 2 (Pass)
//Storyboard Layer 3 (Foreground)
//Storyboard Layer 4 (Overlay)
//Storyboard Sound Samples

[TimingPoints]
3470,410.958904109589,4,1,0,0,1,0
84634,410.958904109589,4,1,0,0,1,0
93880,410.958904109589,4,1,0,0,1,0
165180,410.958904109589,4,1,0,0,1,0
174427,410.958904109589,4,1,0,0,1,0

[HitObjects]
320,192,3264,5,0,0:0:0:0:
192,192,3470,128,0,4291:0:0:0:0:
320,192,4497,1,0,0:0:0:0:
64,192,4702,1,0,0:0:0:0:
448,192,4908,1,0,0:0:0:0:
192,192,5113,1,0,0:0:0:0:
448,192,5319,1,0,0:0:0:0:
64,192,5524,1,0,0:0:0:0:
320,192,5730,1,0,0:0:0:0:
192,192,5935,128,0,6141:0:0:0:0:
64,192,6346,1,0,0:0:0:0:
448,192,6552,128,0,7168:0:0:0:0:
192,192,6757,128,0,7579:0:0:0:0:
320,192,7785,1,0,0:0:0:0:
64,192,7990,1,0,0:0:0:0:
192,192,8196,1,0,0:0:0:0:
192,192,8401,1,0,0:0:0:0:
448,192,8401,128,0,8812:0:0:0:0:
64,192,8812,128,0,9223:0:0:0:0:
320,192,9223,128,0,9634:0:0:0:0:
192,192,9634,128,0,10045:0:0:0:0:
64,192,9839,128,0,10456:0:0:0:0:
448,192,10045,128,0,11278:0:0:0:0:
192,192,10250,128,0,10764:0:0:0:0:
320,192,10456,128,0,11278:0:0:0:0:
64,192,11278,128,0,11483:0:0:0:0:
192,192,11483,128,0,11689:0:0:0:0:
320,192,11689,128,0,12100:0:0:0:0:
192,192,12100,128,0,12511:0:0:0:0:
64,192,12511,128,0,12922:0:0:0:0:
448,192,12922,128,0,13333:0:0:0:0:
192,192,13333,128,0,14154:0:0:0:0:
64,192,13333,128,0,14976:0:0:0:0:
448,192,14154,128,0,14565:0:0:0:0:
320,192,14565,128,0,14976:0:0:0:0:
448,192,14976,128,0,15593:0:0:0:0:
192,192,14976,128,0,16620:0:0:0:0:
64,192,15798,128,0,16517:0:0:0:0:
320,192,16415,128,0,16620:0:0:0:0:
448,192,16620,128,0,17442:0:0:0:0:
64,192,16620,128,0,18264:0:0:0:0:
448,192,17853,1,0,0:0:0:0:
320,192,18059,1,0,0:0:0:0:
192,192,18264,128,0,18469:0:0:0:0:
320,192,18675,1,0,0:0:0:0:
320,192,18880,128,0,19086:0:0:0:0:
448,192,19086,128,0,19497:0:0:0:0:
64,192,19497,128,0,19702:0:0:0:0:
448,192,19805,128,0,19908:0:0:0:0:
64,192,19908,128,0,20833:0:0:0:0:
192,192,19908,128,0,21552:0:0:0:0:
320,192,21141,128,0,21346:0:0:0:0:
448,192,21346,128,0,21552:0:0:0:0:
64,192,21552,128,0,21757:0:0:0:0:
320,192,21757,128,0,21963:0:0:0:0:
192,192,21963,128,0,22168:0:0:0:0:
448,192,22168,128,0,22374:0:0:0:0:
64,192,22374,128,0,22785:0:0:0:0:
320,192,22785,128,0,22990:0:0:0:0:
64,192,22990,128,0,23504:0:0:0:0:
320,192,23196,128,0,24839:0:0:0:0:
448,192,23196,128,0,24737:0:0:0:0:
192,192,23401,128,0,23606:0:0:0:0:
64,192,23606,128,0,24223:0:0:0:0:
192,192,24428,128,0,24634:0:0:0:0:
64,192,24634,128,0,24839:0:0:0:0:
448,192,24839,128,0,25250:0:0:0:0:
320,192,25250,128,0,25661:0:0:0:0:
192,192,25661,128,0,26072:0:0:0:0:
64,192,26072,128,0,26483:0:0:0:0:
448,192,26483,128,0,28127:0:0:0:0:
320,192,26483,128,0,27100:0:0:0:0:
192,192,27305,128,0,27716:0:0:0:0:
320,192,27716,128,0,28127:0:0:0:0:
64,192,28127,128,0,28743:0:0:0:0:
192,192,28127,128,0,29771:0:0:0:0:
448,192,28743,128,0,29771:0:0:0:0:
64,192,31415,128,0,31723:0:0:0:0:
192,192,31449,128,0,31552:0:0:0:0:
320,192,31483,128,0,31586:0:0:0:0:
448,192,31517,128,0,31620:0:0:0:0:
192,192,31620,128,0,31774:0:0:0:0:
320,192,31723,128,0,31774:0:0:0:0:
448,192,31826,128,0,31928:0:0:0:0:
320,192,31860,128,0,31963:0:0:0:0:
192,192,31894,128,0,31997:0:0:0:0:
64,192,31928,128,0,32134:0:0:0:0:
320,192,32031,128,0,32134:0:0:0:0:
448,192,32031,128,0,32134:0:0:0:0:
192,192,32134,128,0,32185:0:0:0:0:
448,192,32237,128,0,32545:0:0:0:0:
320,192,32271,128,0,32374:0:0:0:0:
64,192,32305,128,0,32408:0:0:0:0:
192,192,32339,128,0,32442:0:0:0:0:
320,192,32442,128,0,32596:0:0:0:0:
64,192,32442,128,0,32545:0:0:0:0:
192,192,32545,128,0,32596:0:0:0:0:
64,192,32648,128,0,32904:0:0:0:0:
192,192,32682,128,0,32785:0:0:0:0:
448,192,32716,128,0,32819:0:0:0:0:
320,192,32750,128,0,32853:0:0:0:0:
192,192,32853,128,0,33007:0:0:0:0:
448,192,32853,128,0,32956:0:0:0:0:
320,192,32956,128,0,33007:0:0:0:0:
64,192,32956,128,0,33007:0:0:0:0:
448,192,33059,128,0,33161:0:0:0:0:
320,192,33093,128,0,33196:0:0:0:0:
192,192,33127,128,0,33230:0:0:0:0:
64,192,33161,128,0,33264:0:0:0:0:
448,192,33264,128,0,33367:0:0:0:0:
320,192,33264,128,0,33418:0:0:0:0:
192,192,33264,128,0,33367:0:0:0:0:
64,192,33367,128,0,33418:0:0:0:0:
192,192,33470,128,0,33778:0:0:0:0:
320,192,33504,128,0,33606:0:0:0:0:
448,192,33538,128,0,33641:0:0:0:0:
64,192,33572,128,0,33675:0:0:0:0:
320,192,33675,128,0,33778:0:0:0:0:
448,192,33675,128,0,33829:0:0:0:0:
64,192,33778,128,0,33829:0:0:0:0:
192,192,33880,128,0,34189:0:0:0:0:
320,192,33915,128,0,34017:0:0:0:0:
64,192,33949,128,0,34052:0:0:0:0:
448,192,33983,128,0,34086:0:0:0:0:
320,192,34086,128,0,34189:0:0:0:0:
448,192,34189,128,0,34240:0:0:0:0:
64,192,34189,128,0,34240:0:0:0:0:
448,192,34291,128,0,34497:0:0:0:0:
320,192,34326,128,0,34428:0:0:0:0:
192,192,34360,128,0,34463:0:0:0:0:
64,192,34394,128,0,34497:0:0:0:0:
320,192,34497,128,0,34651:0:0:0:0:
192,192,34497,128,0,34600:0:0:0:0:
448,192,34600,128,0,34651:0:0:0:0:
64,192,34600,128,0,34651:0:0:0:0:
64,192,34702,128,0,34908:0:0:0:0:
192,192,34737,128,0,34839:0:0:0:0:
320,192,34771,128,0,34874:0:0:0:0:
448,192,34805,128,0,34908:0:0:0:0:
192,192,34908,128,0,35062:0:0:0:0:
320,192,34908,128,0,35011:0:0:0:0:
64,192,35011,128,0,35062:0:0:0:0:
448,192,35011,128,0,35062:0:0:0:0:
320,192,35113,128,0,35370:0:0:0:0:
448,192,35148,128,0,35250:0:0:0:0:
64,192,35182,128,0,35285:0:0:0:0:
192,192,35216,128,0,35319:0:0:0:0:
64,192,35319,128,0,35422:0:0:0:0:
448,192,35319,128,0,35473:0:0:0:0:
192,192,35422,128,0,35473:0:0:0:0:
320,192,35422,128,0,35473:0:0:0:0:
64,192,35524,128,0,35833:0:0:0:0:
192,192,35559,128,0,35661:0:0:0:0:
448,192,35593,128,0,35696:0:0:0:0:
320,192,35627,128,0,35730:0:0:0:0:
448,192,35730,128,0,35833:0:0:0:0:
192,192,35730,128,0,35884:0:0:0:0:
320,192,35833,128,0,35884:0:0:0:0:
448,192,35935,128,0,36243:0:0:0:0:
320,192,35935,128,0,36004:0:0:0:0:
192,192,35970,128,0,36072:0:0:0:0:
64,192,36004,128,0,36106:0:0:0:0:
320,192,36038,128,0,36141:0:0:0:0:
192,192,36141,128,0,36243:0:0:0:0:
64,192,36243,128,0,36295:0:0:0:0:
320,192,36243,128,0,36295:0:0:0:0:
64,192,36346,128,0,36654:0:0:0:0:
320,192,36346,128,0,36415:0:0:0:0:
192,192,36380,128,0,36483:0:0:0:0:
448,192,36415,128,0,36517:0:0:0:0:
320,192,36449,128,0,36552:0:0:0:0:
192,192,36552,128,0,36706:0:0:0:0:
448,192,36552,128,0,36706:0:0:0:0:
320,192,36654,128,0,36706:0:0:0:0:
64,192,36757,128,0,36860:0:0:0:0:
192,192,36791,128,0,36894:0:0:0:0:
320,192,36826,128,0,36928:0:0:0:0:
448,192,36860,128,0,36963:0:0:0:0:
64,192,36963,128,0,37065:0:0:0:0:
192,192,36997,128,0,37100:0:0:0:0:
448,192,37031,128,0,37134:0:0:0:0:
320,192,37065,128,0,37168:0:0:0:0:
192,192,37168,128,0,37271:0:0:0:0:
64,192,37202,128,0,37305:0:0:0:0:
320,192,37237,128,0,37339:0:0:0:0:
448,192,37271,128,0,37374:0:0:0:0:
64,192,37374,128,0,37476:0:0:0:0:
192,192,37408,128,0,37511:0:0:0:0:
320,192,37442,128,0,37545:0:0:0:0:
448,192,37476,128,0,37579:0:0:0:0:
192,192,37579,128,0,37682:0:0:0:0:
64,192,37613,128,0,37716:0:0:0:0:
448,192,37682,128,0,37785:0:0:0:0:
320,192,37716,128,0,37819:0:0:0:0:
192,192,37785,128,0,37887:0:0:0:0:
64,192,37819,128,0,37922:0:0:0:0:
448,192,37853,128,0,37956:0:0:0:0:
320,192,37887,128,0,37990:0:0:0:0:
192,192,37922,128,0,38024:0:0:0:0:
64,192,37956,128,0,38059:0:0:0:0:
448,192,37990,128,0,38247:0:0:0:0:
320,192,38024,128,0,38127:0:0:0:0:
192,192,38059,128,0,38161:0:0:0:0:
64,192,38093,128,0,38298:0:0:0:0:
320,192,38196,128,0,38298:0:0:0:0:
192,192,38298,128,0,38350:0:0:0:0:
448,192,38298,128,0,38350:0:0:0:0:
448,192,38401,128,0,38504:0:0:0:0:
320,192,38435,128,0,38538:0:0:0:0:
192,192,38470,128,0,38572:0:0:0:0:
64,192,38504,128,0,38709:0:0:0:0:
320,192,38606,128,0,38709:0:0:0:0:
448,192,38606,128,0,38709:0:0:0:0:
192,192,38709,128,0,38761:0:0:0:0:
448,192,38812,128,0,39120:0:0:0:0:
320,192,38846,128,0,38949:0:0:0:0:
64,192,38880,128,0,38983:0:0:0:0:
192,192,38915,128,0,39017:0:0:0:0:
320,192,39017,128,0,39172:0:0:0:0:
64,192,39017,128,0,39120:0:0:0:0:
192,192,39120,128,0,39172:0:0:0:0:
64,192,39223,128,0,39480:0:0:0:0:
192,192,39257,128,0,39360:0:0:0:0:
448,192,39291,128,0,39394:0:0:0:0:
320,192,39326,128,0,39428:0:0:0:0:
192,192,39428,128,0,39583:0:0:0:0:
448,192,39428,128,0,39531:0:0:0:0:
320,192,39531,128,0,39583:0:0:0:0:
64,192,39531,128,0,39583:0:0:0:0:
448,192,39634,128,0,39737:0:0:0:0:
320,192,39668,128,0,39771:0:0:0:0:
192,192,39702,128,0,39805:0:0:0:0:
64,192,39737,128,0,39839:0:0:0:0:
448,192,39839,128,0,39942:0:0:0:0:
320,192,39839,128,0,39993:0:0:0:0:
192,192,39839,128,0,39942:0:0:0:0:
64,192,39942,128,0,39993:0:0:0:0:
192,192,40045,128,0,40353:0:0:0:0:
320,192,40079,128,0,40182:0:0:0:0:
448,192,40113,128,0,40216:0:0:0:0:
64,192,40148,128,0,40250:0:0:0:0:
320,192,40250,128,0,40353:0:0:0:0:
448,192,40250,128,0,40404:0:0:0:0:
64,192,40353,128,0,40404:0:0:0:0:
192,192,40456,128,0,40764:0:0:0:0:
320,192,40490,128,0,40593:0:0:0:0:
64,192,40524,128,0,40627:0:0:0:0:
448,192,40559,128,0,40661:0:0:0:0:
320,192,40661,128,0,40764:0:0:0:0:
448,192,40764,128,0,40815:0:0:0:0:
64,192,40764,128,0,40815:0:0:0:0:
448,192,40867,128,0,41072:0:0:0:0:
320,192,40901,128,0,41004:0:0:0:0:
192,192,40935,128,0,41038:0:0:0:0:
64,192,40970,128,0,41072:0:0:0:0:
320,192,41072,128,0,41226:0:0:0:0:
192,192,41072,128,0,41175:0:0:0:0:
448,192,41175,128,0,41226:0:0:0:0:
64,192,41175,128,0,41226:0:0:0:0:
64,192,41278,128,0,41483:0:0:0:0:
192,192,41312,128,0,41415:0:0:0:0:
320,192,41346,128,0,41449:0:0:0:0:
448,192,41380,128,0,41483:0:0:0:0:
192,192,41483,128,0,41637:0:0:0:0:
320,192,41483,128,0,41586:0:0:0:0:
64,192,41586,128,0,41637:0:0:0:0:
448,192,41586,128,0,41637:0:0:0:0:
320,192,41689,128,0,41946:0:0:0:0:
448,192,41723,128,0,41826:0:0:0:0:
64,192,41757,128,0,41860:0:0:0:0:
192,192,41791,128,0,41894:0:0:0:0:
64,192,41894,128,0,41997:0:0:0:0:
448,192,41894,128,0,42048:0:0:0:0:
192,192,41997,128,0,42048:0:0:0:0:
320,192,41997,128,0,42048:0:0:0:0:
64,192,42100,128,0,42408:0:0:0:0:
192,192,42134,128,0,42237:0:0:0:0:
448,192,42168,128,0,42271:0:0:0:0:
320,192,42202,128,0,42305:0:0:0:0:
448,192,42305,128,0,42408:0:0:0:0:
192,192,42305,128,0,42459:0:0:0:0:
320,192,42408,128,0,42459:0:0:0:0:
448,192,42511,128,0,42819:0:0:0:0:
320,192,42511,128,0,42579:0:0:0:0:
192,192,42545,128,0,42648:0:0:0:0:
64,192,42579,128,0,42682:0:0:0:0:
320,192,42613,128,0,42716:0:0:0:0:
192,192,42716,128,0,42819:0:0:0:0:
64,192,42819,128,0,42870:0:0:0:0:
320,192,42819,128,0,42870:0:0:0:0:
64,192,42922,128,0,43230:0:0:0:0:
320,192,42922,128,0,42990:0:0:0:0:
192,192,42956,128,0,43059:0:0:0:0:
448,192,42990,128,0,43093:0:0:0:0:
320,192,43024,128,0,43127:0:0:0:0:
192,192,43127,128,0,43281:0:0:0:0:
448,192,43127,128,0,43281:0:0:0:0:
320,192,43230,128,0,43281:0:0:0:0:
448,192,43333,128,0,43435:0:0:0:0:
320,192,43367,128,0,43470:0:0:0:0:
192,192,43401,128,0,43504:0:0:0:0:
64,192,43435,128,0,43538:0:0:0:0:
448,192,43538,128,0,43641:0:0:0:0:
320,192,43572,128,0,43675:0:0:0:0:
64,192,43606,128,0,43709:0:0:0:0:
192,192,43641,128,0,43743:0:0:0:0:
320,192,43743,128,0,43846:0:0:0:0:
448,192,43778,128,0,43880:0:0:0:0:
192,192,43812,128,0,43915:0:0:0:0:
64,192,43846,128,0,43949:0:0:0:0:
448,192,43949,128,0,44052:0:0:0:0:
320,192,43983,128,0,44086:0:0:0:0:
192,192,44017,128,0,44120:0:0:0:0:
64,192,44052,128,0,44154:0:0:0:0:
320,192,44154,128,0,44257:0:0:0:0:
448,192,44189,128,0,44291:0:0:0:0:
64,192,44257,128,0,44360:0:0:0:0:
192,192,44291,128,0,44394:0:0:0:0:
320,192,44360,128,0,44463:0:0:0:0:
448,192,44394,128,0,44497:0:0:0:0:
64,192,44428,128,0,44531:0:0:0:0:
192,192,44463,128,0,44565:0:0:0:0:
320,192,44497,128,0,44600:0:0:0:0:
448,192,44531,128,0,44634:0:0:0:0:
64,192,44565,128,0,44822:0:0:0:0:
192,192,44668,128,0,44874:0:0:0:0:
320,192,44771,128,0,44976:0:0:0:0:
64,192,44874,128,0,45079:0:0:0:0:
448,192,44874,128,0,45079:0:0:0:0:
192,192,44976,128,0,45285:0:0:0:0:
320,192,45079,128,0,45182:0:0:0:0:
448,192,45182,128,0,45285:0:0:0:0:
64,192,45182,128,0,45387:0:0:0:0:
320,192,45285,128,0,45490:0:0:0:0:
448,192,45387,128,0,45593:0:0:0:0:
192,192,45387,128,0,45490:0:0:0:0:
64,192,45490,128,0,45593:0:0:0:0:
192,192,45593,128,0,45798:0:0:0:0:
320,192,45593,128,0,45696:0:0:0:0:
64,192,45696,128,0,45798:0:0:0:0:
448,192,45696,128,0,45798:0:0:0:0:
320,192,45798,128,0,45901:0:0:0:0:
448,192,45850,128,0,45952:0:0:0:0:
192,192,45901,128,0,46004:0:0:0:0:
64,192,45901,128,0,46106:0:0:0:0:
320,192,45952,128,0,46055:0:0:0:0:
448,192,46004,128,0,46106:0:0:0:0:
320,192,46106,128,0,46209:0:0:0:0:
192,192,46158,128,0,46261:0:0:0:0:
64,192,46209,128,0,46312:0:0:0:0:
448,192,46209,128,0,46517:0:0:0:0:
320,192,46312,128,0,46415:0:0:0:0:
192,192,46415,128,0,46517:0:0:0:0:
64,192,46415,128,0,46517:0:0:0:0:
320,192,46517,128,0,46620:0:0:0:0:
448,192,46620,128,0,46723:0:0:0:0:
64,192,46620,128,0,46826:0:0:0:0:
192,192,46620,128,0,46723:0:0:0:0:
320,192,46723,128,0,46928:0:0:0:0:
448,192,46826,128,0,47031:0:0:0:0:
192,192,46826,128,0,47031:0:0:0:0:
64,192,46928,128,0,47134:0:0:0:0:
320,192,47031,128,0,47134:0:0:0:0:
192,192,47134,128,0,47339:0:0:0:0:
448,192,47134,128,0,47237:0:0:0:0:
64,192,47237,128,0,47339:0:0:0:0:
320,192,47237,128,0,47442:0:0:0:0:
448,192,47339,128,0,47442:0:0:0:0:
64,192,47442,128,0,47545:0:0:0:0:
192,192,47493,128,0,47596:0:0:0:0:
320,192,47545,128,0,47648:0:0:0:0:
64,192,47648,128,0,47750:0:0:0:0:
448,192,47648,128,0,47750:0:0:0:0:
320,192,47699,128,0,47802:0:0:0:0:
192,192,47750,128,0,47853:0:0:0:0:
64,192,47802,128,0,47904:0:0:0:0:
320,192,47853,128,0,47956:0:0:0:0:
448,192,47853,128,0,47956:0:0:0:0:
192,192,47956,128,0,48161:0:0:0:0:
64,192,48059,128,0,48161:0:0:0:0:
320,192,48110,128,0,48213:0:0:0:0:
448,192,48161,128,0,48367:0:0:0:0:
64,192,48264,128,0,48367:0:0:0:0:
192,192,48264,128,0,48470:0:0:0:0:
320,192,48367,128,0,48572:0:0:0:0:
448,192,48470,128,0,48572:0:0:0:0:
64,192,48521,128,0,48624:0:0:0:0:
192,192,48572,128,0,48675:0:0:0:0:
320,192,48624,128,0,48726:0:0:0:0:
448,192,48675,128,0,48778:0:0:0:0:
64,192,48675,128,0,48983:0:0:0:0:
192,192,48726,128,0,48829:0:0:0:0:
320,192,48778,128,0,48932:0:0:0:0:
448,192,48829,128,0,48880:0:0:0:0:
192,192,48880,128,0,49086:0:0:0:0:
448,192,48983,128,0,49189:0:0:0:0:
320,192,49086,128,0,49291:0:0:0:0:
64,192,49137,128,0,49240:0:0:0:0:
192,192,49189,128,0,49394:0:0:0:0:
64,192,49291,128,0,49702:0:0:0:0:
448,192,49291,128,0,49497:0:0:0:0:
320,192,49394,128,0,49497:0:0:0:0:
192,192,49497,128,0,49600:0:0:0:0:
320,192,49548,128,0,49651:0:0:0:0:
448,192,49600,128,0,49805:0:0:0:0:
192,192,49702,128,0,49908:0:0:0:0:
320,192,49702,128,0,49805:0:0:0:0:
64,192,49805,128,0,49908:0:0:0:0:
448,192,49908,128,0,50113:0:0:0:0:
320,192,49942,128,0,50045:0:0:0:0:
192,192,49976,128,0,50079:0:0:0:0:
64,192,50113,128,0,50182:0:0:0:0:
192,192,50148,128,0,50216:0:0:0:0:
448,192,50182,128,0,50250:0:0:0:0:
320,192,50216,128,0,50285:0:0:0:0:
192,192,50250,128,0,50319:0:0:0:0:
448,192,50319,128,0,50387:0:0:0:0:
320,192,50353,128,0,50422:0:0:0:0:
64,192,50387,128,0,50456:0:0:0:0:
192,192,50524,128,0,50593:0:0:0:0:
64,192,50559,128,0,50627:0:0:0:0:
448,192,50593,128,0,50661:0:0:0:0:
320,192,50730,128,0,50798:0:0:0:0:
192,192,50764,128,0,50833:0:0:0:0:
64,192,50798,128,0,50867:0:0:0:0:
448,192,50833,128,0,50901:0:0:0:0:
320,192,50867,128,0,50935:0:0:0:0:
192,192,50901,128,0,50970:0:0:0:0:
64,192,50935,128,0,51004:0:0:0:0:
448,192,50970,128,0,51038:0:0:0:0:
320,192,51004,128,0,51072:0:0:0:0:
192,192,51038,128,0,51106:0:0:0:0:
64,192,51072,128,0,51141:0:0:0:0:
448,192,51141,128,0,51346:0:0:0:0:
320,192,51141,128,0,51243:0:0:0:0:
192,192,51243,128,0,51449:0:0:0:0:
64,192,51243,128,0,51346:0:0:0:0:
320,192,51346,128,0,51552:0:0:0:0:
448,192,51449,128,0,51654:0:0:0:0:
64,192,51449,128,0,51654:0:0:0:0:
192,192,51552,128,0,51860:0:0:0:0:
320,192,51654,128,0,51757:0:0:0:0:
64,192,51757,128,0,51963:0:0:0:0:
448,192,51757,128,0,51860:0:0:0:0:
320,192,51860,128,0,52065:0:0:0:0:
192,192,51963,128,0,52065:0:0:0:0:
448,192,51963,128,0,52168:0:0:0:0:
64,192,52065,128,0,52168:0:0:0:0:
320,192,52168,128,0,52271:0:0:0:0:
192,192,52168,128,0,52374:0:0:0:0:
448,192,52271,128,0,52374:0:0:0:0:
64,192,52271,128,0,52374:0:0:0:0:
320,192,52374,128,0,52476:0:0:0:0:
448,192,52425,128,0,52528:0:0:0:0:
64,192,52476,128,0,52682:0:0:0:0:
192,192,52476,128,0,52579:0:0:0:0:
320,192,52528,128,0,52630:0:0:0:0:
448,192,52579,128,0,52682:0:0:0:0:
320,192,52682,128,0,52785:0:0:0:0:
192,192,52733,128,0,52836:0:0:0:0:
448,192,52785,128,0,53093:0:0:0:0:
64,192,52785,128,0,52887:0:0:0:0:
320,192,52887,128,0,52990:0:0:0:0:
64,192,52990,128,0,53093:0:0:0:0:
192,192,52990,128,0,53093:0:0:0:0:
320,192,53093,128,0,53196:0:0:0:0:
192,192,53196,128,0,53298:0:0:0:0:
64,192,53196,128,0,53401:0:0:0:0:
448,192,53196,128,0,53298:0:0:0:0:
320,192,53298,128,0,53504:0:0:0:0:
192,192,53401,128,0,53606:0:0:0:0:
448,192,53401,128,0,53606:0:0:0:0:
64,192,53504,128,0,53709:0:0:0:0:
320,192,53606,128,0,53709:0:0:0:0:
448,192,53709,128,0,53812:0:0:0:0:
192,192,53709,128,0,53915:0:0:0:0:
320,192,53812,128,0,54017:0:0:0:0:
64,192,53812,128,0,53915:0:0:0:0:
448,192,53915,128,0,54017:0:0:0:0:
64,192,54017,128,0,54120:0:0:0:0:
192,192,54069,128,0,54172:0:0:0:0:
320,192,54120,128,0,54223:0:0:0:0:
448,192,54223,128,0,54326:0:0:0:0:
64,192,54223,128,0,54326:0:0:0:0:
320,192,54274,128,0,54377:0:0:0:0:
192,192,54326,128,0,54428:0:0:0:0:
64,192,54377,128,0,54480:0:0:0:0:
448,192,54428,128,0,54531:0:0:0:0:
320,192,54428,128,0,54531:0:0:0:0:
192,192,54531,128,0,54737:0:0:0:0:
64,192,54634,128,0,54737:0:0:0:0:
320,192,54685,128,0,54788:0:0:0:0:
448,192,54737,128,0,54942:0:0:0:0:
192,192,54839,128,0,55045:0:0:0:0:
64,192,54839,128,0,54942:0:0:0:0:
320,192,54942,128,0,55148:0:0:0:0:
448,192,55045,128,0,55148:0:0:0:0:
64,192,55096,128,0,55199:0:0:0:0:
192,192,55148,128,0,55250:0:0:0:0:
320,192,55199,128,0,55302:0:0:0:0:
64,192,55250,128,0,55559:0:0:0:0:
448,192,55250,128,0,55353:0:0:0:0:
192,192,55302,128,0,55404:0:0:0:0:
320,192,55353,128,0,55507:0:0:0:0:
448,192,55404,128,0,55456:0:0:0:0:
192,192,55456,128,0,55661:0:0:0:0:
448,192,55559,128,0,55764:0:0:0:0:
320,192,55661,128,0,55867:0:0:0:0:
64,192,55713,128,0,55815:0:0:0:0:
192,192,55764,128,0,55970:0:0:0:0:
448,192,55867,128,0,56072:0:0:0:0:
64,192,55867,128,0,56278:0:0:0:0:
320,192,55970,128,0,56072:0:0:0:0:
192,192,56072,128,0,56175:0:0:0:0:
320,192,56124,128,0,56226:0:0:0:0:
448,192,56175,128,0,56380:0:0:0:0:
320,192,56278,128,0,56380:0:0:0:0:
192,192,56278,128,0,56483:0:0:0:0:
64,192,56380,128,0,56483:0:0:0:0:
448,192,56483,128,0,56586:0:0:0:0:
320,192,56517,128,0,56620:0:0:0:0:
192,192,56552,128,0,56654:0:0:0:0:
64,192,56586,128,0,56689:0:0:0:0:
448,192,56620,128,0,56723:0:0:0:0:
320,192,56654,128,0,56757:0:0:0:0:
192,192,56689,128,0,56826:0:0:0:0:
64,192,56723,128,0,56860:0:0:0:0:
448,192,56757,128,0,56894:0:0:0:0:
320,192,56791,128,0,56928:0:0:0:0:
192,192,56860,128,0,56997:0:0:0:0:
64,192,56894,128,0,56963:0:0:0:0:
448,192,56928,128,0,57065:0:0:0:0:
320,192,56963,128,0,57065:0:0:0:0:
64,192,57100,128,0,57202:0:0:0:0:
192,192,57134,128,0,57237:0:0:0:0:
320,192,57168,128,0,57408:0:0:0:0:
448,192,57202,128,0,57511:0:0:0:0:
64,192,57305,128,0,57408:0:0:0:0:
192,192,57305,128,0,57613:0:0:0:0:
64,192,57511,128,0,57716:0:0:0:0:
320,192,57511,128,0,57716:0:0:0:0:
448,192,57613,128,0,57716:0:0:0:0:
192,192,57716,1,0,0:0:0:0:
448,192,57819,1,0,0:0:0:0:
64,192,57922,1,0,0:0:0:0:
192,192,57922,1,0,0:0:0:0:
448,192,58024,1,0,0:0:0:0:
320,192,58127,1,0,0:0:0:0:
192,192,58127,1,0,0:0:0:0:
64,192,58127,1,0,0:0:0:0:
448,192,58230,1,0,0:0:0:0:
64,192,58333,1,0,0:0:0:0:
192,192,58333,1,0,0:0:0:0:
448,192,58435,1,0,0:0:0:0:
320,192,58538,1,0,0:0:0:0:
64,192,58538,1,0,0:0:0:0:
192,192,58641,1,0,0:0:0:0:
320,192,58743,1,0,0:0:0:0:
448,192,58743,1,0,0:0:0:0:
64,192,58846,1,0,0:0:0:0:
192,192,58949,1,0,0:0:0:0:
448,192,58949,1,0,0:0:0:0:
320,192,58949,1,0,0:0:0:0:
64,192,59052,1,0,0:0:0:0:
448,192,59154,1,0,0:0:0:0:
320,192,59154,1,0,0:0:0:0:
192,192,59257,1,0,0:0:0:0:
64,192,59360,1,0,0:0:0:0:
448,192,59360,1,0,0:0:0:0:
320,192,59360,1,0,0:0:0:0:
192,192,59463,1,0,0:0:0:0:
448,192,59565,1,0,0:0:0:0:
64,192,59565,1,0,0:0:0:0:
320,192,59668,1,0,0:0:0:0:
192,192,59771,1,0,0:0:0:0:
64,192,59771,1,0,0:0:0:0:
448,192,59874,1,0,0:0:0:0:
320,192,59874,1,0,0:0:0:0:
64,192,59976,1,0,0:0:0:0:
192,192,59976,1,0,0:0:0:0:
448,192,60079,1,0,0:0:0:0:
320,192,60182,1,0,0:0:0:0:
64,192,60182,1,0,0:0:0:0:
192,192,60182,1,0,0:0:0:0:
448,192,60285,1,0,0:0:0:0:
64,192,60387,1,0,0:0:0:0:
320,192,60387,1,0,0:0:0:0:
448,192,60490,1,0,0:0:0:0:
64,192,60593,1,0,0:0:0:0:
192,192,60593,1,0,0:0:0:0:
320,192,60696,1,0,0:0:0:0:
448,192,60798,1,0,0:0:0:0:
64,192,60798,1,0,0:0:0:0:
192,192,60798,1,0,0:0:0:0:
320,192,60901,1,0,0:0:0:0:
320,192,61004,1,0,0:0:0:0:
448,192,61004,1,0,0:0:0:0:
64,192,61004,1,0,0:0:0:0:
192,192,61106,1,0,0:0:0:0:
64,192,61209,1,0,0:0:0:0:
448,192,61209,1,0,0:0:0:0:
320,192,61312,1,0,0:0:0:0:
192,192,61415,1,0,0:0:0:0:
64,192,61415,1,0,0:0:0:0:
448,192,61517,1,0,0:0:0:0:
64,192,61620,1,0,0:0:0:0:
192,192,61620,1,0,0:0:0:0:
448,192,61723,1,0,0:0:0:0:
64,192,61826,1,0,0:0:0:0:
320,192,61826,1,0,0:0:0:0:
192,192,61826,1,0,0:0:0:0:
448,192,61928,1,0,0:0:0:0:
64,192,62031,1,0,0:0:0:0:
192,192,62031,1,0,0:0:0:0:
320,192,62031,1,0,0:0:0:0:
448,192,62134,1,0,0:0:0:0:
64,192,62237,1,0,0:0:0:0:
320,192,62237,1,0,0:0:0:0:
192,192,62339,1,0,0:0:0:0:
320,192,62442,1,0,0:0:0:0:
448,192,62442,1,0,0:0:0:0:
192,192,62545,1,0,0:0:0:0:
64,192,62545,1,0,0:0:0:0:
448,192,62648,1,0,0:0:0:0:
320,192,62648,1,0,0:0:0:0:
64,192,62750,1,0,0:0:0:0:
448,192,62853,1,0,0:0:0:0:
192,192,62853,1,0,0:0:0:0:
320,192,62956,1,0,0:0:0:0:
64,192,62956,1,0,0:0:0:0:
448,192,63059,1,0,0:0:0:0:
192,192,63161,1,0,0:0:0:0:
64,192,63161,1,0,0:0:0:0:
448,192,63264,1,0,0:0:0:0:
320,192,63264,1,0,0:0:0:0:
64,192,63367,1,0,0:0:0:0:
448,192,63470,1,0,0:0:0:0:
320,192,63470,1,0,0:0:0:0:
192,192,63470,1,0,0:0:0:0:
64,192,63572,1,0,0:0:0:0:
448,192,63675,1,0,0:0:0:0:
320,192,63675,1,0,0:0:0:0:
64,192,63778,1,0,0:0:0:0:
192,192,63778,1,0,0:0:0:0:
448,192,63880,1,0,0:0:0:0:
320,192,63880,1,0,0:0:0:0:
64,192,63983,1,0,0:0:0:0:
448,192,64086,1,0,0:0:0:0:
192,192,64086,1,0,0:0:0:0:
320,192,64189,1,0,0:0:0:0:
192,192,64291,1,0,0:0:0:0:
64,192,64291,1,0,0:0:0:0:
448,192,64291,1,0,0:0:0:0:
320,192,64394,1,0,0:0:0:0:
192,192,64497,1,0,0:0:0:0:
64,192,64497,1,0,0:0:0:0:
448,192,64600,1,0,0:0:0:0:
320,192,64702,1,0,0:0:0:0:
64,192,64702,1,0,0:0:0:0:
448,192,64805,1,0,0:0:0:0:
192,192,64908,1,0,0:0:0:0:
320,192,64908,1,0,0:0:0:0:
64,192,65011,1,0,0:0:0:0:
448,192,65113,1,0,0:0:0:0:
320,192,65113,1,0,0:0:0:0:
192,192,65113,1,0,0:0:0:0:
64,192,65216,1,0,0:0:0:0:
448,192,65319,1,0,0:0:0:0:
192,192,65319,1,0,0:0:0:0:
320,192,65422,1,0,0:0:0:0:
192,192,65524,1,0,0:0:0:0:
64,192,65524,1,0,0:0:0:0:
448,192,65627,1,0,0:0:0:0:
320,192,65730,1,0,0:0:0:0:
192,192,65730,1,0,0:0:0:0:
64,192,65833,1,0,0:0:0:0:
448,192,65935,1,0,0:0:0:0:
320,192,65935,1,0,0:0:0:0:
192,192,66038,1,0,0:0:0:0:
64,192,66141,1,0,0:0:0:0:
448,192,66141,1,0,0:0:0:0:
320,192,66243,1,0,0:0:0:0:
192,192,66243,1,0,0:0:0:0:
64,192,66346,1,0,0:0:0:0:
448,192,66346,1,0,0:0:0:0:
320,192,66449,1,0,0:0:0:0:
192,192,66552,1,0,0:0:0:0:
448,192,66552,1,0,0:0:0:0:
320,192,66654,1,0,0:0:0:0:
448,192,66757,1,0,0:0:0:0:
64,192,66757,1,0,0:0:0:0:
192,192,66860,1,0,0:0:0:0:
320,192,66963,1,0,0:0:0:0:
448,192,66963,1,0,0:0:0:0:
64,192,67065,1,0,0:0:0:0:
192,192,67168,1,0,0:0:0:0:
320,192,67168,1,0,0:0:0:0:
448,192,67271,1,0,0:0:0:0:
64,192,67374,1,0,0:0:0:0:
192,192,67374,1,0,0:0:0:0:
320,192,67476,1,0,0:0:0:0:
448,192,67579,1,0,0:0:0:0:
64,192,67579,1,0,0:0:0:0:
192,192,67579,1,0,0:0:0:0:
320,192,67682,1,0,0:0:0:0:
64,192,67785,1,0,0:0:0:0:
448,192,67785,1,0,0:0:0:0:
192,192,67887,1,0,0:0:0:0:
320,192,67990,1,0,0:0:0:0:
448,192,67990,1,0,0:0:0:0:
64,192,67990,1,0,0:0:0:0:
192,192,68093,1,0,0:0:0:0:
448,192,68196,1,0,0:0:0:0:
320,192,68196,1,0,0:0:0:0:
64,192,68298,1,0,0:0:0:0:
192,192,68401,1,0,0:0:0:0:
320,192,68401,1,0,0:0:0:0:
448,192,68401,1,0,0:0:0:0:
64,192,68504,1,0,0:0:0:0:
448,192,68606,1,0,0:0:0:0:
192,192,68606,1,0,0:0:0:0:
320,192,68709,1,0,0:0:0:0:
192,192,68812,1,0,0:0:0:0:
64,192,68812,1,0,0:0:0:0:
448,192,68812,1,0,0:0:0:0:
320,192,68915,1,0,0:0:0:0:
448,192,69017,1,0,0:0:0:0:
64,192,69017,1,0,0:0:0:0:
192,192,69120,1,0,0:0:0:0:
320,192,69223,1,0,0:0:0:0:
448,192,69223,1,0,0:0:0:0:
64,192,69223,1,0,0:0:0:0:
192,192,69326,1,0,0:0:0:0:
448,192,69428,1,0,0:0:0:0:
64,192,69428,1,0,0:0:0:0:
320,192,69531,1,0,0:0:0:0:
192,192,69634,1,0,0:0:0:0:
448,192,69634,1,0,0:0:0:0:
64,192,69737,1,0,0:0:0:0:
320,192,69839,1,0,0:0:0:0:
448,192,69839,1,0,0:0:0:0:
192,192,69942,1,0,0:0:0:0:
448,192,70045,1,0,0:0:0:0:
64,192,70045,1,0,0:0:0:0:
320,192,70045,1,0,0:0:0:0:
192,192,70148,1,0,0:0:0:0:
64,192,70250,1,0,0:0:0:0:
448,192,70250,1,0,0:0:0:0:
192,192,70353,1,0,0:0:0:0:
320,192,70456,1,0,0:0:0:0:
448,192,70456,1,0,0:0:0:0:
64,192,70456,1,0,0:0:0:0:
192,192,70559,1,0,0:0:0:0:
320,192,70661,1,0,0:0:0:0:
448,192,70661,1,0,0:0:0:0:
64,192,70764,1,0,0:0:0:0:
64,192,70867,128,0,70970:0:0:0:0:
320,192,70867,128,0,70970:0:0:0:0:
448,192,70867,128,0,71072:0:0:0:0:
192,192,70970,128,0,71175:0:0:0:0:
320,192,71072,128,0,71175:0:0:0:0:
448,192,71175,128,0,71278:0:0:0:0:
64,192,71278,128,0,71380:0:0:0:0:
192,192,71278,128,0,71380:0:0:0:0:
320,192,71278,128,0,71380:0:0:0:0:
448,192,71380,128,0,71483:0:0:0:0:
192,192,71483,128,0,71586:0:0:0:0:
320,192,71483,128,0,71586:0:0:0:0:
448,192,71586,128,0,71689:0:0:0:0:
64,192,71689,128,0,71791:0:0:0:0:
192,192,71689,128,0,71791:0:0:0:0:
320,192,71689,128,0,71894:0:0:0:0:
448,192,71791,128,0,71997:0:0:0:0:
64,192,71894,128,0,72100:0:0:0:0:
192,192,71997,128,0,72100:0:0:0:0:
320,192,72100,128,0,72202:0:0:0:0:
448,192,72100,128,0,72202:0:0:0:0:
64,192,72202,128,0,72305:0:0:0:0:
192,192,72202,128,0,72305:0:0:0:0:
448,192,72305,128,0,72408:0:0:0:0:
64,192,72408,128,0,72511:0:0:0:0:
320,192,72408,128,0,72511:0:0:0:0:
192,192,72511,128,0,72613:0:0:0:0:
448,192,72511,128,0,72716:0:0:0:0:
320,192,72613,128,0,72819:0:0:0:0:
192,192,72716,128,0,72922:0:0:0:0:
64,192,72819,128,0,73024:0:0:0:0:
448,192,72819,128,0,72922:0:0:0:0:
320,192,72922,128,0,73024:0:0:0:0:
192,192,73024,128,0,73127:0:0:0:0:
448,192,73024,128,0,73127:0:0:0:0:
320,192,73127,128,0,73230:0:0:0:0:
448,192,73230,128,0,73333:0:0:0:0:
64,192,73333,128,0,73435:0:0:0:0:
192,192,73333,128,0,73435:0:0:0:0:
320,192,73333,128,0,73538:0:0:0:0:
448,192,73435,128,0,73641:0:0:0:0:
64,192,73538,128,0,73743:0:0:0:0:
320,192,73641,128,0,73743:0:0:0:0:
192,192,73743,128,0,73846:0:0:0:0:
448,192,73743,128,0,73846:0:0:0:0:
64,192,73846,128,0,73949:0:0:0:0:
448,192,73949,128,0,74052:0:0:0:0:
320,192,73949,128,0,74052:0:0:0:0:
192,192,74052,128,0,74154:0:0:0:0:
64,192,74154,128,0,74257:0:0:0:0:
448,192,74154,128,0,74360:0:0:0:0:
320,192,74257,128,0,74463:0:0:0:0:
192,192,74360,128,0,74565:0:0:0:0:
448,192,74463,128,0,74565:0:0:0:0:
64,192,74565,128,0,74668:0:0:0:0:
320,192,74565,128,0,74668:0:0:0:0:
192,192,74668,128,0,74771:0:0:0:0:
448,192,74668,128,0,74771:0:0:0:0:
320,192,74771,128,0,74874:0:0:0:0:
64,192,74771,128,0,74874:0:0:0:0:
448,192,74874,128,0,74976:0:0:0:0:
64,192,74976,128,0,75079:0:0:0:0:
192,192,74976,128,0,75079:0:0:0:0:
320,192,74976,128,0,75182:0:0:0:0:
448,192,75079,128,0,75285:0:0:0:0:
192,192,75182,128,0,75387:0:0:0:0:
64,192,75285,128,0,75387:0:0:0:0:
448,192,75387,128,0,75490:0:0:0:0:
320,192,75387,128,0,75490:0:0:0:0:
192,192,75490,128,0,75593:0:0:0:0:
64,192,75593,128,0,75696:0:0:0:0:
448,192,75593,128,0,75696:0:0:0:0:
320,192,75696,128,0,75798:0:0:0:0:
192,192,75798,128,0,75901:0:0:0:0:
64,192,75798,128,0,75901:0:0:0:0:
448,192,75798,128,0,76004:0:0:0:0:
320,192,75901,128,0,76106:0:0:0:0:
192,192,76004,128,0,76209:0:0:0:0:
448,192,76106,128,0,76209:0:0:0:0:
320,192,76209,128,0,76312:0:0:0:0:
64,192,76209,128,0,76312:0:0:0:0:
192,192,76312,128,0,76415:0:0:0:0:
448,192,76415,128,0,76517:0:0:0:0:
320,192,76415,128,0,76517:0:0:0:0:
64,192,76517,128,0,76620:0:0:0:0:
192,192,76620,128,0,76723:0:0:0:0:
320,192,76620,128,0,76723:0:0:0:0:
448,192,76620,128,0,76826:0:0:0:0:
64,192,76723,128,0,76928:0:0:0:0:
192,192,76826,128,0,77031:0:0:0:0:
448,192,76928,128,0,77031:0:0:0:0:
320,192,77031,128,0,77134:0:0:0:0:
64,192,77031,128,0,77134:0:0:0:0:
192,192,77134,128,0,77237:0:0:0:0:
448,192,77134,1,0,0:0:0:0:
64,192,77237,1,0,0:0:0:0:
320,192,77237,1,0,0:0:0:0:
448,192,77339,1,0,0:0:0:0:
192,192,77339,1,0,0:0:0:0:
64,192,77442,128,0,77545:0:0:0:0:
320,192,77442,128,0,77648:0:0:0:0:
192,192,77442,128,0,77545:0:0:0:0:
448,192,77545,128,0,77750:0:0:0:0:
64,192,77648,128,0,77853:0:0:0:0:
192,192,77750,128,0,77853:0:0:0:0:
448,192,77853,128,0,77956:0:0:0:0:
192,192,77956,128,0,78059:0:0:0:0:
64,192,77956,128,0,78059:0:0:0:0:
448,192,78059,128,0,78161:0:0:0:0:
320,192,78059,128,0,78161:0:0:0:0:
64,192,78161,128,0,78264:0:0:0:0:
192,192,78264,128,0,78367:0:0:0:0:
320,192,78264,128,0,78367:0:0:0:0:
448,192,78264,128,0,78469:0:0:0:0:
64,192,78367,128,0,78572:0:0:0:0:
192,192,78469,128,0,78675:0:0:0:0:
448,192,78572,128,0,78675:0:0:0:0:
320,192,78675,128,0,78778:0:0:0:0:
64,192,78675,128,0,78778:0:0:0:0:
192,192,78778,128,0,78880:0:0:0:0:
64,192,78880,128,0,78983:0:0:0:0:
448,192,78880,128,0,78983:0:0:0:0:
192,192,78983,128,0,79086:0:0:0:0:
320,192,79086,128,0,79291:0:0:0:0:
448,192,79086,128,0,79189:0:0:0:0:
192,192,79189,128,0,79394:0:0:0:0:
64,192,79291,128,0,79497:0:0:0:0:
448,192,79291,128,0,79394:0:0:0:0:
320,192,79394,128,0,79497:0:0:0:0:
192,192,79497,128,0,79600:0:0:0:0:
448,192,79497,128,0,79600:0:0:0:0:
64,192,79600,128,0,79702:0:0:0:0:
192,192,79702,128,0,79805:0:0:0:0:
320,192,79702,128,0,79805:0:0:0:0:
448,192,79805,128,0,79908:0:0:0:0:
64,192,79908,128,0,80011:0:0:0:0:
192,192,79908,128,0,80113:0:0:0:0:
320,192,80011,128,0,80216:0:0:0:0:
448,192,80113,128,0,80319:0:0:0:0:
192,192,80216,128,0,80319:0:0:0:0:
320,192,80319,128,0,80422:0:0:0:0:
64,192,80319,128,0,80422:0:0:0:0:
192,192,80422,128,0,80524:0:0:0:0:
64,192,80524,128,0,80627:0:0:0:0:
448,192,80524,128,0,80627:0:0:0:0:
320,192,80627,128,0,80730:0:0:0:0:
192,192,80730,128,0,80833:0:0:0:0:
64,192,80730,128,0,80833:0:0:0:0:
448,192,80730,128,0,80935:0:0:0:0:
320,192,80833,128,0,81038:0:0:0:0:
64,192,80935,128,0,81141:0:0:0:0:
448,192,81038,128,0,81141:0:0:0:0:
192,192,81141,128,0,81243:0:0:0:0:
320,192,81141,128,0,81243:0:0:0:0:
64,192,81243,128,0,81346:0:0:0:0:
448,192,81243,128,0,81346:0:0:0:0:
320,192,81346,128,0,81449:0:0:0:0:
192,192,81449,128,0,81552:0:0:0:0:
64,192,81552,128,0,81654:0:0:0:0:
448,192,81552,128,0,81757:0:0:0:0:
320,192,81654,128,0,81860:0:0:0:0:
64,192,81757,128,0,81963:0:0:0:0:
448,192,81860,128,0,81963:0:0:0:0:
320,192,81963,128,0,82065:0:0:0:0:
192,192,81963,128,0,82065:0:0:0:0:
64,192,82065,128,0,82168:0:0:0:0:
448,192,82168,128,0,82271:0:0:0:0:
320,192,82168,128,0,82271:0:0:0:0:
64,192,82271,128,0,82374:0:0:0:0:
192,192,82374,128,0,82476:0:0:0:0:
320,192,82374,128,0,82476:0:0:0:0:
448,192,82476,128,0,82579:0:0:0:0:
64,192,82579,128,0,82682:0:0:0:0:
320,192,82579,128,0,82682:0:0:0:0:
192,192,82682,128,0,82785:0:0:0:0:
320,192,82785,128,0,82887:0:0:0:0:
448,192,82785,128,0,82887:0:0:0:0:
192,192,82887,128,0,82990:0:0:0:0:
64,192,82990,128,0,83093:0:0:0:0:
448,192,82990,128,0,83093:0:0:0:0:
320,192,83093,128,0,83196:0:0:0:0:
192,192,83196,128,0,83298:0:0:0:0:
64,192,83196,128,0,83298:0:0:0:0:
320,192,83298,128,0,83401:0:0:0:0:
448,192,83401,128,0,83504:0:0:0:0:
64,192,83401,128,0,83504:0:0:0:0:
192,192,83504,128,0,83606:0:0:0:0:
320,192,83606,128,0,83675:0:0:0:0:
448,192,83641,128,0,83709:0:0:0:0:
64,192,83675,128,0,83743:0:0:0:0:
192,192,83709,128,0,83778:0:0:0:0:
320,192,83743,128,0,83812:0:0:0:0:
448,192,83778,128,0,83846:0:0:0:0:
64,192,83812,128,0,83880:0:0:0:0:
192,192,83846,128,0,83915:0:0:0:0:
320,192,83880,128,0,83949:0:0:0:0:
448,192,83915,128,0,83983:0:0:0:0:
64,192,83949,128,0,84017:0:0:0:0:
192,192,83983,128,0,84052:0:0:0:0:
320,192,84017,128,0,84086:0:0:0:0:
448,192,84017,128,0,85661:0:0:0:0:
192,192,84634,128,0,84890:0:0:0:0:
320,192,84890,128,0,85301:0:0:0:0:
64,192,85096,128,0,85507:0:0:0:0:
192,192,85301,128,0,86123:0:0:0:0:
320,192,85507,128,0,85918:0:0:0:0:
64,192,85661,128,0,87305:0:0:0:0:
448,192,85918,128,0,86329:0:0:0:0:
320,192,86123,128,0,86894:0:0:0:0:
192,192,86329,128,0,86894:0:0:0:0:
448,192,86534,128,0,86637:0:0:0:0:
448,192,86740,128,0,86894:0:0:0:0:
448,192,87151,128,0,87459:0:0:0:0:
192,192,87305,128,0,88846:0:0:0:0:
320,192,87356,128,0,87664:0:0:0:0:
64,192,87562,128,0,87870:0:0:0:0:
448,192,87767,128,0,88075:0:0:0:0:
64,192,87973,128,0,88281:0:0:0:0:
320,192,88178,128,0,88435:0:0:0:0:
64,192,88435,128,0,88949:0:0:0:0:
448,192,88640,128,0,88949:0:0:0:0:
320,192,88846,128,0,89308:0:0:0:0:
192,192,88949,128,0,89770:0:0:0:0:
448,192,89308,128,0,89770:0:0:0:0:
64,192,89308,128,0,89770:0:0:0:0:
320,192,89770,128,0,90592:0:0:0:0:
64,192,90027,128,0,90233:0:0:0:0:
192,192,90233,128,0,90490:0:0:0:0:
448,192,90490,128,0,90901:0:0:0:0:
192,192,90592,128,0,92236:0:0:0:0:
64,192,90901,128,0,91055:0:0:0:0:
448,192,91055,128,0,91312:0:0:0:0:
320,192,91312,128,0,91517:0:0:0:0:
448,192,91517,128,0,91774:0:0:0:0:
64,192,91774,128,0,92236:0:0:0:0:
448,192,92236,128,0,93880:0:0:0:0:
320,192,92236,128,0,92544:0:0:0:0:
192,192,92544,128,0,92750:0:0:0:0:
64,192,92750,128,0,92955:0:0:0:0:
320,192,92955,128,0,93161:0:0:0:0:
192,192,93161,128,0,93366:0:0:0:0:
64,192,93366,128,0,93880:0:0:0:0:
320,192,93880,1,0,0:0:0:0:
192,192,93880,1,0,0:0:0:0:
192,192,94085,1,0,0:0:0:0:
448,192,94085,1,0,0:0:0:0:
320,192,94111,1,0,0:0:0:0:
64,192,94290,1,0,0:0:0:0:
320,192,94290,1,0,0:0:0:0:
192,192,94316,1,0,0:0:0:0:
448,192,94496,1,0,0:0:0:0:
192,192,94496,1,0,0:0:0:0:
320,192,94522,1,0,0:0:0:0:
448,192,94701,1,0,0:0:0:0:
64,192,94701,1,0,0:0:0:0:
320,192,94727,1,0,0:0:0:0:
64,192,94907,1,0,0:0:0:0:
448,192,94907,1,0,0:0:0:0:
192,192,94933,1,0,0:0:0:0:
448,192,95112,1,0,0:0:0:0:
320,192,95112,1,0,0:0:0:0:
64,192,95112,1,0,0:0:0:0:
192,192,95138,1,0,0:0:0:0:
192,192,95318,1,0,0:0:0:0:
64,192,95344,1,0,0:0:0:0:
448,192,95344,1,0,0:0:0:0:
320,192,95369,1,0,0:0:0:0:
192,192,95395,1,0,0:0:0:0:
64,192,95421,1,0,0:0:0:0:
448,192,95523,1,0,0:0:0:0:
192,192,95523,1,0,0:0:0:0:
320,192,95549,1,0,0:0:0:0:
64,192,95626,1,0,0:0:0:0:
192,192,95652,1,0,0:0:0:0:
448,192,95729,1,0,0:0:0:0:
320,192,95729,1,0,0:0:0:0:
192,192,95832,1,0,0:0:0:0:
64,192,95857,1,0,0:0:0:0:
320,192,95934,1,0,0:0:0:0:
64,192,95960,1,0,0:0:0:0:
448,192,95960,1,0,0:0:0:0:
192,192,95986,1,0,0:0:0:0:
320,192,96011,1,0,0:0:0:0:
448,192,96037,1,0,0:0:0:0:
64,192,96140,1,0,0:0:0:0:
320,192,96140,1,0,0:0:0:0:
192,192,96165,1,0,0:0:0:0:
448,192,96243,1,0,0:0:0:0:
320,192,96268,1,0,0:0:0:0:
64,192,96345,1,0,0:0:0:0:
192,192,96371,1,0,0:0:0:0:
320,192,96397,1,0,0:0:0:0:
448,192,96422,1,0,0:0:0:0:
64,192,96448,1,0,0:0:0:0:
448,192,96551,1,0,0:0:0:0:
320,192,96576,1,0,0:0:0:0:
192,192,96602,1,0,0:0:0:0:
64,192,96628,1,0,0:0:0:0:
448,192,96653,1,0,0:0:0:0:
192,192,96756,1,0,0:0:0:0:
64,192,96782,1,0,0:0:0:0:
320,192,96859,1,0,0:0:0:0:
192,192,96885,1,0,0:0:0:0:
448,192,96962,1,0,0:0:0:0:
320,192,96987,1,0,0:0:0:0:
64,192,97064,1,0,0:0:0:0:
448,192,97090,1,0,0:0:0:0:
64,192,98811,128,0,99119:0:0:0:0:
192,192,98845,128,0,98948:0:0:0:0:
320,192,98880,128,0,98982:0:0:0:0:
448,192,98914,128,0,99016:0:0:0:0:
192,192,99016,128,0,99171:0:0:0:0:
320,192,99119,128,0,99171:0:0:0:0:
448,192,99222,128,0,99325:0:0:0:0:
320,192,99256,128,0,99359:0:0:0:0:
192,192,99290,128,0,99393:0:0:0:0:
64,192,99325,128,0,99530:0:0:0:0:
320,192,99427,128,0,99530:0:0:0:0:
448,192,99427,128,0,99530:0:0:0:0:
192,192,99530,128,0,99582:0:0:0:0:
448,192,99633,128,0,99941:0:0:0:0:
320,192,99667,128,0,99770:0:0:0:0:
64,192,99701,128,0,99804:0:0:0:0:
192,192,99736,128,0,99838:0:0:0:0:
320,192,99838,128,0,99993:0:0:0:0:
64,192,99838,128,0,99941:0:0:0:0:
192,192,99941,128,0,99993:0:0:0:0:
64,192,100044,128,0,100301:0:0:0:0:
192,192,100078,128,0,100181:0:0:0:0:
448,192,100112,128,0,100215:0:0:0:0:
320,192,100147,128,0,100249:0:0:0:0:
192,192,100249,128,0,100403:0:0:0:0:
448,192,100249,128,0,100352:0:0:0:0:
320,192,100352,128,0,100403:0:0:0:0:
64,192,100352,128,0,100403:0:0:0:0:
448,192,100455,128,0,100558:0:0:0:0:
320,192,100489,128,0,100592:0:0:0:0:
192,192,100523,128,0,100626:0:0:0:0:
64,192,100558,128,0,100660:0:0:0:0:
448,192,100660,128,0,100763:0:0:0:0:
320,192,100660,128,0,100814:0:0:0:0:
192,192,100660,128,0,100763:0:0:0:0:
64,192,100763,128,0,100814:0:0:0:0:
192,192,100866,128,0,101174:0:0:0:0:
320,192,100900,128,0,101003:0:0:0:0:
448,192,100934,128,0,101037:0:0:0:0:
64,192,100969,128,0,101071:0:0:0:0:
320,192,101071,128,0,101174:0:0:0:0:
448,192,101071,128,0,101225:0:0:0:0:
64,192,101174,128,0,101225:0:0:0:0:
192,192,101277,128,0,101585:0:0:0:0:
320,192,101311,128,0,101414:0:0:0:0:
64,192,101345,128,0,101448:0:0:0:0:
448,192,101380,128,0,101482:0:0:0:0:
320,192,101482,128,0,101585:0:0:0:0:
448,192,101585,128,0,101636:0:0:0:0:
64,192,101585,128,0,101636:0:0:0:0:
448,192,101688,128,0,101893:0:0:0:0:
320,192,101722,128,0,101825:0:0:0:0:
192,192,101756,128,0,101859:0:0:0:0:
64,192,101790,128,0,101893:0:0:0:0:
320,192,101893,128,0,102047:0:0:0:0:
192,192,101893,128,0,101996:0:0:0:0:
448,192,101996,128,0,102047:0:0:0:0:
64,192,101996,128,0,102047:0:0:0:0:
64,192,102099,128,0,102304:0:0:0:0:
192,192,102133,128,0,102236:0:0:0:0:
320,192,102167,128,0,102270:0:0:0:0:
448,192,102201,128,0,102304:0:0:0:0:
192,192,102304,128,0,102458:0:0:0:0:
320,192,102304,128,0,102407:0:0:0:0:
64,192,102407,128,0,102458:0:0:0:0:
448,192,102407,128,0,102458:0:0:0:0:
320,192,102510,128,0,102766:0:0:0:0:
448,192,102544,128,0,102647:0:0:0:0:
64,192,102578,128,0,102681:0:0:0:0:
192,192,102612,128,0,102715:0:0:0:0:
64,192,102715,128,0,102818:0:0:0:0:
448,192,102715,128,0,102869:0:0:0:0:
192,192,102818,128,0,102869:0:0:0:0:
320,192,102818,128,0,102869:0:0:0:0:
64,192,102921,128,0,103229:0:0:0:0:
192,192,102955,128,0,103058:0:0:0:0:
448,192,102989,128,0,103092:0:0:0:0:
320,192,103023,128,0,103126:0:0:0:0:
448,192,103126,128,0,103229:0:0:0:0:
192,192,103126,128,0,103280:0:0:0:0:
320,192,103229,128,0,103280:0:0:0:0:
448,192,103332,128,0,103640:0:0:0:0:
320,192,103332,128,0,103400:0:0:0:0:
192,192,103366,128,0,103469:0:0:0:0:
64,192,103400,128,0,103503:0:0:0:0:
320,192,103434,128,0,103537:0:0:0:0:
192,192,103537,128,0,103640:0:0:0:0:
64,192,103640,128,0,103691:0:0:0:0:
320,192,103640,128,0,103691:0:0:0:0:
64,192,103743,128,0,104051:0:0:0:0:
320,192,103743,128,0,103811:0:0:0:0:
192,192,103777,128,0,103880:0:0:0:0:
448,192,103811,128,0,103914:0:0:0:0:
320,192,103845,128,0,103948:0:0:0:0:
192,192,103948,128,0,104102:0:0:0:0:
448,192,103948,128,0,104102:0:0:0:0:
320,192,104051,128,0,104102:0:0:0:0:
64,192,104153,128,0,104256:0:0:0:0:
192,192,104188,128,0,104290:0:0:0:0:
320,192,104222,128,0,104325:0:0:0:0:
448,192,104256,128,0,104359:0:0:0:0:
64,192,104359,128,0,104462:0:0:0:0:
192,192,104393,128,0,104496:0:0:0:0:
448,192,104427,128,0,104530:0:0:0:0:
320,192,104462,128,0,104564:0:0:0:0:
192,192,104564,128,0,104667:0:0:0:0:
64,192,104599,128,0,104701:0:0:0:0:
320,192,104633,128,0,104736:0:0:0:0:
448,192,104667,128,0,104770:0:0:0:0:
64,192,104770,128,0,104873:0:0:0:0:
192,192,104804,128,0,104907:0:0:0:0:
320,192,104838,128,0,104941:0:0:0:0:
448,192,104873,128,0,104975:0:0:0:0:
192,192,104975,128,0,105078:0:0:0:0:
64,192,105010,128,0,105112:0:0:0:0:
448,192,105078,128,0,105181:0:0:0:0:
320,192,105112,128,0,105215:0:0:0:0:
192,192,105181,128,0,105284:0:0:0:0:
64,192,105215,128,0,105318:0:0:0:0:
448,192,105249,128,0,105352:0:0:0:0:
320,192,105284,128,0,105386:0:0:0:0:
192,192,105318,128,0,105421:0:0:0:0:
64,192,105352,128,0,105455:0:0:0:0:
448,192,105386,128,0,105643:0:0:0:0:
320,192,105421,128,0,105523:0:0:0:0:
192,192,105455,128,0,105558:0:0:0:0:
64,192,105489,128,0,105695:0:0:0:0:
320,192,105592,128,0,105695:0:0:0:0:
192,192,105695,128,0,105746:0:0:0:0:
448,192,105695,128,0,105746:0:0:0:0:
448,192,105797,128,0,105900:0:0:0:0:
320,192,105832,128,0,105934:0:0:0:0:
192,192,105866,128,0,105969:0:0:0:0:
64,192,105900,128,0,106106:0:0:0:0:
320,192,106003,128,0,106106:0:0:0:0:
448,192,106003,128,0,106106:0:0:0:0:
192,192,106106,128,0,106157:0:0:0:0:
448,192,106208,128,0,106516:0:0:0:0:
320,192,106243,128,0,106345:0:0:0:0:
64,192,106277,128,0,106380:0:0:0:0:
192,192,106311,128,0,106414:0:0:0:0:
320,192,106414,128,0,106568:0:0:0:0:
64,192,106414,128,0,106516:0:0:0:0:
192,192,106516,128,0,106568:0:0:0:0:
64,192,106619,128,0,106876:0:0:0:0:
192,192,106653,128,0,106756:0:0:0:0:
448,192,106688,128,0,106790:0:0:0:0:
320,192,106722,128,0,106825:0:0:0:0:
192,192,106825,128,0,106979:0:0:0:0:
448,192,106825,128,0,106927:0:0:0:0:
320,192,106927,128,0,106979:0:0:0:0:
64,192,106927,128,0,106979:0:0:0:0:
448,192,107030,128,0,107133:0:0:0:0:
320,192,107064,128,0,107167:0:0:0:0:
192,192,107099,128,0,107201:0:0:0:0:
64,192,107133,128,0,107236:0:0:0:0:
448,192,107236,128,0,107338:0:0:0:0:
320,192,107236,128,0,107390:0:0:0:0:
192,192,107236,128,0,107338:0:0:0:0:
64,192,107338,128,0,107390:0:0:0:0:
192,192,107441,128,0,107749:0:0:0:0:
320,192,107475,128,0,107578:0:0:0:0:
448,192,107510,128,0,107612:0:0:0:0:
64,192,107544,128,0,107647:0:0:0:0:
320,192,107647,128,0,107749:0:0:0:0:
448,192,107647,128,0,107801:0:0:0:0:
64,192,107749,128,0,107801:0:0:0:0:
192,192,107852,128,0,108160:0:0:0:0:
320,192,107886,128,0,107989:0:0:0:0:
64,192,107921,128,0,108023:0:0:0:0:
448,192,107955,128,0,108058:0:0:0:0:
320,192,108058,128,0,108160:0:0:0:0:
448,192,108160,128,0,108212:0:0:0:0:
64,192,108160,128,0,108212:0:0:0:0:
448,192,108263,128,0,108469:0:0:0:0:
320,192,108297,128,0,108400:0:0:0:0:
192,192,108332,128,0,108434:0:0:0:0:
64,192,108366,128,0,108469:0:0:0:0:
320,192,108469,128,0,108623:0:0:0:0:
192,192,108469,128,0,108571:0:0:0:0:
448,192,108571,128,0,108623:0:0:0:0:
64,192,108571,128,0,108623:0:0:0:0:
64,192,108674,128,0,108880:0:0:0:0:
192,192,108708,128,0,108811:0:0:0:0:
320,192,108743,128,0,108845:0:0:0:0:
448,192,108777,128,0,108880:0:0:0:0:
192,192,108880,128,0,109034:0:0:0:0:
320,192,108880,128,0,108982:0:0:0:0:
64,192,108982,128,0,109034:0:0:0:0:
448,192,108982,128,0,109034:0:0:0:0:
320,192,109085,128,0,109342:0:0:0:0:
448,192,109119,128,0,109222:0:0:0:0:
64,192,109153,128,0,109256:0:0:0:0:
192,192,109188,128,0,109290:0:0:0:0:
64,192,109290,128,0,109393:0:0:0:0:
448,192,109290,128,0,109445:0:0:0:0:
192,192,109393,128,0,109445:0:0:0:0:
320,192,109393,128,0,109445:0:0:0:0:
64,192,109496,128,0,109804:0:0:0:0:
192,192,109530,128,0,109633:0:0:0:0:
448,192,109564,128,0,109667:0:0:0:0:
320,192,109599,128,0,109701:0:0:0:0:
448,192,109701,128,0,109804:0:0:0:0:
192,192,109701,128,0,109856:0:0:0:0:
320,192,109804,128,0,109856:0:0:0:0:
448,192,109907,128,0,110215:0:0:0:0:
320,192,109907,128,0,109975:0:0:0:0:
192,192,109941,128,0,110044:0:0:0:0:
64,192,109975,128,0,110078:0:0:0:0:
320,192,110010,128,0,110112:0:0:0:0:
192,192,110112,128,0,110215:0:0:0:0:
64,192,110215,128,0,110266:0:0:0:0:
320,192,110215,128,0,110266:0:0:0:0:
64,192,110318,128,0,110626:0:0:0:0:
320,192,110318,128,0,110386:0:0:0:0:
192,192,110352,128,0,110455:0:0:0:0:
448,192,110386,128,0,110489:0:0:0:0:
320,192,110421,128,0,110523:0:0:0:0:
192,192,110523,128,0,110677:0:0:0:0:
448,192,110523,128,0,110677:0:0:0:0:
320,192,110626,128,0,110677:0:0:0:0:
448,192,110729,128,0,110832:0:0:0:0:
320,192,110763,128,0,110866:0:0:0:0:
192,192,110797,128,0,110900:0:0:0:0:
64,192,110832,128,0,110934:0:0:0:0:
448,192,110934,128,0,111037:0:0:0:0:
320,192,110969,128,0,111071:0:0:0:0:
64,192,111003,128,0,111106:0:0:0:0:
192,192,111037,128,0,111140:0:0:0:0:
320,192,111140,128,0,111243:0:0:0:0:
448,192,111174,128,0,111277:0:0:0:0:
192,192,111208,128,0,111311:0:0:0:0:
64,192,111243,128,0,111345:0:0:0:0:
448,192,111345,128,0,111448:0:0:0:0:
320,192,111380,128,0,111482:0:0:0:0:
192,192,111414,128,0,111516:0:0:0:0:
64,192,111448,128,0,111551:0:0:0:0:
320,192,111551,128,0,111653:0:0:0:0:
448,192,111585,128,0,111688:0:0:0:0:
64,192,111653,128,0,111756:0:0:0:0:
192,192,111688,128,0,111790:0:0:0:0:
320,192,111756,128,0,111859:0:0:0:0:
448,192,111790,128,0,111893:0:0:0:0:
64,192,111825,128,0,111927:0:0:0:0:
192,192,111859,128,0,111962:0:0:0:0:
320,192,111893,128,0,111996:0:0:0:0:
448,192,111927,128,0,112030:0:0:0:0:
64,192,111962,128,0,112219:0:0:0:0:
192,192,112064,128,0,112270:0:0:0:0:
320,192,112167,128,0,112373:0:0:0:0:
64,192,112270,128,0,112475:0:0:0:0:
448,192,112270,128,0,112475:0:0:0:0:
192,192,112373,128,0,112681:0:0:0:0:
320,192,112475,128,0,112578:0:0:0:0:
448,192,112578,128,0,112681:0:0:0:0:
64,192,112578,128,0,112784:0:0:0:0:
320,192,112681,128,0,112886:0:0:0:0:
448,192,112784,128,0,112989:0:0:0:0:
192,192,112784,128,0,112886:0:0:0:0:
64,192,112886,128,0,112989:0:0:0:0:
192,192,112989,128,0,113195:0:0:0:0:
320,192,112989,128,0,113092:0:0:0:0:
64,192,113092,128,0,113195:0:0:0:0:
448,192,113092,128,0,113195:0:0:0:0:
320,192,113195,128,0,113297:0:0:0:0:
448,192,113246,128,0,113349:0:0:0:0:
192,192,113297,128,0,113400:0:0:0:0:
64,192,113297,128,0,113503:0:0:0:0:
320,192,113349,128,0,113451:0:0:0:0:
448,192,113400,128,0,113503:0:0:0:0:
320,192,113503,128,0,113606:0:0:0:0:
192,192,113554,128,0,113657:0:0:0:0:
64,192,113606,128,0,113708:0:0:0:0:
448,192,113606,128,0,113914:0:0:0:0:
320,192,113708,128,0,113811:0:0:0:0:
192,192,113811,128,0,113914:0:0:0:0:
64,192,113811,128,0,113914:0:0:0:0:
320,192,113914,128,0,114016:0:0:0:0:
448,192,114016,128,0,114119:0:0:0:0:
64,192,114016,128,0,114222:0:0:0:0:
192,192,114016,128,0,114119:0:0:0:0:
320,192,114119,128,0,114325:0:0:0:0:
448,192,114222,128,0,114427:0:0:0:0:
192,192,114222,128,0,114427:0:0:0:0:
64,192,114325,128,0,114530:0:0:0:0:
320,192,114427,128,0,114530:0:0:0:0:
192,192,114530,128,0,114736:0:0:0:0:
448,192,114530,128,0,114633:0:0:0:0:
64,192,114633,128,0,114736:0:0:0:0:
320,192,114633,128,0,114838:0:0:0:0:
448,192,114736,128,0,114838:0:0:0:0:
64,192,114838,128,0,114941:0:0:0:0:
192,192,114890,128,0,114993:0:0:0:0:
320,192,114941,128,0,115044:0:0:0:0:
64,192,115044,128,0,115147:0:0:0:0:
448,192,115044,128,0,115147:0:0:0:0:
320,192,115095,128,0,115198:0:0:0:0:
192,192,115147,128,0,115249:0:0:0:0:
64,192,115198,128,0,115301:0:0:0:0:
320,192,115249,128,0,115352:0:0:0:0:
448,192,115249,128,0,115352:0:0:0:0:
192,192,115352,128,0,115558:0:0:0:0:
64,192,115455,128,0,115558:0:0:0:0:
320,192,115506,128,0,115609:0:0:0:0:
448,192,115558,128,0,115763:0:0:0:0:
64,192,115660,128,0,115763:0:0:0:0:
192,192,115660,128,0,115866:0:0:0:0:
320,192,115763,128,0,115969:0:0:0:0:
448,192,115866,128,0,115969:0:0:0:0:
64,192,115917,128,0,116020:0:0:0:0:
192,192,115969,128,0,116071:0:0:0:0:
320,192,116020,128,0,116123:0:0:0:0:
448,192,116071,128,0,116174:0:0:0:0:
64,192,116071,128,0,116380:0:0:0:0:
192,192,116123,128,0,116225:0:0:0:0:
320,192,116174,128,0,116328:0:0:0:0:
448,192,116225,128,0,116277:0:0:0:0:
192,192,116277,128,0,116482:0:0:0:0:
448,192,116380,128,0,116585:0:0:0:0:
320,192,116482,128,0,116688:0:0:0:0:
64,192,116534,128,0,116636:0:0:0:0:
192,192,116585,128,0,116790:0:0:0:0:
64,192,116688,128,0,117099:0:0:0:0:
448,192,116688,128,0,116893:0:0:0:0:
320,192,116790,128,0,116893:0:0:0:0:
192,192,116893,128,0,116996:0:0:0:0:
320,192,116945,128,0,117047:0:0:0:0:
448,192,116996,128,0,117201:0:0:0:0:
192,192,117099,128,0,117304:0:0:0:0:
320,192,117099,128,0,117201:0:0:0:0:
64,192,117201,128,0,117304:0:0:0:0:
448,192,117304,128,0,117510:0:0:0:0:
320,192,117338,128,0,117441:0:0:0:0:
192,192,117373,128,0,117475:0:0:0:0:
64,192,117510,128,0,117578:0:0:0:0:
192,192,117544,128,0,117612:0:0:0:0:
448,192,117578,128,0,117647:0:0:0:0:
320,192,117612,128,0,117681:0:0:0:0:
192,192,117647,128,0,117715:0:0:0:0:
448,192,117715,128,0,117784:0:0:0:0:
320,192,117749,128,0,117818:0:0:0:0:
64,192,117784,128,0,117852:0:0:0:0:
192,192,117921,128,0,117989:0:0:0:0:
64,192,117955,128,0,118023:0:0:0:0:
448,192,117989,128,0,118058:0:0:0:0:
320,192,118126,128,0,118195:0:0:0:0:
192,192,118160,128,0,118229:0:0:0:0:
64,192,118195,128,0,118263:0:0:0:0:
448,192,118229,128,0,118297:0:0:0:0:
320,192,118263,128,0,118332:0:0:0:0:
192,192,118297,128,0,118366:0:0:0:0:
64,192,118332,128,0,118400:0:0:0:0:
448,192,118366,128,0,118434:0:0:0:0:
320,192,118400,128,0,118469:0:0:0:0:
192,192,118434,128,0,118503:0:0:0:0:
64,192,118469,128,0,118537:0:0:0:0:
448,192,118537,128,0,118743:0:0:0:0:
320,192,118537,128,0,118640:0:0:0:0:
192,192,118640,128,0,118845:0:0:0:0:
64,192,118640,128,0,118743:0:0:0:0:
320,192,118743,128,0,118948:0:0:0:0:
448,192,118845,128,0,119051:0:0:0:0:
64,192,118845,128,0,119051:0:0:0:0:
192,192,118948,128,0,119256:0:0:0:0:
320,192,119051,128,0,119153:0:0:0:0:
64,192,119153,128,0,119359:0:0:0:0:
448,192,119153,128,0,119256:0:0:0:0:
320,192,119256,128,0,119462:0:0:0:0:
192,192,119359,128,0,119462:0:0:0:0:
448,192,119359,128,0,119564:0:0:0:0:
64,192,119462,128,0,119564:0:0:0:0:
320,192,119564,128,0,119667:0:0:0:0:
192,192,119564,128,0,119770:0:0:0:0:
448,192,119667,128,0,119770:0:0:0:0:
64,192,119667,128,0,119770:0:0:0:0:
320,192,119770,128,0,119873:0:0:0:0:
448,192,119821,128,0,119924:0:0:0:0:
64,192,119873,128,0,120078:0:0:0:0:
192,192,119873,128,0,119975:0:0:0:0:
320,192,119924,128,0,120027:0:0:0:0:
448,192,119975,128,0,120078:0:0:0:0:
320,192,120078,128,0,120181:0:0:0:0:
192,192,120130,128,0,120232:0:0:0:0:
448,192,120181,128,0,120489:0:0:0:0:
64,192,120181,128,0,120284:0:0:0:0:
320,192,120284,128,0,120386:0:0:0:0:
64,192,120386,128,0,120489:0:0:0:0:
192,192,120386,128,0,120489:0:0:0:0:
320,192,120489,128,0,120592:0:0:0:0:
192,192,120592,128,0,120695:0:0:0:0:
64,192,120592,128,0,120797:0:0:0:0:
448,192,120592,128,0,120695:0:0:0:0:
320,192,120695,128,0,120900:0:0:0:0:
192,192,120797,128,0,121003:0:0:0:0:
448,192,120797,128,0,121003:0:0:0:0:
64,192,120900,128,0,121106:0:0:0:0:
320,192,121003,128,0,121106:0:0:0:0:
448,192,121106,128,0,121208:0:0:0:0:
192,192,121106,128,0,121311:0:0:0:0:
320,192,121208,128,0,121414:0:0:0:0:
64,192,121208,128,0,121311:0:0:0:0:
448,192,121311,128,0,121414:0:0:0:0:
64,192,121414,128,0,121516:0:0:0:0:
192,192,121465,128,0,121568:0:0:0:0:
320,192,121516,128,0,121619:0:0:0:0:
448,192,121619,128,0,121722:0:0:0:0:
64,192,121619,128,0,121722:0:0:0:0:
320,192,121671,128,0,121773:0:0:0:0:
192,192,121722,128,0,121825:0:0:0:0:
64,192,121773,128,0,121876:0:0:0:0:
448,192,121825,128,0,121927:0:0:0:0:
320,192,121825,128,0,121927:0:0:0:0:
192,192,121927,128,0,122133:0:0:0:0:
64,192,122030,128,0,122133:0:0:0:0:
320,192,122082,128,0,122184:0:0:0:0:
448,192,122133,128,0,122338:0:0:0:0:
192,192,122236,128,0,122441:0:0:0:0:
64,192,122236,128,0,122338:0:0:0:0:
320,192,122338,128,0,122544:0:0:0:0:
448,192,122441,128,0,122544:0:0:0:0:
64,192,122493,128,0,122595:0:0:0:0:
192,192,122544,128,0,122647:0:0:0:0:
320,192,122595,128,0,122698:0:0:0:0:
64,192,122647,128,0,122955:0:0:0:0:
448,192,122647,128,0,122749:0:0:0:0:
192,192,122698,128,0,122801:0:0:0:0:
320,192,122749,128,0,122903:0:0:0:0:
448,192,122801,128,0,122852:0:0:0:0:
192,192,122852,128,0,123058:0:0:0:0:
448,192,122955,128,0,123160:0:0:0:0:
320,192,123058,128,0,123263:0:0:0:0:
64,192,123109,128,0,123212:0:0:0:0:
192,192,123160,128,0,123366:0:0:0:0:
448,192,123263,128,0,123469:0:0:0:0:
64,192,123263,128,0,123674:0:0:0:0:
320,192,123366,128,0,123469:0:0:0:0:
192,192,123469,128,0,123571:0:0:0:0:
320,192,123520,128,0,123623:0:0:0:0:
448,192,123571,128,0,123777:0:0:0:0:
320,192,123674,128,0,123777:0:0:0:0:
192,192,123674,128,0,123880:0:0:0:0:
64,192,123777,128,0,123880:0:0:0:0:
448,192,123880,128,0,123982:0:0:0:0:
320,192,123914,128,0,124016:0:0:0:0:
192,192,123948,128,0,124051:0:0:0:0:
64,192,123982,128,0,124085:0:0:0:0:
448,192,124016,128,0,124119:0:0:0:0:
320,192,124051,128,0,124153:0:0:0:0:
192,192,124085,128,0,124222:0:0:0:0:
64,192,124119,128,0,124256:0:0:0:0:
448,192,124153,128,0,124290:0:0:0:0:
320,192,124188,128,0,124325:0:0:0:0:
192,192,124256,128,0,124393:0:0:0:0:
64,192,124290,128,0,124359:0:0:0:0:
448,192,124325,128,0,124462:0:0:0:0:
320,192,124359,128,0,124462:0:0:0:0:
64,192,124496,128,0,124599:0:0:0:0:
192,192,124530,128,0,124633:0:0:0:0:
320,192,124564,128,0,124804:0:0:0:0:
448,192,124599,128,0,124907:0:0:0:0:
64,192,124701,128,0,124804:0:0:0:0:
192,192,124701,128,0,125010:0:0:0:0:
64,192,124907,128,0,125112:0:0:0:0:
320,192,124907,128,0,125112:0:0:0:0:
448,192,125010,128,0,125112:0:0:0:0:
192,192,125112,1,0,0:0:0:0:
448,192,125523,1,0,0:0:0:0:
448,192,125660,1,0,0:0:0:0:
448,192,125797,1,0,0:0:0:0:
320,192,125934,1,0,0:0:0:0:
192,192,126551,128,0,126756:0:0:0:0:
64,192,126756,1,0,0:0:0:0:
448,192,126756,128,0,126962:0:0:0:0:
320,192,126962,128,0,127167:0:0:0:0:
64,192,127030,1,0,0:0:0:0:
64,192,127167,1,0,0:0:0:0:
448,192,127167,128,0,127373:0:0:0:0:
192,192,127373,128,0,127578:0:0:0:0:
320,192,127441,1,0,0:0:0:0:
320,192,127578,1,0,0:0:0:0:
64,192,127578,128,0,127784:0:0:0:0:
448,192,127784,128,0,127989:0:0:0:0:
192,192,127921,1,0,0:0:0:0:
320,192,127989,128,0,128400:0:0:0:0:
192,192,128195,128,0,128400:0:0:0:0:
64,192,128811,1,0,0:0:0:0:
64,192,128948,1,0,0:0:0:0:
64,192,129085,1,0,0:0:0:0:
192,192,129222,1,0,0:0:0:0:
64,192,129633,1,0,0:0:0:0:
448,192,129633,1,0,0:0:0:0:
320,192,129838,128,0,130044:0:0:0:0:
64,192,130044,1,0,0:0:0:0:
192,192,130044,128,0,130249:0:0:0:0:
320,192,130318,1,0,0:0:0:0:
448,192,130318,128,0,130592:0:0:0:0:
192,192,130455,1,0,0:0:0:0:
64,192,130660,1,0,0:0:0:0:
192,192,130660,1,0,0:0:0:0:
320,192,130729,1,0,0:0:0:0:
448,192,130729,1,0,0:0:0:0:
64,192,130797,1,0,0:0:0:0:
192,192,130797,1,0,0:0:0:0:
448,192,130866,1,0,0:0:0:0:
320,192,130866,1,0,0:0:0:0:
64,192,131071,1,0,0:0:0:0:
448,192,131071,1,0,0:0:0:0:
192,192,131140,1,0,0:0:0:0:
320,192,131140,1,0,0:0:0:0:
448,192,131208,1,0,0:0:0:0:
64,192,131277,1,0,0:0:0:0:
192,192,131277,1,0,0:0:0:0:
448,192,131482,1,0,0:0:0:0:
320,192,131482,1,0,0:0:0:0:
320,192,131688,1,0,0:0:0:0:
192,192,131688,1,0,0:0:0:0:
320,192,132099,1,0,0:0:0:0:
320,192,132236,1,0,0:0:0:0:
320,192,132373,1,0,0:0:0:0:
192,192,132510,1,0,0:0:0:0:
192,192,132921,1,0,0:0:0:0:
448,192,133195,1,0,0:0:0:0:
320,192,133263,1,0,0:0:0:0:
192,192,133332,1,0,0:0:0:0:
192,192,133469,1,0,0:0:0:0:
192,192,133606,1,0,0:0:0:0:
320,192,133606,1,0,0:0:0:0:
320,192,133743,1,0,0:0:0:0:
448,192,133743,1,0,0:0:0:0:
448,192,133880,1,0,0:0:0:0:
448,192,134016,1,0,0:0:0:0:
64,192,134016,1,0,0:0:0:0:
192,192,134153,1,0,0:0:0:0:
320,192,134153,1,0,0:0:0:0:
192,192,134290,1,0,0:0:0:0:
192,192,134427,1,0,0:0:0:0:
448,192,134427,1,0,0:0:0:0:
64,192,134564,1,0,0:0:0:0:
320,192,134633,1,0,0:0:0:0:
448,192,134633,1,0,0:0:0:0:
192,192,134838,1,0,0:0:0:0:
64,192,134838,1,0,0:0:0:0:
192,192,135386,1,0,0:0:0:0:
192,192,135523,1,0,0:0:0:0:
448,192,135592,1,0,0:0:0:0:
320,192,135592,1,0,0:0:0:0:
192,192,135660,1,0,0:0:0:0:
320,192,135797,1,0,0:0:0:0:
64,192,135797,1,0,0:0:0:0:
448,192,136208,1,0,0:0:0:0:
320,192,136208,1,0,0:0:0:0:
192,192,136414,1,0,0:0:0:0:
320,192,136414,1,0,0:0:0:0:
192,192,136619,1,0,0:0:0:0:
64,192,136619,1,0,0:0:0:0:
448,192,136756,1,0,0:0:0:0:
64,192,136756,1,0,0:0:0:0:
64,192,136893,1,0,0:0:0:0:
448,192,136893,1,0,0:0:0:0:
64,192,137030,1,0,0:0:0:0:
448,192,137030,1,0,0:0:0:0:
320,192,137030,1,0,0:0:0:0:
192,192,137133,1,0,0:0:0:0:
192,192,137236,1,0,0:0:0:0:
320,192,137441,1,0,0:0:0:0:
448,192,137441,1,0,0:0:0:0:
64,192,137544,1,0,0:0:0:0:
192,192,137647,1,0,0:0:0:0:
448,192,137647,1,0,0:0:0:0:
320,192,137749,1,0,0:0:0:0:
192,192,137852,1,0,0:0:0:0:
64,192,137852,1,0,0:0:0:0:
448,192,137852,1,0,0:0:0:0:
192,192,138058,1,0,0:0:0:0:
320,192,138058,1,0,0:0:0:0:
64,192,138263,128,0,138366:0:0:0:0:
192,192,138263,128,0,138469:0:0:0:0:
448,192,138263,128,0,138366:0:0:0:0:
320,192,138366,128,0,138571:0:0:0:0:
448,192,138469,128,0,138674:0:0:0:0:
192,192,138571,128,0,138674:0:0:0:0:
320,192,138674,128,0,138777:0:0:0:0:
64,192,138674,128,0,138777:0:0:0:0:
448,192,138777,128,0,138880:0:0:0:0:
320,192,138880,128,0,138982:0:0:0:0:
64,192,138880,128,0,138982:0:0:0:0:
448,192,138982,128,0,139085:0:0:0:0:
320,192,139085,128,0,139188:0:0:0:0:
64,192,139085,128,0,139290:0:0:0:0:
192,192,139188,128,0,139393:0:0:0:0:
320,192,139290,128,0,139496:0:0:0:0:
64,192,139393,128,0,139496:0:0:0:0:
192,192,139496,128,0,139599:0:0:0:0:
448,192,139496,128,0,139599:0:0:0:0:
64,192,139599,128,0,139701:0:0:0:0:
320,192,139701,128,0,139804:0:0:0:0:
448,192,139701,128,0,139804:0:0:0:0:
192,192,139804,128,0,139907:0:0:0:0:
64,192,139907,128,0,140010:0:0:0:0:
448,192,139907,128,0,140010:0:0:0:0:
320,192,139907,128,0,140112:0:0:0:0:
192,192,140010,128,0,140215:0:0:0:0:
64,192,140112,128,0,140318:0:0:0:0:
448,192,140215,128,0,140318:0:0:0:0:
320,192,140318,128,0,140421:0:0:0:0:
192,192,140318,128,0,140421:0:0:0:0:
448,192,140421,128,0,140523:0:0:0:0:
64,192,140421,128,0,140523:0:0:0:0:
192,192,140523,128,0,140626:0:0:0:0:
320,192,140626,128,0,140729:0:0:0:0:
448,192,140729,128,0,140832:0:0:0:0:
64,192,140729,128,0,140832:0:0:0:0:
192,192,140729,128,0,140934:0:0:0:0:
320,192,140832,128,0,141037:0:0:0:0:
448,192,140934,128,0,141140:0:0:0:0:
192,192,141037,128,0,141140:0:0:0:0:
64,192,141140,128,0,141243:0:0:0:0:
320,192,141140,128,0,141243:0:0:0:0:
448,192,141243,128,0,141345:0:0:0:0:
320,192,141345,128,0,141448:0:0:0:0:
64,192,141345,128,0,141448:0:0:0:0:
192,192,141448,128,0,141551:0:0:0:0:
448,192,141551,128,0,141653:0:0:0:0:
320,192,141551,128,0,141756:0:0:0:0:
64,192,141551,128,0,141653:0:0:0:0:
192,192,141653,128,0,141859:0:0:0:0:
64,192,141756,128,0,141962:0:0:0:0:
448,192,141756,128,0,141859:0:0:0:0:
320,192,141859,128,0,141962:0:0:0:0:
192,192,141962,128,0,142064:0:0:0:0:
448,192,141962,128,0,142064:0:0:0:0:
64,192,142064,128,0,142167:0:0:0:0:
320,192,142064,128,0,142167:0:0:0:0:
448,192,142167,128,0,142270:0:0:0:0:
320,192,142270,128,0,142373:0:0:0:0:
192,192,142270,128,0,142373:0:0:0:0:
448,192,142373,128,0,142578:0:0:0:0:
64,192,142373,128,0,142475:0:0:0:0:
320,192,142475,128,0,142681:0:0:0:0:
192,192,142578,128,0,142784:0:0:0:0:
448,192,142681,128,0,142784:0:0:0:0:
320,192,142784,128,0,142886:0:0:0:0:
64,192,142784,128,0,142886:0:0:0:0:
192,192,142886,128,0,142989:0:0:0:0:
448,192,142886,128,0,142989:0:0:0:0:
320,192,142989,128,0,143092:0:0:0:0:
64,192,142989,128,0,143092:0:0:0:0:
192,192,143092,128,0,143195:0:0:0:0:
448,192,143092,128,0,143195:0:0:0:0:
320,192,143195,128,0,143400:0:0:0:0:
64,192,143195,128,0,143297:0:0:0:0:
448,192,143297,128,0,143503:0:0:0:0:
64,192,143400,128,0,143606:0:0:0:0:
192,192,143503,128,0,143606:0:0:0:0:
448,192,143606,128,0,143708:0:0:0:0:
320,192,143606,128,0,143708:0:0:0:0:
192,192,143708,128,0,143811:0:0:0:0:
64,192,143708,128,0,143811:0:0:0:0:
448,192,143811,128,0,143914:0:0:0:0:
64,192,143914,128,0,144016:0:0:0:0:
192,192,144016,128,0,144222:0:0:0:0:
320,192,144016,128,0,144119:0:0:0:0:
448,192,144016,128,0,144119:0:0:0:0:
64,192,144119,128,0,144325:0:0:0:0:
448,192,144222,128,0,144325:0:0:0:0:
320,192,144325,128,0,144427:0:0:0:0:
192,192,144427,128,0,144530:0:0:0:0:
64,192,144427,128,0,144530:0:0:0:0:
448,192,144427,1,0,0:0:0:0:
320,192,144530,1,0,0:0:0:0:
448,192,144530,128,0,144633:0:0:0:0:
192,192,144633,1,0,0:0:0:0:
64,192,144633,1,0,0:0:0:0:
320,192,144736,1,0,0:0:0:0:
448,192,144736,1,0,0:0:0:0:
448,192,144838,128,0,144941:0:0:0:0:
64,192,144838,128,0,144941:0:0:0:0:
192,192,144838,128,0,145044:0:0:0:0:
320,192,144941,128,0,145147:0:0:0:0:
448,192,145044,128,0,145249:0:0:0:0:
64,192,145147,128,0,145249:0:0:0:0:
320,192,145249,128,0,145352:0:0:0:0:
192,192,145249,128,0,145352:0:0:0:0:
448,192,145352,128,0,145455:0:0:0:0:
192,192,145455,128,0,145558:0:0:0:0:
64,192,145455,128,0,145558:0:0:0:0:
320,192,145558,128,0,145660:0:0:0:0:
448,192,145660,128,0,145763:0:0:0:0:
64,192,145660,128,0,145763:0:0:0:0:
192,192,145660,128,0,145866:0:0:0:0:
320,192,145763,128,0,145969:0:0:0:0:
448,192,145866,128,0,146071:0:0:0:0:
192,192,145969,128,0,146071:0:0:0:0:
64,192,146071,128,0,146174:0:0:0:0:
320,192,146071,128,0,146174:0:0:0:0:
448,192,146174,128,0,146277:0:0:0:0:
320,192,146277,128,0,146380:0:0:0:0:
64,192,146277,128,0,146380:0:0:0:0:
192,192,146277,128,0,146380:0:0:0:0:
448,192,146380,128,0,146482:0:0:0:0:
192,192,146482,128,0,146688:0:0:0:0:
64,192,146585,128,0,146790:0:0:0:0:
320,192,146688,128,0,146790:0:0:0:0:
448,192,146688,128,0,146790:0:0:0:0:
192,192,146790,128,0,146893:0:0:0:0:
64,192,146893,128,0,146996:0:0:0:0:
448,192,146893,128,0,146996:0:0:0:0:
320,192,146996,128,0,147099:0:0:0:0:
192,192,147099,128,0,147201:0:0:0:0:
64,192,147099,128,0,147201:0:0:0:0:
320,192,147201,128,0,147304:0:0:0:0:
448,192,147304,128,0,147510:0:0:0:0:
64,192,147304,128,0,147407:0:0:0:0:
320,192,147407,128,0,147612:0:0:0:0:
192,192,147510,128,0,147715:0:0:0:0:
64,192,147612,128,0,147715:0:0:0:0:
448,192,147715,128,0,147818:0:0:0:0:
64,192,147818,128,0,147921:0:0:0:0:
320,192,147921,128,0,148023:0:0:0:0:
448,192,147921,128,0,148023:0:0:0:0:
64,192,148023,128,0,148126:0:0:0:0:
192,192,148023,128,0,148126:0:0:0:0:
448,192,148126,128,0,148229:0:0:0:0:
320,192,148126,128,0,148332:0:0:0:0:
192,192,148229,128,0,148434:0:0:0:0:
64,192,148332,128,0,148537:0:0:0:0:
448,192,148434,128,0,148537:0:0:0:0:
320,192,148537,128,0,148640:0:0:0:0:
192,192,148537,128,0,148640:0:0:0:0:
64,192,148640,128,0,148743:0:0:0:0:
448,192,148743,128,0,148845:0:0:0:0:
320,192,148743,128,0,148845:0:0:0:0:
192,192,148845,128,0,148948:0:0:0:0:
64,192,148948,128,0,149153:0:0:0:0:
448,192,148948,128,0,149051:0:0:0:0:
320,192,148948,128,0,149051:0:0:0:0:
192,192,149051,128,0,149256:0:0:0:0:
320,192,149153,128,0,149359:0:0:0:0:
64,192,149256,128,0,149359:0:0:0:0:
192,192,149359,128,0,149462:0:0:0:0:
448,192,149359,128,0,149462:0:0:0:0:
320,192,149462,128,0,149564:0:0:0:0:
64,192,149564,128,0,149667:0:0:0:0:
192,192,149564,128,0,149667:0:0:0:0:
448,192,149667,128,0,149770:0:0:0:0:
64,192,149770,1,0,0:0:0:0:
320,192,149770,1,0,0:0:0:0:
64,192,149907,1,0,0:0:0:0:
192,192,149907,1,0,0:0:0:0:
448,192,149907,1,0,0:0:0:0:
320,192,150044,1,0,0:0:0:0:
192,192,150044,1,0,0:0:0:0:
448,192,150044,1,0,0:0:0:0:
64,192,150181,1,0,0:0:0:0:
192,192,150181,1,0,0:0:0:0:
320,192,150181,1,0,0:0:0:0:
448,192,150318,1,0,0:0:0:0:
320,192,150318,1,0,0:0:0:0:
64,192,150318,1,0,0:0:0:0:
448,192,150455,1,0,0:0:0:0:
64,192,150455,1,0,0:0:0:0:
192,192,150455,1,0,0:0:0:0:
64,192,150592,1,0,0:0:0:0:
192,192,150618,1,0,0:0:0:0:
448,192,150695,1,0,0:0:0:0:
320,192,150720,1,0,0:0:0:0:
192,192,150797,1,0,0:0:0:0:
320,192,150823,1,0,0:0:0:0:
64,192,150900,1,0,0:0:0:0:
192,192,150926,1,0,0:0:0:0:
448,192,151003,1,0,0:0:0:0:
320,192,151028,1,0,0:0:0:0:
64,192,151054,1,0,0:0:0:0:
192,192,151080,1,0,0:0:0:0:
320,192,151106,1,0,0:0:0:0:
64,192,151208,1,0,0:0:0:0:
192,192,151234,1,0,0:0:0:0:
448,192,151260,1,0,0:0:0:0:
320,192,151285,1,0,0:0:0:0:
192,192,151311,1,0,0:0:0:0:
64,192,151414,128,0,151516:0:0:0:0:
320,192,151414,128,0,151516:0:0:0:0:
448,192,151414,128,0,151619:0:0:0:0:
192,192,151516,128,0,151722:0:0:0:0:
320,192,151619,128,0,151722:0:0:0:0:
448,192,151722,128,0,151825:0:0:0:0:
64,192,151825,128,0,151927:0:0:0:0:
192,192,151825,128,0,151927:0:0:0:0:
320,192,151825,128,0,151927:0:0:0:0:
448,192,151927,128,0,152030:0:0:0:0:
192,192,152030,128,0,152133:0:0:0:0:
320,192,152030,128,0,152133:0:0:0:0:
448,192,152133,128,0,152236:0:0:0:0:
64,192,152236,128,0,152338:0:0:0:0:
192,192,152236,128,0,152338:0:0:0:0:
320,192,152236,128,0,152441:0:0:0:0:
448,192,152338,128,0,152544:0:0:0:0:
64,192,152441,128,0,152647:0:0:0:0:
192,192,152544,128,0,152647:0:0:0:0:
320,192,152647,128,0,152749:0:0:0:0:
448,192,152647,128,0,152749:0:0:0:0:
64,192,152749,128,0,152852:0:0:0:0:
192,192,152749,128,0,152852:0:0:0:0:
448,192,152852,128,0,152955:0:0:0:0:
64,192,152955,128,0,153058:0:0:0:0:
320,192,152955,128,0,153058:0:0:0:0:
192,192,153058,128,0,153160:0:0:0:0:
448,192,153058,128,0,153263:0:0:0:0:
320,192,153160,128,0,153366:0:0:0:0:
192,192,153263,128,0,153469:0:0:0:0:
64,192,153366,128,0,153571:0:0:0:0:
448,192,153366,128,0,153469:0:0:0:0:
320,192,153469,128,0,153571:0:0:0:0:
192,192,153571,128,0,153674:0:0:0:0:
448,192,153571,128,0,153674:0:0:0:0:
320,192,153674,128,0,153777:0:0:0:0:
448,192,153777,128,0,153880:0:0:0:0:
64,192,153880,128,0,153982:0:0:0:0:
192,192,153880,128,0,153982:0:0:0:0:
320,192,153880,128,0,154085:0:0:0:0:
448,192,153982,128,0,154188:0:0:0:0:
64,192,154085,128,0,154290:0:0:0:0:
320,192,154188,128,0,154290:0:0:0:0:
192,192,154290,128,0,154393:0:0:0:0:
448,192,154290,128,0,154393:0:0:0:0:
64,192,154393,128,0,154496:0:0:0:0:
448,192,154496,128,0,154599:0:0:0:0:
320,192,154496,128,0,154599:0:0:0:0:
192,192,154599,128,0,154701:0:0:0:0:
64,192,154701,128,0,154804:0:0:0:0:
448,192,154701,128,0,154907:0:0:0:0:
320,192,154804,128,0,155010:0:0:0:0:
192,192,154907,128,0,155112:0:0:0:0:
448,192,155010,128,0,155112:0:0:0:0:
64,192,155112,128,0,155215:0:0:0:0:
320,192,155112,128,0,155215:0:0:0:0:
192,192,155215,128,0,155318:0:0:0:0:
448,192,155215,128,0,155318:0:0:0:0:
320,192,155318,128,0,155421:0:0:0:0:
64,192,155318,128,0,155421:0:0:0:0:
448,192,155421,128,0,155523:0:0:0:0:
64,192,155523,128,0,155626:0:0:0:0:
192,192,155523,128,0,155626:0:0:0:0:
320,192,155523,128,0,155729:0:0:0:0:
448,192,155626,128,0,155832:0:0:0:0:
192,192,155729,128,0,155934:0:0:0:0:
64,192,155832,128,0,155934:0:0:0:0:
448,192,155934,128,0,156037:0:0:0:0:
320,192,155934,128,0,156037:0:0:0:0:
192,192,156037,128,0,156140:0:0:0:0:
64,192,156140,128,0,156243:0:0:0:0:
448,192,156140,128,0,156243:0:0:0:0:
320,192,156243,128,0,156345:0:0:0:0:
192,192,156345,128,0,156448:0:0:0:0:
64,192,156345,128,0,156448:0:0:0:0:
448,192,156345,128,0,156551:0:0:0:0:
320,192,156448,128,0,156653:0:0:0:0:
192,192,156551,128,0,156756:0:0:0:0:
448,192,156653,128,0,156756:0:0:0:0:
320,192,156756,128,0,156859:0:0:0:0:
64,192,156756,128,0,156859:0:0:0:0:
192,192,156859,128,0,156962:0:0:0:0:
448,192,156962,128,0,157064:0:0:0:0:
320,192,156962,128,0,157064:0:0:0:0:
64,192,157064,128,0,157167:0:0:0:0:
192,192,157167,128,0,157270:0:0:0:0:
320,192,157167,128,0,157270:0:0:0:0:
448,192,157167,128,0,157373:0:0:0:0:
64,192,157270,128,0,157475:0:0:0:0:
192,192,157373,128,0,157578:0:0:0:0:
448,192,157475,128,0,157578:0:0:0:0:
320,192,157578,128,0,157681:0:0:0:0:
64,192,157578,128,0,157681:0:0:0:0:
192,192,157681,128,0,157784:0:0:0:0:
448,192,157681,1,0,0:0:0:0:
64,192,157784,1,0,0:0:0:0:
320,192,157784,1,0,0:0:0:0:
448,192,157886,1,0,0:0:0:0:
192,192,157886,1,0,0:0:0:0:
64,192,157989,128,0,158092:0:0:0:0:
320,192,157989,128,0,158195:0:0:0:0:
192,192,157989,128,0,158092:0:0:0:0:
448,192,158092,128,0,158297:0:0:0:0:
64,192,158195,128,0,158400:0:0:0:0:
192,192,158297,128,0,158400:0:0:0:0:
448,192,158400,128,0,158503:0:0:0:0:
192,192,158503,128,0,158606:0:0:0:0:
64,192,158503,128,0,158606:0:0:0:0:
448,192,158606,128,0,158708:0:0:0:0:
320,192,158606,128,0,158708:0:0:0:0:
64,192,158708,128,0,158811:0:0:0:0:
192,192,158811,128,0,158914:0:0:0:0:
320,192,158811,128,0,158914:0:0:0:0:
448,192,158811,128,0,159016:0:0:0:0:
64,192,158914,128,0,159119:0:0:0:0:
192,192,159016,128,0,159222:0:0:0:0:
448,192,159119,128,0,159222:0:0:0:0:
320,192,159222,128,0,159325:0:0:0:0:
64,192,159222,128,0,159325:0:0:0:0:
192,192,159325,128,0,159427:0:0:0:0:
64,192,159427,128,0,159530:0:0:0:0:
448,192,159427,128,0,159530:0:0:0:0:
192,192,159530,128,0,159633:0:0:0:0:
320,192,159633,128,0,159838:0:0:0:0:
448,192,159633,128,0,159736:0:0:0:0:
192,192,159736,128,0,159941:0:0:0:0:
64,192,159838,128,0,160044:0:0:0:0:
448,192,159838,128,0,159941:0:0:0:0:
320,192,159941,128,0,160044:0:0:0:0:
192,192,160044,128,0,160147:0:0:0:0:
448,192,160044,128,0,160147:0:0:0:0:
64,192,160147,128,0,160249:0:0:0:0:
192,192,160249,128,0,160352:0:0:0:0:
320,192,160249,128,0,160352:0:0:0:0:
448,192,160352,128,0,160455:0:0:0:0:
64,192,160455,128,0,160558:0:0:0:0:
192,192,160455,128,0,160660:0:0:0:0:
320,192,160558,128,0,160763:0:0:0:0:
448,192,160660,128,0,160866:0:0:0:0:
192,192,160763,128,0,160866:0:0:0:0:
320,192,160866,128,0,160969:0:0:0:0:
64,192,160866,128,0,160969:0:0:0:0:
192,192,160969,128,0,161071:0:0:0:0:
64,192,161071,128,0,161174:0:0:0:0:
448,192,161071,128,0,161174:0:0:0:0:
320,192,161174,128,0,161277:0:0:0:0:
192,192,161277,128,0,161380:0:0:0:0:
64,192,161277,128,0,161380:0:0:0:0:
448,192,161277,128,0,161482:0:0:0:0:
320,192,161380,128,0,161585:0:0:0:0:
64,192,161482,128,0,161688:0:0:0:0:
448,192,161585,128,0,161688:0:0:0:0:
192,192,161688,128,0,161790:0:0:0:0:
320,192,161688,128,0,161790:0:0:0:0:
64,192,161790,128,0,161893:0:0:0:0:
448,192,161790,128,0,161893:0:0:0:0:
320,192,161893,128,0,161996:0:0:0:0:
192,192,161996,128,0,162099:0:0:0:0:
64,192,162099,128,0,162201:0:0:0:0:
448,192,162099,128,0,162304:0:0:0:0:
320,192,162201,128,0,162407:0:0:0:0:
64,192,162304,128,0,162510:0:0:0:0:
448,192,162407,128,0,162510:0:0:0:0:
320,192,162510,128,0,162612:0:0:0:0:
192,192,162510,128,0,162612:0:0:0:0:
64,192,162612,128,0,162715:0:0:0:0:
448,192,162715,128,0,162818:0:0:0:0:
320,192,162715,128,0,162818:0:0:0:0:
64,192,162818,128,0,162921:0:0:0:0:
192,192,162921,128,0,163023:0:0:0:0:
320,192,162921,128,0,163023:0:0:0:0:
448,192,163023,128,0,163126:0:0:0:0:
64,192,163126,128,0,163229:0:0:0:0:
320,192,163126,128,0,163229:0:0:0:0:
192,192,163229,128,0,163332:0:0:0:0:
320,192,163332,128,0,163434:0:0:0:0:
448,192,163332,128,0,163434:0:0:0:0:
192,192,163434,128,0,163537:0:0:0:0:
64,192,163537,128,0,163640:0:0:0:0:
448,192,163537,128,0,163640:0:0:0:0:
320,192,163640,128,0,163743:0:0:0:0:
192,192,163743,128,0,163845:0:0:0:0:
64,192,163743,128,0,163845:0:0:0:0:
320,192,163845,128,0,163948:0:0:0:0:
448,192,163948,128,0,164051:0:0:0:0:
64,192,163948,128,0,164051:0:0:0:0:
192,192,164051,128,0,164153:0:0:0:0:
320,192,164153,128,0,164222:0:0:0:0:
448,192,164188,128,0,164256:0:0:0:0:
64,192,164222,128,0,164290:0:0:0:0:
192,192,164256,128,0,164325:0:0:0:0:
320,192,164290,128,0,164359:0:0:0:0:
448,192,164325,128,0,164393:0:0:0:0:
64,192,164359,128,0,164427:0:0:0:0:
192,192,164393,128,0,164462:0:0:0:0:
320,192,164427,128,0,164496:0:0:0:0:
448,192,164462,128,0,164530:0:0:0:0:
64,192,164496,128,0,164564:0:0:0:0:
192,192,164530,128,0,164599:0:0:0:0:
320,192,164564,128,0,164633:0:0:0:0:
448,192,164564,128,0,166207:0:0:0:0:
192,192,165180,128,0,165436:0:0:0:0:
320,192,165436,128,0,165847:0:0:0:0:
64,192,165642,128,0,166053:0:0:0:0:
192,192,165847,128,0,166669:0:0:0:0:
320,192,166053,128,0,166464:0:0:0:0:
64,192,166207,128,0,167851:0:0:0:0:
448,192,166464,128,0,166875:0:0:0:0:
320,192,166669,128,0,167440:0:0:0:0:
192,192,166875,128,0,167440:0:0:0:0:
448,192,167080,128,0,167183:0:0:0:0:
448,192,167286,128,0,167440:0:0:0:0:
448,192,167697,128,0,168005:0:0:0:0:
192,192,167851,128,0,169392:0:0:0:0:
320,192,167902,128,0,168210:0:0:0:0:
64,192,168108,128,0,168416:0:0:0:0:
448,192,168313,128,0,168621:0:0:0:0:
64,192,168519,128,0,168827:0:0:0:0:
320,192,168724,128,0,168981:0:0:0:0:
64,192,168981,128,0,169495:0:0:0:0:
448,192,169186,128,0,169495:0:0:0:0:
320,192,169392,128,0,169854:0:0:0:0:
192,192,169495,128,0,170316:0:0:0:0:
64,192,169854,128,0,170316:0:0:0:0:
448,192,169854,128,0,170316:0:0:0:0:
320,192,170316,128,0,171138:0:0:0:0:
64,192,170573,128,0,170779:0:0:0:0:
192,192,170779,128,0,171036:0:0:0:0:
448,192,171036,128,0,171447:0:0:0:0:
192,192,171138,128,0,172782:0:0:0:0:
64,192,171447,128,0,171601:0:0:0:0:
448,192,171601,128,0,171858:0:0:0:0:
320,192,171858,128,0,172063:0:0:0:0:
448,192,172063,128,0,172320:0:0:0:0:
64,192,172320,128,0,172782:0:0:0:0:
320,192,172782,128,0,173090:0:0:0:0:
448,192,172782,128,0,174426:0:0:0:0:
192,192,173090,128,0,173296:0:0:0:0:
64,192,173296,128,0,173501:0:0:0:0:
320,192,173501,128,0,173707:0:0:0:0:
192,192,173707,128,0,173912:0:0:0:0:
64,192,173912,128,0,174426:0:0:0:0:
192,192,174426,1,0,0:0:0:0:
320,192,174426,1,0,0:0:0:0:
448,192,174632,1,0,0:0:0:0:
192,192,174632,1,0,0:0:0:0:
320,192,174658,1,0,0:0:0:0:
320,192,174837,1,0,0:0:0:0:
64,192,174837,1,0,0:0:0:0:
192,192,174863,1,0,0:0:0:0:
192,192,175043,1,0,0:0:0:0:
448,192,175043,1,0,0:0:0:0:
320,192,175069,1,0,0:0:0:0:
64,192,175248,1,0,0:0:0:0:
448,192,175248,1,0,0:0:0:0:
320,192,175274,1,0,0:0:0:0:
448,192,175454,1,0,0:0:0:0:
64,192,175454,1,0,0:0:0:0:
192,192,175480,1,0,0:0:0:0:
64,192,175659,1,0,0:0:0:0:
320,192,175659,1,0,0:0:0:0:
448,192,175659,1,0,0:0:0:0:
192,192,175685,1,0,0:0:0:0:
192,192,175865,1,0,0:0:0:0:
448,192,175891,1,0,0:0:0:0:
64,192,175891,1,0,0:0:0:0:
320,192,175916,1,0,0:0:0:0:
192,192,175942,1,0,0:0:0:0:
64,192,175968,1,0,0:0:0:0:
192,192,176070,1,0,0:0:0:0:
448,192,176070,1,0,0:0:0:0:
320,192,176096,1,0,0:0:0:0:
64,192,176173,1,0,0:0:0:0:
192,192,176199,1,0,0:0:0:0:
320,192,176276,1,0,0:0:0:0:
448,192,176276,1,0,0:0:0:0:
192,192,176379,1,0,0:0:0:0:
64,192,176404,1,0,0:0:0:0:
320,192,176481,1,0,0:0:0:0:
448,192,176507,1,0,0:0:0:0:
64,192,176507,1,0,0:0:0:0:
192,192,176533,1,0,0:0:0:0:
320,192,176558,1,0,0:0:0:0:
448,192,176584,1,0,0:0:0:0:
320,192,176687,1,0,0:0:0:0:
64,192,176687,1,0,0:0:0:0:
192,192,176712,1,0,0:0:0:0:
448,192,176790,1,0,0:0:0:0:
320,192,176815,1,0,0:0:0:0:
64,192,176892,1,0,0:0:0:0:
192,192,176918,1,0,0:0:0:0:
320,192,176944,1,0,0:0:0:0:
448,192,176969,1,0,0:0:0:0:
64,192,176995,1,0,0:0:0:0:
448,192,177098,1,0,0:0:0:0:
320,192,177123,1,0,0:0:0:0:
192,192,177149,1,0,0:0:0:0:
64,192,177175,1,0,0:0:0:0:
448,192,177200,1,0,0:0:0:0:
192,192,177303,1,0,0:0:0:0:
64,192,177329,1,0,0:0:0:0:
320,192,177406,1,0,0:0:0:0:
192,192,177432,1,0,0:0:0:0:
448,192,177509,1,0,0:0:0:0:
320,192,177534,1,0,0:0:0:0:
64,192,177611,1,0,0:0:0:0:
448,192,177637,1,0,0:0:0:0:
320,192,179153,5,0,0:0:0:0:
192,192,179358,128,0,180180:0:0:0:0:
320,192,180385,1,0,0:0:0:0:
64,192,180591,1,0,0:0:0:0:
448,192,180796,1,0,0:0:0:0:
192,192,181002,1,0,0:0:0:0:
448,192,181207,1,0,0:0:0:0:
64,192,181413,1,0,0:0:0:0:
320,192,181618,1,0,0:0:0:0:
192,192,181824,128,0,182029:0:0:0:0:
64,192,182235,1,0,0:0:0:0:
448,192,182440,128,0,183057:0:0:0:0:
192,192,182646,128,0,183468:0:0:0:0:
320,192,183673,1,0,0:0:0:0:
64,192,183879,1,0,0:0:0:0:
192,192,184084,1,0,0:0:0:0:
192,192,184290,1,0,0:0:0:0:
448,192,184290,128,0,184700:0:0:0:0:
64,192,184700,128,0,185111:0:0:0:0:
320,192,185111,128,0,185522:0:0:0:0:
192,192,185522,128,0,185933:0:0:0:0:
64,192,185728,128,0,186344:0:0:0:0:
448,192,185933,128,0,187166:0:0:0:0:
192,192,186139,128,0,186653:0:0:0:0:
320,192,186344,128,0,187166:0:0:0:0:
64,192,187166,128,0,187372:0:0:0:0:
192,192,187372,128,0,187577:0:0:0:0:
320,192,187577,128,0,187988:0:0:0:0:
192,192,187988,128,0,188399:0:0:0:0:
64,192,188399,128,0,188810:0:0:0:0:
448,192,188810,128,0,189221:0:0:0:0:
192,192,189221,128,0,190043:0:0:0:0:
64,192,189221,128,0,190865:0:0:0:0:
448,192,190043,128,0,190454:0:0:0:0:
320,192,190454,128,0,190865:0:0:0:0:
448,192,190865,128,0,191481:0:0:0:0:
192,192,190865,128,0,192509:0:0:0:0:
64,192,191687,128,0,192406:0:0:0:0:
320,192,192303,128,0,192509:0:0:0:0:
448,192,192509,128,0,193331:0:0:0:0:
64,192,192509,128,0,194153:0:0:0:0:
448,192,193742,1,0,0:0:0:0:
320,192,193947,1,0,0:0:0:0:
192,192,194153,128,0,194358:0:0:0:0:
320,192,194563,1,0,0:0:0:0:
320,192,194769,128,0,194974:0:0:0:0:
448,192,194974,128,0,195385:0:0:0:0:
64,192,195385,128,0,195591:0:0:0:0:
448,192,195694,128,0,195796:0:0:0:0:
64,192,195796,128,0,196721:0:0:0:0:
192,192,195796,128,0,197440:0:0:0:0:
320,192,197029,128,0,197235:0:0:0:0:
448,192,197235,128,0,197440:0:0:0:0:
64,192,197440,128,0,197646:0:0:0:0:
320,192,197646,128,0,197851:0:0:0:0:
192,192,197851,128,0,198057:0:0:0:0:
448,192,198057,128,0,198262:0:0:0:0:
64,192,198262,128,0,198673:0:0:0:0:
320,192,198673,128,0,198879:0:0:0:0:
64,192,198879,128,0,199392:0:0:0:0:
320,192,199084,128,0,200728:0:0:0:0:
448,192,199084,128,0,200625:0:0:0:0:
192,192,199290,128,0,199495:0:0:0:0:
64,192,199495,128,0,200111:0:0:0:0:
192,192,200317,128,0,200522:0:0:0:0:
64,192,200522,128,0,200728:0:0:0:0:
448,192,200728,128,0,201139:0:0:0:0:
320,192,201139,128,0,201550:0:0:0:0:
192,192,201550,128,0,201961:0:0:0:0:
64,192,201961,128,0,202372:0:0:0:0:
448,192,202372,128,0,204016:0:0:0:0:
320,192,202372,128,0,202988:0:0:0:0:
192,192,203194,128,0,203605:0:0:0:0:
320,192,203605,128,0,204016:0:0:0:0:
64,192,204016,128,0,204632:0:0:0:0:
192,192,204016,128,0,205659:0:0:0:0:
448,192,204632,128,0,205659:0:0:0:0:
64,192,207303,128,0,207611:0:0:0:0:
192,192,207337,128,0,207440:0:0:0:0:
320,192,207372,128,0,207474:0:0:0:0:
448,192,207406,128,0,207509:0:0:0:0:
192,192,207509,128,0,207663:0:0:0:0:
320,192,207611,128,0,207663:0:0:0:0:
448,192,207714,128,0,207817:0:0:0:0:
320,192,207748,128,0,207851:0:0:0:0:
192,192,207783,128,0,207885:0:0:0:0:
64,192,207817,128,0,208022:0:0:0:0:
320,192,207920,128,0,208022:0:0:0:0:
448,192,207920,128,0,208022:0:0:0:0:
192,192,208022,128,0,208074:0:0:0:0:
448,192,208125,128,0,208433:0:0:0:0:
320,192,208159,128,0,208262:0:0:0:0:
64,192,208194,128,0,208296:0:0:0:0:
192,192,208228,128,0,208331:0:0:0:0:
320,192,208331,128,0,208485:0:0:0:0:
64,192,208331,128,0,208433:0:0:0:0:
192,192,208433,128,0,208485:0:0:0:0:
64,192,208536,128,0,208793:0:0:0:0:
192,192,208570,128,0,208673:0:0:0:0:
448,192,208605,128,0,208707:0:0:0:0:
320,192,208639,128,0,208742:0:0:0:0:
192,192,208742,128,0,208896:0:0:0:0:
448,192,208742,128,0,208844:0:0:0:0:
320,192,208844,128,0,208896:0:0:0:0:
64,192,208844,128,0,208896:0:0:0:0:
448,192,208947,128,0,209050:0:0:0:0:
320,192,208981,128,0,209084:0:0:0:0:
192,192,209016,128,0,209118:0:0:0:0:
64,192,209050,128,0,209153:0:0:0:0:
448,192,209153,128,0,209255:0:0:0:0:
320,192,209153,128,0,209307:0:0:0:0:
192,192,209153,128,0,209255:0:0:0:0:
64,192,209255,128,0,209307:0:0:0:0:
192,192,209358,128,0,209666:0:0:0:0:
320,192,209392,128,0,209495:0:0:0:0:
448,192,209427,128,0,209529:0:0:0:0:
64,192,209461,128,0,209563:0:0:0:0:
320,192,209563,128,0,209666:0:0:0:0:
448,192,209563,128,0,209718:0:0:0:0:
64,192,209666,128,0,209718:0:0:0:0:
192,192,209769,128,0,210077:0:0:0:0:
320,192,209803,128,0,209906:0:0:0:0:
64,192,209837,128,0,209940:0:0:0:0:
448,192,209872,128,0,209974:0:0:0:0:
320,192,209974,128,0,210077:0:0:0:0:
448,192,210077,128,0,210129:0:0:0:0:
64,192,210077,128,0,210129:0:0:0:0:
448,192,210180,128,0,210385:0:0:0:0:
320,192,210214,128,0,210317:0:0:0:0:
192,192,210248,128,0,210351:0:0:0:0:
64,192,210283,128,0,210385:0:0:0:0:
320,192,210385,128,0,210540:0:0:0:0:
192,192,210385,128,0,210488:0:0:0:0:
448,192,210488,128,0,210540:0:0:0:0:
64,192,210488,128,0,210540:0:0:0:0:
64,192,210591,128,0,210796:0:0:0:0:
192,192,210625,128,0,210728:0:0:0:0:
320,192,210659,128,0,210762:0:0:0:0:
448,192,210694,128,0,210796:0:0:0:0:
192,192,210796,128,0,210950:0:0:0:0:
320,192,210796,128,0,210899:0:0:0:0:
64,192,210899,128,0,210950:0:0:0:0:
448,192,210899,128,0,210950:0:0:0:0:
320,192,211002,128,0,211259:0:0:0:0:
448,192,211036,128,0,211139:0:0:0:0:
64,192,211070,128,0,211173:0:0:0:0:
192,192,211105,128,0,211207:0:0:0:0:
64,192,211207,128,0,211310:0:0:0:0:
448,192,211207,128,0,211361:0:0:0:0:
192,192,211310,128,0,211361:0:0:0:0:
320,192,211310,128,0,211361:0:0:0:0:
64,192,211413,128,0,211721:0:0:0:0:
192,192,211447,128,0,211550:0:0:0:0:
448,192,211481,128,0,211584:0:0:0:0:
320,192,211516,128,0,211618:0:0:0:0:
448,192,211618,128,0,211721:0:0:0:0:
192,192,211618,128,0,211772:0:0:0:0:
320,192,211721,128,0,211772:0:0:0:0:
448,192,211824,128,0,212132:0:0:0:0:
320,192,211824,128,0,211892:0:0:0:0:
192,192,211858,128,0,211961:0:0:0:0:
64,192,211892,128,0,211995:0:0:0:0:
320,192,211927,128,0,212029:0:0:0:0:
192,192,212029,128,0,212132:0:0:0:0:
64,192,212132,128,0,212183:0:0:0:0:
320,192,212132,128,0,212183:0:0:0:0:
64,192,212235,128,0,212543:0:0:0:0:
320,192,212235,128,0,212303:0:0:0:0:
192,192,212269,128,0,212372:0:0:0:0:
448,192,212303,128,0,212406:0:0:0:0:
320,192,212337,128,0,212440:0:0:0:0:
192,192,212440,128,0,212594:0:0:0:0:
448,192,212440,128,0,212594:0:0:0:0:
320,192,212543,128,0,212594:0:0:0:0:
64,192,212646,128,0,212748:0:0:0:0:
192,192,212680,128,0,212783:0:0:0:0:
320,192,212714,128,0,212817:0:0:0:0:
448,192,212748,128,0,212851:0:0:0:0:
64,192,212851,128,0,212954:0:0:0:0:
192,192,212885,128,0,212988:0:0:0:0:
448,192,212920,128,0,213022:0:0:0:0:
320,192,212954,128,0,213057:0:0:0:0:
192,192,213057,128,0,213159:0:0:0:0:
64,192,213091,128,0,213194:0:0:0:0:
320,192,213125,128,0,213228:0:0:0:0:
448,192,213159,128,0,213262:0:0:0:0:
64,192,213262,128,0,213365:0:0:0:0:
192,192,213296,128,0,213399:0:0:0:0:
320,192,213331,128,0,213433:0:0:0:0:
448,192,213365,128,0,213468:0:0:0:0:
192,192,213468,128,0,213570:0:0:0:0:
64,192,213502,128,0,213605:0:0:0:0:
448,192,213570,128,0,213673:0:0:0:0:
320,192,213605,128,0,213707:0:0:0:0:
192,192,213673,128,0,213776:0:0:0:0:
64,192,213707,128,0,213810:0:0:0:0:
448,192,213742,128,0,213844:0:0:0:0:
320,192,213776,128,0,213879:0:0:0:0:
192,192,213810,128,0,213913:0:0:0:0:
64,192,213844,128,0,213947:0:0:0:0:
448,192,213879,128,0,214135:0:0:0:0:
320,192,213913,128,0,214016:0:0:0:0:
192,192,213947,128,0,214050:0:0:0:0:
64,192,213981,128,0,214187:0:0:0:0:
320,192,214084,128,0,214187:0:0:0:0:
192,192,214187,128,0,214238:0:0:0:0:
448,192,214187,128,0,214238:0:0:0:0:
448,192,214290,128,0,214392:0:0:0:0:
320,192,214324,128,0,214427:0:0:0:0:
192,192,214358,128,0,214461:0:0:0:0:
64,192,214392,128,0,214598:0:0:0:0:
320,192,214495,128,0,214598:0:0:0:0:
448,192,214495,128,0,214598:0:0:0:0:
192,192,214598,128,0,214649:0:0:0:0:
448,192,214700,128,0,215009:0:0:0:0:
320,192,214735,128,0,214837:0:0:0:0:
64,192,214769,128,0,214872:0:0:0:0:
192,192,214803,128,0,214906:0:0:0:0:
320,192,214906,128,0,215060:0:0:0:0:
64,192,214906,128,0,215009:0:0:0:0:
192,192,215009,128,0,215060:0:0:0:0:
64,192,215111,128,0,215368:0:0:0:0:
192,192,215146,128,0,215248:0:0:0:0:
448,192,215180,128,0,215283:0:0:0:0:
320,192,215214,128,0,215317:0:0:0:0:
192,192,215317,128,0,215471:0:0:0:0:
448,192,215317,128,0,215420:0:0:0:0:
320,192,215420,128,0,215471:0:0:0:0:
64,192,215420,128,0,215471:0:0:0:0:
448,192,215522,128,0,215625:0:0:0:0:
320,192,215557,128,0,215659:0:0:0:0:
192,192,215591,128,0,215694:0:0:0:0:
64,192,215625,128,0,215728:0:0:0:0:
448,192,215728,128,0,215831:0:0:0:0:
320,192,215728,128,0,215882:0:0:0:0:
192,192,215728,128,0,215831:0:0:0:0:
64,192,215831,128,0,215882:0:0:0:0:
192,192,215933,128,0,216242:0:0:0:0:
320,192,215968,128,0,216070:0:0:0:0:
448,192,216002,128,0,216105:0:0:0:0:
64,192,216036,128,0,216139:0:0:0:0:
320,192,216139,128,0,216242:0:0:0:0:
448,192,216139,128,0,216293:0:0:0:0:
64,192,216242,128,0,216293:0:0:0:0:
192,192,216344,128,0,216653:0:0:0:0:
320,192,216379,128,0,216481:0:0:0:0:
64,192,216413,128,0,216516:0:0:0:0:
448,192,216447,128,0,216550:0:0:0:0:
320,192,216550,128,0,216653:0:0:0:0:
448,192,216653,128,0,216704:0:0:0:0:
64,192,216653,128,0,216704:0:0:0:0:
448,192,216755,128,0,216961:0:0:0:0:
320,192,216790,128,0,216892:0:0:0:0:
192,192,216824,128,0,216927:0:0:0:0:
64,192,216858,128,0,216961:0:0:0:0:
320,192,216961,128,0,217115:0:0:0:0:
192,192,216961,128,0,217063:0:0:0:0:
448,192,217063,128,0,217115:0:0:0:0:
64,192,217063,128,0,217115:0:0:0:0:
64,192,217166,128,0,217372:0:0:0:0:
192,192,217200,128,0,217303:0:0:0:0:
320,192,217235,128,0,217337:0:0:0:0:
448,192,217269,128,0,217372:0:0:0:0:
192,192,217372,128,0,217526:0:0:0:0:
320,192,217372,128,0,217474:0:0:0:0:
64,192,217474,128,0,217526:0:0:0:0:
448,192,217474,128,0,217526:0:0:0:0:
320,192,217577,128,0,217834:0:0:0:0:
448,192,217611,128,0,217714:0:0:0:0:
64,192,217646,128,0,217748:0:0:0:0:
192,192,217680,128,0,217783:0:0:0:0:
64,192,217783,128,0,217885:0:0:0:0:
448,192,217783,128,0,217937:0:0:0:0:
192,192,217885,128,0,217937:0:0:0:0:
320,192,217885,128,0,217937:0:0:0:0:
64,192,217988,128,0,218296:0:0:0:0:
192,192,218022,128,0,218125:0:0:0:0:
448,192,218057,128,0,218159:0:0:0:0:
320,192,218091,128,0,218194:0:0:0:0:
448,192,218194,128,0,218296:0:0:0:0:
192,192,218194,128,0,218348:0:0:0:0:
320,192,218296,128,0,218348:0:0:0:0:
448,192,218399,128,0,218707:0:0:0:0:
320,192,218399,128,0,218468:0:0:0:0:
192,192,218433,128,0,218536:0:0:0:0:
64,192,218468,128,0,218570:0:0:0:0:
320,192,218502,128,0,218605:0:0:0:0:
192,192,218605,128,0,218707:0:0:0:0:
64,192,218707,128,0,218759:0:0:0:0:
320,192,218707,128,0,218759:0:0:0:0:
64,192,218810,128,0,219118:0:0:0:0:
320,192,218810,128,0,218879:0:0:0:0:
192,192,218844,128,0,218947:0:0:0:0:
448,192,218879,128,0,218981:0:0:0:0:
320,192,218913,128,0,219016:0:0:0:0:
192,192,219016,128,0,219170:0:0:0:0:
448,192,219016,128,0,219170:0:0:0:0:
320,192,219118,128,0,219170:0:0:0:0:
448,192,219221,128,0,219324:0:0:0:0:
320,192,219255,128,0,219358:0:0:0:0:
192,192,219290,128,0,219392:0:0:0:0:
64,192,219324,128,0,219427:0:0:0:0:
448,192,219427,128,0,219529:0:0:0:0:
320,192,219461,128,0,219563:0:0:0:0:
64,192,219495,128,0,219598:0:0:0:0:
192,192,219529,128,0,219632:0:0:0:0:
320,192,219632,128,0,219735:0:0:0:0:
448,192,219666,128,0,219769:0:0:0:0:
192,192,219700,128,0,219803:0:0:0:0:
64,192,219735,128,0,219837:0:0:0:0:
448,192,219837,128,0,219940:0:0:0:0:
320,192,219872,128,0,219974:0:0:0:0:
192,192,219906,128,0,220009:0:0:0:0:
64,192,219940,128,0,220043:0:0:0:0:
320,192,220043,128,0,220146:0:0:0:0:
448,192,220077,128,0,220180:0:0:0:0:
64,192,220146,128,0,220248:0:0:0:0:
192,192,220180,128,0,220283:0:0:0:0:
320,192,220248,128,0,220351:0:0:0:0:
448,192,220283,128,0,220385:0:0:0:0:
64,192,220317,128,0,220420:0:0:0:0:
192,192,220351,128,0,220454:0:0:0:0:
320,192,220385,128,0,220488:0:0:0:0:
448,192,220420,128,0,220522:0:0:0:0:
64,192,220454,128,0,220711:0:0:0:0:
192,192,220557,128,0,220762:0:0:0:0:
320,192,220659,128,0,220865:0:0:0:0:
64,192,220762,128,0,220968:0:0:0:0:
448,192,220762,128,0,220968:0:0:0:0:
192,192,220865,128,0,221173:0:0:0:0:
320,192,220968,128,0,221070:0:0:0:0:
448,192,221070,128,0,221173:0:0:0:0:
64,192,221070,128,0,221276:0:0:0:0:
320,192,221173,128,0,221379:0:0:0:0:
448,192,221276,128,0,221481:0:0:0:0:
192,192,221276,128,0,221379:0:0:0:0:
64,192,221379,128,0,221481:0:0:0:0:
192,192,221481,128,0,221687:0:0:0:0:
320,192,221481,128,0,221584:0:0:0:0:
64,192,221584,128,0,221687:0:0:0:0:
448,192,221584,128,0,221687:0:0:0:0:
320,192,221687,128,0,221790:0:0:0:0:
448,192,221738,128,0,221841:0:0:0:0:
192,192,221790,128,0,221892:0:0:0:0:
64,192,221790,128,0,221995:0:0:0:0:
320,192,221841,128,0,221944:0:0:0:0:
448,192,221892,128,0,221995:0:0:0:0:
320,192,221995,128,0,222098:0:0:0:0:
192,192,222046,128,0,222149:0:0:0:0:
64,192,222098,128,0,222200:0:0:0:0:
448,192,222098,128,0,222406:0:0:0:0:
320,192,222200,128,0,222303:0:0:0:0:
192,192,222303,128,0,222406:0:0:0:0:
64,192,222303,128,0,222406:0:0:0:0:
320,192,222406,128,0,222509:0:0:0:0:
448,192,222509,128,0,222611:0:0:0:0:
64,192,222509,128,0,222714:0:0:0:0:
192,192,222509,128,0,222611:0:0:0:0:
320,192,222611,128,0,222817:0:0:0:0:
448,192,222714,128,0,222920:0:0:0:0:
192,192,222714,128,0,222920:0:0:0:0:
64,192,222817,128,0,223022:0:0:0:0:
320,192,222920,128,0,223022:0:0:0:0:
192,192,223022,128,0,223228:0:0:0:0:
448,192,223022,128,0,223125:0:0:0:0:
64,192,223125,128,0,223228:0:0:0:0:
320,192,223125,128,0,223331:0:0:0:0:
448,192,223228,128,0,223331:0:0:0:0:
64,192,223331,128,0,223433:0:0:0:0:
192,192,223382,128,0,223485:0:0:0:0:
320,192,223433,128,0,223536:0:0:0:0:
64,192,223536,128,0,223639:0:0:0:0:
448,192,223536,128,0,223639:0:0:0:0:
320,192,223587,128,0,223690:0:0:0:0:
192,192,223639,128,0,223742:0:0:0:0:
64,192,223690,128,0,223793:0:0:0:0:
320,192,223742,128,0,223844:0:0:0:0:
448,192,223742,128,0,223844:0:0:0:0:
192,192,223844,128,0,224050:0:0:0:0:
64,192,223947,128,0,224050:0:0:0:0:
320,192,223998,128,0,224101:0:0:0:0:
448,192,224050,128,0,224255:0:0:0:0:
64,192,224153,128,0,224255:0:0:0:0:
192,192,224153,128,0,224358:0:0:0:0:
320,192,224255,128,0,224461:0:0:0:0:
448,192,224358,128,0,224461:0:0:0:0:
64,192,224409,128,0,224512:0:0:0:0:
192,192,224461,128,0,224563:0:0:0:0:
320,192,224512,128,0,224615:0:0:0:0:
448,192,224563,128,0,224666:0:0:0:0:
64,192,224563,128,0,224872:0:0:0:0:
192,192,224615,128,0,224718:0:0:0:0:
320,192,224666,128,0,224820:0:0:0:0:
448,192,224718,128,0,224769:0:0:0:0:
192,192,224769,128,0,224974:0:0:0:0:
448,192,224872,128,0,225077:0:0:0:0:
320,192,224974,128,0,225180:0:0:0:0:
64,192,225026,128,0,225129:0:0:0:0:
192,192,225077,128,0,225283:0:0:0:0:
64,192,225180,128,0,225591:0:0:0:0:
448,192,225180,128,0,225385:0:0:0:0:
320,192,225283,128,0,225385:0:0:0:0:
192,192,225385,128,0,225488:0:0:0:0:
320,192,225437,128,0,225540:0:0:0:0:
448,192,225488,128,0,225694:0:0:0:0:
192,192,225591,128,0,225796:0:0:0:0:
320,192,225591,128,0,225694:0:0:0:0:
64,192,225694,128,0,225796:0:0:0:0:
448,192,225796,128,0,226002:0:0:0:0:
320,192,225831,128,0,225933:0:0:0:0:
192,192,225865,128,0,225968:0:0:0:0:
64,192,226002,128,0,226070:0:0:0:0:
192,192,226036,128,0,226105:0:0:0:0:
448,192,226070,128,0,226139:0:0:0:0:
320,192,226105,128,0,226173:0:0:0:0:
192,192,226139,128,0,226207:0:0:0:0:
448,192,226207,128,0,226276:0:0:0:0:
320,192,226242,128,0,226310:0:0:0:0:
64,192,226276,128,0,226344:0:0:0:0:
192,192,226413,128,0,226481:0:0:0:0:
64,192,226447,128,0,226516:0:0:0:0:
448,192,226481,128,0,226550:0:0:0:0:
320,192,226618,128,0,226687:0:0:0:0:
192,192,226653,128,0,226721:0:0:0:0:
64,192,226687,128,0,226755:0:0:0:0:
448,192,226721,128,0,226790:0:0:0:0:
320,192,226755,128,0,226824:0:0:0:0:
192,192,226790,128,0,226858:0:0:0:0:
64,192,226824,128,0,226892:0:0:0:0:
448,192,226858,128,0,226927:0:0:0:0:
320,192,226892,128,0,226961:0:0:0:0:
192,192,226927,128,0,226995:0:0:0:0:
64,192,226961,128,0,227029:0:0:0:0:
448,192,227029,128,0,227235:0:0:0:0:
320,192,227029,128,0,227132:0:0:0:0:
192,192,227132,128,0,227337:0:0:0:0:
64,192,227132,128,0,227235:0:0:0:0:
320,192,227235,128,0,227440:0:0:0:0:
448,192,227337,128,0,227543:0:0:0:0:
64,192,227337,128,0,227543:0:0:0:0:
192,192,227440,128,0,227748:0:0:0:0:
320,192,227543,128,0,227646:0:0:0:0:
64,192,227646,128,0,227851:0:0:0:0:
448,192,227646,128,0,227748:0:0:0:0:
320,192,227748,128,0,227954:0:0:0:0:
192,192,227851,128,0,227954:0:0:0:0:
448,192,227851,128,0,228057:0:0:0:0:
64,192,227954,128,0,228057:0:0:0:0:
320,192,228057,128,0,228159:0:0:0:0:
192,192,228057,128,0,228262:0:0:0:0:
448,192,228159,128,0,228262:0:0:0:0:
64,192,228159,128,0,228262:0:0:0:0:
320,192,228262,128,0,228365:0:0:0:0:
448,192,228313,128,0,228416:0:0:0:0:
64,192,228365,128,0,228570:0:0:0:0:
192,192,228365,128,0,228468:0:0:0:0:
320,192,228416,128,0,228519:0:0:0:0:
448,192,228468,128,0,228570:0:0:0:0:
320,192,228570,128,0,228673:0:0:0:0:
192,192,228622,128,0,228724:0:0:0:0:
448,192,228673,128,0,228981:0:0:0:0:
64,192,228673,128,0,228776:0:0:0:0:
320,192,228776,128,0,228879:0:0:0:0:
64,192,228879,128,0,228981:0:0:0:0:
192,192,228879,128,0,228981:0:0:0:0:
320,192,228981,128,0,229084:0:0:0:0:
192,192,229084,128,0,229187:0:0:0:0:
64,192,229084,128,0,229290:0:0:0:0:
448,192,229084,128,0,229187:0:0:0:0:
320,192,229187,128,0,229392:0:0:0:0:
192,192,229290,128,0,229495:0:0:0:0:
448,192,229290,128,0,229495:0:0:0:0:
64,192,229392,128,0,229598:0:0:0:0:
320,192,229495,128,0,229598:0:0:0:0:
448,192,229598,128,0,229700:0:0:0:0:
192,192,229598,128,0,229803:0:0:0:0:
320,192,229700,128,0,229906:0:0:0:0:
64,192,229700,128,0,229803:0:0:0:0:
448,192,229803,128,0,229906:0:0:0:0:
64,192,229906,128,0,230009:0:0:0:0:
192,192,229957,128,0,230060:0:0:0:0:
320,192,230009,128,0,230111:0:0:0:0:
448,192,230111,128,0,230214:0:0:0:0:
64,192,230111,128,0,230214:0:0:0:0:
320,192,230163,128,0,230266:0:0:0:0:
192,192,230214,128,0,230317:0:0:0:0:
64,192,230266,128,0,230368:0:0:0:0:
448,192,230317,128,0,230420:0:0:0:0:
320,192,230317,128,0,230420:0:0:0:0:
192,192,230420,128,0,230625:0:0:0:0:
64,192,230522,128,0,230625:0:0:0:0:
320,192,230574,128,0,230677:0:0:0:0:
448,192,230625,128,0,230831:0:0:0:0:
192,192,230728,128,0,230933:0:0:0:0:
64,192,230728,128,0,230831:0:0:0:0:
320,192,230831,128,0,231036:0:0:0:0:
448,192,230933,128,0,231036:0:0:0:0:
64,192,230985,128,0,231087:0:0:0:0:
192,192,231036,128,0,231139:0:0:0:0:
320,192,231087,128,0,231190:0:0:0:0:
64,192,231139,128,0,231447:0:0:0:0:
448,192,231139,128,0,231242:0:0:0:0:
192,192,231190,128,0,231293:0:0:0:0:
320,192,231242,128,0,231396:0:0:0:0:
448,192,231293,128,0,231344:0:0:0:0:
192,192,231344,128,0,231550:0:0:0:0:
448,192,231447,128,0,231653:0:0:0:0:
320,192,231550,128,0,231755:0:0:0:0:
64,192,231601,128,0,231704:0:0:0:0:
192,192,231653,128,0,231858:0:0:0:0:
448,192,231755,128,0,231961:0:0:0:0:
64,192,231755,128,0,232166:0:0:0:0:
320,192,231858,128,0,231961:0:0:0:0:
192,192,231961,128,0,232063:0:0:0:0:
320,192,232012,128,0,232115:0:0:0:0:
448,192,232063,128,0,232269:0:0:0:0:
192,192,232166,128,0,232372:0:0:0:0:
320,192,232166,128,0,232269:0:0:0:0:
64,192,232269,128,0,232372:0:0:0:0:
448,192,232372,128,0,232474:0:0:0:0:
320,192,232406,128,0,232509:0:0:0:0:
192,192,232440,128,0,232543:0:0:0:0:
64,192,232474,128,0,232577:0:0:0:0:
448,192,232509,128,0,232611:0:0:0:0:
320,192,232543,128,0,232646:0:0:0:0:
192,192,232577,128,0,232714:0:0:0:0:
64,192,232611,128,0,232748:0:0:0:0:
448,192,232646,128,0,232783:0:0:0:0:
320,192,232680,128,0,232817:0:0:0:0:
192,192,232748,128,0,232885:0:0:0:0:
64,192,232783,128,0,232851:0:0:0:0:
448,192,232817,128,0,232954:0:0:0:0:
320,192,232851,128,0,232954:0:0:0:0:
64,192,232988,128,0,233091:0:0:0:0:
192,192,233022,128,0,233125:0:0:0:0:
320,192,233057,128,0,233296:0:0:0:0:
448,192,233091,128,0,233399:0:0:0:0:
192,192,233194,128,0,233502:0:0:0:0:
64,192,233194,128,0,233296:0:0:0:0:
320,192,233399,128,0,233605:0:0:0:0:
64,192,233399,128,0,233605:0:0:0:0:
448,192,233502,128,0,233605:0:0:0:0:
192,192,233605,1,0,0:0:0:0:
