osu file format v14

[General]
AudioFilename: fiesta.mp3
AudioLeadIn: 0
PreviewTime: 79568
Countdown: 0
SampleSet: Normal
StackLeniency: 0.7
Mode: 3
LetterboxInBreaks: 0
SpecialStyle: 0
WidescreenStoryboard: 1

[Editor]
DistanceSpacing: 1
BeatDivisor: 8
GridSize: 32
TimelineZoom: 2.799999

[Metadata]
Title:Damned's LN KPOP Pack #1
TitleUnicode:Damned's LN KPOP Pack #1
Artist:Various Artists
ArtistUnicode:Various Artists
Creator:Damned
Version:Stage 7 IZ*ONE - FIESTA
Source:
Tags:
BeatmapID:3242240
BeatmapSetID:1587521

[Difficulty]
HPDrainRate:8.3
CircleSize:7
OverallDifficulty:2
ApproachRate:5
SliderMultiplier:1.4
SliderTickRate:1

[Events]
//Background and Video events
0,0,"iz1f.jpeg",0,0
//Break Periods
//Storyboard Layer 0 (Background)
//Storyboard Layer 1 (Fail)
//Storyboard Layer 2 (Pass)
//Storyboard Layer 3 (Foreground)
//Storyboard Layer 4 (Overlay)
//Storyboard Sound Samples

[TimingPoints]
1520,487.804878048781,4,1,0,0,1,0

[HitObjects]
36,192,1520,128,0,1763:0:0:0:0:
182,192,1520,128,0,1763:0:0:0:0:
256,192,1520,128,0,1763:0:0:0:0:
329,192,1520,1,0,0:0:0:0:
402,192,1763,1,0,0:0:0:0:
402,192,2007,1,0,0:0:0:0:
402,192,2251,1,0,0:0:0:0:
36,192,2373,1,0,0:0:0:0:
329,192,2495,1,0,0:0:0:0:
182,192,2617,1,0,0:0:0:0:
329,192,2739,128,0,2983:0:0:0:0:
475,192,2739,128,0,2983:0:0:0:0:
256,192,2739,128,0,2983:0:0:0:0:
109,192,2861,1,0,0:0:0:0:
402,192,3105,1,0,0:0:0:0:
36,192,3227,128,0,3471:0:0:0:0:
182,192,3227,128,0,3471:0:0:0:0:
256,192,3227,128,0,3471:0:0:0:0:
402,192,3471,1,0,0:0:0:0:
402,192,3715,1,0,0:0:0:0:
329,192,3959,1,0,0:0:0:0:
329,192,4202,1,0,0:0:0:0:
182,192,4324,1,0,0:0:0:0:
256,192,4446,1,0,0:0:0:0:
329,192,4568,1,0,0:0:0:0:
36,192,4690,128,0,4934:0:0:0:0:
109,192,4690,128,0,4934:0:0:0:0:
256,192,4690,128,0,4934:0:0:0:0:
182,192,4934,1,0,0:0:0:0:
329,192,5056,1,0,0:0:0:0:
256,192,5178,128,0,5422:0:0:0:0:
475,192,5178,128,0,5422:0:0:0:0:
402,192,5178,128,0,5422:0:0:0:0:
329,192,5422,1,0,0:0:0:0:
109,192,5666,1,0,0:0:0:0:
182,192,5910,1,0,0:0:0:0:
182,192,6154,1,0,0:0:0:0:
36,192,6398,1,0,0:0:0:0:
109,192,6520,1,0,0:0:0:0:
182,192,6641,1,0,0:0:0:0:
256,192,6641,128,0,6885:0:0:0:0:
402,192,6641,128,0,6885:0:0:0:0:
475,192,6641,128,0,6885:0:0:0:0:
36,192,6763,1,0,0:0:0:0:
182,192,6885,1,0,0:0:0:0:
256,192,7129,128,0,7373:0:0:0:0:
36,192,7129,128,0,7373:0:0:0:0:
109,192,7129,128,0,7373:0:0:0:0:
329,192,7129,1,0,0:0:0:0:
475,192,7251,1,0,0:0:0:0:
329,192,7373,1,0,0:0:0:0:
329,192,7617,1,0,0:0:0:0:
402,192,7861,1,0,0:0:0:0:
402,192,8105,1,0,0:0:0:0:
256,192,8349,128,0,8593:0:0:0:0:
182,192,8349,1,0,0:0:0:0:
109,192,8349,128,0,8471:0:0:0:0:
402,192,8471,128,0,8715:0:0:0:0:
36,192,8471,128,0,8715:0:0:0:0:
329,192,8471,1,0,0:0:0:0:
182,192,8593,128,0,8837:0:0:0:0:
109,192,8593,1,0,0:0:0:0:
475,192,8593,1,0,0:0:0:0:
329,192,8715,128,0,8959:0:0:0:0:
256,192,8715,1,0,0:0:0:0:
109,192,8837,128,0,9080:0:0:0:0:
36,192,8837,1,0,0:0:0:0:
402,192,8837,1,0,0:0:0:0:
475,192,8837,128,0,9080:0:0:0:0:
256,192,8959,128,0,9202:0:0:0:0:
182,192,8959,1,0,0:0:0:0:
329,192,9080,1,0,0:0:0:0:
402,192,9080,128,0,9324:0:0:0:0:
36,192,9080,128,0,9324:0:0:0:0:
182,192,9202,128,0,9324:0:0:0:0:
109,192,9202,1,0,0:0:0:0:
475,192,9202,1,0,0:0:0:0:
256,192,9324,128,0,10544:0:0:0:0:
329,192,9324,1,0,0:0:0:0:
329,192,9568,1,0,0:0:0:0:
402,192,9812,1,0,0:0:0:0:
402,192,10056,1,0,0:0:0:0:
109,192,10300,1,0,0:0:0:0:
402,192,10422,1,0,0:0:0:0:
36,192,10544,128,0,10788:0:0:0:0:
182,192,10544,128,0,10788:0:0:0:0:
329,192,10544,1,0,0:0:0:0:
475,192,10788,1,0,0:0:0:0:
402,192,10788,1,0,0:0:0:0:
109,192,11032,128,0,11276:0:0:0:0:
256,192,11032,128,0,11276:0:0:0:0:
329,192,11276,1,0,0:0:0:0:
402,192,11276,1,0,0:0:0:0:
36,192,11276,1,0,0:0:0:0:
329,192,11520,1,0,0:0:0:0:
36,192,11763,1,0,0:0:0:0:
109,192,11763,1,0,0:0:0:0:
256,192,11763,1,0,0:0:0:0:
329,192,12007,1,0,0:0:0:0:
329,192,12251,1,0,0:0:0:0:
329,192,12373,1,0,0:0:0:0:
329,192,12495,128,0,12739:0:0:0:0:
475,192,12495,128,0,12739:0:0:0:0:
36,192,12495,128,0,12739:0:0:0:0:
256,192,12617,1,0,0:0:0:0:
109,192,12739,1,0,0:0:0:0:
182,192,12861,1,0,0:0:0:0:
256,192,12983,128,0,13227:0:0:0:0:
475,192,12983,128,0,13227:0:0:0:0:
329,192,12983,128,0,13227:0:0:0:0:
182,192,13227,1,0,0:0:0:0:
109,192,13227,1,0,0:0:0:0:
182,192,13471,1,0,0:0:0:0:
256,192,13715,1,0,0:0:0:0:
256,192,13959,1,0,0:0:0:0:
329,192,14202,1,0,0:0:0:0:
256,192,14324,1,0,0:0:0:0:
329,192,14446,128,0,14690:0:0:0:0:
402,192,14446,128,0,14690:0:0:0:0:
182,192,14446,128,0,14690:0:0:0:0:
109,192,14568,1,0,0:0:0:0:
256,192,14690,1,0,0:0:0:0:
256,192,14934,128,0,15178:0:0:0:0:
36,192,14934,128,0,15178:0:0:0:0:
475,192,14934,128,0,15178:0:0:0:0:
329,192,14934,1,0,0:0:0:0:
182,192,14934,1,0,0:0:0:0:
329,192,15056,1,0,0:0:0:0:
182,192,15056,1,0,0:0:0:0:
109,192,15178,1,0,0:0:0:0:
402,192,15178,1,0,0:0:0:0:
182,192,15300,1,0,0:0:0:0:
329,192,15361,1,0,0:0:0:0:
256,192,15422,1,0,0:0:0:0:
109,192,15483,1,0,0:0:0:0:
402,192,15544,1,0,0:0:0:0:
329,192,15605,1,0,0:0:0:0:
256,192,15666,1,0,0:0:0:0:
182,192,15666,1,0,0:0:0:0:
36,192,15666,1,0,0:0:0:0:
475,192,15727,1,0,0:0:0:0:
402,192,15788,1,0,0:0:0:0:
329,192,15849,1,0,0:0:0:0:
256,192,15910,1,0,0:0:0:0:
109,192,15910,128,0,16154:0:0:0:0:
36,192,15910,128,0,16154:0:0:0:0:
475,192,16032,1,0,0:0:0:0:
329,192,16154,128,0,16641:0:0:0:0:
182,192,16154,1,0,0:0:0:0:
402,192,16276,1,0,0:0:0:0:
182,192,16398,128,0,16641:0:0:0:0:
109,192,16398,1,0,0:0:0:0:
256,192,16520,1,0,0:0:0:0:
36,192,16641,1,0,0:0:0:0:
109,192,16641,1,0,0:0:0:0:
256,192,16763,128,0,17007:0:0:0:0:
329,192,16763,128,0,17007:0:0:0:0:
36,192,16763,128,0,17007:0:0:0:0:
109,192,16885,128,0,17007:0:0:0:0:
402,192,16885,128,0,17007:0:0:0:0:
182,192,17007,1,0,0:0:0:0:
475,192,17007,1,0,0:0:0:0:
36,192,17129,1,0,0:0:0:0:
109,192,17129,1,0,0:0:0:0:
256,192,17129,1,0,0:0:0:0:
402,192,17129,1,0,0:0:0:0:
475,192,17129,1,0,0:0:0:0:
329,192,17251,1,0,0:0:0:0:
475,192,17251,1,0,0:0:0:0:
182,192,17251,1,0,0:0:0:0:
402,192,17251,1,0,0:0:0:0:
36,192,17373,128,0,17617:0:0:0:0:
109,192,17495,128,0,17617:0:0:0:0:
182,192,17617,1,0,0:0:0:0:
475,192,17617,1,0,0:0:0:0:
402,192,17617,1,0,0:0:0:0:
475,192,17861,1,0,0:0:0:0:
402,192,17861,1,0,0:0:0:0:
109,192,17861,1,0,0:0:0:0:
36,192,17861,1,0,0:0:0:0:
256,192,17861,128,0,17983:0:0:0:0:
256,192,18105,128,0,18349:0:0:0:0:
329,192,18349,128,0,18593:0:0:0:0:
109,192,18593,128,0,18837:0:0:0:0:
182,192,18837,128,0,19080:0:0:0:0:
402,192,18837,128,0,19080:0:0:0:0:
475,192,18837,128,0,19080:0:0:0:0:
256,192,18837,1,0,0:0:0:0:
256,192,19080,1,0,0:0:0:0:
36,192,19324,1,0,0:0:0:0:
109,192,19324,1,0,0:0:0:0:
402,192,19324,1,0,0:0:0:0:
475,192,19324,1,0,0:0:0:0:
182,192,19324,128,0,19568:0:0:0:0:
329,192,19324,128,0,19568:0:0:0:0:
475,192,19568,1,0,0:0:0:0:
36,192,19568,1,0,0:0:0:0:
256,192,19568,1,0,0:0:0:0:
109,192,19812,1,0,0:0:0:0:
402,192,19812,1,0,0:0:0:0:
256,192,19812,128,0,19934:0:0:0:0:
475,192,20056,1,0,0:0:0:0:
182,192,20056,1,0,0:0:0:0:
329,192,20056,128,0,20178:0:0:0:0:
109,192,20300,128,0,20544:0:0:0:0:
36,192,20300,128,0,20544:0:0:0:0:
256,192,20300,128,0,20544:0:0:0:0:
475,192,20544,1,0,0:0:0:0:
402,192,20544,1,0,0:0:0:0:
256,192,20788,128,0,21032:0:0:0:0:
402,192,20788,128,0,21032:0:0:0:0:
475,192,20788,128,0,21032:0:0:0:0:
109,192,21032,1,0,0:0:0:0:
36,192,21032,1,0,0:0:0:0:
182,192,21276,1,0,0:0:0:0:
329,192,21276,1,0,0:0:0:0:
256,192,21520,1,0,0:0:0:0:
402,192,21520,1,0,0:0:0:0:
475,192,21520,1,0,0:0:0:0:
182,192,21641,1,0,0:0:0:0:
36,192,21641,1,0,0:0:0:0:
256,192,21763,1,0,0:0:0:0:
402,192,21763,1,0,0:0:0:0:
329,192,21885,1,0,0:0:0:0:
475,192,21885,1,0,0:0:0:0:
182,192,21885,1,0,0:0:0:0:
256,192,22251,128,0,22495:0:0:0:0:
109,192,22251,128,0,22495:0:0:0:0:
36,192,22251,128,0,22495:0:0:0:0:
402,192,22495,1,0,0:0:0:0:
475,192,22495,1,0,0:0:0:0:
256,192,22739,128,0,22983:0:0:0:0:
402,192,22739,128,0,22983:0:0:0:0:
475,192,22739,128,0,22983:0:0:0:0:
109,192,22983,1,0,0:0:0:0:
36,192,22983,1,0,0:0:0:0:
109,192,23227,1,0,0:0:0:0:
256,192,23227,1,0,0:0:0:0:
402,192,23227,1,0,0:0:0:0:
329,192,23471,1,0,0:0:0:0:
475,192,23471,1,0,0:0:0:0:
182,192,23471,1,0,0:0:0:0:
36,192,23471,1,0,0:0:0:0:
475,192,23715,1,0,0:0:0:0:
329,192,23715,1,0,0:0:0:0:
256,192,23715,1,0,0:0:0:0:
36,192,23715,1,0,0:0:0:0:
182,192,23715,1,0,0:0:0:0:
109,192,23959,128,0,24080:0:0:0:0:
256,192,24080,128,0,24202:0:0:0:0:
402,192,24202,128,0,24324:0:0:0:0:
36,192,24324,128,0,24446:0:0:0:0:
182,192,24446,128,0,24568:0:0:0:0:
475,192,24568,128,0,24690:0:0:0:0:
329,192,24690,128,0,24812:0:0:0:0:
109,192,24812,128,0,24934:0:0:0:0:
256,192,24934,128,0,25056:0:0:0:0:
402,192,24934,128,0,25056:0:0:0:0:
475,192,24934,128,0,25422:0:0:0:0:
182,192,25178,128,0,25300:0:0:0:0:
182,192,25422,128,0,25910:0:0:0:0:
329,192,25422,128,0,25544:0:0:0:0:
402,192,25666,128,0,25788:0:0:0:0:
475,192,25666,128,0,25788:0:0:0:0:
329,192,25788,128,0,25910:0:0:0:0:
256,192,25788,128,0,25910:0:0:0:0:
36,192,25910,1,0,0:0:0:0:
109,192,26032,1,0,0:0:0:0:
256,192,26154,128,0,26398:0:0:0:0:
402,192,26154,128,0,26398:0:0:0:0:
475,192,26154,128,0,26398:0:0:0:0:
182,192,26154,1,0,0:0:0:0:
182,192,26398,1,0,0:0:0:0:
256,192,26641,128,0,26885:0:0:0:0:
109,192,26641,128,0,26885:0:0:0:0:
36,192,26641,128,0,26885:0:0:0:0:
329,192,26641,1,0,0:0:0:0:
475,192,26885,1,0,0:0:0:0:
402,192,27007,1,0,0:0:0:0:
329,192,27129,1,0,0:0:0:0:
36,192,27129,1,0,0:0:0:0:
256,192,27129,1,0,0:0:0:0:
109,192,27251,1,0,0:0:0:0:
182,192,27373,1,0,0:0:0:0:
256,192,27373,1,0,0:0:0:0:
475,192,27373,1,0,0:0:0:0:
36,192,27373,1,0,0:0:0:0:
256,192,27617,1,0,0:0:0:0:
182,192,27617,1,0,0:0:0:0:
36,192,27617,1,0,0:0:0:0:
475,192,27617,1,0,0:0:0:0:
36,192,27861,128,0,28105:0:0:0:0:
329,192,27861,1,0,0:0:0:0:
256,192,28105,128,0,28349:0:0:0:0:
402,192,28105,128,0,28349:0:0:0:0:
475,192,28105,128,0,28349:0:0:0:0:
182,192,28349,1,0,0:0:0:0:
256,192,28593,128,0,28837:0:0:0:0:
109,192,28593,128,0,28837:0:0:0:0:
36,192,28593,128,0,28837:0:0:0:0:
329,192,28837,1,0,0:0:0:0:
182,192,28959,1,0,0:0:0:0:
256,192,29080,1,0,0:0:0:0:
329,192,29202,1,0,0:0:0:0:
256,192,29324,1,0,0:0:0:0:
182,192,29324,1,0,0:0:0:0:
402,192,29324,1,0,0:0:0:0:
475,192,29324,1,0,0:0:0:0:
36,192,29324,1,0,0:0:0:0:
256,192,29568,1,0,0:0:0:0:
329,192,29568,1,0,0:0:0:0:
402,192,29568,1,0,0:0:0:0:
329,192,29812,1,0,0:0:0:0:
256,192,29812,1,0,0:0:0:0:
182,192,29812,1,0,0:0:0:0:
182,192,30056,1,0,0:0:0:0:
256,192,30056,128,0,30300:0:0:0:0:
36,192,30056,128,0,30300:0:0:0:0:
109,192,30056,128,0,30300:0:0:0:0:
182,192,30300,1,0,0:0:0:0:
402,192,30300,1,0,0:0:0:0:
475,192,30300,1,0,0:0:0:0:
256,192,30544,128,0,30788:0:0:0:0:
402,192,30544,128,0,30788:0:0:0:0:
475,192,30544,128,0,30788:0:0:0:0:
109,192,30544,1,0,0:0:0:0:
36,192,30544,1,0,0:0:0:0:
109,192,30788,1,0,0:0:0:0:
36,192,30788,1,0,0:0:0:0:
329,192,30910,1,0,0:0:0:0:
182,192,30910,1,0,0:0:0:0:
402,192,31032,1,0,0:0:0:0:
475,192,31032,1,0,0:0:0:0:
256,192,31154,1,0,0:0:0:0:
109,192,31154,1,0,0:0:0:0:
329,192,31276,1,0,0:0:0:0:
402,192,31276,1,0,0:0:0:0:
36,192,31398,1,0,0:0:0:0:
475,192,31398,1,0,0:0:0:0:
256,192,31520,1,0,0:0:0:0:
329,192,31520,128,0,31763:0:0:0:0:
182,192,31520,128,0,31763:0:0:0:0:
36,192,31763,1,0,0:0:0:0:
475,192,31763,1,0,0:0:0:0:
109,192,31763,1,0,0:0:0:0:
402,192,31763,1,0,0:0:0:0:
256,192,32007,128,0,32251:0:0:0:0:
36,192,32007,128,0,32251:0:0:0:0:
109,192,32007,128,0,32251:0:0:0:0:
475,192,32007,1,0,0:0:0:0:
402,192,32007,1,0,0:0:0:0:
402,192,32251,1,0,0:0:0:0:
475,192,32251,1,0,0:0:0:0:
182,192,32373,1,0,0:0:0:0:
329,192,32373,1,0,0:0:0:0:
256,192,32495,128,0,32617:0:0:0:0:
402,192,32495,128,0,32617:0:0:0:0:
475,192,32495,128,0,32617:0:0:0:0:
182,192,32617,1,0,0:0:0:0:
109,192,32617,1,0,0:0:0:0:
256,192,32739,128,0,32983:0:0:0:0:
36,192,32739,128,0,32983:0:0:0:0:
402,192,32739,1,0,0:0:0:0:
475,192,32739,1,0,0:0:0:0:
329,192,32861,128,0,32983:0:0:0:0:
182,192,32983,128,0,33105:0:0:0:0:
475,192,32983,128,0,33227:0:0:0:0:
256,192,33105,128,0,33227:0:0:0:0:
36,192,33105,128,0,33227:0:0:0:0:
329,192,33227,128,0,33349:0:0:0:0:
109,192,33227,128,0,33471:0:0:0:0:
402,192,33349,128,0,33471:0:0:0:0:
256,192,33471,128,0,33593:0:0:0:0:
36,192,33471,128,0,33715:0:0:0:0:
329,192,33593,128,0,33715:0:0:0:0:
109,192,33593,128,0,33715:0:0:0:0:
402,192,33715,128,0,33837:0:0:0:0:
475,192,33715,128,0,33959:0:0:0:0:
182,192,33837,128,0,33959:0:0:0:0:
256,192,33959,128,0,34080:0:0:0:0:
36,192,33959,128,0,34202:0:0:0:0:
109,192,34080,128,0,34202:0:0:0:0:
402,192,34080,128,0,34202:0:0:0:0:
182,192,34202,128,0,34324:0:0:0:0:
329,192,34202,128,0,34568:0:0:0:0:
475,192,34324,128,0,34446:0:0:0:0:
256,192,34446,128,0,34568:0:0:0:0:
36,192,34446,128,0,34690:0:0:0:0:
109,192,34568,128,0,34690:0:0:0:0:
402,192,34568,128,0,34690:0:0:0:0:
329,192,34690,128,0,34812:0:0:0:0:
475,192,34690,128,0,34934:0:0:0:0:
256,192,34812,128,0,34934:0:0:0:0:
36,192,34934,128,0,35056:0:0:0:0:
402,192,34934,128,0,35178:0:0:0:0:
109,192,35056,128,0,35178:0:0:0:0:
329,192,35056,128,0,35178:0:0:0:0:
36,192,35178,128,0,35422:0:0:0:0:
182,192,35178,1,0,0:0:0:0:
256,192,35300,128,0,35422:0:0:0:0:
182,192,35422,128,0,35666:0:0:0:0:
402,192,35422,128,0,35544:0:0:0:0:
329,192,35544,128,0,35666:0:0:0:0:
36,192,35666,1,0,0:0:0:0:
475,192,35666,1,0,0:0:0:0:
256,192,35666,128,0,35788:0:0:0:0:
109,192,35788,128,0,35910:0:0:0:0:
182,192,35910,128,0,36154:0:0:0:0:
329,192,35910,128,0,36032:0:0:0:0:
256,192,36032,128,0,36154:0:0:0:0:
36,192,36032,128,0,36154:0:0:0:0:
402,192,36154,1,0,0:0:0:0:
475,192,36154,128,0,36276:0:0:0:0:
109,192,36276,128,0,36398:0:0:0:0:
182,192,36398,128,0,36520:0:0:0:0:
329,192,36398,128,0,36641:0:0:0:0:
256,192,36520,128,0,36641:0:0:0:0:
36,192,36520,128,0,36641:0:0:0:0:
475,192,36641,1,0,0:0:0:0:
109,192,36641,128,0,36763:0:0:0:0:
402,192,36763,128,0,36885:0:0:0:0:
182,192,36885,128,0,37007:0:0:0:0:
36,192,36885,128,0,37129:0:0:0:0:
256,192,37007,128,0,37129:0:0:0:0:
475,192,37007,128,0,37129:0:0:0:0:
109,192,37129,128,0,37251:0:0:0:0:
402,192,37129,1,0,0:0:0:0:
329,192,37251,128,0,37373:0:0:0:0:
182,192,37373,128,0,37617:0:0:0:0:
402,192,37373,128,0,37495:0:0:0:0:
256,192,37495,128,0,37617:0:0:0:0:
36,192,37495,128,0,37617:0:0:0:0:
475,192,37617,1,0,0:0:0:0:
329,192,37617,128,0,37739:0:0:0:0:
109,192,37739,128,0,37861:0:0:0:0:
402,192,37861,128,0,37983:0:0:0:0:
256,192,37861,128,0,38105:0:0:0:0:
182,192,37983,128,0,38105:0:0:0:0:
36,192,37983,128,0,38105:0:0:0:0:
329,192,38105,1,0,0:0:0:0:
475,192,38105,128,0,38227:0:0:0:0:
402,192,38227,128,0,38349:0:0:0:0:
475,192,38349,128,0,38471:0:0:0:0:
109,192,38349,128,0,38593:0:0:0:0:
182,192,38471,128,0,38593:0:0:0:0:
329,192,38471,128,0,38593:0:0:0:0:
256,192,38593,1,0,0:0:0:0:
402,192,38593,1,0,0:0:0:0:
36,192,38593,128,0,38715:0:0:0:0:
475,192,38715,128,0,38837:0:0:0:0:
182,192,38837,128,0,38959:0:0:0:0:
402,192,38837,128,0,39080:0:0:0:0:
329,192,38959,128,0,39080:0:0:0:0:
36,192,38959,128,0,39080:0:0:0:0:
109,192,39080,128,0,39202:0:0:0:0:
475,192,39080,1,0,0:0:0:0:
256,192,39202,128,0,39324:0:0:0:0:
329,192,39324,128,0,39568:0:0:0:0:
36,192,39324,128,0,39446:0:0:0:0:
109,192,39446,128,0,39568:0:0:0:0:
402,192,39446,128,0,39568:0:0:0:0:
256,192,39568,1,0,0:0:0:0:
182,192,39568,128,0,39812:0:0:0:0:
36,192,39690,128,0,39934:0:0:0:0:
402,192,39690,128,0,39934:0:0:0:0:
256,192,39812,128,0,40056:0:0:0:0:
109,192,39934,128,0,40178:0:0:0:0:
475,192,39934,128,0,40178:0:0:0:0:
329,192,40056,128,0,40300:0:0:0:0:
182,192,40178,128,0,40422:0:0:0:0:
402,192,40300,128,0,40544:0:0:0:0:
36,192,40300,128,0,40544:0:0:0:0:
256,192,40422,128,0,40666:0:0:0:0:
109,192,40544,128,0,40666:0:0:0:0:
475,192,40544,1,0,0:0:0:0:
182,192,40666,128,0,40788:0:0:0:0:
402,192,40788,128,0,40910:0:0:0:0:
36,192,40788,128,0,41032:0:0:0:0:
475,192,40910,128,0,41032:0:0:0:0:
109,192,40910,128,0,41032:0:0:0:0:
256,192,41032,1,0,0:0:0:0:
329,192,41032,128,0,41154:0:0:0:0:
182,192,41154,128,0,41276:0:0:0:0:
402,192,41276,128,0,41398:0:0:0:0:
36,192,41276,128,0,41520:0:0:0:0:
109,192,41398,128,0,41520:0:0:0:0:
329,192,41398,128,0,41520:0:0:0:0:
256,192,41520,1,0,0:0:0:0:
475,192,41520,1,0,0:0:0:0:
402,192,41520,128,0,41641:0:0:0:0:
182,192,41641,128,0,41763:0:0:0:0:
329,192,41763,128,0,41885:0:0:0:0:
475,192,41763,128,0,42007:0:0:0:0:
109,192,41885,128,0,42007:0:0:0:0:
256,192,41885,128,0,42007:0:0:0:0:
36,192,42007,1,0,0:0:0:0:
402,192,42007,1,0,0:0:0:0:
182,192,42007,128,0,42129:0:0:0:0:
329,192,42129,128,0,42251:0:0:0:0:
475,192,42251,128,0,42495:0:0:0:0:
109,192,42251,128,0,42373:0:0:0:0:
256,192,42373,128,0,42495:0:0:0:0:
36,192,42373,128,0,42495:0:0:0:0:
182,192,42495,1,0,0:0:0:0:
402,192,42495,128,0,42617:0:0:0:0:
109,192,42617,128,0,42739:0:0:0:0:
182,192,42739,128,0,42861:0:0:0:0:
475,192,42739,128,0,42983:0:0:0:0:
256,192,42861,128,0,42983:0:0:0:0:
402,192,42861,128,0,42983:0:0:0:0:
36,192,42983,1,0,0:0:0:0:
109,192,42983,128,0,43105:0:0:0:0:
329,192,43105,128,0,43227:0:0:0:0:
182,192,43227,128,0,43349:0:0:0:0:
36,192,43227,128,0,43471:0:0:0:0:
402,192,43349,128,0,43471:0:0:0:0:
256,192,43349,128,0,43471:0:0:0:0:
109,192,43471,1,0,0:0:0:0:
475,192,43471,128,0,43593:0:0:0:0:
182,192,43593,128,0,43715:0:0:0:0:
402,192,43715,128,0,43837:0:0:0:0:
36,192,43715,128,0,43959:0:0:0:0:
109,192,43837,128,0,43959:0:0:0:0:
256,192,43837,128,0,43959:0:0:0:0:
329,192,43959,1,0,0:0:0:0:
475,192,43959,128,0,44080:0:0:0:0:
182,192,44080,128,0,44202:0:0:0:0:
329,192,44202,128,0,44324:0:0:0:0:
475,192,44202,128,0,44446:0:0:0:0:
36,192,44324,128,0,44446:0:0:0:0:
109,192,44324,128,0,44446:0:0:0:0:
256,192,44446,1,0,0:0:0:0:
402,192,44446,128,0,44568:0:0:0:0:
182,192,44568,128,0,44690:0:0:0:0:
329,192,44690,128,0,44812:0:0:0:0:
36,192,44690,128,0,44934:0:0:0:0:
109,192,44812,128,0,44934:0:0:0:0:
475,192,44812,128,0,44934:0:0:0:0:
182,192,44934,1,0,0:0:0:0:
256,192,44934,1,0,0:0:0:0:
402,192,44934,128,0,45056:0:0:0:0:
109,192,45056,128,0,45178:0:0:0:0:
329,192,45178,128,0,45300:0:0:0:0:
402,192,45178,128,0,45422:0:0:0:0:
182,192,45300,128,0,45422:0:0:0:0:
475,192,45300,128,0,45422:0:0:0:0:
256,192,45422,1,0,0:0:0:0:
36,192,45422,128,0,45544:0:0:0:0:
329,192,45544,128,0,45666:0:0:0:0:
109,192,45666,128,0,45910:0:0:0:0:
402,192,45788,128,0,45910:0:0:0:0:
182,192,45788,128,0,45910:0:0:0:0:
256,192,45910,1,0,0:0:0:0:
475,192,45910,1,0,0:0:0:0:
36,192,45910,128,0,46032:0:0:0:0:
329,192,46032,128,0,46154:0:0:0:0:
109,192,46154,128,0,46276:0:0:0:0:
182,192,46154,128,0,46398:0:0:0:0:
402,192,46276,128,0,46398:0:0:0:0:
256,192,46276,128,0,46398:0:0:0:0:
475,192,46398,1,0,0:0:0:0:
36,192,46398,128,0,46520:0:0:0:0:
109,192,46520,128,0,46641:0:0:0:0:
329,192,46641,128,0,46763:0:0:0:0:
475,192,46641,128,0,46885:0:0:0:0:
256,192,46763,128,0,46885:0:0:0:0:
36,192,46763,128,0,46885:0:0:0:0:
109,192,46885,1,0,0:0:0:0:
402,192,46885,1,0,0:0:0:0:
329,192,47007,1,0,0:0:0:0:
256,192,47129,1,0,0:0:0:0:
36,192,47129,1,0,0:0:0:0:
109,192,47129,1,0,0:0:0:0:
475,192,47129,1,0,0:0:0:0:
402,192,47129,1,0,0:0:0:0:
36,192,47373,1,0,0:0:0:0:
109,192,47404,1,0,0:0:0:0:
182,192,47434,1,0,0:0:0:0:
256,192,47465,1,0,0:0:0:0:
475,192,47495,1,0,0:0:0:0:
329,192,47495,1,0,0:0:0:0:
256,192,47617,1,0,0:0:0:0:
475,192,47617,1,0,0:0:0:0:
36,192,47617,1,0,0:0:0:0:
475,192,47739,1,0,0:0:0:0:
402,192,47739,1,0,0:0:0:0:
109,192,47739,1,0,0:0:0:0:
256,192,47861,1,0,0:0:0:0:
329,192,47861,1,0,0:0:0:0:
36,192,47861,1,0,0:0:0:0:
182,192,47983,1,0,0:0:0:0:
402,192,47983,1,0,0:0:0:0:
109,192,47983,1,0,0:0:0:0:
36,192,48105,1,0,0:0:0:0:
109,192,48105,1,0,0:0:0:0:
475,192,48105,1,0,0:0:0:0:
182,192,48227,1,0,0:0:0:0:
256,192,48227,1,0,0:0:0:0:
402,192,48227,1,0,0:0:0:0:
475,192,48349,1,0,0:0:0:0:
402,192,48349,1,0,0:0:0:0:
36,192,48349,128,0,48471:0:0:0:0:
182,192,48593,128,0,48715:0:0:0:0:
256,192,48837,128,0,48959:0:0:0:0:
256,192,49080,128,0,49202:0:0:0:0:
36,192,49080,1,0,0:0:0:0:
475,192,49080,1,0,0:0:0:0:
329,192,49202,128,0,49324:0:0:0:0:
329,192,49568,128,0,49690:0:0:0:0:
256,192,49812,128,0,49934:0:0:0:0:
329,192,50056,1,0,0:0:0:0:
475,192,50056,1,0,0:0:0:0:
36,192,50056,1,0,0:0:0:0:
182,192,50056,128,0,50178:0:0:0:0:
256,192,50300,1,0,0:0:0:0:
402,192,50300,1,0,0:0:0:0:
475,192,50300,1,0,0:0:0:0:
36,192,50300,1,0,0:0:0:0:
109,192,50300,128,0,50422:0:0:0:0:
36,192,50544,128,0,50788:0:0:0:0:
182,192,50788,128,0,51032:0:0:0:0:
36,192,51032,128,0,51154:0:0:0:0:
182,192,51154,128,0,51398:0:0:0:0:
256,192,51520,1,0,0:0:0:0:
475,192,51520,1,0,0:0:0:0:
36,192,51520,1,0,0:0:0:0:
402,192,51520,128,0,51641:0:0:0:0:
475,192,51763,1,0,0:0:0:0:
36,192,51763,1,0,0:0:0:0:
182,192,51763,128,0,51885:0:0:0:0:
329,192,51763,1,0,0:0:0:0:
36,192,52007,1,0,0:0:0:0:
475,192,52007,1,0,0:0:0:0:
182,192,52007,1,0,0:0:0:0:
329,192,52007,128,0,52129:0:0:0:0:
475,192,52251,1,0,0:0:0:0:
36,192,52251,1,0,0:0:0:0:
256,192,52251,1,0,0:0:0:0:
109,192,52251,128,0,52373:0:0:0:0:
256,192,52739,1,0,0:0:0:0:
402,192,52739,1,0,0:0:0:0:
475,192,52739,1,0,0:0:0:0:
109,192,52739,1,0,0:0:0:0:
36,192,52739,128,0,52861:0:0:0:0:
256,192,52983,1,0,0:0:0:0:
402,192,52983,1,0,0:0:0:0:
109,192,52983,128,0,53105:0:0:0:0:
329,192,53105,128,0,53349:0:0:0:0:
182,192,53471,128,0,53593:0:0:0:0:
256,192,53715,128,0,53837:0:0:0:0:
402,192,53715,1,0,0:0:0:0:
475,192,53715,1,0,0:0:0:0:
256,192,53959,128,0,54080:0:0:0:0:
329,192,53959,128,0,54202:0:0:0:0:
402,192,54080,128,0,54446:0:0:0:0:
256,192,54202,1,0,0:0:0:0:
36,192,54202,1,0,0:0:0:0:
109,192,54202,1,0,0:0:0:0:
182,192,54446,128,0,54568:0:0:0:0:
256,192,54690,128,0,55178:0:0:0:0:
329,192,54690,1,0,0:0:0:0:
329,192,54934,128,0,55056:0:0:0:0:
402,192,54934,128,0,55056:0:0:0:0:
109,192,55056,128,0,55178:0:0:0:0:
182,192,55056,128,0,55666:0:0:0:0:
256,192,55422,1,0,0:0:0:0:
402,192,55422,1,0,0:0:0:0:
475,192,55422,1,0,0:0:0:0:
109,192,55422,128,0,55666:0:0:0:0:
256,192,55666,1,0,0:0:0:0:
475,192,55666,1,0,0:0:0:0:
402,192,55666,1,0,0:0:0:0:
182,192,55910,1,0,0:0:0:0:
256,192,55910,1,0,0:0:0:0:
402,192,55910,1,0,0:0:0:0:
109,192,55910,1,0,0:0:0:0:
329,192,55910,1,0,0:0:0:0:
109,192,56154,1,0,0:0:0:0:
475,192,56154,1,0,0:0:0:0:
402,192,56154,1,0,0:0:0:0:
36,192,56154,1,0,0:0:0:0:
329,192,56154,1,0,0:0:0:0:
182,192,56154,128,0,56276:0:0:0:0:
256,192,56276,128,0,56398:0:0:0:0:
402,192,56398,128,0,56520:0:0:0:0:
109,192,56398,128,0,56641:0:0:0:0:
182,192,56520,128,0,56641:0:0:0:0:
475,192,56641,1,0,0:0:0:0:
256,192,56641,1,0,0:0:0:0:
329,192,56641,128,0,56763:0:0:0:0:
36,192,56763,128,0,56885:0:0:0:0:
109,192,56885,128,0,57007:0:0:0:0:
256,192,56885,128,0,57129:0:0:0:0:
329,192,57007,128,0,57129:0:0:0:0:
402,192,57129,1,0,0:0:0:0:
36,192,57129,1,0,0:0:0:0:
182,192,57129,128,0,57251:0:0:0:0:
475,192,57251,128,0,57373:0:0:0:0:
109,192,57373,128,0,57495:0:0:0:0:
329,192,57373,128,0,57617:0:0:0:0:
256,192,57495,128,0,57617:0:0:0:0:
36,192,57617,1,0,0:0:0:0:
182,192,57617,1,0,0:0:0:0:
475,192,57617,1,0,0:0:0:0:
402,192,57617,128,0,57739:0:0:0:0:
109,192,57739,128,0,57861:0:0:0:0:
329,192,57861,128,0,57983:0:0:0:0:
36,192,57861,128,0,58105:0:0:0:0:
182,192,57983,128,0,58105:0:0:0:0:
256,192,58105,1,0,0:0:0:0:
475,192,58105,1,0,0:0:0:0:
402,192,58105,128,0,58227:0:0:0:0:
109,192,58227,128,0,58349:0:0:0:0:
329,192,58349,128,0,58593:0:0:0:0:
182,192,58471,128,0,58593:0:0:0:0:
36,192,58593,1,0,0:0:0:0:
402,192,58593,1,0,0:0:0:0:
256,192,58715,1,0,0:0:0:0:
329,192,58837,1,0,0:0:0:0:
475,192,58837,1,0,0:0:0:0:
182,192,58959,5,0,0:0:0:0:
109,192,59080,1,0,0:0:0:0:
329,192,59202,1,0,0:0:0:0:
256,192,59324,1,0,0:0:0:0:
475,192,59446,1,0,0:0:0:0:
109,192,59568,1,0,0:0:0:0:
182,192,59568,128,0,59812:0:0:0:0:
256,192,59812,1,0,0:0:0:0:
329,192,60056,5,0,0:0:0:0:
402,192,60056,1,0,0:0:0:0:
475,192,60056,1,0,0:0:0:0:
256,192,60056,1,0,0:0:0:0:
182,192,60300,1,0,0:0:0:0:
109,192,60300,1,0,0:0:0:0:
36,192,60300,1,0,0:0:0:0:
256,192,60544,5,0,0:0:0:0:
329,192,60544,1,0,0:0:0:0:
402,192,60544,1,0,0:0:0:0:
475,192,60544,1,0,0:0:0:0:
182,192,60788,1,0,0:0:0:0:
109,192,60788,1,0,0:0:0:0:
36,192,60788,1,0,0:0:0:0:
256,192,61032,1,0,0:0:0:0:
402,192,61032,1,0,0:0:0:0:
329,192,61032,1,0,0:0:0:0:
475,192,61032,1,0,0:0:0:0:
109,192,61276,1,0,0:0:0:0:
182,192,61276,1,0,0:0:0:0:
36,192,61276,1,0,0:0:0:0:
402,192,61520,1,0,0:0:0:0:
329,192,61520,1,0,0:0:0:0:
475,192,61520,1,0,0:0:0:0:
256,192,61520,1,0,0:0:0:0:
109,192,61763,1,0,0:0:0:0:
182,192,61763,1,0,0:0:0:0:
36,192,61763,1,0,0:0:0:0:
256,192,62007,1,0,0:0:0:0:
329,192,62007,1,0,0:0:0:0:
475,192,62007,1,0,0:0:0:0:
402,192,62007,1,0,0:0:0:0:
182,192,62129,1,0,0:0:0:0:
109,192,62129,1,0,0:0:0:0:
36,192,62129,1,0,0:0:0:0:
329,192,62251,1,0,0:0:0:0:
402,192,62251,1,0,0:0:0:0:
475,192,62251,1,0,0:0:0:0:
182,192,62373,5,0,0:0:0:0:
109,192,62373,1,0,0:0:0:0:
36,192,62373,1,0,0:0:0:0:
329,192,62495,1,0,0:0:0:0:
475,192,62495,1,0,0:0:0:0:
402,192,62495,1,0,0:0:0:0:
256,192,62495,1,0,0:0:0:0:
182,192,62617,1,0,0:0:0:0:
109,192,62617,1,0,0:0:0:0:
36,192,62617,1,0,0:0:0:0:
329,192,62739,1,0,0:0:0:0:
402,192,62739,1,0,0:0:0:0:
475,192,62739,1,0,0:0:0:0:
182,192,62861,1,0,0:0:0:0:
109,192,62861,1,0,0:0:0:0:
36,192,62861,1,0,0:0:0:0:
256,192,62983,1,0,0:0:0:0:
329,192,62983,1,0,0:0:0:0:
475,192,62983,1,0,0:0:0:0:
402,192,62983,1,0,0:0:0:0:
182,192,63105,1,0,0:0:0:0:
109,192,63105,1,0,0:0:0:0:
36,192,63105,1,0,0:0:0:0:
329,192,63227,1,0,0:0:0:0:
475,192,63227,1,0,0:0:0:0:
402,192,63227,1,0,0:0:0:0:
182,192,63349,1,0,0:0:0:0:
109,192,63349,1,0,0:0:0:0:
36,192,63349,1,0,0:0:0:0:
475,192,63471,1,0,0:0:0:0:
402,192,63471,1,0,0:0:0:0:
329,192,63471,1,0,0:0:0:0:
182,192,63532,1,0,0:0:0:0:
109,192,63532,1,0,0:0:0:0:
36,192,63532,1,0,0:0:0:0:
329,192,63593,1,0,0:0:0:0:
402,192,63593,1,0,0:0:0:0:
475,192,63593,1,0,0:0:0:0:
182,192,63654,1,0,0:0:0:0:
109,192,63654,1,0,0:0:0:0:
36,192,63654,1,0,0:0:0:0:
329,192,63715,1,0,0:0:0:0:
402,192,63715,1,0,0:0:0:0:
475,192,63715,1,0,0:0:0:0:
182,192,63776,1,0,0:0:0:0:
109,192,63776,1,0,0:0:0:0:
36,192,63776,1,0,0:0:0:0:
329,192,63837,1,0,0:0:0:0:
402,192,63837,1,0,0:0:0:0:
475,192,63837,1,0,0:0:0:0:
182,192,63898,1,0,0:0:0:0:
109,192,63898,1,0,0:0:0:0:
36,192,63898,1,0,0:0:0:0:
475,192,63959,1,0,0:0:0:0:
402,192,63959,1,0,0:0:0:0:
256,192,63959,128,0,64202:0:0:0:0:
329,192,63959,1,0,0:0:0:0:
329,192,64324,128,0,64568:0:0:0:0:
182,192,64690,128,0,65056:0:0:0:0:
329,192,65178,128,0,65422:0:0:0:0:
36,192,65422,128,0,65544:0:0:0:0:
475,192,65422,128,0,65544:0:0:0:0:
109,192,65483,128,0,65605:0:0:0:0:
402,192,65483,128,0,65605:0:0:0:0:
182,192,65544,128,0,65666:0:0:0:0:
329,192,65544,128,0,65666:0:0:0:0:
256,192,65605,128,0,65727:0:0:0:0:
36,192,65666,128,0,65910:0:0:0:0:
475,192,65666,128,0,65788:0:0:0:0:
109,192,65788,128,0,65910:0:0:0:0:
402,192,65788,128,0,65910:0:0:0:0:
256,192,65910,128,0,66154:0:0:0:0:
182,192,65910,128,0,66032:0:0:0:0:
475,192,65910,128,0,66276:0:0:0:0:
329,192,66032,128,0,66154:0:0:0:0:
402,192,66032,128,0,66276:0:0:0:0:
36,192,66154,128,0,66398:0:0:0:0:
109,192,66276,128,0,66398:0:0:0:0:
256,192,66337,128,0,66398:0:0:0:0:
475,192,66398,128,0,66459:0:0:0:0:
402,192,66398,128,0,66459:0:0:0:0:
182,192,66459,128,0,66520:0:0:0:0:
329,192,66520,128,0,66580:0:0:0:0:
402,192,66520,128,0,66580:0:0:0:0:
109,192,66580,128,0,66641:0:0:0:0:
329,192,66641,128,0,66702:0:0:0:0:
256,192,66641,128,0,66702:0:0:0:0:
36,192,66702,128,0,66763:0:0:0:0:
475,192,66702,128,0,66763:0:0:0:0:
256,192,66763,128,0,66824:0:0:0:0:
182,192,66763,128,0,66824:0:0:0:0:
402,192,66824,128,0,66885:0:0:0:0:
36,192,66885,128,0,67007:0:0:0:0:
109,192,66885,128,0,67007:0:0:0:0:
182,192,66885,128,0,67007:0:0:0:0:
256,192,67007,128,0,67251:0:0:0:0:
402,192,67007,128,0,67129:0:0:0:0:
475,192,67007,1,0,0:0:0:0:
109,192,67129,128,0,67373:0:0:0:0:
36,192,67129,1,0,0:0:0:0:
475,192,67251,128,0,67495:0:0:0:0:
402,192,67251,1,0,0:0:0:0:
329,192,67373,128,0,67617:0:0:0:0:
256,192,67373,1,0,0:0:0:0:
182,192,67495,128,0,67739:0:0:0:0:
109,192,67495,1,0,0:0:0:0:
36,192,67617,128,0,67739:0:0:0:0:
402,192,67617,1,0,0:0:0:0:
329,192,67739,128,0,67861:0:0:0:0:
36,192,67861,128,0,68227:0:0:0:0:
475,192,67861,128,0,68227:0:0:0:0:
256,192,67861,128,0,68105:0:0:0:0:
182,192,67861,128,0,67983:0:0:0:0:
402,192,67861,1,0,0:0:0:0:
109,192,68105,128,0,68227:0:0:0:0:
402,192,68105,128,0,68227:0:0:0:0:
329,192,68227,128,0,68471:0:0:0:0:
182,192,68227,128,0,68471:0:0:0:0:
109,192,68349,128,0,68471:0:0:0:0:
402,192,68349,128,0,68471:0:0:0:0:
475,192,68349,128,0,68715:0:0:0:0:
36,192,68349,128,0,68715:0:0:0:0:
256,192,68349,128,0,68471:0:0:0:0:
256,192,68593,128,0,68959:0:0:0:0:
182,192,68593,128,0,68715:0:0:0:0:
109,192,68593,128,0,68715:0:0:0:0:
402,192,68593,128,0,68715:0:0:0:0:
329,192,68593,128,0,68715:0:0:0:0:
329,192,68837,128,0,69080:0:0:0:0:
402,192,68837,128,0,69202:0:0:0:0:
36,192,68837,128,0,68959:0:0:0:0:
109,192,68837,128,0,69080:0:0:0:0:
475,192,68837,128,0,69202:0:0:0:0:
182,192,68959,128,0,69202:0:0:0:0:
256,192,69080,128,0,69324:0:0:0:0:
36,192,69080,128,0,69202:0:0:0:0:
109,192,69202,128,0,69324:0:0:0:0:
329,192,69202,128,0,69568:0:0:0:0:
182,192,69324,128,0,69446:0:0:0:0:
475,192,69324,128,0,69568:0:0:0:0:
402,192,69324,128,0,69568:0:0:0:0:
109,192,69446,128,0,69568:0:0:0:0:
256,192,69446,128,0,69690:0:0:0:0:
36,192,69568,128,0,69690:0:0:0:0:
182,192,69568,128,0,69812:0:0:0:0:
109,192,69690,128,0,69812:0:0:0:0:
475,192,69812,1,0,0:0:0:0:
36,192,69812,1,0,0:0:0:0:
402,192,69812,128,0,70056:0:0:0:0:
256,192,69812,128,0,69934:0:0:0:0:
329,192,69934,128,0,70056:0:0:0:0:
182,192,70056,128,0,70178:0:0:0:0:
36,192,70056,128,0,70361:0:0:0:0:
402,192,70178,128,0,70300:0:0:0:0:
475,192,70178,128,0,70300:0:0:0:0:
256,192,70178,128,0,70300:0:0:0:0:
109,192,70300,128,0,70422:0:0:0:0:
182,192,70361,128,0,70483:0:0:0:0:
256,192,70422,128,0,70544:0:0:0:0:
329,192,70483,128,0,70666:0:0:0:0:
402,192,70544,128,0,70605:0:0:0:0:
256,192,70605,128,0,70727:0:0:0:0:
182,192,70666,128,0,70788:0:0:0:0:
109,192,70727,128,0,70849:0:0:0:0:
475,192,70727,1,0,0:0:0:0:
402,192,70757,1,0,0:0:0:0:
36,192,70788,128,0,71032:0:0:0:0:
329,192,70788,1,0,0:0:0:0:
256,192,70910,1,0,0:0:0:0:
329,192,71032,128,0,71154:0:0:0:0:
182,192,71032,128,0,71276:0:0:0:0:
475,192,71032,1,0,0:0:0:0:
402,192,71154,128,0,71398:0:0:0:0:
256,192,71276,128,0,71520:0:0:0:0:
109,192,71276,1,0,0:0:0:0:
36,192,71276,1,0,0:0:0:0:
329,192,71276,1,0,0:0:0:0:
475,192,71398,128,0,71641:0:0:0:0:
109,192,71398,128,0,71520:0:0:0:0:
36,192,71398,128,0,71520:0:0:0:0:
182,192,71398,128,0,71763:0:0:0:0:
329,192,71520,128,0,71763:0:0:0:0:
402,192,71520,1,0,0:0:0:0:
109,192,71641,128,0,71763:0:0:0:0:
36,192,71641,128,0,71763:0:0:0:0:
256,192,71641,128,0,72007:0:0:0:0:
475,192,71763,1,0,0:0:0:0:
402,192,71763,1,0,0:0:0:0:
475,192,72007,128,0,72129:0:0:0:0:
36,192,72007,128,0,72068:0:0:0:0:
402,192,72068,128,0,72190:0:0:0:0:
109,192,72068,128,0,72129:0:0:0:0:
329,192,72129,128,0,72251:0:0:0:0:
182,192,72129,128,0,72190:0:0:0:0:
256,192,72190,128,0,72495:0:0:0:0:
36,192,72251,128,0,72495:0:0:0:0:
475,192,72251,128,0,72373:0:0:0:0:
402,192,72251,128,0,72373:0:0:0:0:
109,192,72251,128,0,72617:0:0:0:0:
329,192,72373,128,0,72617:0:0:0:0:
402,192,72495,128,0,72617:0:0:0:0:
182,192,72495,128,0,72739:0:0:0:0:
475,192,72495,128,0,72861:0:0:0:0:
256,192,72617,128,0,72739:0:0:0:0:
36,192,72617,128,0,72861:0:0:0:0:
109,192,72739,128,0,72861:0:0:0:0:
402,192,72739,128,0,72861:0:0:0:0:
329,192,72739,128,0,72983:0:0:0:0:
256,192,72861,128,0,73105:0:0:0:0:
182,192,72861,128,0,73105:0:0:0:0:
109,192,72983,128,0,73227:0:0:0:0:
402,192,72983,128,0,73105:0:0:0:0:
475,192,72983,128,0,73105:0:0:0:0:
329,192,73105,128,0,73227:0:0:0:0:
36,192,73105,128,0,73227:0:0:0:0:
256,192,73227,128,0,73715:0:0:0:0:
402,192,73227,128,0,73349:0:0:0:0:
182,192,73227,128,0,73471:0:0:0:0:
475,192,73227,128,0,73349:0:0:0:0:
109,192,73349,128,0,73471:0:0:0:0:
36,192,73349,128,0,73715:0:0:0:0:
402,192,73471,128,0,73593:0:0:0:0:
329,192,73471,128,0,73715:0:0:0:0:
475,192,73471,128,0,73593:0:0:0:0:
182,192,73593,128,0,73715:0:0:0:0:
109,192,73593,128,0,73715:0:0:0:0:
475,192,73715,128,0,74080:0:0:0:0:
256,192,73959,128,0,74080:0:0:0:0:
109,192,73959,128,0,74080:0:0:0:0:
402,192,73959,128,0,74080:0:0:0:0:
36,192,74202,128,0,74690:0:0:0:0:
109,192,74202,128,0,74446:0:0:0:0:
329,192,74202,128,0,74446:0:0:0:0:
256,192,74202,1,0,0:0:0:0:
402,192,74202,128,0,74324:0:0:0:0:
475,192,74202,128,0,74568:0:0:0:0:
182,192,74324,128,0,74568:0:0:0:0:
256,192,74446,128,0,74690:0:0:0:0:
109,192,74568,128,0,74812:0:0:0:0:
329,192,74568,128,0,74690:0:0:0:0:
182,192,74690,128,0,74934:0:0:0:0:
475,192,74690,128,0,74812:0:0:0:0:
402,192,74690,128,0,74812:0:0:0:0:
329,192,74812,128,0,75056:0:0:0:0:
256,192,74812,1,0,0:0:0:0:
109,192,74934,128,0,75056:0:0:0:0:
402,192,74934,1,0,0:0:0:0:
475,192,74934,128,0,75056:0:0:0:0:
256,192,75056,128,0,75178:0:0:0:0:
36,192,75056,128,0,75178:0:0:0:0:
402,192,75178,128,0,75300:0:0:0:0:
182,192,75178,128,0,75300:0:0:0:0:
329,192,75300,128,0,75422:0:0:0:0:
109,192,75422,128,0,75544:0:0:0:0:
475,192,75422,128,0,75544:0:0:0:0:
182,192,75483,128,0,75605:0:0:0:0:
256,192,75544,128,0,76032:0:0:0:0:
402,192,75544,1,0,0:0:0:0:
329,192,75605,1,0,0:0:0:0:
36,192,75666,128,0,76154:0:0:0:0:
109,192,75666,128,0,75788:0:0:0:0:
182,192,75666,128,0,75910:0:0:0:0:
475,192,75666,128,0,75910:0:0:0:0:
402,192,75788,128,0,76032:0:0:0:0:
329,192,75910,128,0,76398:0:0:0:0:
109,192,76032,128,0,76154:0:0:0:0:
182,192,76032,128,0,76276:0:0:0:0:
256,192,76154,128,0,76641:0:0:0:0:
402,192,76154,128,0,76398:0:0:0:0:
475,192,76154,128,0,76398:0:0:0:0:
36,192,76276,128,0,76520:0:0:0:0:
109,192,76398,128,0,76520:0:0:0:0:
182,192,76398,128,0,76641:0:0:0:0:
475,192,76520,128,0,76885:0:0:0:0:
402,192,76520,128,0,76885:0:0:0:0:
109,192,76641,128,0,76885:0:0:0:0:
36,192,76641,128,0,76885:0:0:0:0:
329,192,76641,128,0,76885:0:0:0:0:
256,192,76763,128,0,77129:0:0:0:0:
182,192,76885,128,0,77007:0:0:0:0:
36,192,77007,128,0,77251:0:0:0:0:
475,192,77007,128,0,77129:0:0:0:0:
109,192,77129,128,0,77251:0:0:0:0:
329,192,77129,128,0,77251:0:0:0:0:
402,192,77251,128,0,77373:0:0:0:0:
182,192,77251,128,0,77373:0:0:0:0:
475,192,77373,128,0,77617:0:0:0:0:
36,192,77373,128,0,77617:0:0:0:0:
329,192,77495,128,0,77617:0:0:0:0:
402,192,77617,128,0,78105:0:0:0:0:
182,192,77617,128,0,77739:0:0:0:0:
256,192,77617,128,0,77983:0:0:0:0:
109,192,77617,128,0,78105:0:0:0:0:
329,192,77739,128,0,77861:0:0:0:0:
182,192,77861,128,0,77983:0:0:0:0:
329,192,77983,128,0,78105:0:0:0:0:
256,192,78105,128,0,78471:0:0:0:0:
182,192,78105,128,0,78227:0:0:0:0:
402,192,78227,128,0,78349:0:0:0:0:
475,192,78227,128,0,78349:0:0:0:0:
109,192,78349,128,0,78471:0:0:0:0:
36,192,78349,128,0,78471:0:0:0:0:
402,192,78471,128,0,78593:0:0:0:0:
329,192,78471,128,0,78593:0:0:0:0:
256,192,78593,128,0,78959:0:0:0:0:
182,192,78593,128,0,78715:0:0:0:0:
109,192,78593,128,0,78715:0:0:0:0:
475,192,78715,128,0,78837:0:0:0:0:
402,192,78715,128,0,78837:0:0:0:0:
36,192,78837,128,0,78959:0:0:0:0:
109,192,78837,128,0,78959:0:0:0:0:
329,192,78959,128,0,79080:0:0:0:0:
402,192,78959,128,0,79080:0:0:0:0:
109,192,79080,128,0,79202:0:0:0:0:
182,192,79080,128,0,79202:0:0:0:0:
256,192,79080,128,0,79507:0:0:0:0:
402,192,79202,128,0,79324:0:0:0:0:
475,192,79202,128,0,79324:0:0:0:0:
182,192,79324,128,0,79507:0:0:0:0:
329,192,79446,128,0,79507:0:0:0:0:
475,192,79568,128,0,79629:0:0:0:0:
329,192,79629,128,0,79690:0:0:0:0:
182,192,79690,128,0,79751:0:0:0:0:
36,192,79751,128,0,79812:0:0:0:0:
402,192,79812,128,0,79873:0:0:0:0:
256,192,79873,128,0,79934:0:0:0:0:
109,192,79934,128,0,79995:0:0:0:0:
475,192,79995,128,0,80056:0:0:0:0:
329,192,80056,128,0,80117:0:0:0:0:
36,192,80117,128,0,80178:0:0:0:0:
182,192,80178,128,0,80239:0:0:0:0:
475,192,80239,128,0,80300:0:0:0:0:
329,192,80300,128,0,80361:0:0:0:0:
36,192,80361,128,0,80422:0:0:0:0:
182,192,80422,128,0,80483:0:0:0:0:
329,192,80544,128,0,80788:0:0:0:0:
402,192,80544,1,0,0:0:0:0:
182,192,80666,128,0,80910:0:0:0:0:
256,192,80666,1,0,0:0:0:0:
402,192,80788,128,0,81032:0:0:0:0:
475,192,80788,1,0,0:0:0:0:
36,192,80788,128,0,81032:0:0:0:0:
109,192,80788,1,0,0:0:0:0:
256,192,80910,128,0,81154:0:0:0:0:
329,192,80910,1,0,0:0:0:0:
475,192,81032,128,0,81276:0:0:0:0:
109,192,81032,128,0,81276:0:0:0:0:
182,192,81032,1,0,0:0:0:0:
329,192,81154,128,0,81520:0:0:0:0:
402,192,81154,1,0,0:0:0:0:
256,192,81276,1,0,0:0:0:0:
182,192,81276,128,0,81520:0:0:0:0:
109,192,81398,1,0,0:0:0:0:
36,192,81398,128,0,81641:0:0:0:0:
402,192,81520,128,0,81641:0:0:0:0:
475,192,81520,128,0,81641:0:0:0:0:
109,192,81520,128,0,81641:0:0:0:0:
256,192,81520,128,0,81885:0:0:0:0:
36,192,81763,128,0,81885:0:0:0:0:
109,192,81763,128,0,81885:0:0:0:0:
402,192,81763,128,0,81885:0:0:0:0:
475,192,81763,128,0,81885:0:0:0:0:
329,192,81885,128,0,82007:0:0:0:0:
182,192,81885,128,0,82007:0:0:0:0:
109,192,82007,128,0,82129:0:0:0:0:
36,192,82007,128,0,82129:0:0:0:0:
402,192,82007,128,0,82129:0:0:0:0:
475,192,82007,128,0,82129:0:0:0:0:
256,192,82007,128,0,82129:0:0:0:0:
182,192,82251,128,0,82373:0:0:0:0:
329,192,82251,128,0,82373:0:0:0:0:
475,192,82251,128,0,82373:0:0:0:0:
36,192,82251,128,0,82373:0:0:0:0:
109,192,82373,128,0,82495:0:0:0:0:
402,192,82373,128,0,82495:0:0:0:0:
256,192,82495,128,0,82617:0:0:0:0:
475,192,82495,128,0,82617:0:0:0:0:
36,192,82495,128,0,82617:0:0:0:0:
402,192,82617,128,0,82861:0:0:0:0:
109,192,82617,128,0,82861:0:0:0:0:
329,192,82617,128,0,82739:0:0:0:0:
182,192,82617,128,0,82739:0:0:0:0:
475,192,82739,128,0,82861:0:0:0:0:
36,192,82739,128,0,82861:0:0:0:0:
256,192,82861,1,0,0:0:0:0:
36,192,82983,128,0,83105:0:0:0:0:
182,192,82983,128,0,83105:0:0:0:0:
256,192,82983,128,0,83105:0:0:0:0:
329,192,82983,128,0,83105:0:0:0:0:
475,192,82983,128,0,83105:0:0:0:0:
36,192,83227,128,0,83349:0:0:0:0:
109,192,83227,128,0,83349:0:0:0:0:
402,192,83227,128,0,83349:0:0:0:0:
475,192,83227,128,0,83349:0:0:0:0:
256,192,83227,128,0,83349:0:0:0:0:
36,192,83471,128,0,83562:0:0:0:0:
475,192,83471,128,0,83562:0:0:0:0:
402,192,83501,128,0,83593:0:0:0:0:
109,192,83501,128,0,83593:0:0:0:0:
329,192,83532,128,0,83623:0:0:0:0:
182,192,83532,128,0,83623:0:0:0:0:
256,192,83562,128,0,83654:0:0:0:0:
402,192,83715,128,0,83837:0:0:0:0:
36,192,83715,128,0,83837:0:0:0:0:
109,192,83715,128,0,83837:0:0:0:0:
475,192,83715,128,0,83837:0:0:0:0:
256,192,83715,128,0,83837:0:0:0:0:
182,192,83837,128,0,83959:0:0:0:0:
329,192,83837,128,0,83959:0:0:0:0:
36,192,83959,128,0,84080:0:0:0:0:
109,192,83959,128,0,84080:0:0:0:0:
475,192,83959,128,0,84080:0:0:0:0:
402,192,83959,128,0,84080:0:0:0:0:
256,192,83959,128,0,84080:0:0:0:0:
329,192,84202,128,0,84324:0:0:0:0:
402,192,84202,128,0,84324:0:0:0:0:
475,192,84202,128,0,84324:0:0:0:0:
182,192,84202,1,0,0:0:0:0:
109,192,84202,1,0,0:0:0:0:
36,192,84202,1,0,0:0:0:0:
36,192,84324,128,0,84446:0:0:0:0:
109,192,84324,128,0,84446:0:0:0:0:
182,192,84324,128,0,84446:0:0:0:0:
329,192,84446,1,0,0:0:0:0:
402,192,84446,1,0,0:0:0:0:
475,192,84446,1,0,0:0:0:0:
109,192,84568,128,0,84690:0:0:0:0:
36,192,84568,128,0,84690:0:0:0:0:
402,192,84568,128,0,84690:0:0:0:0:
475,192,84568,128,0,84690:0:0:0:0:
36,192,84812,128,0,84934:0:0:0:0:
109,192,84812,128,0,84934:0:0:0:0:
256,192,84812,128,0,85056:0:0:0:0:
329,192,84812,128,0,85056:0:0:0:0:
182,192,84812,128,0,85178:0:0:0:0:
402,192,84934,128,0,85300:0:0:0:0:
475,192,84934,128,0,85300:0:0:0:0:
109,192,85056,128,0,85178:0:0:0:0:
36,192,85056,128,0,85300:0:0:0:0:
256,192,85178,128,0,85300:0:0:0:0:
329,192,85178,128,0,85300:0:0:0:0:
182,192,85300,128,0,85422:0:0:0:0:
109,192,85300,128,0,85422:0:0:0:0:
36,192,85422,128,0,85544:0:0:0:0:
256,192,85422,128,0,85544:0:0:0:0:
475,192,85422,128,0,85544:0:0:0:0:
402,192,85422,128,0,85544:0:0:0:0:
329,192,85422,128,0,85544:0:0:0:0:
402,192,85666,128,0,85788:0:0:0:0:
475,192,85666,128,0,85788:0:0:0:0:
36,192,85666,128,0,85788:0:0:0:0:
109,192,85666,128,0,85788:0:0:0:0:
182,192,85788,128,0,85910:0:0:0:0:
329,192,85788,128,0,85910:0:0:0:0:
36,192,85910,128,0,86032:0:0:0:0:
475,192,85910,128,0,86032:0:0:0:0:
256,192,85910,128,0,86032:0:0:0:0:
402,192,85910,128,0,86032:0:0:0:0:
109,192,85910,128,0,86032:0:0:0:0:
475,192,86154,128,0,86276:0:0:0:0:
36,192,86154,128,0,86276:0:0:0:0:
182,192,86154,128,0,86276:0:0:0:0:
329,192,86154,128,0,86276:0:0:0:0:
402,192,86276,128,0,86398:0:0:0:0:
109,192,86276,128,0,86398:0:0:0:0:
36,192,86398,128,0,86520:0:0:0:0:
475,192,86398,128,0,86520:0:0:0:0:
256,192,86398,128,0,86520:0:0:0:0:
329,192,86520,128,0,86641:0:0:0:0:
182,192,86520,128,0,86641:0:0:0:0:
402,192,86520,128,0,86763:0:0:0:0:
109,192,86520,128,0,86763:0:0:0:0:
36,192,86641,128,0,86763:0:0:0:0:
475,192,86641,128,0,86763:0:0:0:0:
256,192,86763,1,0,0:0:0:0:
329,192,86885,128,0,87007:0:0:0:0:
475,192,86885,128,0,87007:0:0:0:0:
256,192,86885,128,0,87007:0:0:0:0:
36,192,86885,128,0,87007:0:0:0:0:
182,192,86885,128,0,87007:0:0:0:0:
475,192,87129,128,0,87251:0:0:0:0:
256,192,87129,128,0,87251:0:0:0:0:
402,192,87129,128,0,87251:0:0:0:0:
36,192,87129,128,0,87251:0:0:0:0:
109,192,87129,128,0,87251:0:0:0:0:
475,192,87373,128,0,87465:0:0:0:0:
36,192,87373,128,0,87465:0:0:0:0:
109,192,87404,128,0,87495:0:0:0:0:
402,192,87404,128,0,87495:0:0:0:0:
182,192,87434,128,0,87526:0:0:0:0:
329,192,87434,128,0,87526:0:0:0:0:
256,192,87465,128,0,87556:0:0:0:0:
109,192,87617,128,0,87861:0:0:0:0:
475,192,87617,128,0,87739:0:0:0:0:
402,192,87617,128,0,87739:0:0:0:0:
182,192,87739,128,0,87983:0:0:0:0:
256,192,87861,128,0,88105:0:0:0:0:
402,192,87861,128,0,88105:0:0:0:0:
475,192,87861,128,0,88105:0:0:0:0:
36,192,87861,128,0,88349:0:0:0:0:
109,192,87983,128,0,88105:0:0:0:0:
182,192,88105,128,0,88227:0:0:0:0:
256,192,88227,128,0,88349:0:0:0:0:
182,192,88349,128,0,88471:0:0:0:0:
329,192,88349,128,0,88715:0:0:0:0:
475,192,88349,128,0,88471:0:0:0:0:
36,192,88471,128,0,88593:0:0:0:0:
256,192,88471,128,0,88593:0:0:0:0:
182,192,88593,1,0,0:0:0:0:
402,192,88593,128,0,88959:0:0:0:0:
109,192,88715,128,0,88837:0:0:0:0:
256,192,88715,128,0,88837:0:0:0:0:
475,192,88837,128,0,89263:0:0:0:0:
329,192,88837,128,0,89263:0:0:0:0:
182,192,88959,128,0,89263:0:0:0:0:
36,192,89080,128,0,89263:0:0:0:0:
109,192,89080,128,0,89263:0:0:0:0:
256,192,89080,128,0,89263:0:0:0:0:
402,192,89080,128,0,89263:0:0:0:0:
402,192,89324,128,0,89446:0:0:0:0:
475,192,89324,128,0,89446:0:0:0:0:
36,192,89324,128,0,89446:0:0:0:0:
109,192,89324,128,0,89446:0:0:0:0:
256,192,89324,128,0,89446:0:0:0:0:
36,192,89568,128,0,89690:0:0:0:0:
109,192,89568,128,0,89690:0:0:0:0:
402,192,89568,128,0,89690:0:0:0:0:
475,192,89568,128,0,89690:0:0:0:0:
256,192,89568,128,0,89690:0:0:0:0:
329,192,89690,128,0,89812:0:0:0:0:
182,192,89690,128,0,89812:0:0:0:0:
109,192,89812,128,0,89934:0:0:0:0:
36,192,89812,128,0,89934:0:0:0:0:
402,192,89812,128,0,89934:0:0:0:0:
475,192,89812,128,0,89934:0:0:0:0:
256,192,89812,128,0,89934:0:0:0:0:
182,192,90056,128,0,90178:0:0:0:0:
329,192,90056,128,0,90178:0:0:0:0:
475,192,90056,128,0,90178:0:0:0:0:
36,192,90056,128,0,90178:0:0:0:0:
109,192,90178,128,0,90300:0:0:0:0:
402,192,90178,128,0,90300:0:0:0:0:
256,192,90300,128,0,90422:0:0:0:0:
475,192,90300,128,0,90422:0:0:0:0:
36,192,90300,128,0,90422:0:0:0:0:
402,192,90422,128,0,90666:0:0:0:0:
109,192,90422,128,0,90666:0:0:0:0:
329,192,90422,128,0,90544:0:0:0:0:
182,192,90422,128,0,90544:0:0:0:0:
475,192,90544,128,0,90666:0:0:0:0:
36,192,90544,128,0,90666:0:0:0:0:
256,192,90666,1,0,0:0:0:0:
36,192,90788,128,0,90910:0:0:0:0:
182,192,90788,128,0,90910:0:0:0:0:
256,192,90788,128,0,90910:0:0:0:0:
329,192,90788,128,0,90910:0:0:0:0:
475,192,90788,128,0,90910:0:0:0:0:
36,192,91032,128,0,91154:0:0:0:0:
109,192,91032,128,0,91154:0:0:0:0:
402,192,91032,128,0,91154:0:0:0:0:
475,192,91032,128,0,91154:0:0:0:0:
256,192,91032,128,0,91154:0:0:0:0:
36,192,91276,128,0,91367:0:0:0:0:
475,192,91276,128,0,91367:0:0:0:0:
402,192,91306,128,0,91398:0:0:0:0:
109,192,91306,128,0,91398:0:0:0:0:
329,192,91337,128,0,91428:0:0:0:0:
182,192,91337,128,0,91428:0:0:0:0:
256,192,91367,128,0,91459:0:0:0:0:
402,192,91520,128,0,91641:0:0:0:0:
36,192,91520,128,0,91641:0:0:0:0:
109,192,91520,128,0,91641:0:0:0:0:
475,192,91520,128,0,91641:0:0:0:0:
256,192,91520,128,0,91641:0:0:0:0:
182,192,91641,128,0,91763:0:0:0:0:
329,192,91641,128,0,91763:0:0:0:0:
36,192,91763,128,0,91885:0:0:0:0:
109,192,91763,128,0,91885:0:0:0:0:
475,192,91763,128,0,91885:0:0:0:0:
402,192,91763,128,0,91885:0:0:0:0:
256,192,91763,128,0,91885:0:0:0:0:
329,192,92007,128,0,92129:0:0:0:0:
402,192,92007,128,0,92129:0:0:0:0:
475,192,92007,128,0,92129:0:0:0:0:
182,192,92007,1,0,0:0:0:0:
109,192,92007,1,0,0:0:0:0:
36,192,92007,1,0,0:0:0:0:
36,192,92129,128,0,92251:0:0:0:0:
109,192,92129,128,0,92251:0:0:0:0:
182,192,92129,128,0,92251:0:0:0:0:
329,192,92251,1,0,0:0:0:0:
402,192,92251,1,0,0:0:0:0:
475,192,92251,1,0,0:0:0:0:
109,192,92373,128,0,92495:0:0:0:0:
36,192,92373,128,0,92495:0:0:0:0:
402,192,92373,128,0,92495:0:0:0:0:
475,192,92373,128,0,92495:0:0:0:0:
256,192,92373,128,0,92495:0:0:0:0:
36,192,92617,128,0,92739:0:0:0:0:
109,192,92617,128,0,92739:0:0:0:0:
256,192,92617,128,0,92861:0:0:0:0:
329,192,92617,128,0,92861:0:0:0:0:
182,192,92617,128,0,92983:0:0:0:0:
402,192,92739,128,0,93105:0:0:0:0:
475,192,92739,128,0,93105:0:0:0:0:
109,192,92861,128,0,92983:0:0:0:0:
36,192,92861,128,0,93227:0:0:0:0:
256,192,92983,128,0,93105:0:0:0:0:
329,192,92983,128,0,93105:0:0:0:0:
182,192,93105,128,0,93227:0:0:0:0:
109,192,93105,128,0,93227:0:0:0:0:
329,192,93227,128,0,93349:0:0:0:0:
402,192,93227,128,0,93349:0:0:0:0:
475,192,93227,128,0,93349:0:0:0:0:
256,192,93227,128,0,93471:0:0:0:0:
402,192,93471,128,0,93593:0:0:0:0:
475,192,93471,128,0,93593:0:0:0:0:
36,192,93471,128,0,93593:0:0:0:0:
109,192,93471,128,0,93593:0:0:0:0:
182,192,93593,128,0,93715:0:0:0:0:
329,192,93593,128,0,93715:0:0:0:0:
475,192,93715,128,0,93837:0:0:0:0:
256,192,93715,128,0,93837:0:0:0:0:
402,192,93715,128,0,93837:0:0:0:0:
109,192,93715,128,0,93837:0:0:0:0:
36,192,93715,128,0,93837:0:0:0:0:
475,192,93959,128,0,94080:0:0:0:0:
36,192,93959,128,0,94080:0:0:0:0:
182,192,93959,128,0,94080:0:0:0:0:
329,192,93959,128,0,94080:0:0:0:0:
402,192,94080,128,0,94202:0:0:0:0:
109,192,94080,128,0,94202:0:0:0:0:
36,192,94202,128,0,94324:0:0:0:0:
475,192,94202,128,0,94324:0:0:0:0:
256,192,94202,128,0,94324:0:0:0:0:
329,192,94324,128,0,94446:0:0:0:0:
182,192,94324,128,0,94446:0:0:0:0:
402,192,94324,128,0,94568:0:0:0:0:
109,192,94324,128,0,94568:0:0:0:0:
36,192,94446,128,0,94568:0:0:0:0:
475,192,94446,128,0,94568:0:0:0:0:
256,192,94568,1,0,0:0:0:0:
329,192,94690,128,0,94812:0:0:0:0:
475,192,94690,128,0,94812:0:0:0:0:
256,192,94690,128,0,94812:0:0:0:0:
36,192,94690,128,0,94812:0:0:0:0:
182,192,94690,128,0,94812:0:0:0:0:
475,192,94934,128,0,95056:0:0:0:0:
256,192,94934,128,0,95056:0:0:0:0:
402,192,94934,128,0,95056:0:0:0:0:
36,192,94934,128,0,95056:0:0:0:0:
109,192,94934,128,0,95056:0:0:0:0:
475,192,95178,128,0,95270:0:0:0:0:
36,192,95178,128,0,95270:0:0:0:0:
109,192,95209,128,0,95300:0:0:0:0:
402,192,95209,128,0,95300:0:0:0:0:
182,192,95239,128,0,95330:0:0:0:0:
329,192,95239,128,0,95330:0:0:0:0:
256,192,95270,128,0,95361:0:0:0:0:
182,192,95422,1,0,0:0:0:0:
109,192,95422,1,0,0:0:0:0:
402,192,95422,1,0,0:0:0:0:
329,192,95422,1,0,0:0:0:0:
475,192,95422,1,0,0:0:0:0:
36,192,95422,1,0,0:0:0:0:
109,192,95544,128,0,95666:0:0:0:0:
402,192,95544,128,0,95666:0:0:0:0:
36,192,95544,128,0,95666:0:0:0:0:
475,192,95544,128,0,95666:0:0:0:0:
256,192,95544,128,0,95666:0:0:0:0:
182,192,95666,128,0,95788:0:0:0:0:
329,192,95666,128,0,95788:0:0:0:0:
36,192,95788,128,0,95910:0:0:0:0:
475,192,95788,128,0,95910:0:0:0:0:
256,192,95910,128,0,96032:0:0:0:0:
182,192,96032,128,0,96398:0:0:0:0:
329,192,96032,128,0,96520:0:0:0:0:
402,192,96154,128,0,96276:0:0:0:0:
256,192,96154,128,0,97129:0:0:0:0:
109,192,96276,128,0,96398:0:0:0:0:
36,192,96276,128,0,96641:0:0:0:0:
402,192,96398,128,0,96520:0:0:0:0:
475,192,96398,128,0,96763:0:0:0:0:
109,192,96520,128,0,96641:0:0:0:0:
182,192,96520,128,0,96885:0:0:0:0:
402,192,96641,128,0,96763:0:0:0:0:
329,192,96641,128,0,97007:0:0:0:0:
109,192,96763,128,0,96885:0:0:0:0:
36,192,96763,128,0,97129:0:0:0:0:
402,192,96885,128,0,97007:0:0:0:0:
475,192,96885,128,0,97129:0:0:0:0:
182,192,97007,128,0,97129:0:0:0:0:
109,192,97007,128,0,97129:0:0:0:0:
109,192,97373,1,0,0:0:0:0:
36,192,97373,1,0,0:0:0:0:
329,192,97373,1,0,0:0:0:0:
109,192,97495,1,0,0:0:0:0:
36,192,97495,1,0,0:0:0:0:
402,192,97495,1,0,0:0:0:0:
329,192,97617,1,0,0:0:0:0:
256,192,97617,1,0,0:0:0:0:
329,192,97861,1,0,0:0:0:0:
256,192,98105,1,0,0:0:0:0:
109,192,98227,1,0,0:0:0:0:
402,192,98349,1,0,0:0:0:0:
109,192,98471,1,0,0:0:0:0:
402,192,98593,1,0,0:0:0:0:
256,192,98593,128,0,98654:0:0:0:0:
109,192,98715,1,0,0:0:0:0:
402,192,98837,1,0,0:0:0:0:
109,192,98837,1,0,0:0:0:0:
329,192,98959,1,0,0:0:0:0:
182,192,98959,1,0,0:0:0:0:
256,192,99080,128,0,99324:0:0:0:0:
109,192,99080,128,0,99202:0:0:0:0:
36,192,99080,128,0,99202:0:0:0:0:
402,192,99080,128,0,99202:0:0:0:0:
475,192,99080,128,0,99202:0:0:0:0:
109,192,99324,1,0,0:0:0:0:
36,192,99324,1,0,0:0:0:0:
402,192,99324,1,0,0:0:0:0:
475,192,99324,1,0,0:0:0:0:
256,192,99568,128,0,99812:0:0:0:0:
402,192,99568,128,0,99812:0:0:0:0:
109,192,99568,128,0,99812:0:0:0:0:
36,192,99812,128,0,99873:0:0:0:0:
182,192,99812,128,0,99873:0:0:0:0:
329,192,99812,128,0,99873:0:0:0:0:
475,192,99812,128,0,99873:0:0:0:0:
475,192,99934,1,0,0:0:0:0:
329,192,99934,1,0,0:0:0:0:
182,192,99934,1,0,0:0:0:0:
36,192,99934,1,0,0:0:0:0:
256,192,100056,1,0,0:0:0:0:
402,192,100056,1,0,0:0:0:0:
109,192,100056,1,0,0:0:0:0:
36,192,100300,128,0,100422:0:0:0:0:
109,192,100300,128,0,100422:0:0:0:0:
256,192,100300,128,0,100422:0:0:0:0:
402,192,100300,128,0,100422:0:0:0:0:
475,192,100300,128,0,100422:0:0:0:0:
475,192,100788,1,0,0:0:0:0:
402,192,100788,1,0,0:0:0:0:
329,192,100788,1,0,0:0:0:0:
182,192,100788,1,0,0:0:0:0:
109,192,100788,1,0,0:0:0:0:
36,192,100788,1,0,0:0:0:0:
475,192,100910,1,0,0:0:0:0:
402,192,100910,1,0,0:0:0:0:
329,192,100910,1,0,0:0:0:0:
36,192,100910,1,0,0:0:0:0:
182,192,100910,1,0,0:0:0:0:
109,192,100910,1,0,0:0:0:0:
36,192,101032,1,0,0:0:0:0:
109,192,101032,1,0,0:0:0:0:
475,192,101032,1,0,0:0:0:0:
402,192,101032,1,0,0:0:0:0:
256,192,101032,128,0,101276:0:0:0:0:
329,192,101276,128,0,101520:0:0:0:0:
182,192,101398,1,0,0:0:0:0:
109,192,101398,1,0,0:0:0:0:
256,192,101520,128,0,101702:0:0:0:0:
256,192,101763,1,0,0:0:0:0:
109,192,101763,1,0,0:0:0:0:
36,192,101763,1,0,0:0:0:0:
475,192,101763,1,0,0:0:0:0:
402,192,101763,1,0,0:0:0:0:
475,192,101885,1,0,0:0:0:0:
402,192,101885,1,0,0:0:0:0:
256,192,101885,1,0,0:0:0:0:
109,192,101885,1,0,0:0:0:0:
36,192,101885,1,0,0:0:0:0:
329,192,102007,1,0,0:0:0:0:
182,192,102007,1,0,0:0:0:0:
36,192,102007,1,0,0:0:0:0:
475,192,102007,1,0,0:0:0:0:
256,192,102251,128,0,102373:0:0:0:0:
36,192,102251,128,0,102373:0:0:0:0:
475,192,102251,128,0,102373:0:0:0:0:
402,192,102739,1,0,0:0:0:0:
329,192,102739,1,0,0:0:0:0:
109,192,102739,1,0,0:0:0:0:
182,192,102739,1,0,0:0:0:0:
256,192,102983,1,0,0:0:0:0:
182,192,102983,1,0,0:0:0:0:
329,192,102983,1,0,0:0:0:0:
475,192,102983,1,0,0:0:0:0:
36,192,102983,1,0,0:0:0:0:
329,192,103227,1,0,0:0:0:0:
256,192,103227,1,0,0:0:0:0:
182,192,103227,1,0,0:0:0:0:
36,192,103227,1,0,0:0:0:0:
475,192,103227,1,0,0:0:0:0:
109,192,103471,128,0,103715:0:0:0:0:
402,192,103471,128,0,103715:0:0:0:0:
256,192,103837,1,0,0:0:0:0:
329,192,103959,1,0,0:0:0:0:
182,192,104121,1,0,0:0:0:0:
256,192,104284,1,0,0:0:0:0:
182,192,104446,128,0,104812:0:0:0:0:
329,192,104446,128,0,104812:0:0:0:0:
256,192,104934,1,0,0:0:0:0:
329,192,104934,1,0,0:0:0:0:
402,192,104934,1,0,0:0:0:0:
182,192,104934,1,0,0:0:0:0:
109,192,104934,1,0,0:0:0:0:
109,192,105178,1,0,0:0:0:0:
182,192,105178,1,0,0:0:0:0:
36,192,105178,1,0,0:0:0:0:
402,192,105300,1,0,0:0:0:0:
329,192,105300,1,0,0:0:0:0:
475,192,105300,1,0,0:0:0:0:
182,192,105422,1,0,0:0:0:0:
109,192,105422,1,0,0:0:0:0:
36,192,105422,1,0,0:0:0:0:
256,192,105544,1,0,0:0:0:0:
402,192,105544,1,0,0:0:0:0:
329,192,105666,1,0,0:0:0:0:
182,192,105666,1,0,0:0:0:0:
402,192,105788,1,0,0:0:0:0:
256,192,105788,1,0,0:0:0:0:
109,192,105788,1,0,0:0:0:0:
475,192,105910,1,0,0:0:0:0:
329,192,105910,128,0,106154:0:0:0:0:
36,192,105910,1,0,0:0:0:0:
109,192,106032,128,0,106276:0:0:0:0:
256,192,106032,1,0,0:0:0:0:
402,192,106154,128,0,106398:0:0:0:0:
36,192,106154,1,0,0:0:0:0:
182,192,106276,128,0,106520:0:0:0:0:
329,192,106276,1,0,0:0:0:0:
475,192,106398,128,0,106641:0:0:0:0:
109,192,106398,1,0,0:0:0:0:
256,192,106520,128,0,106763:0:0:0:0:
402,192,106520,1,0,0:0:0:0:
36,192,106641,128,0,106885:0:0:0:0:
182,192,106641,1,0,0:0:0:0:
329,192,106763,128,0,106885:0:0:0:0:
475,192,106763,1,0,0:0:0:0:
109,192,106763,1,0,0:0:0:0:
402,192,106885,1,0,0:0:0:0:
256,192,106885,1,0,0:0:0:0:
182,192,106885,1,0,0:0:0:0:
109,192,107129,1,0,0:0:0:0:
256,192,107129,1,0,0:0:0:0:
402,192,107129,1,0,0:0:0:0:
36,192,107373,1,0,0:0:0:0:
256,192,107373,1,0,0:0:0:0:
475,192,107373,1,0,0:0:0:0:
36,192,107617,1,0,0:0:0:0:
256,192,107617,1,0,0:0:0:0:
475,192,107617,1,0,0:0:0:0:
475,192,107861,1,0,0:0:0:0:
402,192,107861,1,0,0:0:0:0:
109,192,107861,1,0,0:0:0:0:
36,192,107861,1,0,0:0:0:0:
329,192,108105,128,0,108349:0:0:0:0:
182,192,108349,128,0,108593:0:0:0:0:
256,192,108593,1,0,0:0:0:0:
475,192,108593,1,0,0:0:0:0:
36,192,108593,1,0,0:0:0:0:
256,192,108715,1,0,0:0:0:0:
475,192,108715,1,0,0:0:0:0:
36,192,108715,1,0,0:0:0:0:
256,192,108837,1,0,0:0:0:0:
475,192,108837,1,0,0:0:0:0:
36,192,108837,1,0,0:0:0:0:
329,192,108837,128,0,109080:0:0:0:0:
182,192,109080,128,0,109324:0:0:0:0:
256,192,109202,1,0,0:0:0:0:
475,192,109202,1,0,0:0:0:0:
402,192,109202,1,0,0:0:0:0:
36,192,109202,1,0,0:0:0:0:
109,192,109202,1,0,0:0:0:0:
329,192,109324,128,0,109568:0:0:0:0:
256,192,109568,1,0,0:0:0:0:
475,192,109568,1,0,0:0:0:0:
36,192,109568,1,0,0:0:0:0:
182,192,109568,1,0,0:0:0:0:
402,192,109690,1,0,0:0:0:0:
109,192,109690,1,0,0:0:0:0:
475,192,109812,1,0,0:0:0:0:
36,192,109812,1,0,0:0:0:0:
256,192,109812,1,0,0:0:0:0:
109,192,110056,1,0,0:0:0:0:
182,192,110056,1,0,0:0:0:0:
256,192,110056,128,0,110300:0:0:0:0:
329,192,110300,128,0,110788:0:0:0:0:
182,192,110300,128,0,110788:0:0:0:0:
256,192,110788,1,0,0:0:0:0:
109,192,110788,1,0,0:0:0:0:
36,192,110788,1,0,0:0:0:0:
36,192,111032,1,0,0:0:0:0:
109,192,111032,1,0,0:0:0:0:
256,192,111032,1,0,0:0:0:0:
109,192,111276,1,0,0:0:0:0:
256,192,111276,1,0,0:0:0:0:
402,192,111276,1,0,0:0:0:0:
256,192,111520,1,0,0:0:0:0:
402,192,111520,1,0,0:0:0:0:
475,192,111520,1,0,0:0:0:0:
256,192,111763,1,0,0:0:0:0:
475,192,111763,1,0,0:0:0:0:
402,192,111763,1,0,0:0:0:0:
109,192,111763,1,0,0:0:0:0:
36,192,111763,1,0,0:0:0:0:
329,192,112007,1,0,0:0:0:0:
182,192,112251,1,0,0:0:0:0:
109,192,112251,128,0,112495:0:0:0:0:
256,192,112495,1,0,0:0:0:0:
475,192,112495,1,0,0:0:0:0:
402,192,112495,1,0,0:0:0:0:
109,192,112617,128,0,112983:0:0:0:0:
329,192,112617,1,0,0:0:0:0:
256,192,112739,1,0,0:0:0:0:
402,192,112739,1,0,0:0:0:0:
475,192,112739,1,0,0:0:0:0:
329,192,112983,128,0,113715:0:0:0:0:
36,192,113227,1,0,0:0:0:0:
109,192,113349,1,0,0:0:0:0:
182,192,113471,128,0,113715:0:0:0:0:
256,192,113715,1,0,0:0:0:0:
109,192,113837,1,0,0:0:0:0:
402,192,113837,1,0,0:0:0:0:
182,192,113959,1,0,0:0:0:0:
475,192,113959,1,0,0:0:0:0:
256,192,114080,1,0,0:0:0:0:
36,192,114080,1,0,0:0:0:0:
329,192,114202,128,0,114324:0:0:0:0:
109,192,114202,128,0,114324:0:0:0:0:
36,192,114324,128,0,114446:0:0:0:0:
256,192,114324,128,0,114446:0:0:0:0:
329,192,114446,128,0,114568:0:0:0:0:
109,192,114446,128,0,114568:0:0:0:0:
182,192,114568,128,0,114690:0:0:0:0:
402,192,114568,128,0,114690:0:0:0:0:
475,192,114690,128,0,115178:0:0:0:0:
36,192,114690,128,0,115178:0:0:0:0:
256,192,114690,128,0,114934:0:0:0:0:
329,192,114812,128,0,114934:0:0:0:0:
182,192,114934,128,0,115056:0:0:0:0:
256,192,115056,128,0,115178:0:0:0:0:
402,192,115056,128,0,115178:0:0:0:0:
329,192,115178,128,0,115300:0:0:0:0:
109,192,115178,128,0,115422:0:0:0:0:
402,192,115300,128,0,115422:0:0:0:0:
256,192,115422,128,0,115544:0:0:0:0:
36,192,115422,128,0,115666:0:0:0:0:
329,192,115544,128,0,115666:0:0:0:0:
109,192,115544,128,0,115666:0:0:0:0:
402,192,115666,128,0,115788:0:0:0:0:
475,192,115666,128,0,115910:0:0:0:0:
182,192,115788,128,0,115910:0:0:0:0:
256,192,115910,128,0,116032:0:0:0:0:
36,192,115910,128,0,116154:0:0:0:0:
109,192,116032,128,0,116154:0:0:0:0:
402,192,116032,128,0,116154:0:0:0:0:
182,192,116154,128,0,116276:0:0:0:0:
329,192,116154,128,0,116520:0:0:0:0:
475,192,116276,128,0,116398:0:0:0:0:
256,192,116398,128,0,116520:0:0:0:0:
36,192,116398,128,0,116641:0:0:0:0:
109,192,116520,128,0,116641:0:0:0:0:
402,192,116520,128,0,116641:0:0:0:0:
329,192,116641,128,0,116763:0:0:0:0:
475,192,116641,128,0,116885:0:0:0:0:
256,192,116763,128,0,116885:0:0:0:0:
36,192,116885,128,0,117007:0:0:0:0:
402,192,116885,128,0,117129:0:0:0:0:
109,192,117007,128,0,117129:0:0:0:0:
329,192,117007,128,0,117129:0:0:0:0:
36,192,117129,128,0,117373:0:0:0:0:
182,192,117129,128,0,117251:0:0:0:0:
256,192,117251,128,0,117373:0:0:0:0:
182,192,117373,128,0,117617:0:0:0:0:
402,192,117373,128,0,117495:0:0:0:0:
329,192,117495,128,0,117617:0:0:0:0:
256,192,117617,128,0,117739:0:0:0:0:
475,192,117617,128,0,117739:0:0:0:0:
36,192,117617,128,0,117739:0:0:0:0:
109,192,117739,128,0,117861:0:0:0:0:
182,192,117861,128,0,118105:0:0:0:0:
329,192,117861,128,0,117983:0:0:0:0:
256,192,117983,128,0,118105:0:0:0:0:
36,192,117983,128,0,118105:0:0:0:0:
475,192,118105,128,0,118227:0:0:0:0:
402,192,118105,128,0,118227:0:0:0:0:
109,192,118227,128,0,118349:0:0:0:0:
182,192,118349,128,0,118471:0:0:0:0:
329,192,118349,128,0,118593:0:0:0:0:
256,192,118471,128,0,118593:0:0:0:0:
36,192,118471,128,0,118593:0:0:0:0:
109,192,118593,128,0,118715:0:0:0:0:
475,192,118593,128,0,118715:0:0:0:0:
402,192,118715,128,0,118837:0:0:0:0:
182,192,118837,128,0,118959:0:0:0:0:
36,192,118837,128,0,119080:0:0:0:0:
256,192,118959,128,0,119080:0:0:0:0:
475,192,118959,128,0,119080:0:0:0:0:
109,192,119080,128,0,119202:0:0:0:0:
402,192,119080,128,0,119202:0:0:0:0:
329,192,119202,128,0,119324:0:0:0:0:
182,192,119324,128,0,119568:0:0:0:0:
402,192,119324,128,0,119446:0:0:0:0:
256,192,119446,128,0,119568:0:0:0:0:
36,192,119446,128,0,119568:0:0:0:0:
329,192,119568,128,0,119690:0:0:0:0:
475,192,119568,128,0,119690:0:0:0:0:
109,192,119690,128,0,119812:0:0:0:0:
402,192,119812,128,0,119934:0:0:0:0:
256,192,119812,128,0,120056:0:0:0:0:
182,192,119934,128,0,120056:0:0:0:0:
36,192,119934,128,0,120056:0:0:0:0:
475,192,120056,128,0,120178:0:0:0:0:
329,192,120056,128,0,120178:0:0:0:0:
402,192,120178,128,0,120300:0:0:0:0:
475,192,120300,128,0,120422:0:0:0:0:
109,192,120300,128,0,120544:0:0:0:0:
182,192,120422,128,0,120544:0:0:0:0:
329,192,120422,128,0,120544:0:0:0:0:
36,192,120544,128,0,120666:0:0:0:0:
256,192,120544,128,0,120666:0:0:0:0:
402,192,120544,128,0,120666:0:0:0:0:
475,192,120666,128,0,120788:0:0:0:0:
182,192,120788,128,0,120910:0:0:0:0:
402,192,120788,128,0,121032:0:0:0:0:
329,192,120910,128,0,121032:0:0:0:0:
36,192,120910,128,0,121032:0:0:0:0:
109,192,121032,128,0,121154:0:0:0:0:
475,192,121032,128,0,121154:0:0:0:0:
256,192,121154,128,0,121276:0:0:0:0:
329,192,121276,128,0,121520:0:0:0:0:
36,192,121276,128,0,121398:0:0:0:0:
109,192,121398,128,0,121520:0:0:0:0:
402,192,121398,128,0,121520:0:0:0:0:
182,192,121520,128,0,121763:0:0:0:0:
256,192,121520,128,0,121641:0:0:0:0:
36,192,121641,128,0,121885:0:0:0:0:
402,192,121641,128,0,121885:0:0:0:0:
256,192,121763,128,0,122007:0:0:0:0:
109,192,121885,128,0,122129:0:0:0:0:
475,192,121885,128,0,122129:0:0:0:0:
329,192,122007,128,0,122251:0:0:0:0:
182,192,122129,128,0,122373:0:0:0:0:
402,192,122251,128,0,122495:0:0:0:0:
36,192,122251,128,0,122495:0:0:0:0:
256,192,122373,128,0,122617:0:0:0:0:
109,192,122495,128,0,122617:0:0:0:0:
475,192,122495,128,0,122617:0:0:0:0:
182,192,122617,128,0,122739:0:0:0:0:
402,192,122739,128,0,122861:0:0:0:0:
36,192,122739,128,0,122983:0:0:0:0:
475,192,122861,128,0,122983:0:0:0:0:
109,192,122861,128,0,122983:0:0:0:0:
329,192,122983,128,0,123105:0:0:0:0:
256,192,122983,128,0,123105:0:0:0:0:
182,192,123105,128,0,123227:0:0:0:0:
402,192,123227,128,0,123349:0:0:0:0:
36,192,123227,128,0,123471:0:0:0:0:
109,192,123349,128,0,123471:0:0:0:0:
329,192,123349,128,0,123471:0:0:0:0:
402,192,123471,128,0,123593:0:0:0:0:
256,192,123471,128,0,123593:0:0:0:0:
475,192,123471,128,0,123593:0:0:0:0:
182,192,123593,128,0,123715:0:0:0:0:
329,192,123715,128,0,123837:0:0:0:0:
475,192,123715,128,0,123959:0:0:0:0:
109,192,123837,128,0,123959:0:0:0:0:
256,192,123837,128,0,123959:0:0:0:0:
182,192,123959,128,0,124080:0:0:0:0:
402,192,123959,128,0,124080:0:0:0:0:
36,192,123959,128,0,124080:0:0:0:0:
329,192,124080,128,0,124202:0:0:0:0:
475,192,124202,128,0,124446:0:0:0:0:
109,192,124202,128,0,124324:0:0:0:0:
256,192,124324,128,0,124446:0:0:0:0:
36,192,124324,128,0,124446:0:0:0:0:
402,192,124446,128,0,124568:0:0:0:0:
182,192,124446,128,0,124568:0:0:0:0:
109,192,124568,128,0,124690:0:0:0:0:
182,192,124690,128,0,124812:0:0:0:0:
475,192,124690,128,0,124934:0:0:0:0:
256,192,124812,128,0,124934:0:0:0:0:
402,192,124812,128,0,124934:0:0:0:0:
109,192,124934,128,0,125056:0:0:0:0:
36,192,124934,128,0,125056:0:0:0:0:
329,192,125056,128,0,125178:0:0:0:0:
182,192,125178,128,0,125300:0:0:0:0:
36,192,125178,128,0,125422:0:0:0:0:
402,192,125300,128,0,125422:0:0:0:0:
256,192,125300,128,0,125422:0:0:0:0:
475,192,125422,128,0,125544:0:0:0:0:
109,192,125422,128,0,125544:0:0:0:0:
182,192,125544,128,0,125666:0:0:0:0:
402,192,125666,128,0,125788:0:0:0:0:
36,192,125666,128,0,125910:0:0:0:0:
109,192,125788,128,0,125910:0:0:0:0:
256,192,125788,128,0,125910:0:0:0:0:
475,192,125910,128,0,126032:0:0:0:0:
329,192,125910,128,0,126032:0:0:0:0:
182,192,126032,128,0,126154:0:0:0:0:
329,192,126154,128,0,126276:0:0:0:0:
475,192,126154,128,0,126398:0:0:0:0:
36,192,126276,128,0,126398:0:0:0:0:
109,192,126276,128,0,126398:0:0:0:0:
402,192,126398,128,0,126520:0:0:0:0:
256,192,126398,128,0,126520:0:0:0:0:
182,192,126520,128,0,126641:0:0:0:0:
329,192,126641,128,0,126763:0:0:0:0:
36,192,126641,128,0,126885:0:0:0:0:
109,192,126763,128,0,126885:0:0:0:0:
475,192,126763,128,0,126885:0:0:0:0:
402,192,126885,128,0,127007:0:0:0:0:
256,192,126885,128,0,127007:0:0:0:0:
182,192,126885,128,0,127007:0:0:0:0:
109,192,127007,128,0,127129:0:0:0:0:
329,192,127129,128,0,127251:0:0:0:0:
402,192,127129,128,0,127373:0:0:0:0:
182,192,127251,128,0,127373:0:0:0:0:
475,192,127251,128,0,127373:0:0:0:0:
36,192,127373,128,0,127495:0:0:0:0:
256,192,127373,128,0,127495:0:0:0:0:
329,192,127495,128,0,127617:0:0:0:0:
109,192,127617,128,0,127861:0:0:0:0:
182,192,127739,128,0,127861:0:0:0:0:
402,192,127739,128,0,127861:0:0:0:0:
36,192,127861,128,0,127983:0:0:0:0:
256,192,127861,128,0,127983:0:0:0:0:
475,192,127861,128,0,127983:0:0:0:0:
329,192,127983,128,0,128105:0:0:0:0:
109,192,128105,128,0,128227:0:0:0:0:
182,192,128105,128,0,128349:0:0:0:0:
402,192,128227,128,0,128349:0:0:0:0:
256,192,128227,128,0,128349:0:0:0:0:
36,192,128349,128,0,128471:0:0:0:0:
475,192,128349,128,0,128471:0:0:0:0:
109,192,128471,128,0,128593:0:0:0:0:
329,192,128593,128,0,128715:0:0:0:0:
475,192,128593,128,0,128837:0:0:0:0:
256,192,128715,128,0,128837:0:0:0:0:
36,192,128715,128,0,128837:0:0:0:0:
402,192,128837,128,0,128959:0:0:0:0:
109,192,128837,128,0,128959:0:0:0:0:
329,192,128959,128,0,129080:0:0:0:0:
182,192,128959,128,0,129080:0:0:0:0:
36,192,129080,128,0,129202:0:0:0:0:
109,192,129080,128,0,129202:0:0:0:0:
256,192,129080,128,0,129202:0:0:0:0:
402,192,129080,128,0,129202:0:0:0:0:
475,192,129080,128,0,129202:0:0:0:0:
36,192,129324,1,0,0:0:0:0:
109,192,129355,1,0,0:0:0:0:
182,192,129385,1,0,0:0:0:0:
256,192,129416,1,0,0:0:0:0:
475,192,129446,1,0,0:0:0:0:
329,192,129446,1,0,0:0:0:0:
256,192,129568,1,0,0:0:0:0:
475,192,129568,1,0,0:0:0:0:
36,192,129568,1,0,0:0:0:0:
475,192,129690,1,0,0:0:0:0:
402,192,129690,1,0,0:0:0:0:
109,192,129690,1,0,0:0:0:0:
256,192,129812,1,0,0:0:0:0:
329,192,129812,1,0,0:0:0:0:
36,192,129812,1,0,0:0:0:0:
182,192,129934,1,0,0:0:0:0:
402,192,129934,1,0,0:0:0:0:
109,192,129934,1,0,0:0:0:0:
36,192,130056,1,0,0:0:0:0:
109,192,130056,1,0,0:0:0:0:
475,192,130056,1,0,0:0:0:0:
182,192,130178,1,0,0:0:0:0:
256,192,130178,1,0,0:0:0:0:
402,192,130178,1,0,0:0:0:0:
475,192,130300,1,0,0:0:0:0:
402,192,130300,1,0,0:0:0:0:
36,192,130300,128,0,130422:0:0:0:0:
109,192,130300,128,0,130422:0:0:0:0:
182,192,130544,128,0,130666:0:0:0:0:
256,192,130544,128,0,130666:0:0:0:0:
329,192,130788,128,0,130910:0:0:0:0:
402,192,130788,128,0,130910:0:0:0:0:
256,192,131032,128,0,131154:0:0:0:0:
475,192,131032,128,0,131154:0:0:0:0:
36,192,131032,128,0,131154:0:0:0:0:
329,192,131154,128,0,131276:0:0:0:0:
182,192,131154,128,0,131276:0:0:0:0:
329,192,131520,128,0,131641:0:0:0:0:
182,192,131520,128,0,131641:0:0:0:0:
256,192,131763,128,0,131885:0:0:0:0:
182,192,132007,128,0,132129:0:0:0:0:
329,192,132007,128,0,132129:0:0:0:0:
36,192,132007,128,0,132129:0:0:0:0:
475,192,132007,128,0,132129:0:0:0:0:
109,192,132251,128,0,132373:0:0:0:0:
36,192,132251,128,0,132373:0:0:0:0:
256,192,132251,128,0,132373:0:0:0:0:
402,192,132251,128,0,132373:0:0:0:0:
475,192,132251,128,0,132373:0:0:0:0:
36,192,132495,128,0,132739:0:0:0:0:
475,192,132495,128,0,132739:0:0:0:0:
182,192,132739,128,0,132983:0:0:0:0:
329,192,132739,128,0,132983:0:0:0:0:
36,192,132983,128,0,133105:0:0:0:0:
475,192,132983,128,0,133105:0:0:0:0:
182,192,133105,128,0,133349:0:0:0:0:
329,192,133105,128,0,133349:0:0:0:0:
402,192,133471,128,0,133593:0:0:0:0:
256,192,133471,128,0,133593:0:0:0:0:
475,192,133471,128,0,133593:0:0:0:0:
36,192,133471,128,0,133593:0:0:0:0:
182,192,133715,128,0,133837:0:0:0:0:
475,192,133715,128,0,133837:0:0:0:0:
329,192,133715,128,0,133837:0:0:0:0:
36,192,133715,128,0,133837:0:0:0:0:
329,192,133959,128,0,134080:0:0:0:0:
182,192,133959,128,0,134080:0:0:0:0:
36,192,133959,128,0,134080:0:0:0:0:
475,192,133959,128,0,134080:0:0:0:0:
109,192,134202,128,0,134324:0:0:0:0:
36,192,134202,128,0,134324:0:0:0:0:
256,192,134202,128,0,134324:0:0:0:0:
475,192,134202,128,0,134324:0:0:0:0:
36,192,134690,128,0,134812:0:0:0:0:
109,192,134690,128,0,134812:0:0:0:0:
256,192,134690,128,0,134812:0:0:0:0:
402,192,134690,128,0,134812:0:0:0:0:
475,192,134690,128,0,134812:0:0:0:0:
109,192,134934,128,0,135056:0:0:0:0:
402,192,134934,128,0,135056:0:0:0:0:
256,192,134934,128,0,135056:0:0:0:0:
329,192,135056,128,0,135300:0:0:0:0:
182,192,135056,128,0,135300:0:0:0:0:
182,192,135422,128,0,135544:0:0:0:0:
329,192,135422,128,0,135544:0:0:0:0:
256,192,135666,128,0,135788:0:0:0:0:
402,192,135666,128,0,135788:0:0:0:0:
475,192,135666,128,0,135788:0:0:0:0:
256,192,135910,128,0,136032:0:0:0:0:
329,192,135910,128,0,136154:0:0:0:0:
402,192,136032,128,0,136398:0:0:0:0:
256,192,136154,1,0,0:0:0:0:
109,192,136154,1,0,0:0:0:0:
36,192,136154,1,0,0:0:0:0:
182,192,136398,128,0,136520:0:0:0:0:
329,192,136398,128,0,136520:0:0:0:0:
256,192,136641,128,0,137129:0:0:0:0:
109,192,136641,1,0,0:0:0:0:
36,192,136641,1,0,0:0:0:0:
329,192,136885,128,0,137007:0:0:0:0:
402,192,136885,128,0,137007:0:0:0:0:
109,192,137007,128,0,137129:0:0:0:0:
182,192,137007,128,0,137617:0:0:0:0:
256,192,137373,1,0,0:0:0:0:
402,192,137373,1,0,0:0:0:0:
475,192,137373,1,0,0:0:0:0:
109,192,137373,128,0,137617:0:0:0:0:
256,192,137617,1,0,0:0:0:0:
475,192,137617,1,0,0:0:0:0:
402,192,137617,1,0,0:0:0:0:
182,192,137861,1,0,0:0:0:0:
256,192,137861,1,0,0:0:0:0:
402,192,137861,1,0,0:0:0:0:
109,192,137861,1,0,0:0:0:0:
329,192,137861,1,0,0:0:0:0:
475,192,138105,1,0,0:0:0:0:
402,192,138105,1,0,0:0:0:0:
329,192,138105,1,0,0:0:0:0:
182,192,138105,128,0,138227:0:0:0:0:
109,192,138105,128,0,138227:0:0:0:0:
36,192,138105,128,0,138227:0:0:0:0:
256,192,138227,128,0,138349:0:0:0:0:
402,192,138349,128,0,138471:0:0:0:0:
109,192,138349,128,0,138593:0:0:0:0:
182,192,138471,128,0,138593:0:0:0:0:
329,192,138593,128,0,138715:0:0:0:0:
256,192,138593,128,0,138715:0:0:0:0:
475,192,138593,128,0,138715:0:0:0:0:
36,192,138715,128,0,138837:0:0:0:0:
109,192,138837,128,0,138959:0:0:0:0:
256,192,138837,128,0,139080:0:0:0:0:
329,192,138959,128,0,139080:0:0:0:0:
182,192,139080,128,0,139202:0:0:0:0:
36,192,139080,128,0,139202:0:0:0:0:
402,192,139080,128,0,139202:0:0:0:0:
475,192,139202,128,0,139324:0:0:0:0:
109,192,139324,128,0,139446:0:0:0:0:
329,192,139324,128,0,139568:0:0:0:0:
256,192,139446,128,0,139568:0:0:0:0:
402,192,139568,128,0,139690:0:0:0:0:
182,192,139568,128,0,139690:0:0:0:0:
36,192,139568,128,0,139690:0:0:0:0:
475,192,139568,128,0,139690:0:0:0:0:
109,192,139690,128,0,139812:0:0:0:0:
329,192,139812,128,0,139934:0:0:0:0:
36,192,139812,128,0,140056:0:0:0:0:
182,192,139934,128,0,140056:0:0:0:0:
402,192,140056,128,0,140178:0:0:0:0:
256,192,140056,128,0,140178:0:0:0:0:
475,192,140056,128,0,140178:0:0:0:0:
109,192,140178,128,0,140300:0:0:0:0:
329,192,140300,128,0,140544:0:0:0:0:
182,192,140422,128,0,140544:0:0:0:0:
402,192,140544,128,0,140666:0:0:0:0:
36,192,140544,128,0,140666:0:0:0:0:
256,192,140666,128,0,140910:0:0:0:0:
329,192,140788,128,0,141032:0:0:0:0:
475,192,140788,128,0,141032:0:0:0:0:
182,192,140910,128,0,141154:0:0:0:0:
109,192,141032,128,0,141276:0:0:0:0:
329,192,141154,128,0,141398:0:0:0:0:
256,192,141276,128,0,141520:0:0:0:0:
475,192,141398,128,0,141520:0:0:0:0:
182,192,141520,128,0,141763:0:0:0:0:
109,192,141520,128,0,141641:0:0:0:0:
36,192,141520,128,0,141641:0:0:0:0:
256,192,141763,1,0,0:0:0:0:
329,192,142007,5,0,0:0:0:0:
475,192,142007,1,0,0:0:0:0:
402,192,142007,1,0,0:0:0:0:
256,192,142007,1,0,0:0:0:0:
182,192,142251,1,0,0:0:0:0:
109,192,142251,1,0,0:0:0:0:
36,192,142251,1,0,0:0:0:0:
256,192,142495,5,0,0:0:0:0:
402,192,142495,1,0,0:0:0:0:
329,192,142495,1,0,0:0:0:0:
475,192,142495,1,0,0:0:0:0:
182,192,142739,1,0,0:0:0:0:
109,192,142739,1,0,0:0:0:0:
36,192,142739,1,0,0:0:0:0:
256,192,142983,1,0,0:0:0:0:
402,192,142983,1,0,0:0:0:0:
329,192,142983,1,0,0:0:0:0:
475,192,142983,1,0,0:0:0:0:
109,192,143227,1,0,0:0:0:0:
182,192,143227,1,0,0:0:0:0:
36,192,143227,1,0,0:0:0:0:
402,192,143471,1,0,0:0:0:0:
329,192,143471,1,0,0:0:0:0:
475,192,143471,1,0,0:0:0:0:
256,192,143471,1,0,0:0:0:0:
109,192,143715,1,0,0:0:0:0:
182,192,143715,1,0,0:0:0:0:
36,192,143715,1,0,0:0:0:0:
256,192,143959,1,0,0:0:0:0:
329,192,143959,1,0,0:0:0:0:
475,192,143959,1,0,0:0:0:0:
402,192,143959,1,0,0:0:0:0:
182,192,144080,1,0,0:0:0:0:
109,192,144080,1,0,0:0:0:0:
36,192,144080,1,0,0:0:0:0:
329,192,144202,1,0,0:0:0:0:
402,192,144202,1,0,0:0:0:0:
475,192,144202,1,0,0:0:0:0:
182,192,144324,5,0,0:0:0:0:
109,192,144324,1,0,0:0:0:0:
36,192,144324,1,0,0:0:0:0:
329,192,144446,1,0,0:0:0:0:
475,192,144446,1,0,0:0:0:0:
402,192,144446,1,0,0:0:0:0:
256,192,144446,1,0,0:0:0:0:
182,192,144568,1,0,0:0:0:0:
109,192,144568,1,0,0:0:0:0:
36,192,144568,1,0,0:0:0:0:
329,192,144690,1,0,0:0:0:0:
402,192,144690,1,0,0:0:0:0:
475,192,144690,1,0,0:0:0:0:
182,192,144812,1,0,0:0:0:0:
109,192,144812,1,0,0:0:0:0:
36,192,144812,1,0,0:0:0:0:
256,192,144934,1,0,0:0:0:0:
329,192,144934,1,0,0:0:0:0:
475,192,144934,1,0,0:0:0:0:
402,192,144934,1,0,0:0:0:0:
182,192,145056,1,0,0:0:0:0:
109,192,145056,1,0,0:0:0:0:
36,192,145056,1,0,0:0:0:0:
329,192,145178,1,0,0:0:0:0:
475,192,145178,1,0,0:0:0:0:
402,192,145178,1,0,0:0:0:0:
182,192,145300,1,0,0:0:0:0:
109,192,145300,1,0,0:0:0:0:
36,192,145300,1,0,0:0:0:0:
475,192,145422,5,0,0:0:0:0:
402,192,145422,1,0,0:0:0:0:
329,192,145422,1,0,0:0:0:0:
256,192,145483,1,0,0:0:0:0:
182,192,145483,1,0,0:0:0:0:
109,192,145483,1,0,0:0:0:0:
36,192,145544,1,0,0:0:0:0:
475,192,145544,1,0,0:0:0:0:
402,192,145544,1,0,0:0:0:0:
329,192,145605,1,0,0:0:0:0:
256,192,145605,1,0,0:0:0:0:
182,192,145605,1,0,0:0:0:0:
109,192,145666,1,0,0:0:0:0:
36,192,145666,1,0,0:0:0:0:
475,192,145666,1,0,0:0:0:0:
402,192,145727,1,0,0:0:0:0:
329,192,145727,1,0,0:0:0:0:
256,192,145727,1,0,0:0:0:0:
182,192,145788,1,0,0:0:0:0:
109,192,145788,1,0,0:0:0:0:
36,192,145788,1,0,0:0:0:0:
475,192,145849,1,0,0:0:0:0:
329,192,145849,1,0,0:0:0:0:
402,192,145849,1,0,0:0:0:0:
109,192,145910,5,0,0:0:0:0:
256,192,145910,128,0,146154:0:0:0:0:
36,192,145910,1,0,0:0:0:0:
182,192,145910,1,0,0:0:0:0:
329,192,146276,128,0,146520:0:0:0:0:
182,192,146641,128,0,147007:0:0:0:0:
329,192,147129,128,0,147373:0:0:0:0:
109,192,147373,128,0,147495:0:0:0:0:
36,192,147373,128,0,147495:0:0:0:0:
475,192,147373,128,0,147495:0:0:0:0:
182,192,147434,128,0,147556:0:0:0:0:
256,192,147495,128,0,147617:0:0:0:0:
329,192,147556,128,0,147678:0:0:0:0:
36,192,147617,128,0,147861:0:0:0:0:
402,192,147617,128,0,147861:0:0:0:0:
109,192,147739,128,0,147861:0:0:0:0:
182,192,147861,1,0,0:0:0:0:
475,192,147861,1,0,0:0:0:0:
256,192,147861,128,0,148105:0:0:0:0:
329,192,147983,128,0,148105:0:0:0:0:
402,192,147983,128,0,148227:0:0:0:0:
36,192,148105,128,0,148349:0:0:0:0:
109,192,148227,128,0,148349:0:0:0:0:
329,192,148288,1,0,0:0:0:0:
256,192,148349,1,0,0:0:0:0:
475,192,148349,128,0,148471:0:0:0:0:
182,192,148410,128,0,148471:0:0:0:0:
329,192,148471,128,0,148532:0:0:0:0:
402,192,148471,128,0,148532:0:0:0:0:
109,192,148532,128,0,148593:0:0:0:0:
329,192,148593,128,0,148654:0:0:0:0:
256,192,148593,128,0,148654:0:0:0:0:
36,192,148654,128,0,148715:0:0:0:0:
475,192,148654,128,0,148715:0:0:0:0:
256,192,148715,128,0,148776:0:0:0:0:
182,192,148715,128,0,148776:0:0:0:0:
402,192,148776,128,0,148837:0:0:0:0:
36,192,148837,128,0,148959:0:0:0:0:
109,192,148837,128,0,148959:0:0:0:0:
182,192,148837,128,0,148959:0:0:0:0:
256,192,148959,128,0,149080:0:0:0:0:
329,192,148959,1,0,0:0:0:0:
329,192,149080,128,0,149324:0:0:0:0:
109,192,149080,128,0,149202:0:0:0:0:
36,192,149080,1,0,0:0:0:0:
182,192,149202,128,0,149446:0:0:0:0:
402,192,149202,1,0,0:0:0:0:
475,192,149324,1,0,0:0:0:0:
402,192,149324,128,0,149568:0:0:0:0:
36,192,149324,1,0,0:0:0:0:
256,192,149324,1,0,0:0:0:0:
256,192,149446,128,0,149690:0:0:0:0:
36,192,149446,128,0,149690:0:0:0:0:
109,192,149446,1,0,0:0:0:0:
329,192,149446,1,0,0:0:0:0:
182,192,149568,1,0,0:0:0:0:
475,192,149568,1,0,0:0:0:0:
329,192,149690,128,0,149812:0:0:0:0:
109,192,149690,128,0,149812:0:0:0:0:
36,192,149812,128,0,150178:0:0:0:0:
182,192,149812,128,0,149934:0:0:0:0:
402,192,149812,1,0,0:0:0:0:
475,192,149812,128,0,150178:0:0:0:0:
256,192,149934,128,0,150056:0:0:0:0:
109,192,150056,128,0,150178:0:0:0:0:
402,192,150056,128,0,150178:0:0:0:0:
329,192,150178,128,0,150422:0:0:0:0:
182,192,150178,128,0,150422:0:0:0:0:
109,192,150300,128,0,150422:0:0:0:0:
402,192,150300,128,0,150422:0:0:0:0:
475,192,150300,128,0,150666:0:0:0:0:
36,192,150300,128,0,150666:0:0:0:0:
256,192,150300,128,0,150422:0:0:0:0:
256,192,150544,128,0,150910:0:0:0:0:
182,192,150544,128,0,150666:0:0:0:0:
109,192,150544,128,0,150666:0:0:0:0:
402,192,150544,128,0,150666:0:0:0:0:
329,192,150544,128,0,150666:0:0:0:0:
329,192,150788,128,0,151032:0:0:0:0:
402,192,150788,128,0,151154:0:0:0:0:
36,192,150788,128,0,150910:0:0:0:0:
109,192,150788,128,0,151032:0:0:0:0:
475,192,150788,128,0,151154:0:0:0:0:
182,192,150910,128,0,151154:0:0:0:0:
256,192,151032,128,0,151276:0:0:0:0:
36,192,151032,128,0,151154:0:0:0:0:
109,192,151154,128,0,151276:0:0:0:0:
329,192,151154,128,0,151520:0:0:0:0:
182,192,151276,128,0,151398:0:0:0:0:
475,192,151276,128,0,151520:0:0:0:0:
402,192,151276,128,0,151520:0:0:0:0:
109,192,151398,128,0,151520:0:0:0:0:
256,192,151398,128,0,151641:0:0:0:0:
36,192,151520,128,0,151641:0:0:0:0:
182,192,151520,128,0,151702:0:0:0:0:
109,192,151641,128,0,151702:0:0:0:0:
475,192,151763,1,0,0:0:0:0:
36,192,151763,1,0,0:0:0:0:
256,192,151763,1,0,0:0:0:0:
402,192,151763,128,0,152129:0:0:0:0:
109,192,151763,128,0,151885:0:0:0:0:
182,192,151885,128,0,152007:0:0:0:0:
36,192,152007,128,0,152251:0:0:0:0:
256,192,152007,128,0,152129:0:0:0:0:
329,192,152129,128,0,152251:0:0:0:0:
109,192,152190,128,0,152312:0:0:0:0:
182,192,152251,128,0,152373:0:0:0:0:
402,192,152251,128,0,152495:0:0:0:0:
475,192,152251,128,0,152495:0:0:0:0:
256,192,152312,128,0,152434:0:0:0:0:
329,192,152373,128,0,152556:0:0:0:0:
36,192,152373,128,0,152556:0:0:0:0:
256,192,152495,128,0,152617:0:0:0:0:
475,192,152556,128,0,152678:0:0:0:0:
182,192,152556,128,0,152678:0:0:0:0:
109,192,152617,128,0,152983:0:0:0:0:
402,192,152617,128,0,152739:0:0:0:0:
329,192,152678,128,0,152800:0:0:0:0:
256,192,152739,128,0,152983:0:0:0:0:
36,192,152739,128,0,152983:0:0:0:0:
329,192,152983,128,0,153105:0:0:0:0:
182,192,152983,128,0,153227:0:0:0:0:
402,192,152983,1,0,0:0:0:0:
402,192,153105,128,0,153349:0:0:0:0:
256,192,153227,128,0,153471:0:0:0:0:
109,192,153227,1,0,0:0:0:0:
36,192,153227,1,0,0:0:0:0:
329,192,153227,1,0,0:0:0:0:
475,192,153227,1,0,0:0:0:0:
475,192,153349,128,0,153593:0:0:0:0:
109,192,153349,128,0,153471:0:0:0:0:
36,192,153349,128,0,153471:0:0:0:0:
182,192,153349,128,0,153715:0:0:0:0:
329,192,153471,128,0,153715:0:0:0:0:
402,192,153471,1,0,0:0:0:0:
109,192,153593,128,0,153715:0:0:0:0:
36,192,153593,128,0,153715:0:0:0:0:
256,192,153593,128,0,153959:0:0:0:0:
475,192,153715,1,0,0:0:0:0:
402,192,153715,1,0,0:0:0:0:
475,192,153959,128,0,154080:0:0:0:0:
182,192,153959,128,0,154202:0:0:0:0:
402,192,154020,128,0,154141:0:0:0:0:
329,192,154080,128,0,154202:0:0:0:0:
256,192,154141,128,0,154446:0:0:0:0:
36,192,154202,128,0,154446:0:0:0:0:
475,192,154202,128,0,154324:0:0:0:0:
402,192,154202,128,0,154324:0:0:0:0:
109,192,154202,128,0,154568:0:0:0:0:
329,192,154324,128,0,154568:0:0:0:0:
402,192,154446,128,0,154568:0:0:0:0:
182,192,154446,128,0,154690:0:0:0:0:
475,192,154446,128,0,154812:0:0:0:0:
256,192,154568,128,0,154690:0:0:0:0:
36,192,154568,128,0,154812:0:0:0:0:
109,192,154690,128,0,154812:0:0:0:0:
402,192,154690,128,0,154812:0:0:0:0:
329,192,154690,128,0,154934:0:0:0:0:
256,192,154812,128,0,155056:0:0:0:0:
182,192,154812,128,0,155056:0:0:0:0:
109,192,154934,128,0,155178:0:0:0:0:
402,192,154934,128,0,155056:0:0:0:0:
475,192,154934,128,0,155056:0:0:0:0:
329,192,155056,128,0,155178:0:0:0:0:
36,192,155056,128,0,155178:0:0:0:0:
256,192,155178,128,0,155666:0:0:0:0:
402,192,155178,128,0,155300:0:0:0:0:
182,192,155178,128,0,155422:0:0:0:0:
475,192,155178,128,0,155300:0:0:0:0:
109,192,155300,128,0,155422:0:0:0:0:
36,192,155300,128,0,155666:0:0:0:0:
402,192,155422,128,0,155544:0:0:0:0:
329,192,155422,128,0,155666:0:0:0:0:
475,192,155422,128,0,155544:0:0:0:0:
182,192,155544,128,0,155666:0:0:0:0:
109,192,155544,128,0,155666:0:0:0:0:
475,192,155666,128,0,156032:0:0:0:0:
256,192,155910,128,0,156032:0:0:0:0:
402,192,155910,128,0,156154:0:0:0:0:
36,192,156154,128,0,156641:0:0:0:0:
109,192,156154,128,0,156398:0:0:0:0:
329,192,156154,128,0,156398:0:0:0:0:
256,192,156154,1,0,0:0:0:0:
475,192,156276,128,0,156520:0:0:0:0:
182,192,156276,128,0,156520:0:0:0:0:
256,192,156398,128,0,156641:0:0:0:0:
329,192,156520,1,0,0:0:0:0:
402,192,156520,128,0,156763:0:0:0:0:
109,192,156520,128,0,156763:0:0:0:0:
182,192,156641,128,0,156885:0:0:0:0:
475,192,156641,128,0,156763:0:0:0:0:
329,192,156763,128,0,157007:0:0:0:0:
256,192,156763,1,0,0:0:0:0:
36,192,156763,1,0,0:0:0:0:
109,192,156885,128,0,157007:0:0:0:0:
402,192,156885,1,0,0:0:0:0:
475,192,156885,128,0,157129:0:0:0:0:
256,192,157007,128,0,157129:0:0:0:0:
36,192,157007,128,0,157129:0:0:0:0:
402,192,157129,128,0,157251:0:0:0:0:
182,192,157129,128,0,157373:0:0:0:0:
109,192,157129,1,0,0:0:0:0:
329,192,157251,128,0,157373:0:0:0:0:
475,192,157373,128,0,157495:0:0:0:0:
109,192,157373,128,0,157495:0:0:0:0:
36,192,157373,128,0,157495:0:0:0:0:
402,192,157373,1,0,0:0:0:0:
182,192,157434,128,0,157556:0:0:0:0:
256,192,157495,128,0,157983:0:0:0:0:
329,192,157556,128,0,157678:0:0:0:0:
402,192,157617,128,0,157739:0:0:0:0:
36,192,157617,128,0,158105:0:0:0:0:
475,192,157617,128,0,157983:0:0:0:0:
109,192,157617,128,0,157739:0:0:0:0:
182,192,157617,128,0,157861:0:0:0:0:
402,192,157861,128,0,157983:0:0:0:0:
329,192,157861,128,0,158349:0:0:0:0:
109,192,157983,128,0,158105:0:0:0:0:
182,192,157983,128,0,158227:0:0:0:0:
256,192,158105,128,0,158593:0:0:0:0:
402,192,158105,128,0,158349:0:0:0:0:
475,192,158105,128,0,158349:0:0:0:0:
36,192,158227,128,0,158471:0:0:0:0:
109,192,158349,128,0,158471:0:0:0:0:
182,192,158349,128,0,158593:0:0:0:0:
475,192,158471,128,0,158837:0:0:0:0:
402,192,158471,128,0,158837:0:0:0:0:
109,192,158593,128,0,158837:0:0:0:0:
36,192,158593,128,0,158837:0:0:0:0:
329,192,158593,128,0,158837:0:0:0:0:
256,192,158715,128,0,159080:0:0:0:0:
182,192,158837,128,0,158959:0:0:0:0:
36,192,158959,128,0,159202:0:0:0:0:
475,192,158959,128,0,159080:0:0:0:0:
109,192,159080,128,0,159202:0:0:0:0:
329,192,159080,128,0,159202:0:0:0:0:
182,192,159202,128,0,159446:0:0:0:0:
402,192,159202,128,0,159324:0:0:0:0:
109,192,159324,128,0,159568:0:0:0:0:
329,192,159324,128,0,159446:0:0:0:0:
475,192,159324,128,0,159568:0:0:0:0:
256,192,159324,128,0,159446:0:0:0:0:
36,192,159446,128,0,159568:0:0:0:0:
402,192,159568,128,0,160056:0:0:0:0:
182,192,159568,128,0,159690:0:0:0:0:
256,192,159568,128,0,159934:0:0:0:0:
329,192,159690,128,0,159812:0:0:0:0:
182,192,159812,128,0,159934:0:0:0:0:
36,192,159812,128,0,160056:0:0:0:0:
329,192,159934,128,0,160056:0:0:0:0:
109,192,160056,128,0,160178:0:0:0:0:
256,192,160056,128,0,160422:0:0:0:0:
402,192,160178,128,0,160300:0:0:0:0:
475,192,160178,128,0,160300:0:0:0:0:
109,192,160300,128,0,160422:0:0:0:0:
36,192,160300,128,0,160422:0:0:0:0:
402,192,160422,128,0,160544:0:0:0:0:
329,192,160422,128,0,160544:0:0:0:0:
256,192,160544,128,0,160910:0:0:0:0:
182,192,160544,128,0,160666:0:0:0:0:
109,192,160544,128,0,160666:0:0:0:0:
475,192,160666,128,0,160788:0:0:0:0:
402,192,160666,128,0,160788:0:0:0:0:
36,192,160788,128,0,160910:0:0:0:0:
109,192,160788,128,0,160910:0:0:0:0:
329,192,160910,128,0,161032:0:0:0:0:
402,192,160910,128,0,161032:0:0:0:0:
109,192,161032,128,0,161154:0:0:0:0:
182,192,161032,128,0,161154:0:0:0:0:
256,192,161032,128,0,161459:0:0:0:0:
402,192,161154,128,0,161276:0:0:0:0:
475,192,161154,128,0,161276:0:0:0:0:
182,192,161276,128,0,161459:0:0:0:0:
329,192,161398,128,0,161459:0:0:0:0:
475,192,161520,128,0,161580:0:0:0:0:
402,192,161580,128,0,161641:0:0:0:0:
36,192,161641,128,0,161702:0:0:0:0:
109,192,161702,128,0,161763:0:0:0:0:
402,192,161763,128,0,161824:0:0:0:0:
329,192,161824,128,0,161885:0:0:0:0:
109,192,161885,128,0,161946:0:0:0:0:
182,192,161946,128,0,162007:0:0:0:0:
329,192,162007,128,0,162068:0:0:0:0:
402,192,162068,128,0,162129:0:0:0:0:
182,192,162129,128,0,162190:0:0:0:0:
109,192,162190,128,0,162251:0:0:0:0:
402,192,162251,128,0,162312:0:0:0:0:
256,192,162312,128,0,162373:0:0:0:0:
109,192,162373,128,0,162434:0:0:0:0:
329,192,162495,128,0,162739:0:0:0:0:
402,192,162495,1,0,0:0:0:0:
182,192,162617,128,0,162861:0:0:0:0:
256,192,162617,1,0,0:0:0:0:
402,192,162739,128,0,162983:0:0:0:0:
475,192,162739,1,0,0:0:0:0:
36,192,162739,128,0,162983:0:0:0:0:
109,192,162739,1,0,0:0:0:0:
256,192,162861,128,0,163105:0:0:0:0:
329,192,162861,1,0,0:0:0:0:
475,192,162983,128,0,163227:0:0:0:0:
109,192,162983,128,0,163227:0:0:0:0:
182,192,162983,1,0,0:0:0:0:
329,192,163105,128,0,163471:0:0:0:0:
402,192,163105,1,0,0:0:0:0:
256,192,163227,1,0,0:0:0:0:
182,192,163227,128,0,163471:0:0:0:0:
36,192,163471,1,0,0:0:0:0:
475,192,163471,1,0,0:0:0:0:
109,192,163471,1,0,0:0:0:0:
402,192,163471,1,0,0:0:0:0:
256,192,163715,1,0,0:0:0:0:
329,192,164202,1,0,0:0:0:0:
256,192,164446,1,0,0:0:0:0:
182,192,164690,1,0,0:0:0:0:
402,192,164934,1,0,0:0:0:0:
109,192,165178,1,0,0:0:0:0:
329,192,165544,1,0,0:0:0:0:
256,192,165910,1,0,0:0:0:0:
109,192,166154,128,0,166641:0:0:0:0:
256,192,166885,1,0,0:0:0:0:
329,192,167129,1,0,0:0:0:0:
182,192,167373,1,0,0:0:0:0:
329,192,167617,1,0,0:0:0:0:
109,192,167861,1,0,0:0:0:0:
402,192,168105,1,0,0:0:0:0:
329,192,168105,1,0,0:0:0:0:
329,192,168471,1,0,0:0:0:0:
256,192,168471,1,0,0:0:0:0:
182,192,168837,1,0,0:0:0:0:
109,192,169080,1,0,0:0:0:0:
402,192,169324,1,0,0:0:0:0:
329,192,169568,1,0,0:0:0:0:
256,192,169812,128,0,170300:0:0:0:0:
36,192,170300,128,0,170788:0:0:0:0:
402,192,170544,128,0,170788:0:0:0:0:
256,192,170788,128,0,171032:0:0:0:0:
182,192,171032,1,0,0:0:0:0:
182,192,171154,128,0,171276:0:0:0:0:
256,192,171276,128,0,171520:0:0:0:0:
36,192,171276,128,0,171520:0:0:0:0:
402,192,171276,1,0,0:0:0:0:
475,192,171276,1,0,0:0:0:0:
329,192,171398,128,0,171520:0:0:0:0:
182,192,171520,128,0,171641:0:0:0:0:
475,192,171520,128,0,171763:0:0:0:0:
256,192,171641,128,0,171763:0:0:0:0:
36,192,171641,128,0,171763:0:0:0:0:
329,192,171763,128,0,171885:0:0:0:0:
109,192,171763,128,0,172007:0:0:0:0:
402,192,171885,128,0,172007:0:0:0:0:
256,192,172007,128,0,172129:0:0:0:0:
36,192,172007,128,0,172251:0:0:0:0:
329,192,172129,128,0,172251:0:0:0:0:
109,192,172129,128,0,172251:0:0:0:0:
402,192,172251,128,0,172373:0:0:0:0:
475,192,172251,128,0,172495:0:0:0:0:
182,192,172373,128,0,172495:0:0:0:0:
256,192,172495,128,0,172617:0:0:0:0:
36,192,172495,128,0,172739:0:0:0:0:
109,192,172617,128,0,172739:0:0:0:0:
402,192,172617,128,0,172739:0:0:0:0:
182,192,172739,128,0,172861:0:0:0:0:
329,192,172739,128,0,173105:0:0:0:0:
475,192,172861,128,0,172983:0:0:0:0:
256,192,172983,128,0,173105:0:0:0:0:
36,192,172983,128,0,173227:0:0:0:0:
109,192,173105,128,0,173227:0:0:0:0:
402,192,173105,128,0,173227:0:0:0:0:
329,192,173227,128,0,173349:0:0:0:0:
475,192,173227,128,0,173471:0:0:0:0:
256,192,173349,128,0,173471:0:0:0:0:
36,192,173471,128,0,173593:0:0:0:0:
402,192,173471,128,0,173715:0:0:0:0:
109,192,173593,128,0,173715:0:0:0:0:
329,192,173593,128,0,173715:0:0:0:0:
36,192,173715,128,0,173959:0:0:0:0:
182,192,173715,1,0,0:0:0:0:
256,192,173837,128,0,173959:0:0:0:0:
182,192,173959,128,0,174202:0:0:0:0:
402,192,173959,128,0,174080:0:0:0:0:
329,192,174080,128,0,174202:0:0:0:0:
36,192,174202,1,0,0:0:0:0:
475,192,174202,1,0,0:0:0:0:
256,192,174202,128,0,174324:0:0:0:0:
109,192,174324,128,0,174446:0:0:0:0:
182,192,174446,128,0,174690:0:0:0:0:
329,192,174446,128,0,174568:0:0:0:0:
256,192,174568,128,0,174690:0:0:0:0:
36,192,174568,128,0,174690:0:0:0:0:
402,192,174690,1,0,0:0:0:0:
475,192,174690,128,0,174812:0:0:0:0:
109,192,174812,128,0,174934:0:0:0:0:
182,192,174934,128,0,175056:0:0:0:0:
329,192,174934,128,0,175178:0:0:0:0:
256,192,175056,128,0,175178:0:0:0:0:
475,192,175056,128,0,175178:0:0:0:0:
182,192,175178,1,0,0:0:0:0:
109,192,175178,1,0,0:0:0:0:
36,192,175178,1,0,0:0:0:0:
329,192,175422,1,0,0:0:0:0:
402,192,175422,1,0,0:0:0:0:
475,192,175422,1,0,0:0:0:0:
36,192,175666,1,0,0:0:0:0:
109,192,175666,1,0,0:0:0:0:
182,192,175666,1,0,0:0:0:0:
475,192,175910,1,0,0:0:0:0:
329,192,175910,1,0,0:0:0:0:
402,192,175910,1,0,0:0:0:0:
182,192,176154,1,0,0:0:0:0:
109,192,176154,1,0,0:0:0:0:
36,192,176154,1,0,0:0:0:0:
329,192,176398,1,0,0:0:0:0:
402,192,176398,1,0,0:0:0:0:
475,192,176398,1,0,0:0:0:0:
36,192,176641,1,0,0:0:0:0:
109,192,176641,1,0,0:0:0:0:
182,192,176641,1,0,0:0:0:0:
475,192,176885,1,0,0:0:0:0:
329,192,176885,1,0,0:0:0:0:
402,192,176885,1,0,0:0:0:0:
36,192,177129,1,0,0:0:0:0:
109,192,177129,1,0,0:0:0:0:
182,192,177129,1,0,0:0:0:0:
402,192,177251,1,0,0:0:0:0:
475,192,177251,1,0,0:0:0:0:
329,192,177251,1,0,0:0:0:0:
182,192,177373,1,0,0:0:0:0:
109,192,177373,1,0,0:0:0:0:
36,192,177373,1,0,0:0:0:0:
402,192,177495,1,0,0:0:0:0:
475,192,177495,1,0,0:0:0:0:
329,192,177495,1,0,0:0:0:0:
182,192,177617,1,0,0:0:0:0:
109,192,177617,1,0,0:0:0:0:
36,192,177617,1,0,0:0:0:0:
329,192,177739,1,0,0:0:0:0:
475,192,177739,1,0,0:0:0:0:
402,192,177739,1,0,0:0:0:0:
182,192,177861,1,0,0:0:0:0:
36,192,177861,1,0,0:0:0:0:
109,192,177861,1,0,0:0:0:0:
402,192,177983,1,0,0:0:0:0:
329,192,177983,1,0,0:0:0:0:
475,192,177983,1,0,0:0:0:0:
109,192,178105,1,0,0:0:0:0:
36,192,178105,1,0,0:0:0:0:
182,192,178105,1,0,0:0:0:0:
475,192,178227,1,0,0:0:0:0:
329,192,178227,1,0,0:0:0:0:
402,192,178227,1,0,0:0:0:0:
182,192,178349,1,0,0:0:0:0:
36,192,178349,1,0,0:0:0:0:
109,192,178349,1,0,0:0:0:0:
402,192,178471,1,0,0:0:0:0:
329,192,178471,1,0,0:0:0:0:
475,192,178471,1,0,0:0:0:0:
182,192,178593,1,0,0:0:0:0:
109,192,178593,1,0,0:0:0:0:
36,192,178593,1,0,0:0:0:0:
256,192,178654,1,0,0:0:0:0:
329,192,178654,1,0,0:0:0:0:
402,192,178654,1,0,0:0:0:0:
475,192,178715,1,0,0:0:0:0:
36,192,178715,1,0,0:0:0:0:
109,192,178715,1,0,0:0:0:0:
182,192,178776,1,0,0:0:0:0:
256,192,178776,1,0,0:0:0:0:
329,192,178776,1,0,0:0:0:0:
402,192,178837,1,0,0:0:0:0:
475,192,178837,1,0,0:0:0:0:
36,192,178837,1,0,0:0:0:0:
109,192,178898,1,0,0:0:0:0:
182,192,178898,1,0,0:0:0:0:
256,192,178898,1,0,0:0:0:0:
329,192,178959,1,0,0:0:0:0:
402,192,178959,1,0,0:0:0:0:
475,192,178959,1,0,0:0:0:0:
182,192,179020,1,0,0:0:0:0:
109,192,179020,1,0,0:0:0:0:
36,192,179020,1,0,0:0:0:0:
329,192,179080,1,0,0:0:0:0:
402,192,179080,1,0,0:0:0:0:
475,192,179080,1,0,0:0:0:0:
256,192,179080,128,0,180056:0:0:0:0:
329,192,180788,128,0,181032:0:0:0:0:
256,192,181032,128,0,181276:0:0:0:0:
182,192,181398,128,0,181641:0:0:0:0:
109,192,181763,128,0,182007:0:0:0:0:
36,192,182251,128,0,182373:0:0:0:0:
329,192,182495,128,0,182617:0:0:0:0:
256,192,182495,128,0,182617:0:0:0:0:
109,192,182495,128,0,182617:0:0:0:0:
36,192,182495,128,0,182617:0:0:0:0:
402,192,182556,128,0,182678:0:0:0:0:
475,192,182617,128,0,182739:0:0:0:0:
182,192,182678,128,0,182800:0:0:0:0:
256,192,182739,128,0,182861:0:0:0:0:
329,192,182800,128,0,182922:0:0:0:0:
36,192,182861,128,0,182983:0:0:0:0:
109,192,182922,128,0,183044:0:0:0:0:
256,192,182983,128,0,183349:0:0:0:0:
182,192,182983,128,0,183227:0:0:0:0:
475,192,182983,128,0,183349:0:0:0:0:
402,192,182983,128,0,183349:0:0:0:0:
36,192,183227,128,0,183471:0:0:0:0:
109,192,183349,128,0,183471:0:0:0:0:
475,192,183471,128,0,183532:0:0:0:0:
402,192,183471,128,0,183532:0:0:0:0:
256,192,183471,128,0,183532:0:0:0:0:
182,192,183532,128,0,183593:0:0:0:0:
329,192,183593,128,0,183654:0:0:0:0:
402,192,183593,128,0,183654:0:0:0:0:
109,192,183654,128,0,183715:0:0:0:0:
329,192,183715,128,0,183776:0:0:0:0:
256,192,183715,128,0,183776:0:0:0:0:
36,192,183776,128,0,183837:0:0:0:0:
475,192,183776,128,0,183837:0:0:0:0:
256,192,183837,128,0,183898:0:0:0:0:
182,192,183837,128,0,183898:0:0:0:0:
402,192,183898,128,0,183959:0:0:0:0:
36,192,183959,128,0,184080:0:0:0:0:
109,192,183959,128,0,184080:0:0:0:0:
182,192,183959,128,0,184080:0:0:0:0:
256,192,184080,128,0,184324:0:0:0:0:
402,192,184080,128,0,184202:0:0:0:0:
475,192,184080,128,0,184202:0:0:0:0:
109,192,184202,128,0,184446:0:0:0:0:
36,192,184202,128,0,184324:0:0:0:0:
475,192,184324,128,0,184568:0:0:0:0:
402,192,184324,128,0,184446:0:0:0:0:
329,192,184446,128,0,184690:0:0:0:0:
256,192,184446,128,0,184568:0:0:0:0:
182,192,184568,128,0,184812:0:0:0:0:
109,192,184568,128,0,184690:0:0:0:0:
36,192,184690,128,0,184812:0:0:0:0:
402,192,184690,128,0,184812:0:0:0:0:
329,192,184812,128,0,184934:0:0:0:0:
36,192,184934,128,0,185300:0:0:0:0:
475,192,184934,128,0,185300:0:0:0:0:
256,192,184934,128,0,185178:0:0:0:0:
182,192,184934,128,0,185056:0:0:0:0:
402,192,184934,128,0,185056:0:0:0:0:
109,192,185178,128,0,185300:0:0:0:0:
402,192,185178,128,0,185300:0:0:0:0:
329,192,185300,128,0,185544:0:0:0:0:
182,192,185300,128,0,185544:0:0:0:0:
109,192,185422,128,0,185544:0:0:0:0:
402,192,185422,128,0,185544:0:0:0:0:
475,192,185422,128,0,185788:0:0:0:0:
36,192,185422,128,0,185788:0:0:0:0:
256,192,185422,128,0,185544:0:0:0:0:
256,192,185666,128,0,186032:0:0:0:0:
182,192,185666,128,0,185788:0:0:0:0:
109,192,185666,128,0,185788:0:0:0:0:
402,192,185666,128,0,185788:0:0:0:0:
329,192,185666,128,0,185788:0:0:0:0:
329,192,185910,128,0,186154:0:0:0:0:
402,192,185910,128,0,186276:0:0:0:0:
36,192,185910,128,0,186032:0:0:0:0:
109,192,185910,128,0,186154:0:0:0:0:
475,192,185910,128,0,186276:0:0:0:0:
182,192,186032,128,0,186276:0:0:0:0:
256,192,186154,128,0,186398:0:0:0:0:
36,192,186154,128,0,186276:0:0:0:0:
109,192,186276,128,0,186398:0:0:0:0:
329,192,186276,128,0,186641:0:0:0:0:
182,192,186398,128,0,186520:0:0:0:0:
475,192,186398,128,0,186641:0:0:0:0:
402,192,186398,128,0,186641:0:0:0:0:
109,192,186520,128,0,186641:0:0:0:0:
256,192,186520,128,0,186763:0:0:0:0:
36,192,186641,128,0,186763:0:0:0:0:
182,192,186641,128,0,186885:0:0:0:0:
109,192,186763,128,0,186885:0:0:0:0:
402,192,186885,128,0,187129:0:0:0:0:
256,192,186885,128,0,187007:0:0:0:0:
36,192,186885,128,0,187007:0:0:0:0:
475,192,186885,128,0,187007:0:0:0:0:
329,192,187007,128,0,187129:0:0:0:0:
182,192,187129,128,0,187251:0:0:0:0:
36,192,187129,128,0,187434:0:0:0:0:
402,192,187251,128,0,187373:0:0:0:0:
475,192,187251,128,0,187373:0:0:0:0:
256,192,187251,128,0,187373:0:0:0:0:
109,192,187373,128,0,187495:0:0:0:0:
182,192,187434,128,0,187556:0:0:0:0:
256,192,187495,128,0,187617:0:0:0:0:
329,192,187556,128,0,187739:0:0:0:0:
402,192,187617,128,0,187678:0:0:0:0:
256,192,187678,128,0,187800:0:0:0:0:
182,192,187739,128,0,187861:0:0:0:0:
109,192,187800,128,0,187922:0:0:0:0:
475,192,187800,128,0,187922:0:0:0:0:
402,192,187830,128,0,187952:0:0:0:0:
36,192,187861,128,0,188105:0:0:0:0:
329,192,187861,128,0,187983:0:0:0:0:
256,192,187983,128,0,188105:0:0:0:0:
329,192,188105,128,0,188227:0:0:0:0:
182,192,188105,128,0,188349:0:0:0:0:
475,192,188105,128,0,188227:0:0:0:0:
402,192,188227,128,0,188471:0:0:0:0:
256,192,188349,128,0,188593:0:0:0:0:
109,192,188349,1,0,0:0:0:0:
36,192,188349,1,0,0:0:0:0:
329,192,188349,128,0,188471:0:0:0:0:
475,192,188471,128,0,188715:0:0:0:0:
109,192,188471,128,0,188593:0:0:0:0:
36,192,188471,128,0,188593:0:0:0:0:
182,192,188471,128,0,188837:0:0:0:0:
329,192,188593,128,0,188837:0:0:0:0:
402,192,188593,128,0,188715:0:0:0:0:
109,192,188715,128,0,188837:0:0:0:0:
36,192,188715,128,0,188837:0:0:0:0:
256,192,188715,128,0,189080:0:0:0:0:
475,192,188837,1,0,0:0:0:0:
402,192,188837,1,0,0:0:0:0:
475,192,189080,128,0,189202:0:0:0:0:
36,192,189080,128,0,189141:0:0:0:0:
402,192,189141,128,0,189263:0:0:0:0:
109,192,189141,128,0,189202:0:0:0:0:
329,192,189202,128,0,189324:0:0:0:0:
182,192,189202,128,0,189263:0:0:0:0:
256,192,189263,128,0,189568:0:0:0:0:
36,192,189324,128,0,189568:0:0:0:0:
475,192,189324,128,0,189446:0:0:0:0:
402,192,189324,128,0,189446:0:0:0:0:
109,192,189324,128,0,189690:0:0:0:0:
329,192,189446,128,0,189690:0:0:0:0:
402,192,189568,128,0,189690:0:0:0:0:
182,192,189568,128,0,189812:0:0:0:0:
475,192,189568,128,0,189934:0:0:0:0:
256,192,189690,128,0,189812:0:0:0:0:
36,192,189690,128,0,189934:0:0:0:0:
109,192,189812,128,0,189934:0:0:0:0:
402,192,189812,128,0,189934:0:0:0:0:
329,192,189812,128,0,190056:0:0:0:0:
256,192,189934,128,0,190178:0:0:0:0:
182,192,189934,128,0,190178:0:0:0:0:
109,192,190056,128,0,190300:0:0:0:0:
402,192,190056,128,0,190178:0:0:0:0:
475,192,190056,128,0,190178:0:0:0:0:
329,192,190178,128,0,190300:0:0:0:0:
36,192,190178,128,0,190300:0:0:0:0:
256,192,190300,128,0,190788:0:0:0:0:
402,192,190300,128,0,190422:0:0:0:0:
182,192,190300,128,0,190544:0:0:0:0:
475,192,190300,128,0,190422:0:0:0:0:
109,192,190422,128,0,190544:0:0:0:0:
36,192,190422,128,0,190788:0:0:0:0:
402,192,190544,128,0,190666:0:0:0:0:
329,192,190544,128,0,190788:0:0:0:0:
475,192,190544,128,0,190666:0:0:0:0:
182,192,190666,128,0,190788:0:0:0:0:
109,192,190666,128,0,190788:0:0:0:0:
475,192,190788,128,0,191154:0:0:0:0:
256,192,191032,128,0,191154:0:0:0:0:
109,192,191032,128,0,191154:0:0:0:0:
402,192,191032,128,0,191154:0:0:0:0:
36,192,191276,128,0,191763:0:0:0:0:
109,192,191276,128,0,191520:0:0:0:0:
329,192,191276,128,0,191520:0:0:0:0:
402,192,191276,128,0,191398:0:0:0:0:
475,192,191276,128,0,191641:0:0:0:0:
256,192,191276,128,0,191398:0:0:0:0:
182,192,191398,128,0,191641:0:0:0:0:
256,192,191520,128,0,191763:0:0:0:0:
109,192,191641,128,0,191885:0:0:0:0:
329,192,191641,128,0,191763:0:0:0:0:
182,192,191763,128,0,192007:0:0:0:0:
475,192,191763,128,0,191885:0:0:0:0:
402,192,191763,128,0,191885:0:0:0:0:
329,192,191885,128,0,192129:0:0:0:0:
256,192,191885,128,0,192007:0:0:0:0:
109,192,192007,128,0,192129:0:0:0:0:
475,192,192007,128,0,192129:0:0:0:0:
402,192,192007,128,0,192129:0:0:0:0:
256,192,192129,128,0,192251:0:0:0:0:
36,192,192129,128,0,192251:0:0:0:0:
402,192,192251,128,0,192373:0:0:0:0:
182,192,192251,128,0,192373:0:0:0:0:
329,192,192373,128,0,192495:0:0:0:0:
109,192,192495,128,0,192617:0:0:0:0:
475,192,192495,128,0,192617:0:0:0:0:
182,192,192556,128,0,192678:0:0:0:0:
256,192,192617,128,0,193105:0:0:0:0:
402,192,192617,128,0,192739:0:0:0:0:
329,192,192678,128,0,192800:0:0:0:0:
36,192,192739,128,0,193227:0:0:0:0:
109,192,192739,128,0,192861:0:0:0:0:
182,192,192739,128,0,192983:0:0:0:0:
475,192,192739,128,0,192983:0:0:0:0:
402,192,192861,128,0,193105:0:0:0:0:
329,192,192983,128,0,193471:0:0:0:0:
109,192,193105,128,0,193227:0:0:0:0:
182,192,193105,128,0,193349:0:0:0:0:
256,192,193227,128,0,193715:0:0:0:0:
402,192,193227,128,0,193471:0:0:0:0:
475,192,193227,128,0,193471:0:0:0:0:
36,192,193349,128,0,193593:0:0:0:0:
109,192,193471,128,0,193593:0:0:0:0:
182,192,193471,128,0,193715:0:0:0:0:
475,192,193593,128,0,193959:0:0:0:0:
402,192,193593,128,0,193959:0:0:0:0:
109,192,193715,128,0,193959:0:0:0:0:
36,192,193715,128,0,193959:0:0:0:0:
329,192,193715,128,0,193959:0:0:0:0:
256,192,193837,128,0,194202:0:0:0:0:
182,192,193959,128,0,194080:0:0:0:0:
36,192,194080,128,0,194324:0:0:0:0:
475,192,194080,128,0,194202:0:0:0:0:
109,192,194202,128,0,194324:0:0:0:0:
329,192,194202,128,0,194324:0:0:0:0:
402,192,194324,128,0,194446:0:0:0:0:
182,192,194324,128,0,194446:0:0:0:0:
475,192,194446,128,0,194690:0:0:0:0:
36,192,194446,128,0,194690:0:0:0:0:
329,192,194568,128,0,194690:0:0:0:0:
402,192,194690,128,0,195178:0:0:0:0:
182,192,194690,128,0,194812:0:0:0:0:
256,192,194690,128,0,195056:0:0:0:0:
109,192,194690,128,0,195178:0:0:0:0:
329,192,194812,128,0,194934:0:0:0:0:
182,192,194934,128,0,195056:0:0:0:0:
329,192,195056,128,0,195178:0:0:0:0:
256,192,195178,128,0,195544:0:0:0:0:
182,192,195178,128,0,195300:0:0:0:0:
402,192,195300,128,0,195422:0:0:0:0:
475,192,195300,128,0,195422:0:0:0:0:
109,192,195422,128,0,195544:0:0:0:0:
36,192,195422,128,0,195544:0:0:0:0:
402,192,195544,128,0,195666:0:0:0:0:
329,192,195544,128,0,195666:0:0:0:0:
256,192,195666,128,0,196032:0:0:0:0:
182,192,195666,128,0,195788:0:0:0:0:
109,192,195666,128,0,195788:0:0:0:0:
475,192,195788,128,0,195910:0:0:0:0:
402,192,195788,128,0,195910:0:0:0:0:
36,192,195910,128,0,196032:0:0:0:0:
109,192,195910,128,0,196032:0:0:0:0:
329,192,196032,128,0,196154:0:0:0:0:
402,192,196032,128,0,196154:0:0:0:0:
109,192,196154,128,0,196276:0:0:0:0:
182,192,196154,128,0,196276:0:0:0:0:
256,192,196154,128,0,196580:0:0:0:0:
402,192,196276,128,0,196398:0:0:0:0:
475,192,196276,128,0,196398:0:0:0:0:
182,192,196398,128,0,196580:0:0:0:0:
329,192,196520,128,0,196580:0:0:0:0:
475,192,196641,128,0,196702:0:0:0:0:
329,192,196702,128,0,196763:0:0:0:0:
36,192,196763,128,0,196824:0:0:0:0:
182,192,196824,128,0,196885:0:0:0:0:
402,192,196885,128,0,196946:0:0:0:0:
256,192,196946,128,0,197007:0:0:0:0:
109,192,197007,128,0,197068:0:0:0:0:
329,192,197068,128,0,197129:0:0:0:0:
475,192,197129,128,0,197190:0:0:0:0:
182,192,197190,128,0,197251:0:0:0:0:
36,192,197251,128,0,197312:0:0:0:0:
329,192,197312,128,0,197373:0:0:0:0:
475,192,197373,128,0,197434:0:0:0:0:
36,192,197434,128,0,197495:0:0:0:0:
182,192,197495,128,0,197556:0:0:0:0:
329,192,197617,128,0,197861:0:0:0:0:
402,192,197617,128,0,197739:0:0:0:0:
182,192,197739,128,0,197983:0:0:0:0:
256,192,197739,128,0,197861:0:0:0:0:
402,192,197861,128,0,198105:0:0:0:0:
36,192,197861,128,0,198105:0:0:0:0:
109,192,197861,128,0,197983:0:0:0:0:
475,192,197861,128,0,197983:0:0:0:0:
256,192,197983,128,0,198227:0:0:0:0:
329,192,197983,128,0,198105:0:0:0:0:
475,192,198105,128,0,198349:0:0:0:0:
109,192,198105,128,0,198349:0:0:0:0:
182,192,198105,128,0,198227:0:0:0:0:
329,192,198227,128,0,198593:0:0:0:0:
402,192,198227,128,0,198349:0:0:0:0:
182,192,198349,128,0,198593:0:0:0:0:
256,192,198349,128,0,198471:0:0:0:0:
109,192,198471,1,0,0:0:0:0:
36,192,198471,128,0,198715:0:0:0:0:
402,192,198593,128,0,198715:0:0:0:0:
475,192,198593,128,0,198715:0:0:0:0:
109,192,198593,128,0,198715:0:0:0:0:
256,192,198593,128,0,198959:0:0:0:0:
36,192,198837,128,0,198959:0:0:0:0:
109,192,198837,128,0,198959:0:0:0:0:
402,192,198837,128,0,198959:0:0:0:0:
475,192,198837,128,0,198959:0:0:0:0:
329,192,198959,128,0,199080:0:0:0:0:
182,192,198959,128,0,199080:0:0:0:0:
256,192,199080,128,0,199202:0:0:0:0:
109,192,199202,1,0,0:0:0:0:
36,192,199202,1,0,0:0:0:0:
402,192,199202,1,0,0:0:0:0:
475,192,199202,1,0,0:0:0:0:
329,192,199324,128,0,199446:0:0:0:0:
182,192,199324,128,0,199446:0:0:0:0:
109,192,199446,128,0,199568:0:0:0:0:
402,192,199446,128,0,199568:0:0:0:0:
256,192,199568,128,0,199690:0:0:0:0:
475,192,199568,128,0,199690:0:0:0:0:
36,192,199568,128,0,199690:0:0:0:0:
402,192,199690,128,0,199934:0:0:0:0:
109,192,199690,128,0,199934:0:0:0:0:
329,192,199690,128,0,199812:0:0:0:0:
182,192,199690,128,0,199812:0:0:0:0:
475,192,199812,128,0,199934:0:0:0:0:
36,192,199812,128,0,199934:0:0:0:0:
256,192,199934,1,0,0:0:0:0:
36,192,200056,128,0,200178:0:0:0:0:
182,192,200056,128,0,200178:0:0:0:0:
256,192,200056,128,0,200178:0:0:0:0:
329,192,200056,128,0,200178:0:0:0:0:
475,192,200056,128,0,200178:0:0:0:0:
36,192,200300,128,0,200422:0:0:0:0:
109,192,200300,128,0,200422:0:0:0:0:
402,192,200300,128,0,200422:0:0:0:0:
475,192,200300,128,0,200422:0:0:0:0:
256,192,200300,128,0,200422:0:0:0:0:
36,192,200544,128,0,200635:0:0:0:0:
475,192,200544,128,0,200635:0:0:0:0:
402,192,200574,128,0,200666:0:0:0:0:
109,192,200574,128,0,200666:0:0:0:0:
329,192,200605,128,0,200696:0:0:0:0:
182,192,200605,128,0,200696:0:0:0:0:
256,192,200635,128,0,200727:0:0:0:0:
402,192,200788,128,0,200910:0:0:0:0:
475,192,200788,128,0,200910:0:0:0:0:
182,192,200910,128,0,201032:0:0:0:0:
329,192,200910,128,0,201032:0:0:0:0:
109,192,201032,128,0,201154:0:0:0:0:
36,192,201032,128,0,201154:0:0:0:0:
475,192,201154,1,0,0:0:0:0:
402,192,201154,1,0,0:0:0:0:
329,192,201154,1,0,0:0:0:0:
329,192,201276,128,0,201398:0:0:0:0:
402,192,201276,128,0,201398:0:0:0:0:
475,192,201276,128,0,201398:0:0:0:0:
182,192,201276,1,0,0:0:0:0:
109,192,201276,1,0,0:0:0:0:
36,192,201276,1,0,0:0:0:0:
36,192,201398,128,0,201520:0:0:0:0:
109,192,201398,128,0,201520:0:0:0:0:
182,192,201398,128,0,201520:0:0:0:0:
329,192,201520,1,0,0:0:0:0:
402,192,201520,1,0,0:0:0:0:
475,192,201520,1,0,0:0:0:0:
109,192,201641,128,0,201763:0:0:0:0:
36,192,201641,128,0,201763:0:0:0:0:
402,192,201641,128,0,201763:0:0:0:0:
475,192,201641,128,0,201763:0:0:0:0:
36,192,201885,128,0,202007:0:0:0:0:
109,192,201885,128,0,202007:0:0:0:0:
256,192,201885,128,0,202129:0:0:0:0:
329,192,201885,128,0,202129:0:0:0:0:
182,192,201885,128,0,202251:0:0:0:0:
402,192,202007,128,0,202373:0:0:0:0:
475,192,202007,128,0,202373:0:0:0:0:
109,192,202129,128,0,202251:0:0:0:0:
36,192,202129,128,0,202373:0:0:0:0:
256,192,202251,128,0,202373:0:0:0:0:
329,192,202251,128,0,202373:0:0:0:0:
182,192,202373,128,0,202495:0:0:0:0:
109,192,202373,128,0,202495:0:0:0:0:
36,192,202495,128,0,202617:0:0:0:0:
256,192,202495,128,0,202617:0:0:0:0:
475,192,202495,128,0,202617:0:0:0:0:
402,192,202495,128,0,202617:0:0:0:0:
329,192,202495,128,0,202617:0:0:0:0:
402,192,202739,128,0,202861:0:0:0:0:
475,192,202739,128,0,202861:0:0:0:0:
36,192,202739,128,0,202861:0:0:0:0:
109,192,202739,128,0,202861:0:0:0:0:
256,192,202739,128,0,202861:0:0:0:0:
182,192,202861,128,0,202983:0:0:0:0:
329,192,202861,128,0,202983:0:0:0:0:
36,192,202983,128,0,203105:0:0:0:0:
475,192,202983,128,0,203105:0:0:0:0:
256,192,202983,128,0,203105:0:0:0:0:
402,192,202983,128,0,203105:0:0:0:0:
109,192,202983,128,0,203105:0:0:0:0:
475,192,203227,128,0,203349:0:0:0:0:
36,192,203227,128,0,203349:0:0:0:0:
182,192,203227,128,0,203349:0:0:0:0:
329,192,203227,128,0,203349:0:0:0:0:
402,192,203349,128,0,203471:0:0:0:0:
109,192,203349,128,0,203471:0:0:0:0:
36,192,203471,128,0,203593:0:0:0:0:
475,192,203471,128,0,203593:0:0:0:0:
256,192,203471,128,0,203593:0:0:0:0:
329,192,203593,128,0,203715:0:0:0:0:
182,192,203593,128,0,203715:0:0:0:0:
109,192,203593,128,0,203837:0:0:0:0:
402,192,203593,128,0,203837:0:0:0:0:
256,192,203837,1,0,0:0:0:0:
475,192,203837,1,0,0:0:0:0:
36,192,203837,1,0,0:0:0:0:
329,192,203959,128,0,204080:0:0:0:0:
475,192,203959,128,0,204080:0:0:0:0:
256,192,203959,128,0,204080:0:0:0:0:
36,192,203959,128,0,204080:0:0:0:0:
182,192,203959,128,0,204080:0:0:0:0:
475,192,204202,128,0,204324:0:0:0:0:
256,192,204202,128,0,204324:0:0:0:0:
402,192,204202,128,0,204324:0:0:0:0:
36,192,204202,128,0,204324:0:0:0:0:
109,192,204202,128,0,204324:0:0:0:0:
475,192,204446,128,0,204538:0:0:0:0:
36,192,204446,128,0,204538:0:0:0:0:
109,192,204477,128,0,204568:0:0:0:0:
402,192,204477,128,0,204568:0:0:0:0:
182,192,204507,128,0,204599:0:0:0:0:
329,192,204507,128,0,204599:0:0:0:0:
256,192,204538,128,0,204629:0:0:0:0:
109,192,204690,128,0,204934:0:0:0:0:
475,192,204690,128,0,204812:0:0:0:0:
402,192,204690,128,0,204812:0:0:0:0:
182,192,204812,128,0,205056:0:0:0:0:
256,192,204934,128,0,205178:0:0:0:0:
402,192,204934,128,0,205178:0:0:0:0:
475,192,204934,128,0,205178:0:0:0:0:
36,192,204934,128,0,205422:0:0:0:0:
109,192,205056,128,0,205178:0:0:0:0:
182,192,205178,128,0,205300:0:0:0:0:
256,192,205300,128,0,205422:0:0:0:0:
182,192,205422,128,0,205544:0:0:0:0:
329,192,205422,128,0,205788:0:0:0:0:
475,192,205422,128,0,205544:0:0:0:0:
36,192,205544,128,0,205666:0:0:0:0:
256,192,205544,128,0,205666:0:0:0:0:
182,192,205666,1,0,0:0:0:0:
402,192,205666,128,0,206032:0:0:0:0:
109,192,205788,128,0,205910:0:0:0:0:
256,192,205788,128,0,205910:0:0:0:0:
475,192,205910,128,0,206337:0:0:0:0:
329,192,205910,128,0,206337:0:0:0:0:
182,192,206032,128,0,206337:0:0:0:0:
36,192,206154,128,0,206337:0:0:0:0:
109,192,206154,128,0,206337:0:0:0:0:
256,192,206154,128,0,206337:0:0:0:0:
402,192,206154,128,0,206337:0:0:0:0:
402,192,206398,128,0,206520:0:0:0:0:
475,192,206398,128,0,206520:0:0:0:0:
36,192,206398,128,0,206520:0:0:0:0:
109,192,206398,128,0,206520:0:0:0:0:
256,192,206398,128,0,206520:0:0:0:0:
36,192,206641,128,0,206763:0:0:0:0:
109,192,206641,128,0,206763:0:0:0:0:
402,192,206641,128,0,206763:0:0:0:0:
475,192,206641,128,0,206763:0:0:0:0:
256,192,206641,128,0,206763:0:0:0:0:
329,192,206763,128,0,206885:0:0:0:0:
182,192,206763,128,0,206885:0:0:0:0:
109,192,206885,128,0,207007:0:0:0:0:
36,192,206885,128,0,207007:0:0:0:0:
402,192,206885,128,0,207007:0:0:0:0:
475,192,206885,128,0,207007:0:0:0:0:
256,192,206885,128,0,207007:0:0:0:0:
182,192,207129,128,0,207251:0:0:0:0:
329,192,207129,128,0,207251:0:0:0:0:
475,192,207129,128,0,207251:0:0:0:0:
36,192,207129,128,0,207251:0:0:0:0:
109,192,207251,128,0,207373:0:0:0:0:
402,192,207251,128,0,207373:0:0:0:0:
256,192,207373,128,0,207495:0:0:0:0:
475,192,207373,128,0,207495:0:0:0:0:
36,192,207373,128,0,207495:0:0:0:0:
402,192,207495,128,0,207739:0:0:0:0:
109,192,207495,128,0,207739:0:0:0:0:
329,192,207495,128,0,207617:0:0:0:0:
182,192,207495,128,0,207617:0:0:0:0:
475,192,207617,128,0,207739:0:0:0:0:
36,192,207617,128,0,207739:0:0:0:0:
256,192,207739,1,0,0:0:0:0:
36,192,207861,128,0,207983:0:0:0:0:
182,192,207861,128,0,207983:0:0:0:0:
256,192,207861,128,0,207983:0:0:0:0:
329,192,207861,128,0,207983:0:0:0:0:
475,192,207861,128,0,207983:0:0:0:0:
36,192,208105,128,0,208227:0:0:0:0:
109,192,208105,128,0,208227:0:0:0:0:
402,192,208105,128,0,208227:0:0:0:0:
475,192,208105,128,0,208227:0:0:0:0:
256,192,208105,128,0,208227:0:0:0:0:
36,192,208349,128,0,208440:0:0:0:0:
475,192,208349,128,0,208440:0:0:0:0:
402,192,208379,128,0,208471:0:0:0:0:
109,192,208379,128,0,208471:0:0:0:0:
329,192,208410,128,0,208501:0:0:0:0:
182,192,208410,128,0,208501:0:0:0:0:
256,192,208440,128,0,208532:0:0:0:0:
402,192,208593,128,0,208715:0:0:0:0:
36,192,208593,128,0,208715:0:0:0:0:
109,192,208593,128,0,208715:0:0:0:0:
475,192,208593,128,0,208715:0:0:0:0:
256,192,208593,128,0,208715:0:0:0:0:
182,192,208715,128,0,208837:0:0:0:0:
329,192,208715,128,0,208837:0:0:0:0:
36,192,208837,128,0,208959:0:0:0:0:
109,192,208837,128,0,208959:0:0:0:0:
475,192,208837,128,0,208959:0:0:0:0:
402,192,208837,128,0,208959:0:0:0:0:
256,192,208837,128,0,208959:0:0:0:0:
329,192,209080,128,0,209202:0:0:0:0:
402,192,209080,128,0,209202:0:0:0:0:
475,192,209080,128,0,209202:0:0:0:0:
182,192,209080,1,0,0:0:0:0:
109,192,209080,1,0,0:0:0:0:
36,192,209080,1,0,0:0:0:0:
36,192,209202,128,0,209324:0:0:0:0:
109,192,209202,128,0,209324:0:0:0:0:
182,192,209202,128,0,209324:0:0:0:0:
329,192,209324,1,0,0:0:0:0:
402,192,209324,1,0,0:0:0:0:
475,192,209324,1,0,0:0:0:0:
109,192,209446,128,0,209568:0:0:0:0:
36,192,209446,128,0,209568:0:0:0:0:
402,192,209446,128,0,209568:0:0:0:0:
475,192,209446,128,0,209568:0:0:0:0:
256,192,209446,128,0,209568:0:0:0:0:
36,192,209690,128,0,209812:0:0:0:0:
109,192,209690,128,0,209812:0:0:0:0:
256,192,209690,128,0,209934:0:0:0:0:
329,192,209690,128,0,209934:0:0:0:0:
182,192,209690,128,0,210056:0:0:0:0:
402,192,209812,128,0,210178:0:0:0:0:
475,192,209812,128,0,210178:0:0:0:0:
109,192,209934,128,0,210056:0:0:0:0:
36,192,209934,128,0,210300:0:0:0:0:
256,192,210056,128,0,210178:0:0:0:0:
329,192,210056,128,0,210178:0:0:0:0:
182,192,210178,128,0,210300:0:0:0:0:
109,192,210178,128,0,210300:0:0:0:0:
329,192,210300,128,0,210422:0:0:0:0:
402,192,210300,128,0,210422:0:0:0:0:
475,192,210300,128,0,210422:0:0:0:0:
256,192,210300,128,0,210544:0:0:0:0:
402,192,210544,128,0,210666:0:0:0:0:
475,192,210544,128,0,210666:0:0:0:0:
36,192,210544,128,0,210666:0:0:0:0:
109,192,210544,128,0,210666:0:0:0:0:
182,192,210666,128,0,210788:0:0:0:0:
329,192,210666,128,0,210788:0:0:0:0:
475,192,210788,128,0,210910:0:0:0:0:
256,192,210788,128,0,210910:0:0:0:0:
402,192,210788,128,0,210910:0:0:0:0:
109,192,210788,128,0,210910:0:0:0:0:
36,192,210788,128,0,210910:0:0:0:0:
475,192,211032,128,0,211154:0:0:0:0:
36,192,211032,128,0,211154:0:0:0:0:
182,192,211032,128,0,211154:0:0:0:0:
329,192,211032,128,0,211154:0:0:0:0:
402,192,211154,128,0,211276:0:0:0:0:
109,192,211154,128,0,211276:0:0:0:0:
36,192,211276,128,0,211398:0:0:0:0:
475,192,211276,128,0,211398:0:0:0:0:
256,192,211276,128,0,211398:0:0:0:0:
329,192,211398,128,0,211520:0:0:0:0:
182,192,211398,128,0,211520:0:0:0:0:
402,192,211398,128,0,211641:0:0:0:0:
109,192,211398,128,0,211641:0:0:0:0:
36,192,211520,128,0,211641:0:0:0:0:
475,192,211520,128,0,211641:0:0:0:0:
256,192,211641,1,0,0:0:0:0:
329,192,211763,128,0,211885:0:0:0:0:
475,192,211763,128,0,211885:0:0:0:0:
256,192,211763,128,0,211885:0:0:0:0:
36,192,211763,128,0,211885:0:0:0:0:
182,192,211763,128,0,211885:0:0:0:0:
475,192,212007,128,0,212129:0:0:0:0:
256,192,212007,128,0,212129:0:0:0:0:
402,192,212007,128,0,212129:0:0:0:0:
36,192,212007,128,0,212129:0:0:0:0:
109,192,212007,128,0,212129:0:0:0:0:
475,192,212251,128,0,212343:0:0:0:0:
36,192,212251,128,0,212343:0:0:0:0:
109,192,212282,128,0,212373:0:0:0:0:
402,192,212282,128,0,212373:0:0:0:0:
182,192,212312,128,0,212404:0:0:0:0:
329,192,212312,128,0,212404:0:0:0:0:
256,192,212343,128,0,212434:0:0:0:0:
182,192,212495,1,0,0:0:0:0:
109,192,212495,1,0,0:0:0:0:
402,192,212495,1,0,0:0:0:0:
329,192,212495,1,0,0:0:0:0:
475,192,212495,1,0,0:0:0:0:
36,192,212495,1,0,0:0:0:0:
109,192,212617,128,0,212739:0:0:0:0:
402,192,212617,128,0,212739:0:0:0:0:
36,192,212617,128,0,212739:0:0:0:0:
475,192,212617,128,0,212739:0:0:0:0:
256,192,212617,128,0,212739:0:0:0:0:
182,192,212739,128,0,212861:0:0:0:0:
329,192,212739,128,0,212861:0:0:0:0:
36,192,212861,128,0,212983:0:0:0:0:
475,192,212861,128,0,212983:0:0:0:0:
256,192,212983,128,0,213105:0:0:0:0:
182,192,213105,128,0,213471:0:0:0:0:
329,192,213105,128,0,213593:0:0:0:0:
402,192,213227,128,0,213349:0:0:0:0:
256,192,213227,128,0,214202:0:0:0:0:
109,192,213349,128,0,213471:0:0:0:0:
36,192,213349,128,0,213715:0:0:0:0:
402,192,213471,128,0,213593:0:0:0:0:
475,192,213471,128,0,213837:0:0:0:0:
109,192,213593,128,0,213715:0:0:0:0:
182,192,213593,128,0,213959:0:0:0:0:
402,192,213715,128,0,213837:0:0:0:0:
329,192,213715,128,0,214080:0:0:0:0:
109,192,213837,128,0,213959:0:0:0:0:
36,192,213837,128,0,214202:0:0:0:0:
402,192,213959,128,0,214080:0:0:0:0:
475,192,213959,128,0,214202:0:0:0:0:
182,192,214080,128,0,214202:0:0:0:0:
109,192,214080,128,0,214202:0:0:0:0:
