osu file format v14

[General]
AudioFilename: brvgl.mp3
AudioLeadIn: 0
PreviewTime: 280
Countdown: 0
SampleSet: None
StackLeniency: 0.7
Mode: 3
LetterboxInBreaks: 0
SpecialStyle: 0
WidescreenStoryboard: 1

[Editor]
DistanceSpacing: 1
BeatDivisor: 8
GridSize: 32
TimelineZoom: 2.799999

[Metadata]
Title:Damned's LN KPOP Pack #1
TitleUnicode:Damned's LN KPOP Pack #1
Artist:Various Artists
ArtistUnicode:Various Artists
Creator:Damned
Version:Stage 6 Brave Girls - Chi Ba Mat Ram (4K Ver.)
Source:
Tags:
BeatmapID:3313051
BeatmapSetID:1587521

[Difficulty]
HPDrainRate:8
CircleSize:4
OverallDifficulty:0
ApproachRate:5
SliderMultiplier:1.4
SliderTickRate:1

[Events]
//Background and Video events
0,0,"bgc.png",0,0
//Break Periods
//Storyboard Layer 0 (Background)
//Storyboard Layer 1 (Fail)
//Storyboard Layer 2 (Pass)
//Storyboard Layer 3 (Foreground)
//Storyboard Layer 4 (Overlay)
//Storyboard Sound Samples

[TimingPoints]
280,472.44094488189,4,1,0,0,1,0

[HitObjects]
448,192,280,5,0,0:0:0:0:
320,192,280,1,0,0:0:0:0:
192,192,280,1,0,0:0:0:0:
64,192,280,1,0,0:0:0:0:
320,192,516,128,0,752:0:0:0:0:
64,192,634,1,0,0:0:0:0:
448,192,752,128,0,988:0:0:0:0:
64,192,870,128,0,988:0:0:0:0:
192,192,988,128,0,1106:0:0:0:0:
320,192,1106,128,0,1224:0:0:0:0:
192,192,1224,128,0,1342:0:0:0:0:
448,192,1224,128,0,1461:0:0:0:0:
64,192,1224,128,0,1697:0:0:0:0:
448,192,1579,128,0,1933:0:0:0:0:
192,192,1697,1,0,0:0:0:0:
320,192,1933,128,0,2169:0:0:0:0:
64,192,2169,1,0,0:0:0:0:
192,192,2169,128,0,2642:0:0:0:0:
448,192,2405,1,0,0:0:0:0:
64,192,2642,1,0,0:0:0:0:
320,192,2642,1,0,0:0:0:0:
448,192,2878,128,0,3114:0:0:0:0:
320,192,2878,128,0,3114:0:0:0:0:
64,192,2878,128,0,3114:0:0:0:0:
192,192,3350,1,0,0:0:0:0:
192,192,3468,128,0,3705:0:0:0:0:
320,192,3587,128,0,3823:0:0:0:0:
448,192,3705,128,0,3941:0:0:0:0:
192,192,3823,128,0,3941:0:0:0:0:
320,192,3941,128,0,4059:0:0:0:0:
448,192,4059,128,0,4177:0:0:0:0:
64,192,4059,1,0,0:0:0:0:
192,192,4059,128,0,4295:0:0:0:0:
320,192,4177,128,0,4413:0:0:0:0:
64,192,4295,128,0,4531:0:0:0:0:
448,192,4295,1,0,0:0:0:0:
192,192,4413,128,0,4650:0:0:0:0:
448,192,4531,1,0,0:0:0:0:
320,192,4650,128,0,4768:0:0:0:0:
448,192,4768,128,0,4886:0:0:0:0:
64,192,4768,1,0,0:0:0:0:
192,192,5004,1,0,0:0:0:0:
64,192,5004,1,0,0:0:0:0:
320,192,5004,128,0,5358:0:0:0:0:
192,192,5358,128,0,5476:0:0:0:0:
64,192,5476,128,0,5594:0:0:0:0:
448,192,5476,1,0,0:0:0:0:
320,192,5476,128,0,5713:0:0:0:0:
192,192,5594,128,0,5713:0:0:0:0:
64,192,5713,128,0,5949:0:0:0:0:
192,192,5831,128,0,6067:0:0:0:0:
320,192,5949,128,0,6185:0:0:0:0:
448,192,5949,128,0,6657:0:0:0:0:
64,192,6067,1,0,0:0:0:0:
64,192,6185,128,0,6421:0:0:0:0:
192,192,6303,128,0,6539:0:0:0:0:
320,192,6421,128,0,6657:0:0:0:0:
64,192,6657,1,0,0:0:0:0:
192,192,6894,128,0,7130:0:0:0:0:
64,192,6894,1,0,0:0:0:0:
448,192,6894,1,0,0:0:0:0:
320,192,7012,1,0,0:0:0:0:
64,192,7130,128,0,7366:0:0:0:0:
448,192,7130,1,0,0:0:0:0:
192,192,7248,128,0,7602:0:0:0:0:
320,192,7248,1,0,0:0:0:0:
320,192,7366,128,0,7602:0:0:0:0:
448,192,7484,128,0,7602:0:0:0:0:
64,192,7602,128,0,7720:0:0:0:0:
192,192,7661,128,0,7780:0:0:0:0:
448,192,7720,128,0,7839:0:0:0:0:
320,192,7780,128,0,7898:0:0:0:0:
192,192,7839,128,0,7957:0:0:0:0:
64,192,7839,128,0,8311:0:0:0:0:
320,192,8075,128,0,8311:0:0:0:0:
192,192,8193,1,0,0:0:0:0:
448,192,8311,128,0,8547:0:0:0:0:
64,192,8429,128,0,8547:0:0:0:0:
192,192,8547,128,0,8665:0:0:0:0:
320,192,8665,128,0,8783:0:0:0:0:
192,192,8783,128,0,9020:0:0:0:0:
64,192,8783,128,0,8902:0:0:0:0:
448,192,8783,128,0,9138:0:0:0:0:
64,192,9020,1,0,0:0:0:0:
320,192,9138,1,0,0:0:0:0:
192,192,9138,1,0,0:0:0:0:
448,192,9256,128,0,9492:0:0:0:0:
320,192,9256,128,0,9374:0:0:0:0:
64,192,9256,128,0,9610:0:0:0:0:
192,192,9374,128,0,9610:0:0:0:0:
320,192,9492,128,0,9728:0:0:0:0:
448,192,9610,128,0,9728:0:0:0:0:
192,192,9728,128,0,9846:0:0:0:0:
64,192,9728,128,0,9846:0:0:0:0:
320,192,9846,128,0,9965:0:0:0:0:
448,192,9846,128,0,9965:0:0:0:0:
448,192,10083,1,0,0:0:0:0:
320,192,10083,1,0,0:0:0:0:
192,192,10201,1,0,0:0:0:0:
64,192,10201,128,0,10437:0:0:0:0:
192,192,10319,128,0,10555:0:0:0:0:
320,192,10437,128,0,10673:0:0:0:0:
448,192,10673,1,0,0:0:0:0:
64,192,10673,128,0,10791:0:0:0:0:
320,192,10791,128,0,10909:0:0:0:0:
192,192,10909,128,0,11028:0:0:0:0:
448,192,10909,1,0,0:0:0:0:
448,192,11028,128,0,11146:0:0:0:0:
64,192,11146,1,0,0:0:0:0:
320,192,11146,128,0,11382:0:0:0:0:
192,192,11382,128,0,11618:0:0:0:0:
448,192,11382,128,0,11500:0:0:0:0:
320,192,11500,128,0,11618:0:0:0:0:
448,192,11618,1,0,0:0:0:0:
64,192,11618,128,0,12091:0:0:0:0:
192,192,11736,1,0,0:0:0:0:
320,192,11854,1,0,0:0:0:0:
448,192,11854,1,0,0:0:0:0:
192,192,11972,1,0,0:0:0:0:
448,192,12091,1,0,0:0:0:0:
320,192,12091,1,0,0:0:0:0:
192,192,12327,1,0,0:0:0:0:
64,192,12327,1,0,0:0:0:0:
448,192,12563,1,0,0:0:0:0:
320,192,12563,1,0,0:0:0:0:
192,192,12681,1,0,0:0:0:0:
64,192,12681,1,0,0:0:0:0:
320,192,12799,1,0,0:0:0:0:
448,192,12799,1,0,0:0:0:0:
192,192,12917,1,0,0:0:0:0:
64,192,12917,1,0,0:0:0:0:
320,192,13035,1,0,0:0:0:0:
448,192,13035,1,0,0:0:0:0:
192,192,13154,1,0,0:0:0:0:
64,192,13154,1,0,0:0:0:0:
320,192,13272,1,0,0:0:0:0:
448,192,13272,1,0,0:0:0:0:
192,192,13390,1,0,0:0:0:0:
64,192,13390,1,0,0:0:0:0:
448,192,13508,1,0,0:0:0:0:
320,192,13567,1,0,0:0:0:0:
64,192,13626,1,0,0:0:0:0:
192,192,13685,1,0,0:0:0:0:
448,192,13744,1,0,0:0:0:0:
320,192,13803,1,0,0:0:0:0:
64,192,13862,1,0,0:0:0:0:
192,192,13921,1,0,0:0:0:0:
448,192,13980,1,0,0:0:0:0:
320,192,14039,1,0,0:0:0:0:
64,192,14098,1,0,0:0:0:0:
192,192,14157,1,0,0:0:0:0:
448,192,14217,1,0,0:0:0:0:
320,192,14276,1,0,0:0:0:0:
192,192,14335,1,0,0:0:0:0:
64,192,14394,1,0,0:0:0:0:
448,192,14453,1,0,0:0:0:0:
320,192,14453,1,0,0:0:0:0:
192,192,14571,1,0,0:0:0:0:
64,192,14689,1,0,0:0:0:0:
448,192,14689,1,0,0:0:0:0:
320,192,14807,1,0,0:0:0:0:
192,192,14925,1,0,0:0:0:0:
64,192,14925,1,0,0:0:0:0:
448,192,14925,1,0,0:0:0:0:
192,192,15043,1,0,0:0:0:0:
64,192,15161,1,0,0:0:0:0:
320,192,15161,1,0,0:0:0:0:
448,192,15280,1,0,0:0:0:0:
448,192,15398,128,0,15752:0:0:0:0:
192,192,15398,1,0,0:0:0:0:
320,192,15398,1,0,0:0:0:0:
64,192,15516,128,0,15634:0:0:0:0:
320,192,15634,128,0,15752:0:0:0:0:
64,192,15752,128,0,15870:0:0:0:0:
448,192,15870,128,0,16224:0:0:0:0:
192,192,15870,128,0,15988:0:0:0:0:
320,192,15988,128,0,16224:0:0:0:0:
64,192,15988,128,0,16106:0:0:0:0:
192,192,16106,128,0,16342:0:0:0:0:
64,192,16224,128,0,16342:0:0:0:0:
320,192,16342,128,0,16579:0:0:0:0:
448,192,16342,128,0,16461:0:0:0:0:
192,192,16461,128,0,16697:0:0:0:0:
64,192,16579,128,0,16697:0:0:0:0:
448,192,16579,128,0,16697:0:0:0:0:
320,192,16697,128,0,16815:0:0:0:0:
64,192,16815,128,0,16933:0:0:0:0:
448,192,16815,128,0,16874:0:0:0:0:
192,192,16874,128,0,16992:0:0:0:0:
448,192,16933,128,0,17051:0:0:0:0:
320,192,16992,128,0,17110:0:0:0:0:
64,192,17051,128,0,17169:0:0:0:0:
192,192,17110,128,0,17228:0:0:0:0:
448,192,17169,128,0,17287:0:0:0:0:
320,192,17228,128,0,17346:0:0:0:0:
64,192,17287,128,0,17405:0:0:0:0:
192,192,17287,128,0,17524:0:0:0:0:
320,192,17405,128,0,17642:0:0:0:0:
448,192,17524,128,0,17642:0:0:0:0:
64,192,17642,128,0,17701:0:0:0:0:
448,192,17760,128,0,18232:0:0:0:0:
64,192,17760,128,0,17878:0:0:0:0:
192,192,17819,128,0,17937:0:0:0:0:
320,192,17878,128,0,17996:0:0:0:0:
64,192,17937,128,0,18055:0:0:0:0:
192,192,17996,128,0,18232:0:0:0:0:
320,192,18232,128,0,18468:0:0:0:0:
448,192,18350,128,0,18468:0:0:0:0:
192,192,18350,128,0,18409:0:0:0:0:
192,192,18468,128,0,18705:0:0:0:0:
64,192,18468,128,0,18587:0:0:0:0:
320,192,18587,128,0,18823:0:0:0:0:
448,192,18705,128,0,18823:0:0:0:0:
64,192,18705,128,0,18941:0:0:0:0:
192,192,18823,128,0,19059:0:0:0:0:
448,192,18941,128,0,19059:0:0:0:0:
320,192,18941,128,0,19059:0:0:0:0:
64,192,19059,128,0,19118:0:0:0:0:
320,192,19177,128,0,19295:0:0:0:0:
192,192,19177,128,0,19413:0:0:0:0:
448,192,19177,128,0,20358:0:0:0:0:
64,192,19295,128,0,19531:0:0:0:0:
320,192,19413,128,0,19531:0:0:0:0:
192,192,19531,128,0,19650:0:0:0:0:
320,192,19650,128,0,19886:0:0:0:0:
64,192,19650,128,0,19768:0:0:0:0:
192,192,19768,128,0,20004:0:0:0:0:
64,192,19886,128,0,20122:0:0:0:0:
320,192,20004,128,0,20240:0:0:0:0:
192,192,20122,128,0,20476:0:0:0:0:
64,192,20240,128,0,20358:0:0:0:0:
320,192,20358,128,0,20476:0:0:0:0:
448,192,20476,128,0,20594:0:0:0:0:
64,192,20594,128,0,20713:0:0:0:0:
192,192,20594,128,0,20713:0:0:0:0:
320,192,20654,128,0,20772:0:0:0:0:
448,192,20713,128,0,20831:0:0:0:0:
64,192,20772,128,0,20890:0:0:0:0:
192,192,20831,128,0,20949:0:0:0:0:
448,192,20890,128,0,21008:0:0:0:0:
320,192,20949,128,0,21067:0:0:0:0:
192,192,21008,128,0,21126:0:0:0:0:
64,192,21067,128,0,21185:0:0:0:0:
448,192,21067,128,0,21421:0:0:0:0:
320,192,21303,128,0,21421:0:0:0:0:
192,192,21362,128,0,21480:0:0:0:0:
64,192,21421,128,0,21539:0:0:0:0:
320,192,21539,128,0,21657:0:0:0:0:
448,192,21539,128,0,21657:0:0:0:0:
64,192,21657,128,0,21776:0:0:0:0:
320,192,21776,128,0,21894:0:0:0:0:
448,192,21776,128,0,21894:0:0:0:0:
192,192,21835,128,0,21953:0:0:0:0:
64,192,21894,128,0,22012:0:0:0:0:
448,192,21953,128,0,22071:0:0:0:0:
320,192,22012,128,0,22248:0:0:0:0:
192,192,22012,128,0,22130:0:0:0:0:
192,192,22248,128,0,22425:0:0:0:0:
64,192,22248,128,0,22484:0:0:0:0:
320,192,22366,128,0,22425:0:0:0:0:
320,192,22484,128,0,22661:0:0:0:0:
448,192,22484,128,0,22661:0:0:0:0:
64,192,22602,128,0,22720:0:0:0:0:
192,192,22602,128,0,22661:0:0:0:0:
320,192,22720,128,0,22898:0:0:0:0:
448,192,22720,128,0,22898:0:0:0:0:
192,192,22839,128,0,22898:0:0:0:0:
320,192,22957,128,0,23075:0:0:0:0:
448,192,22957,128,0,23075:0:0:0:0:
64,192,22957,128,0,23016:0:0:0:0:
192,192,23075,128,0,23429:0:0:0:0:
64,192,23075,128,0,23193:0:0:0:0:
320,192,23193,128,0,23311:0:0:0:0:
448,192,23193,128,0,23311:0:0:0:0:
64,192,23311,128,0,23429:0:0:0:0:
320,192,23429,128,0,23547:0:0:0:0:
448,192,23429,128,0,23783:0:0:0:0:
192,192,23547,128,0,23665:0:0:0:0:
64,192,23665,128,0,23783:0:0:0:0:
320,192,23665,128,0,23902:0:0:0:0:
192,192,23783,128,0,24020:0:0:0:0:
64,192,23902,128,0,24020:0:0:0:0:
448,192,23902,128,0,24138:0:0:0:0:
320,192,24020,128,0,24256:0:0:0:0:
192,192,24138,128,0,24256:0:0:0:0:
64,192,24138,128,0,24256:0:0:0:0:
448,192,24256,128,0,24374:0:0:0:0:
64,192,24374,128,0,24492:0:0:0:0:
192,192,24374,128,0,24492:0:0:0:0:
320,192,24433,128,0,24551:0:0:0:0:
448,192,24492,128,0,24610:0:0:0:0:
64,192,24551,128,0,24669:0:0:0:0:
192,192,24610,128,0,24728:0:0:0:0:
320,192,24669,128,0,24787:0:0:0:0:
448,192,24728,128,0,24846:0:0:0:0:
64,192,24787,128,0,24905:0:0:0:0:
192,192,24846,128,0,25083:0:0:0:0:
320,192,24965,128,0,25201:0:0:0:0:
448,192,25083,128,0,25260:0:0:0:0:
64,192,25201,128,0,25260:0:0:0:0:
448,192,25319,128,0,25791:0:0:0:0:
64,192,25319,128,0,25437:0:0:0:0:
192,192,25378,128,0,25496:0:0:0:0:
320,192,25437,128,0,25555:0:0:0:0:
64,192,25496,128,0,25614:0:0:0:0:
192,192,25555,128,0,25791:0:0:0:0:
320,192,25791,128,0,26028:0:0:0:0:
448,192,25909,128,0,26028:0:0:0:0:
192,192,25909,128,0,25968:0:0:0:0:
192,192,26028,128,0,26264:0:0:0:0:
64,192,26028,128,0,26146:0:0:0:0:
320,192,26146,128,0,26382:0:0:0:0:
448,192,26264,128,0,26382:0:0:0:0:
64,192,26264,128,0,26500:0:0:0:0:
192,192,26382,128,0,26618:0:0:0:0:
448,192,26500,128,0,26618:0:0:0:0:
320,192,26500,128,0,26618:0:0:0:0:
64,192,26618,128,0,26677:0:0:0:0:
320,192,26736,128,0,26854:0:0:0:0:
192,192,26736,128,0,26972:0:0:0:0:
448,192,26736,128,0,27917:0:0:0:0:
64,192,26854,128,0,27091:0:0:0:0:
320,192,26972,128,0,27091:0:0:0:0:
192,192,27091,128,0,27209:0:0:0:0:
320,192,27209,128,0,27445:0:0:0:0:
64,192,27209,128,0,27327:0:0:0:0:
192,192,27327,128,0,27563:0:0:0:0:
64,192,27445,128,0,27681:0:0:0:0:
320,192,27563,128,0,27799:0:0:0:0:
192,192,27681,128,0,28035:0:0:0:0:
64,192,27799,128,0,27917:0:0:0:0:
320,192,27917,128,0,28035:0:0:0:0:
448,192,28035,128,0,28154:0:0:0:0:
64,192,28154,128,0,28272:0:0:0:0:
192,192,28154,128,0,28272:0:0:0:0:
320,192,28213,128,0,28331:0:0:0:0:
448,192,28272,128,0,28390:0:0:0:0:
64,192,28331,128,0,28449:0:0:0:0:
192,192,28390,128,0,28508:0:0:0:0:
448,192,28449,128,0,28567:0:0:0:0:
320,192,28508,128,0,28626:0:0:0:0:
192,192,28567,128,0,28685:0:0:0:0:
64,192,28626,128,0,28744:0:0:0:0:
448,192,28626,128,0,28980:0:0:0:0:
320,192,28862,128,0,28980:0:0:0:0:
192,192,28921,128,0,29039:0:0:0:0:
64,192,28980,128,0,29098:0:0:0:0:
320,192,29098,128,0,29217:0:0:0:0:
448,192,29098,128,0,29217:0:0:0:0:
64,192,29217,128,0,29335:0:0:0:0:
320,192,29335,128,0,29453:0:0:0:0:
448,192,29335,128,0,29453:0:0:0:0:
192,192,29394,128,0,29512:0:0:0:0:
64,192,29453,128,0,29571:0:0:0:0:
448,192,29512,128,0,29630:0:0:0:0:
320,192,29571,128,0,29807:0:0:0:0:
192,192,29571,128,0,29689:0:0:0:0:
448,192,29807,128,0,30161:0:0:0:0:
64,192,29807,128,0,30161:0:0:0:0:
192,192,29807,128,0,29925:0:0:0:0:
320,192,29925,128,0,30043:0:0:0:0:
192,192,30043,128,0,30280:0:0:0:0:
320,192,30161,128,0,30398:0:0:0:0:
64,192,30280,128,0,30516:0:0:0:0:
448,192,30280,128,0,30398:0:0:0:0:
192,192,30398,128,0,30634:0:0:0:0:
320,192,30516,128,0,30634:0:0:0:0:
448,192,30516,128,0,30634:0:0:0:0:
64,192,30752,1,0,0:0:0:0:
320,192,30752,1,0,0:0:0:0:
64,192,30870,1,0,0:0:0:0:
448,192,30988,1,0,0:0:0:0:
320,192,30988,1,0,0:0:0:0:
192,192,30988,1,0,0:0:0:0:
320,192,31224,128,0,31342:0:0:0:0:
448,192,31224,1,0,0:0:0:0:
192,192,31224,1,0,0:0:0:0:
64,192,31461,1,0,0:0:0:0:
192,192,31461,1,0,0:0:0:0:
448,192,31461,1,0,0:0:0:0:
192,192,31697,1,0,0:0:0:0:
448,192,31697,128,0,31815:0:0:0:0:
320,192,31933,128,0,32051:0:0:0:0:
64,192,31933,1,0,0:0:0:0:
192,192,32169,128,0,32287:0:0:0:0:
448,192,32169,1,0,0:0:0:0:
64,192,32405,128,0,32642:0:0:0:0:
320,192,32405,1,0,0:0:0:0:
448,192,32405,1,0,0:0:0:0:
64,192,32760,128,0,32878:0:0:0:0:
192,192,32878,128,0,32996:0:0:0:0:
448,192,32878,1,0,0:0:0:0:
448,192,33114,1,0,0:0:0:0:
320,192,33114,128,0,33468:0:0:0:0:
192,192,33350,1,0,0:0:0:0:
64,192,33350,1,0,0:0:0:0:
64,192,33587,128,0,33705:0:0:0:0:
320,192,33587,1,0,0:0:0:0:
192,192,33823,128,0,33941:0:0:0:0:
448,192,33823,1,0,0:0:0:0:
320,192,34059,128,0,34177:0:0:0:0:
64,192,34059,1,0,0:0:0:0:
320,192,34295,128,0,34768:0:0:0:0:
448,192,34295,1,0,0:0:0:0:
192,192,34295,1,0,0:0:0:0:
448,192,34531,128,0,34768:0:0:0:0:
64,192,34650,1,0,0:0:0:0:
192,192,34768,128,0,35240:0:0:0:0:
64,192,35004,128,0,35240:0:0:0:0:
448,192,35240,1,0,0:0:0:0:
320,192,35240,1,0,0:0:0:0:
320,192,35476,128,0,35713:0:0:0:0:
448,192,35476,1,0,0:0:0:0:
64,192,35713,1,0,0:0:0:0:
448,192,35713,1,0,0:0:0:0:
192,192,35713,128,0,36067:0:0:0:0:
320,192,36185,128,0,36539:0:0:0:0:
64,192,36185,1,0,0:0:0:0:
448,192,36185,1,0,0:0:0:0:
192,192,36421,128,0,36657:0:0:0:0:
64,192,36539,128,0,36776:0:0:0:0:
448,192,36657,1,0,0:0:0:0:
320,192,36657,1,0,0:0:0:0:
192,192,36776,1,0,0:0:0:0:
192,192,36894,128,0,37366:0:0:0:0:
320,192,37130,1,0,0:0:0:0:
448,192,37130,128,0,37366:0:0:0:0:
320,192,37366,1,0,0:0:0:0:
64,192,37366,128,0,37484:0:0:0:0:
192,192,37602,128,0,37720:0:0:0:0:
448,192,37602,1,0,0:0:0:0:
320,192,37839,128,0,37957:0:0:0:0:
64,192,37839,1,0,0:0:0:0:
64,192,38075,128,0,38547:0:0:0:0:
192,192,38075,1,0,0:0:0:0:
448,192,38075,1,0,0:0:0:0:
448,192,38311,128,0,38547:0:0:0:0:
320,192,38429,1,0,0:0:0:0:
192,192,38547,128,0,39020:0:0:0:0:
320,192,38783,128,0,39020:0:0:0:0:
448,192,38783,1,0,0:0:0:0:
448,192,39020,1,0,0:0:0:0:
64,192,39020,128,0,39138:0:0:0:0:
192,192,39256,128,0,39374:0:0:0:0:
320,192,39256,1,0,0:0:0:0:
448,192,39492,128,0,39551:0:0:0:0:
64,192,39492,128,0,39551:0:0:0:0:
320,192,39728,128,0,39846:0:0:0:0:
192,192,39728,1,0,0:0:0:0:
448,192,39965,1,0,0:0:0:0:
64,192,39965,128,0,40201:0:0:0:0:
192,192,39965,1,0,0:0:0:0:
320,192,40201,128,0,40437:0:0:0:0:
192,192,40319,128,0,40555:0:0:0:0:
448,192,40437,128,0,40555:0:0:0:0:
64,192,40437,128,0,40555:0:0:0:0:
320,192,40555,128,0,40791:0:0:0:0:
192,192,40673,128,0,40791:0:0:0:0:
64,192,40673,128,0,40791:0:0:0:0:
448,192,40791,128,0,40909:0:0:0:0:
320,192,40909,128,0,41146:0:0:0:0:
64,192,40909,128,0,41028:0:0:0:0:
192,192,40909,128,0,41028:0:0:0:0:
448,192,41028,128,0,41264:0:0:0:0:
64,192,41146,128,0,41382:0:0:0:0:
192,192,41382,1,0,0:0:0:0:
448,192,41382,1,0,0:0:0:0:
192,192,41618,128,0,41736:0:0:0:0:
320,192,41854,128,0,41972:0:0:0:0:
448,192,41854,128,0,41972:0:0:0:0:
448,192,42091,128,0,42209:0:0:0:0:
192,192,42091,128,0,42327:0:0:0:0:
320,192,42091,128,0,42209:0:0:0:0:
64,192,42209,128,0,42327:0:0:0:0:
320,192,42327,128,0,42681:0:0:0:0:
448,192,42327,128,0,42445:0:0:0:0:
192,192,42563,128,0,42681:0:0:0:0:
64,192,42563,128,0,42681:0:0:0:0:
448,192,42563,128,0,42681:0:0:0:0:
64,192,42799,128,0,43035:0:0:0:0:
320,192,42799,128,0,43035:0:0:0:0:
448,192,42799,128,0,43035:0:0:0:0:
192,192,43154,128,0,43390:0:0:0:0:
320,192,43272,128,0,43390:0:0:0:0:
448,192,43272,128,0,43508:0:0:0:0:
64,192,43508,128,0,43626:0:0:0:0:
192,192,43508,128,0,43744:0:0:0:0:
320,192,43626,128,0,43744:0:0:0:0:
64,192,43744,128,0,43980:0:0:0:0:
448,192,43744,128,0,44098:0:0:0:0:
320,192,43980,128,0,44098:0:0:0:0:
192,192,44098,128,0,44217:0:0:0:0:
64,192,44217,128,0,44335:0:0:0:0:
448,192,44217,128,0,44335:0:0:0:0:
320,192,44217,128,0,44335:0:0:0:0:
192,192,44453,1,0,0:0:0:0:
448,192,44453,128,0,44689:0:0:0:0:
64,192,44689,1,0,0:0:0:0:
320,192,44689,128,0,44925:0:0:0:0:
64,192,45161,1,0,0:0:0:0:
192,192,45161,1,0,0:0:0:0:
320,192,45161,128,0,45634:0:0:0:0:
448,192,45161,1,0,0:0:0:0:
192,192,45634,1,0,0:0:0:0:
448,192,45634,1,0,0:0:0:0:
192,192,45752,128,0,45870:0:0:0:0:
448,192,45752,128,0,45870:0:0:0:0:
320,192,45988,128,0,46579:0:0:0:0:
64,192,46342,128,0,46579:0:0:0:0:
448,192,46579,1,0,0:0:0:0:
192,192,46579,1,0,0:0:0:0:
192,192,46697,128,0,46815:0:0:0:0:
448,192,46697,128,0,46815:0:0:0:0:
320,192,46933,128,0,47287:0:0:0:0:
64,192,47287,128,0,47405:0:0:0:0:
192,192,47524,1,0,0:0:0:0:
448,192,47524,1,0,0:0:0:0:
448,192,47642,128,0,47760:0:0:0:0:
192,192,47642,128,0,47760:0:0:0:0:
320,192,47878,128,0,48114:0:0:0:0:
192,192,48232,128,0,48350:0:0:0:0:
448,192,48232,128,0,48350:0:0:0:0:
64,192,48468,128,0,48587:0:0:0:0:
320,192,48468,128,0,48587:0:0:0:0:
448,192,48468,1,0,0:0:0:0:
320,192,48941,1,0,0:0:0:0:
192,192,49177,1,0,0:0:0:0:
320,192,49413,1,0,0:0:0:0:
64,192,49413,1,0,0:0:0:0:
64,192,49531,128,0,49650:0:0:0:0:
320,192,49531,128,0,49650:0:0:0:0:
192,192,49768,128,0,50122:0:0:0:0:
448,192,50122,128,0,50358:0:0:0:0:
64,192,50358,1,0,0:0:0:0:
320,192,50358,1,0,0:0:0:0:
320,192,50476,128,0,50594:0:0:0:0:
64,192,50476,128,0,50594:0:0:0:0:
192,192,50713,128,0,51067:0:0:0:0:
320,192,51067,128,0,51185:0:0:0:0:
448,192,51067,128,0,51185:0:0:0:0:
64,192,51303,128,0,51421:0:0:0:0:
320,192,51303,128,0,51421:0:0:0:0:
192,192,51303,128,0,51421:0:0:0:0:
64,192,51776,1,0,0:0:0:0:
192,192,52012,128,0,52130:0:0:0:0:
320,192,52248,128,0,52602:0:0:0:0:
64,192,52602,1,0,0:0:0:0:
192,192,52720,128,0,52839:0:0:0:0:
192,192,52957,1,0,0:0:0:0:
192,192,53193,128,0,53311:0:0:0:0:
320,192,53193,128,0,53429:0:0:0:0:
448,192,53193,128,0,53547:0:0:0:0:
64,192,53193,128,0,53783:0:0:0:0:
192,192,53429,128,0,53547:0:0:0:0:
320,192,53547,128,0,53783:0:0:0:0:
192,192,53665,128,0,53902:0:0:0:0:
448,192,53665,128,0,53902:0:0:0:0:
64,192,53902,128,0,54020:0:0:0:0:
320,192,53902,128,0,54256:0:0:0:0:
192,192,54020,128,0,54138:0:0:0:0:
64,192,54138,128,0,54492:0:0:0:0:
448,192,54138,128,0,54256:0:0:0:0:
192,192,54256,128,0,54492:0:0:0:0:
320,192,54374,128,0,54610:0:0:0:0:
448,192,54374,128,0,54492:0:0:0:0:
64,192,54610,128,0,54728:0:0:0:0:
192,192,54610,128,0,54728:0:0:0:0:
448,192,54610,128,0,55083:0:0:0:0:
320,192,54728,128,0,54846:0:0:0:0:
64,192,54846,128,0,54965:0:0:0:0:
192,192,54846,128,0,54965:0:0:0:0:
320,192,54965,128,0,55083:0:0:0:0:
64,192,55083,128,0,55319:0:0:0:0:
192,192,55201,128,0,55319:0:0:0:0:
448,192,55319,1,0,0:0:0:0:
320,192,55319,1,0,0:0:0:0:
320,192,55437,128,0,55555:0:0:0:0:
448,192,55437,128,0,55555:0:0:0:0:
192,192,55555,1,0,0:0:0:0:
64,192,55555,1,0,0:0:0:0:
448,192,55791,1,0,0:0:0:0:
320,192,55791,1,0,0:0:0:0:
64,192,55791,1,0,0:0:0:0:
64,192,56028,1,0,0:0:0:0:
192,192,56028,1,0,0:0:0:0:
448,192,56028,1,0,0:0:0:0:
320,192,56264,1,0,0:0:0:0:
192,192,56264,1,0,0:0:0:0:
448,192,56500,1,0,0:0:0:0:
320,192,56500,1,0,0:0:0:0:
192,192,56500,1,0,0:0:0:0:
64,192,56500,1,0,0:0:0:0:
192,192,56736,1,0,0:0:0:0:
320,192,56736,1,0,0:0:0:0:
448,192,56736,1,0,0:0:0:0:
320,192,56972,1,0,0:0:0:0:
64,192,56972,1,0,0:0:0:0:
192,192,56972,1,0,0:0:0:0:
448,192,57091,1,0,0:0:0:0:
64,192,57209,1,0,0:0:0:0:
192,192,57209,1,0,0:0:0:0:
448,192,57327,1,0,0:0:0:0:
320,192,57445,1,0,0:0:0:0:
192,192,57445,1,0,0:0:0:0:
64,192,57563,1,0,0:0:0:0:
448,192,57681,1,0,0:0:0:0:
320,192,57681,1,0,0:0:0:0:
192,192,57799,1,0,0:0:0:0:
64,192,57917,1,0,0:0:0:0:
448,192,57917,1,0,0:0:0:0:
320,192,57917,1,0,0:0:0:0:
64,192,58035,1,0,0:0:0:0:
192,192,58035,1,0,0:0:0:0:
320,192,58154,1,0,0:0:0:0:
448,192,58154,1,0,0:0:0:0:
64,192,58272,1,0,0:0:0:0:
192,192,58272,1,0,0:0:0:0:
320,192,58390,1,0,0:0:0:0:
448,192,58390,1,0,0:0:0:0:
64,192,58508,1,0,0:0:0:0:
192,192,58508,1,0,0:0:0:0:
320,192,58626,1,0,0:0:0:0:
448,192,58626,1,0,0:0:0:0:
192,192,58744,1,0,0:0:0:0:
64,192,58744,1,0,0:0:0:0:
448,192,58862,1,0,0:0:0:0:
320,192,58921,1,0,0:0:0:0:
64,192,58980,1,0,0:0:0:0:
192,192,59039,1,0,0:0:0:0:
448,192,59098,1,0,0:0:0:0:
320,192,59157,1,0,0:0:0:0:
64,192,59217,1,0,0:0:0:0:
192,192,59276,1,0,0:0:0:0:
320,192,59335,1,0,0:0:0:0:
448,192,59394,1,0,0:0:0:0:
64,192,59453,1,0,0:0:0:0:
192,192,59512,1,0,0:0:0:0:
448,192,59571,1,0,0:0:0:0:
320,192,59630,1,0,0:0:0:0:
192,192,59689,1,0,0:0:0:0:
64,192,59748,1,0,0:0:0:0:
448,192,59807,1,0,0:0:0:0:
320,192,59807,1,0,0:0:0:0:
320,192,59925,1,0,0:0:0:0:
192,192,60043,1,0,0:0:0:0:
64,192,60043,1,0,0:0:0:0:
448,192,60043,1,0,0:0:0:0:
320,192,60161,1,0,0:0:0:0:
320,192,60280,1,0,0:0:0:0:
64,192,60280,1,0,0:0:0:0:
448,192,60280,1,0,0:0:0:0:
192,192,60398,1,0,0:0:0:0:
448,192,60516,1,0,0:0:0:0:
64,192,60516,1,0,0:0:0:0:
320,192,60634,1,0,0:0:0:0:
64,192,60752,128,0,61106:0:0:0:0:
192,192,60752,128,0,60988:0:0:0:0:
448,192,60752,128,0,60870:0:0:0:0:
320,192,60870,128,0,61106:0:0:0:0:
448,192,60988,128,0,61224:0:0:0:0:
192,192,61106,128,0,61342:0:0:0:0:
64,192,61224,128,0,61342:0:0:0:0:
320,192,61224,128,0,61342:0:0:0:0:
448,192,61342,128,0,61579:0:0:0:0:
320,192,61461,128,0,61697:0:0:0:0:
64,192,61461,128,0,61579:0:0:0:0:
192,192,61579,128,0,61697:0:0:0:0:
64,192,61697,128,0,61933:0:0:0:0:
448,192,61697,128,0,62051:0:0:0:0:
192,192,61815,128,0,61933:0:0:0:0:
320,192,61933,128,0,62169:0:0:0:0:
192,192,62051,128,0,62405:0:0:0:0:
64,192,62169,128,0,62287:0:0:0:0:
320,192,62287,128,0,62524:0:0:0:0:
448,192,62405,128,0,62642:0:0:0:0:
64,192,62524,128,0,62760:0:0:0:0:
320,192,62642,128,0,62878:0:0:0:0:
192,192,62642,128,0,62760:0:0:0:0:
448,192,62760,128,0,62996:0:0:0:0:
64,192,62878,128,0,63114:0:0:0:0:
192,192,62996,128,0,63232:0:0:0:0:
320,192,63114,128,0,63232:0:0:0:0:
448,192,63114,128,0,63468:0:0:0:0:
320,192,63350,128,0,63468:0:0:0:0:
64,192,63350,128,0,63468:0:0:0:0:
192,192,63350,128,0,63705:0:0:0:0:
448,192,63587,128,0,63705:0:0:0:0:
320,192,63587,128,0,63941:0:0:0:0:
64,192,63587,128,0,63705:0:0:0:0:
448,192,63823,128,0,63941:0:0:0:0:
64,192,63823,128,0,64177:0:0:0:0:
192,192,63823,128,0,63941:0:0:0:0:
192,192,64059,128,0,64177:0:0:0:0:
320,192,64059,128,0,64413:0:0:0:0:
448,192,64177,128,0,64295:0:0:0:0:
64,192,64295,128,0,64413:0:0:0:0:
192,192,64295,128,0,64413:0:0:0:0:
448,192,64413,128,0,64531:0:0:0:0:
64,192,64531,128,0,64650:0:0:0:0:
192,192,64531,128,0,64768:0:0:0:0:
320,192,64650,128,0,64886:0:0:0:0:
64,192,64768,128,0,64886:0:0:0:0:
448,192,64768,128,0,64886:0:0:0:0:
64,192,65004,128,0,65122:0:0:0:0:
448,192,65004,128,0,65240:0:0:0:0:
192,192,65004,128,0,65122:0:0:0:0:
320,192,65122,128,0,65240:0:0:0:0:
192,192,65240,128,0,65358:0:0:0:0:
64,192,65240,128,0,65358:0:0:0:0:
320,192,65358,128,0,65476:0:0:0:0:
448,192,65476,128,0,65713:0:0:0:0:
64,192,65476,128,0,65594:0:0:0:0:
192,192,65594,128,0,65713:0:0:0:0:
320,192,65594,128,0,65831:0:0:0:0:
64,192,65713,128,0,65949:0:0:0:0:
192,192,65831,128,0,66067:0:0:0:0:
320,192,65949,128,0,66067:0:0:0:0:
448,192,65949,128,0,66303:0:0:0:0:
64,192,66067,128,0,66185:0:0:0:0:
320,192,66185,128,0,66303:0:0:0:0:
192,192,66244,128,0,66362:0:0:0:0:
64,192,66303,128,0,66421:0:0:0:0:
448,192,66362,128,0,66480:0:0:0:0:
320,192,66421,128,0,66539:0:0:0:0:
192,192,66480,128,0,66598:0:0:0:0:
64,192,66539,128,0,66657:0:0:0:0:
448,192,66657,128,0,66776:0:0:0:0:
320,192,66657,128,0,66717:0:0:0:0:
64,192,66717,128,0,66835:0:0:0:0:
192,192,66776,128,0,66894:0:0:0:0:
320,192,66835,128,0,66953:0:0:0:0:
448,192,66894,128,0,67012:0:0:0:0:
64,192,67012,128,0,67130:0:0:0:0:
192,192,67012,128,0,67248:0:0:0:0:
320,192,67130,128,0,67366:0:0:0:0:
448,192,67248,128,0,67484:0:0:0:0:
64,192,67366,128,0,67484:0:0:0:0:
192,192,67366,128,0,67602:0:0:0:0:
320,192,67484,128,0,67720:0:0:0:0:
448,192,67602,128,0,67720:0:0:0:0:
64,192,67602,128,0,67720:0:0:0:0:
192,192,67720,128,0,67839:0:0:0:0:
64,192,67839,128,0,67957:0:0:0:0:
320,192,67839,128,0,68075:0:0:0:0:
448,192,67839,128,0,67957:0:0:0:0:
192,192,67957,128,0,68075:0:0:0:0:
448,192,68075,128,0,68193:0:0:0:0:
64,192,68075,128,0,68252:0:0:0:0:
320,192,68193,128,0,68311:0:0:0:0:
192,192,68193,128,0,68252:0:0:0:0:
64,192,68311,128,0,68665:0:0:0:0:
192,192,68311,128,0,68547:0:0:0:0:
448,192,68311,128,0,68429:0:0:0:0:
320,192,68429,128,0,68547:0:0:0:0:
448,192,68547,128,0,68783:0:0:0:0:
192,192,68665,128,0,68783:0:0:0:0:
320,192,68665,128,0,68902:0:0:0:0:
64,192,68783,128,0,69138:0:0:0:0:
192,192,68902,128,0,69020:0:0:0:0:
320,192,69020,128,0,69138:0:0:0:0:
448,192,69138,128,0,69256:0:0:0:0:
192,192,69256,128,0,69492:0:0:0:0:
320,192,69256,128,0,69374:0:0:0:0:
64,192,69256,128,0,69374:0:0:0:0:
448,192,69374,128,0,69492:0:0:0:0:
320,192,69492,128,0,69610:0:0:0:0:
64,192,69492,128,0,69728:0:0:0:0:
192,192,69610,128,0,69846:0:0:0:0:
320,192,69728,128,0,69846:0:0:0:0:
448,192,69728,128,0,69965:0:0:0:0:
64,192,69846,128,0,69965:0:0:0:0:
320,192,69965,128,0,70083:0:0:0:0:
192,192,69965,128,0,70083:0:0:0:0:
448,192,70083,128,0,70201:0:0:0:0:
64,192,70083,128,0,70142:0:0:0:0:
192,192,70201,128,0,70437:0:0:0:0:
64,192,70201,128,0,70319:0:0:0:0:
320,192,70319,128,0,70437:0:0:0:0:
448,192,70437,128,0,70555:0:0:0:0:
64,192,70437,128,0,70555:0:0:0:0:
320,192,70555,128,0,70673:0:0:0:0:
192,192,70555,128,0,70614:0:0:0:0:
448,192,70673,128,0,71500:0:0:0:0:
192,192,70673,128,0,70791:0:0:0:0:
64,192,70673,128,0,71146:0:0:0:0:
320,192,70909,128,0,71028:0:0:0:0:
192,192,70909,1,0,0:0:0:0:
192,192,71146,128,0,71500:0:0:0:0:
320,192,71146,1,0,0:0:0:0:
64,192,71264,1,0,0:0:0:0:
320,192,71382,1,0,0:0:0:0:
64,192,71500,1,0,0:0:0:0:
192,192,71618,128,0,71972:0:0:0:0:
448,192,71618,128,0,71736:0:0:0:0:
64,192,71618,128,0,71972:0:0:0:0:
320,192,71736,128,0,71854:0:0:0:0:
448,192,71854,128,0,72091:0:0:0:0:
320,192,71972,128,0,72091:0:0:0:0:
192,192,72091,128,0,72209:0:0:0:0:
64,192,72091,128,0,72327:0:0:0:0:
448,192,72209,128,0,72445:0:0:0:0:
320,192,72327,128,0,72563:0:0:0:0:
192,192,72445,128,0,72681:0:0:0:0:
64,192,72563,128,0,72917:0:0:0:0:
448,192,72563,128,0,72799:0:0:0:0:
320,192,72681,128,0,72799:0:0:0:0:
192,192,72799,128,0,72917:0:0:0:0:
448,192,72917,128,0,72976:0:0:0:0:
320,192,72917,128,0,72976:0:0:0:0:
192,192,73035,128,0,73272:0:0:0:0:
64,192,73035,128,0,73154:0:0:0:0:
448,192,73035,128,0,73154:0:0:0:0:
320,192,73272,128,0,73390:0:0:0:0:
64,192,73272,128,0,73508:0:0:0:0:
448,192,73272,128,0,73390:0:0:0:0:
192,192,73390,128,0,73626:0:0:0:0:
448,192,73508,128,0,73744:0:0:0:0:
320,192,73508,128,0,73862:0:0:0:0:
64,192,73626,128,0,74098:0:0:0:0:
192,192,73744,128,0,73980:0:0:0:0:
448,192,73862,128,0,74217:0:0:0:0:
320,192,73980,128,0,74098:0:0:0:0:
192,192,74098,128,0,74217:0:0:0:0:
64,192,74217,128,0,74335:0:0:0:0:
320,192,74217,128,0,74453:0:0:0:0:
448,192,74335,128,0,74571:0:0:0:0:
192,192,74335,128,0,74571:0:0:0:0:
64,192,74453,128,0,74571:0:0:0:0:
320,192,74571,128,0,74689:0:0:0:0:
64,192,74689,128,0,74807:0:0:0:0:
192,192,74748,128,0,74866:0:0:0:0:
448,192,74807,128,0,74925:0:0:0:0:
320,192,74866,128,0,74984:0:0:0:0:
192,192,74925,128,0,75043:0:0:0:0:
64,192,74984,128,0,75102:0:0:0:0:
320,192,75043,128,0,75161:0:0:0:0:
448,192,75102,128,0,75220:0:0:0:0:
64,192,75161,128,0,75280:0:0:0:0:
192,192,75161,128,0,75634:0:0:0:0:
320,192,75398,128,0,75516:0:0:0:0:
448,192,75398,128,0,75516:0:0:0:0:
64,192,75516,128,0,75634:0:0:0:0:
320,192,75634,128,0,75752:0:0:0:0:
448,192,75634,128,0,76224:0:0:0:0:
192,192,75752,128,0,75988:0:0:0:0:
64,192,75752,128,0,75870:0:0:0:0:
320,192,75870,128,0,76224:0:0:0:0:
64,192,75988,128,0,76224:0:0:0:0:
192,192,76106,128,0,76224:0:0:0:0:
448,192,76342,128,0,76402:0:0:0:0:
320,192,76342,128,0,76402:0:0:0:0:
64,192,76342,128,0,76402:0:0:0:0:
64,192,76579,128,0,76638:0:0:0:0:
192,192,76579,128,0,76638:0:0:0:0:
448,192,76579,128,0,76638:0:0:0:0:
192,192,76815,128,0,76874:0:0:0:0:
320,192,76815,128,0,76874:0:0:0:0:
64,192,76815,128,0,76874:0:0:0:0:
320,192,77051,128,0,77110:0:0:0:0:
192,192,77051,128,0,77110:0:0:0:0:
448,192,77051,128,0,77110:0:0:0:0:
64,192,77287,128,0,77346:0:0:0:0:
320,192,77287,128,0,77346:0:0:0:0:
448,192,77287,128,0,77346:0:0:0:0:
192,192,77405,128,0,77642:0:0:0:0:
320,192,77524,128,0,77642:0:0:0:0:
448,192,77642,128,0,77760:0:0:0:0:
64,192,77642,128,0,77701:0:0:0:0:
64,192,77760,128,0,78114:0:0:0:0:
192,192,77760,128,0,77878:0:0:0:0:
320,192,77760,128,0,77878:0:0:0:0:
448,192,77878,128,0,77996:0:0:0:0:
192,192,77996,128,0,78114:0:0:0:0:
320,192,77996,128,0,78232:0:0:0:0:
448,192,78114,128,0,78232:0:0:0:0:
192,192,78232,128,0,78350:0:0:0:0:
64,192,78232,128,0,78468:0:0:0:0:
448,192,78350,128,0,78468:0:0:0:0:
320,192,78468,128,0,78587:0:0:0:0:
192,192,78468,128,0,78528:0:0:0:0:
64,192,78587,128,0,78823:0:0:0:0:
448,192,78587,128,0,78646:0:0:0:0:
192,192,78705,128,0,78941:0:0:0:0:
320,192,78705,128,0,78941:0:0:0:0:
448,192,78823,128,0,79059:0:0:0:0:
64,192,78941,128,0,79177:0:0:0:0:
320,192,79059,128,0,79295:0:0:0:0:
192,192,79177,128,0,79295:0:0:0:0:
448,192,79177,128,0,79531:0:0:0:0:
64,192,79413,128,0,79531:0:0:0:0:
320,192,79413,128,0,79768:0:0:0:0:
192,192,79650,128,0,79768:0:0:0:0:
448,192,79650,128,0,79886:0:0:0:0:
64,192,79650,128,0,79709:0:0:0:0:
64,192,79768,128,0,80004:0:0:0:0:
192,192,79886,128,0,80122:0:0:0:0:
320,192,79886,128,0,79945:0:0:0:0:
320,192,80004,128,0,80240:0:0:0:0:
448,192,80122,128,0,80240:0:0:0:0:
64,192,80122,128,0,80240:0:0:0:0:
448,192,80358,128,0,80417:0:0:0:0:
320,192,80358,128,0,80417:0:0:0:0:
64,192,80358,128,0,80417:0:0:0:0:
64,192,80594,128,0,80654:0:0:0:0:
192,192,80594,128,0,80654:0:0:0:0:
448,192,80594,128,0,80654:0:0:0:0:
320,192,80831,128,0,80890:0:0:0:0:
448,192,80831,128,0,80890:0:0:0:0:
192,192,80831,128,0,80890:0:0:0:0:
64,192,81067,128,0,81126:0:0:0:0:
192,192,81067,128,0,81126:0:0:0:0:
320,192,81067,128,0,81126:0:0:0:0:
320,192,81303,128,0,81362:0:0:0:0:
448,192,81303,128,0,81362:0:0:0:0:
64,192,81303,128,0,81362:0:0:0:0:
192,192,81421,128,0,81539:0:0:0:0:
320,192,81539,128,0,81894:0:0:0:0:
64,192,81539,128,0,81776:0:0:0:0:
448,192,81539,128,0,81657:0:0:0:0:
192,192,81657,128,0,81776:0:0:0:0:
448,192,81776,128,0,81894:0:0:0:0:
64,192,81894,128,0,82012:0:0:0:0:
192,192,81894,128,0,82012:0:0:0:0:
320,192,82012,128,0,82248:0:0:0:0:
448,192,82012,128,0,82130:0:0:0:0:
192,192,82130,128,0,82248:0:0:0:0:
64,192,82248,128,0,82484:0:0:0:0:
192,192,82366,128,0,82484:0:0:0:0:
320,192,82425,128,0,82543:0:0:0:0:
448,192,82484,128,0,82602:0:0:0:0:
64,192,82543,128,0,82661:0:0:0:0:
192,192,82602,128,0,82720:0:0:0:0:
448,192,82661,128,0,82780:0:0:0:0:
320,192,82720,128,0,82839:0:0:0:0:
192,192,82780,128,0,82898:0:0:0:0:
64,192,82839,128,0,82957:0:0:0:0:
448,192,82898,128,0,83016:0:0:0:0:
320,192,82957,128,0,83075:0:0:0:0:
192,192,83075,128,0,83311:0:0:0:0:
64,192,83075,128,0,83311:0:0:0:0:
320,192,83193,128,0,83547:0:0:0:0:
448,192,83193,128,0,83311:0:0:0:0:
64,192,83429,128,0,83547:0:0:0:0:
192,192,83429,128,0,83665:0:0:0:0:
448,192,83429,128,0,83783:0:0:0:0:
320,192,83665,128,0,83783:0:0:0:0:
64,192,83665,128,0,83902:0:0:0:0:
192,192,83783,128,0,84020:0:0:0:0:
320,192,83902,128,0,84020:0:0:0:0:
448,192,83902,128,0,84020:0:0:0:0:
192,192,84138,128,0,84197:0:0:0:0:
64,192,84138,128,0,84197:0:0:0:0:
448,192,84138,128,0,84197:0:0:0:0:
320,192,84256,1,0,0:0:0:0:
192,192,84374,128,0,84433:0:0:0:0:
448,192,84374,128,0,84433:0:0:0:0:
320,192,84374,128,0,84433:0:0:0:0:
64,192,84492,1,0,0:0:0:0:
64,192,84610,128,0,84669:0:0:0:0:
192,192,84610,128,0,84669:0:0:0:0:
448,192,84610,128,0,84669:0:0:0:0:
320,192,84728,1,0,0:0:0:0:
448,192,84846,128,0,84905:0:0:0:0:
320,192,84846,128,0,84905:0:0:0:0:
64,192,84846,128,0,84905:0:0:0:0:
192,192,84965,1,0,0:0:0:0:
64,192,85083,128,0,85201:0:0:0:0:
320,192,85083,128,0,85201:0:0:0:0:
192,192,85201,128,0,85555:0:0:0:0:
448,192,85201,128,0,85437:0:0:0:0:
320,192,85319,128,0,85437:0:0:0:0:
64,192,85319,128,0,85437:0:0:0:0:
320,192,85555,128,0,85673:0:0:0:0:
448,192,85555,128,0,85791:0:0:0:0:
64,192,85555,128,0,85673:0:0:0:0:
192,192,85673,128,0,85909:0:0:0:0:
320,192,85791,128,0,85909:0:0:0:0:
64,192,85791,128,0,86028:0:0:0:0:
448,192,85909,128,0,86028:0:0:0:0:
320,192,86028,128,0,86146:0:0:0:0:
192,192,86028,128,0,86264:0:0:0:0:
64,192,86146,128,0,86382:0:0:0:0:
448,192,86264,128,0,86382:0:0:0:0:
320,192,86264,128,0,86382:0:0:0:0:
192,192,86382,128,0,86618:0:0:0:0:
64,192,86500,128,0,86736:0:0:0:0:
320,192,86500,128,0,86618:0:0:0:0:
448,192,86618,128,0,86854:0:0:0:0:
320,192,86736,128,0,86854:0:0:0:0:
192,192,86736,128,0,86854:0:0:0:0:
64,192,86854,128,0,86972:0:0:0:0:
320,192,86972,128,0,87091:0:0:0:0:
192,192,86972,128,0,87209:0:0:0:0:
448,192,86972,128,0,87091:0:0:0:0:
64,192,87091,128,0,87209:0:0:0:0:
448,192,87209,128,0,87327:0:0:0:0:
320,192,87209,128,0,87681:0:0:0:0:
192,192,87327,128,0,87563:0:0:0:0:
448,192,87445,128,0,87563:0:0:0:0:
64,192,87445,128,0,87681:0:0:0:0:
448,192,87681,128,0,87799:0:0:0:0:
192,192,87681,128,0,87858:0:0:0:0:
64,192,87799,128,0,87858:0:0:0:0:
448,192,87917,128,0,87976:0:0:0:0:
64,192,87917,128,0,87976:0:0:0:0:
192,192,87917,128,0,87976:0:0:0:0:
320,192,88035,1,0,0:0:0:0:
320,192,88154,128,0,88213:0:0:0:0:
448,192,88154,128,0,88213:0:0:0:0:
64,192,88154,128,0,88213:0:0:0:0:
192,192,88272,1,0,0:0:0:0:
64,192,88390,128,0,88449:0:0:0:0:
320,192,88390,128,0,88449:0:0:0:0:
192,192,88390,128,0,88449:0:0:0:0:
448,192,88508,1,0,0:0:0:0:
448,192,88626,128,0,88685:0:0:0:0:
192,192,88626,128,0,88685:0:0:0:0:
64,192,88626,128,0,88685:0:0:0:0:
320,192,88744,1,0,0:0:0:0:
192,192,88862,128,0,89098:0:0:0:0:
64,192,88862,128,0,88980:0:0:0:0:
320,192,88980,128,0,89217:0:0:0:0:
448,192,89098,128,0,89335:0:0:0:0:
64,192,89098,128,0,89217:0:0:0:0:
192,192,89217,128,0,89335:0:0:0:0:
64,192,89335,128,0,89453:0:0:0:0:
320,192,89335,128,0,89453:0:0:0:0:
192,192,89453,128,0,89571:0:0:0:0:
448,192,89453,128,0,89571:0:0:0:0:
64,192,89571,128,0,89807:0:0:0:0:
320,192,89571,128,0,89689:0:0:0:0:
192,192,89689,128,0,89925:0:0:0:0:
448,192,89689,128,0,89807:0:0:0:0:
320,192,89807,128,0,90043:0:0:0:0:
448,192,89925,128,0,90043:0:0:0:0:
64,192,89925,128,0,90043:0:0:0:0:
192,192,90043,128,0,90516:0:0:0:0:
64,192,90516,128,0,90634:0:0:0:0:
320,192,90516,128,0,90752:0:0:0:0:
448,192,90516,128,0,90634:0:0:0:0:
192,192,90634,128,0,90870:0:0:0:0:
448,192,90752,128,0,90870:0:0:0:0:
64,192,90752,128,0,90870:0:0:0:0:
320,192,90870,128,0,90988:0:0:0:0:
192,192,90988,128,0,91224:0:0:0:0:
64,192,90988,128,0,91106:0:0:0:0:
448,192,90988,128,0,91342:0:0:0:0:
320,192,91106,128,0,91342:0:0:0:0:
64,192,91224,128,0,91461:0:0:0:0:
192,192,91342,128,0,91579:0:0:0:0:
320,192,91461,128,0,91579:0:0:0:0:
448,192,91461,128,0,91697:0:0:0:0:
64,192,91579,128,0,91815:0:0:0:0:
192,192,91697,128,0,91815:0:0:0:0:
320,192,91697,128,0,91933:0:0:0:0:
448,192,91815,128,0,92051:0:0:0:0:
64,192,91933,128,0,92405:0:0:0:0:
192,192,91933,128,0,92169:0:0:0:0:
448,192,92169,128,0,92287:0:0:0:0:
320,192,92169,128,0,92287:0:0:0:0:
192,192,92287,128,0,92524:0:0:0:0:
448,192,92405,128,0,92642:0:0:0:0:
320,192,92405,128,0,92524:0:0:0:0:
64,192,92524,128,0,92760:0:0:0:0:
320,192,92642,128,0,92878:0:0:0:0:
192,192,92760,128,0,92996:0:0:0:0:
64,192,92878,128,0,93350:0:0:0:0:
448,192,92878,128,0,92996:0:0:0:0:
320,192,92996,128,0,93114:0:0:0:0:
448,192,93114,128,0,93232:0:0:0:0:
192,192,93114,128,0,93350:0:0:0:0:
320,192,93232,128,0,93468:0:0:0:0:
448,192,93350,128,0,93705:0:0:0:0:
64,192,93468,128,0,93705:0:0:0:0:
192,192,93468,128,0,93705:0:0:0:0:
320,192,93587,128,0,93705:0:0:0:0:
320,192,93823,128,0,94177:0:0:0:0:
64,192,93823,128,0,93941:0:0:0:0:
448,192,93823,128,0,94177:0:0:0:0:
192,192,93941,128,0,94059:0:0:0:0:
64,192,94059,128,0,94177:0:0:0:0:
192,192,94177,128,0,94413:0:0:0:0:
64,192,94295,128,0,94413:0:0:0:0:
448,192,94354,128,0,94472:0:0:0:0:
320,192,94413,128,0,94531:0:0:0:0:
64,192,94472,128,0,94591:0:0:0:0:
192,192,94531,128,0,94650:0:0:0:0:
448,192,94591,128,0,94709:0:0:0:0:
320,192,94650,128,0,94768:0:0:0:0:
192,192,94709,128,0,94827:0:0:0:0:
64,192,94768,128,0,95004:0:0:0:0:
448,192,94886,128,0,95122:0:0:0:0:
192,192,95004,128,0,95122:0:0:0:0:
320,192,95122,128,0,95240:0:0:0:0:
64,192,95122,128,0,95358:0:0:0:0:
192,192,95240,128,0,95358:0:0:0:0:
448,192,95240,128,0,95594:0:0:0:0:
64,192,95476,128,0,95594:0:0:0:0:
192,192,95476,128,0,95831:0:0:0:0:
320,192,95713,128,0,95831:0:0:0:0:
448,192,95713,128,0,96067:0:0:0:0:
64,192,95831,128,0,95949:0:0:0:0:
192,192,95949,128,0,96067:0:0:0:0:
320,192,95949,128,0,96067:0:0:0:0:
64,192,96067,128,0,96185:0:0:0:0:
192,192,96185,128,0,96303:0:0:0:0:
320,192,96185,128,0,96421:0:0:0:0:
448,192,96303,128,0,96539:0:0:0:0:
64,192,96421,128,0,96539:0:0:0:0:
192,192,96421,128,0,96539:0:0:0:0:
64,192,96657,128,0,96776:0:0:0:0:
192,192,96657,128,0,96894:0:0:0:0:
448,192,96657,128,0,97130:0:0:0:0:
320,192,96776,128,0,97012:0:0:0:0:
64,192,96894,128,0,97012:0:0:0:0:
192,192,97012,128,0,97130:0:0:0:0:
64,192,97130,128,0,97248:0:0:0:0:
320,192,97130,128,0,97366:0:0:0:0:
448,192,97248,128,0,97366:0:0:0:0:
192,192,97248,128,0,97484:0:0:0:0:
64,192,97366,128,0,97602:0:0:0:0:
448,192,97484,128,0,97602:0:0:0:0:
320,192,97602,128,0,97957:0:0:0:0:
192,192,97602,128,0,97720:0:0:0:0:
64,192,97720,128,0,97957:0:0:0:0:
448,192,97720,128,0,97957:0:0:0:0:
192,192,97839,128,0,97957:0:0:0:0:
320,192,98075,128,0,98193:0:0:0:0:
448,192,98075,128,0,98193:0:0:0:0:
192,192,98134,128,0,98252:0:0:0:0:
64,192,98193,128,0,98311:0:0:0:0:
448,192,98252,128,0,98370:0:0:0:0:
320,192,98311,128,0,98429:0:0:0:0:
192,192,98370,128,0,98488:0:0:0:0:
64,192,98429,128,0,98547:0:0:0:0:
448,192,98488,128,0,98606:0:0:0:0:
320,192,98547,128,0,98783:0:0:0:0:
192,192,98547,128,0,98665:0:0:0:0:
64,192,98665,128,0,98783:0:0:0:0:
448,192,98783,128,0,98902:0:0:0:0:
192,192,98783,128,0,98902:0:0:0:0:
320,192,98902,128,0,99020:0:0:0:0:
448,192,99020,128,0,99374:0:0:0:0:
64,192,99020,128,0,99138:0:0:0:0:
320,192,99256,128,0,99610:0:0:0:0:
192,192,99256,128,0,99374:0:0:0:0:
448,192,99492,128,0,99846:0:0:0:0:
64,192,99492,128,0,99610:0:0:0:0:
192,192,99610,128,0,99728:0:0:0:0:
64,192,99728,128,0,99846:0:0:0:0:
320,192,99728,128,0,99846:0:0:0:0:
192,192,99846,128,0,99965:0:0:0:0:
64,192,99965,128,0,100437:0:0:0:0:
448,192,99965,128,0,100201:0:0:0:0:
192,192,100083,128,0,100319:0:0:0:0:
320,192,100083,128,0,100201:0:0:0:0:
320,192,100319,128,0,100437:0:0:0:0:
448,192,100437,128,0,101264:0:0:0:0:
192,192,100437,128,0,100673:0:0:0:0:
320,192,100555,128,0,100791:0:0:0:0:
64,192,100673,128,0,100909:0:0:0:0:
192,192,100791,128,0,100909:0:0:0:0:
320,192,100909,128,0,101028:0:0:0:0:
64,192,101028,128,0,101146:0:0:0:0:
192,192,101028,128,0,101264:0:0:0:0:
320,192,101146,128,0,101382:0:0:0:0:
64,192,101264,128,0,101382:0:0:0:0:
192,192,101382,128,0,101854:0:0:0:0:
448,192,101382,128,0,101618:0:0:0:0:
320,192,101500,128,0,101618:0:0:0:0:
64,192,101618,128,0,101854:0:0:0:0:
320,192,101736,128,0,101854:0:0:0:0:
448,192,101854,128,0,101972:0:0:0:0:
320,192,101913,128,0,102031:0:0:0:0:
64,192,101972,128,0,102091:0:0:0:0:
192,192,102031,128,0,102150:0:0:0:0:
448,192,102091,128,0,102209:0:0:0:0:
320,192,102150,128,0,102268:0:0:0:0:
64,192,102209,128,0,102327:0:0:0:0:
192,192,102268,128,0,102386:0:0:0:0:
448,192,102327,128,0,103154:0:0:0:0:
320,192,102327,128,0,102563:0:0:0:0:
64,192,102445,128,0,102681:0:0:0:0:
192,192,102563,128,0,102681:0:0:0:0:
320,192,102681,128,0,102917:0:0:0:0:
192,192,102799,128,0,102917:0:0:0:0:
64,192,102799,128,0,102917:0:0:0:0:
320,192,103035,128,0,103154:0:0:0:0:
192,192,103035,128,0,103154:0:0:0:0:
64,192,103035,128,0,103272:0:0:0:0:
320,192,103272,128,0,103390:0:0:0:0:
448,192,103272,128,0,103508:0:0:0:0:
192,192,103272,128,0,104098:0:0:0:0:
64,192,103508,128,0,103744:0:0:0:0:
320,192,103626,128,0,103862:0:0:0:0:
448,192,103744,128,0,103980:0:0:0:0:
64,192,103862,128,0,103980:0:0:0:0:
320,192,103980,128,0,104217:0:0:0:0:
448,192,104098,128,0,104217:0:0:0:0:
64,192,104217,128,0,105161:0:0:0:0:
192,192,104217,128,0,104453:0:0:0:0:
320,192,104335,128,0,104571:0:0:0:0:
448,192,104453,128,0,104689:0:0:0:0:
192,192,104571,128,0,104807:0:0:0:0:
320,192,104689,128,0,104807:0:0:0:0:
448,192,104807,128,0,105043:0:0:0:0:
320,192,104925,128,0,105043:0:0:0:0:
192,192,105043,128,0,105280:0:0:0:0:
320,192,105161,128,0,105280:0:0:0:0:
448,192,105161,128,0,105398:0:0:0:0:
64,192,105280,128,0,105516:0:0:0:0:
192,192,105398,128,0,105516:0:0:0:0:
320,192,105398,128,0,105516:0:0:0:0:
448,192,105516,1,0,0:0:0:0:
320,192,105634,1,0,0:0:0:0:
192,192,105634,1,0,0:0:0:0:
192,192,105752,1,0,0:0:0:0:
320,192,105752,1,0,0:0:0:0:
64,192,105870,128,0,105988:0:0:0:0:
448,192,105870,128,0,105988:0:0:0:0:
448,192,106106,1,0,0:0:0:0:
64,192,106106,1,0,0:0:0:0:
192,192,106106,128,0,106342:0:0:0:0:
320,192,106106,128,0,106342:0:0:0:0:
448,192,106342,128,0,106461:0:0:0:0:
64,192,106461,128,0,106697:0:0:0:0:
192,192,106697,1,0,0:0:0:0:
448,192,106697,128,0,106815:0:0:0:0:
320,192,106815,128,0,106933:0:0:0:0:
64,192,106815,1,0,0:0:0:0:
192,192,106933,128,0,107051:0:0:0:0:
64,192,107051,128,0,107169:0:0:0:0:
448,192,107051,1,0,0:0:0:0:
320,192,107051,1,0,0:0:0:0:
192,192,107287,1,0,0:0:0:0:
320,192,107287,128,0,107405:0:0:0:0:
192,192,107524,128,0,107642:0:0:0:0:
64,192,107524,1,0,0:0:0:0:
448,192,107524,1,0,0:0:0:0:
320,192,107760,1,0,0:0:0:0:
64,192,107878,1,0,0:0:0:0:
192,192,107878,1,0,0:0:0:0:
448,192,107878,128,0,108114:0:0:0:0:
320,192,107996,1,0,0:0:0:0:
64,192,108232,128,0,108468:0:0:0:0:
192,192,108232,1,0,0:0:0:0:
320,192,108350,1,0,0:0:0:0:
448,192,108468,128,0,108705:0:0:0:0:
192,192,108468,1,0,0:0:0:0:
192,192,108705,128,0,108941:0:0:0:0:
64,192,108705,1,0,0:0:0:0:
448,192,108941,1,0,0:0:0:0:
320,192,108941,128,0,109768:0:0:0:0:
64,192,109177,1,0,0:0:0:0:
192,192,109295,128,0,109768:0:0:0:0:
448,192,109413,1,0,0:0:0:0:
64,192,109413,1,0,0:0:0:0:
64,192,109650,128,0,109886:0:0:0:0:
320,192,109886,128,0,110004:0:0:0:0:
448,192,109886,128,0,110004:0:0:0:0:
192,192,110122,128,0,110240:0:0:0:0:
320,192,110240,128,0,110358:0:0:0:0:
64,192,110358,1,0,0:0:0:0:
448,192,110358,1,0,0:0:0:0:
192,192,110476,128,0,110594:0:0:0:0:
64,192,110594,128,0,110713:0:0:0:0:
448,192,110594,1,0,0:0:0:0:
320,192,110713,128,0,110831:0:0:0:0:
192,192,110831,128,0,110949:0:0:0:0:
64,192,110831,128,0,110949:0:0:0:0:
448,192,111067,1,0,0:0:0:0:
320,192,111067,1,0,0:0:0:0:
64,192,111067,1,0,0:0:0:0:
64,192,111303,1,0,0:0:0:0:
448,192,111303,1,0,0:0:0:0:
192,192,111303,128,0,111421:0:0:0:0:
320,192,111303,128,0,111421:0:0:0:0:
64,192,111539,1,0,0:0:0:0:
448,192,111539,1,0,0:0:0:0:
320,192,111657,128,0,111894:0:0:0:0:
192,192,111657,1,0,0:0:0:0:
64,192,111776,1,0,0:0:0:0:
448,192,111776,1,0,0:0:0:0:
192,192,112012,128,0,112248:0:0:0:0:
448,192,112248,128,0,112484:0:0:0:0:
64,192,112484,128,0,113311:0:0:0:0:
448,192,112720,128,0,113547:0:0:0:0:
192,192,112957,128,0,113547:0:0:0:0:
320,192,113193,128,0,113547:0:0:0:0:
64,192,113429,128,0,113547:0:0:0:0:
64,192,113665,128,0,114020:0:0:0:0:
448,192,113665,128,0,114020:0:0:0:0:
320,192,113665,128,0,113783:0:0:0:0:
192,192,113783,128,0,113902:0:0:0:0:
320,192,113902,128,0,114138:0:0:0:0:
192,192,114020,128,0,114138:0:0:0:0:
64,192,114138,128,0,114492:0:0:0:0:
448,192,114138,128,0,114256:0:0:0:0:
320,192,114256,128,0,114374:0:0:0:0:
192,192,114374,128,0,114492:0:0:0:0:
448,192,114374,128,0,114610:0:0:0:0:
320,192,114492,128,0,114610:0:0:0:0:
64,192,114610,128,0,114965:0:0:0:0:
192,192,114610,128,0,114728:0:0:0:0:
320,192,114728,128,0,114846:0:0:0:0:
192,192,114846,128,0,115083:0:0:0:0:
448,192,114846,128,0,114965:0:0:0:0:
320,192,114965,128,0,115083:0:0:0:0:
64,192,115083,128,0,115437:0:0:0:0:
448,192,115083,128,0,115201:0:0:0:0:
320,192,115201,128,0,115319:0:0:0:0:
192,192,115319,128,0,115555:0:0:0:0:
448,192,115319,128,0,115437:0:0:0:0:
320,192,115437,128,0,115555:0:0:0:0:
64,192,115555,128,0,115909:0:0:0:0:
448,192,115555,128,0,115909:0:0:0:0:
320,192,115673,128,0,115791:0:0:0:0:
192,192,115791,128,0,116028:0:0:0:0:
320,192,115909,128,0,116028:0:0:0:0:
448,192,116028,128,0,116382:0:0:0:0:
64,192,116028,128,0,116146:0:0:0:0:
192,192,116146,128,0,116264:0:0:0:0:
320,192,116264,128,0,116500:0:0:0:0:
64,192,116382,128,0,116500:0:0:0:0:
448,192,116500,128,0,116854:0:0:0:0:
192,192,116500,128,0,116618:0:0:0:0:
64,192,116618,128,0,116736:0:0:0:0:
320,192,116736,128,0,116972:0:0:0:0:
64,192,116854,128,0,116972:0:0:0:0:
192,192,116972,128,0,117327:0:0:0:0:
448,192,116972,128,0,117091:0:0:0:0:
320,192,117091,128,0,117209:0:0:0:0:
448,192,117209,128,0,117445:0:0:0:0:
64,192,117327,128,0,117445:0:0:0:0:
192,192,117445,128,0,117799:0:0:0:0:
320,192,117445,128,0,117563:0:0:0:0:
448,192,117563,128,0,117681:0:0:0:0:
320,192,117681,128,0,117917:0:0:0:0:
448,192,117799,128,0,117917:0:0:0:0:
64,192,117917,128,0,118272:0:0:0:0:
192,192,117917,128,0,118035:0:0:0:0:
448,192,118035,128,0,118154:0:0:0:0:
192,192,118154,128,0,118390:0:0:0:0:
320,192,118272,128,0,118390:0:0:0:0:
448,192,118390,128,0,118744:0:0:0:0:
64,192,118390,128,0,118508:0:0:0:0:
320,192,118508,128,0,118626:0:0:0:0:
192,192,118626,128,0,118862:0:0:0:0:
64,192,118744,128,0,118862:0:0:0:0:
320,192,118862,128,0,119217:0:0:0:0:
448,192,118862,128,0,118980:0:0:0:0:
64,192,118980,128,0,119098:0:0:0:0:
192,192,119098,128,0,119335:0:0:0:0:
64,192,119217,128,0,119335:0:0:0:0:
448,192,119335,128,0,119689:0:0:0:0:
320,192,119335,128,0,119453:0:0:0:0:
64,192,119453,128,0,119571:0:0:0:0:
192,192,119571,128,0,119807:0:0:0:0:
320,192,119689,128,0,119807:0:0:0:0:
64,192,119807,128,0,120161:0:0:0:0:
448,192,119807,128,0,119925:0:0:0:0:
320,192,119925,128,0,120043:0:0:0:0:
192,192,120043,128,0,120280:0:0:0:0:
448,192,120161,128,0,120280:0:0:0:0:
64,192,120280,128,0,120634:0:0:0:0:
320,192,120280,128,0,120398:0:0:0:0:
448,192,120398,128,0,120516:0:0:0:0:
192,192,120516,128,0,120634:0:0:0:0:
320,192,120634,128,0,120752:0:0:0:0:
448,192,120752,1,0,0:0:0:0:
64,192,120752,1,0,0:0:0:0:
64,192,120870,1,0,0:0:0:0:
448,192,120870,1,0,0:0:0:0:
448,192,120988,1,0,0:0:0:0:
64,192,120988,1,0,0:0:0:0:
192,192,121106,1,0,0:0:0:0:
320,192,121106,1,0,0:0:0:0:
448,192,121224,1,0,0:0:0:0:
64,192,121224,1,0,0:0:0:0:
64,192,121342,128,0,121461:0:0:0:0:
448,192,121342,128,0,121461:0:0:0:0:
320,192,121579,128,0,122169:0:0:0:0:
192,192,121933,128,0,122169:0:0:0:0:
448,192,122169,1,0,0:0:0:0:
64,192,122169,1,0,0:0:0:0:
64,192,122287,128,0,122405:0:0:0:0:
448,192,122287,128,0,122405:0:0:0:0:
320,192,122524,128,0,122878:0:0:0:0:
192,192,122878,128,0,122996:0:0:0:0:
64,192,123114,1,0,0:0:0:0:
448,192,123114,1,0,0:0:0:0:
448,192,123232,128,0,123350:0:0:0:0:
64,192,123232,128,0,123350:0:0:0:0:
192,192,123468,128,0,123705:0:0:0:0:
320,192,123823,128,0,123941:0:0:0:0:
448,192,123823,128,0,123941:0:0:0:0:
64,192,124059,128,0,124177:0:0:0:0:
192,192,124059,128,0,124177:0:0:0:0:
448,192,124059,128,0,124177:0:0:0:0:
320,192,124531,1,0,0:0:0:0:
192,192,124768,1,0,0:0:0:0:
320,192,125004,1,0,0:0:0:0:
64,192,125004,1,0,0:0:0:0:
64,192,125122,128,0,125240:0:0:0:0:
320,192,125122,128,0,125240:0:0:0:0:
192,192,125358,128,0,125713:0:0:0:0:
448,192,125713,128,0,125949:0:0:0:0:
64,192,125949,1,0,0:0:0:0:
320,192,125949,1,0,0:0:0:0:
320,192,126067,128,0,126185:0:0:0:0:
64,192,126067,128,0,126185:0:0:0:0:
192,192,126303,128,0,126657:0:0:0:0:
320,192,126657,128,0,126776:0:0:0:0:
448,192,126657,128,0,126776:0:0:0:0:
64,192,126894,128,0,127012:0:0:0:0:
320,192,126894,128,0,127012:0:0:0:0:
192,192,126894,128,0,127012:0:0:0:0:
64,192,127366,1,0,0:0:0:0:
192,192,127602,128,0,127720:0:0:0:0:
320,192,127839,128,0,128193:0:0:0:0:
64,192,128193,1,0,0:0:0:0:
192,192,128311,128,0,128429:0:0:0:0:
192,192,128547,1,0,0:0:0:0:
192,192,128783,128,0,128902:0:0:0:0:
320,192,128783,128,0,129020:0:0:0:0:
448,192,128783,128,0,129138:0:0:0:0:
64,192,128783,128,0,129374:0:0:0:0:
192,192,129020,128,0,129138:0:0:0:0:
320,192,129138,128,0,129374:0:0:0:0:
192,192,129256,128,0,129492:0:0:0:0:
448,192,129256,128,0,129492:0:0:0:0:
64,192,129492,128,0,129610:0:0:0:0:
320,192,129492,128,0,129846:0:0:0:0:
192,192,129610,128,0,129728:0:0:0:0:
64,192,129728,128,0,130083:0:0:0:0:
448,192,129728,128,0,129846:0:0:0:0:
192,192,129846,128,0,130083:0:0:0:0:
320,192,129965,128,0,130201:0:0:0:0:
448,192,129965,128,0,130083:0:0:0:0:
64,192,130201,128,0,130319:0:0:0:0:
192,192,130201,128,0,130319:0:0:0:0:
448,192,130201,128,0,130673:0:0:0:0:
320,192,130319,128,0,130437:0:0:0:0:
64,192,130437,128,0,130555:0:0:0:0:
192,192,130437,128,0,130555:0:0:0:0:
320,192,130555,128,0,130673:0:0:0:0:
64,192,130673,128,0,130909:0:0:0:0:
192,192,130791,128,0,130909:0:0:0:0:
448,192,130909,1,0,0:0:0:0:
320,192,130909,1,0,0:0:0:0:
320,192,131028,128,0,131146:0:0:0:0:
448,192,131028,128,0,131146:0:0:0:0:
192,192,131146,1,0,0:0:0:0:
64,192,131146,1,0,0:0:0:0:
448,192,131382,1,0,0:0:0:0:
320,192,131382,1,0,0:0:0:0:
64,192,131382,1,0,0:0:0:0:
64,192,131618,1,0,0:0:0:0:
192,192,131618,1,0,0:0:0:0:
448,192,131618,1,0,0:0:0:0:
320,192,131854,1,0,0:0:0:0:
192,192,131854,1,0,0:0:0:0:
448,192,132091,1,0,0:0:0:0:
320,192,132091,1,0,0:0:0:0:
192,192,132091,1,0,0:0:0:0:
64,192,132091,1,0,0:0:0:0:
192,192,132327,1,0,0:0:0:0:
320,192,132327,1,0,0:0:0:0:
448,192,132327,1,0,0:0:0:0:
320,192,132563,1,0,0:0:0:0:
64,192,132563,1,0,0:0:0:0:
192,192,132563,1,0,0:0:0:0:
448,192,132681,1,0,0:0:0:0:
64,192,132799,1,0,0:0:0:0:
192,192,132799,1,0,0:0:0:0:
448,192,132917,1,0,0:0:0:0:
320,192,133035,1,0,0:0:0:0:
192,192,133035,1,0,0:0:0:0:
64,192,133154,1,0,0:0:0:0:
448,192,133272,1,0,0:0:0:0:
320,192,133272,1,0,0:0:0:0:
192,192,133390,1,0,0:0:0:0:
64,192,133508,1,0,0:0:0:0:
448,192,133508,1,0,0:0:0:0:
320,192,133508,1,0,0:0:0:0:
64,192,133626,1,0,0:0:0:0:
192,192,133626,1,0,0:0:0:0:
320,192,133744,1,0,0:0:0:0:
448,192,133744,1,0,0:0:0:0:
64,192,133862,1,0,0:0:0:0:
192,192,133862,1,0,0:0:0:0:
320,192,133980,1,0,0:0:0:0:
448,192,133980,1,0,0:0:0:0:
64,192,134098,1,0,0:0:0:0:
192,192,134098,1,0,0:0:0:0:
320,192,134217,1,0,0:0:0:0:
448,192,134217,1,0,0:0:0:0:
192,192,134335,1,0,0:0:0:0:
64,192,134335,1,0,0:0:0:0:
448,192,134453,1,0,0:0:0:0:
320,192,134512,1,0,0:0:0:0:
64,192,134571,1,0,0:0:0:0:
192,192,134630,1,0,0:0:0:0:
448,192,134689,1,0,0:0:0:0:
320,192,134748,1,0,0:0:0:0:
64,192,134807,1,0,0:0:0:0:
192,192,134866,1,0,0:0:0:0:
320,192,134925,1,0,0:0:0:0:
448,192,134984,1,0,0:0:0:0:
64,192,135043,1,0,0:0:0:0:
192,192,135102,1,0,0:0:0:0:
448,192,135161,1,0,0:0:0:0:
320,192,135220,1,0,0:0:0:0:
192,192,135280,1,0,0:0:0:0:
64,192,135339,1,0,0:0:0:0:
448,192,135398,1,0,0:0:0:0:
320,192,135398,1,0,0:0:0:0:
320,192,135516,1,0,0:0:0:0:
192,192,135634,1,0,0:0:0:0:
64,192,135634,1,0,0:0:0:0:
448,192,135634,1,0,0:0:0:0:
320,192,135752,1,0,0:0:0:0:
320,192,135870,1,0,0:0:0:0:
64,192,135870,1,0,0:0:0:0:
448,192,135870,1,0,0:0:0:0:
192,192,135988,1,0,0:0:0:0:
448,192,136106,1,0,0:0:0:0:
64,192,136106,1,0,0:0:0:0:
320,192,136224,1,0,0:0:0:0:
64,192,136342,128,0,136697:0:0:0:0:
192,192,136342,128,0,136579:0:0:0:0:
448,192,136342,128,0,136461:0:0:0:0:
320,192,136461,128,0,136697:0:0:0:0:
448,192,136579,128,0,136815:0:0:0:0:
192,192,136697,128,0,136933:0:0:0:0:
64,192,136815,128,0,136933:0:0:0:0:
320,192,136815,128,0,136933:0:0:0:0:
448,192,136933,128,0,137169:0:0:0:0:
320,192,137051,128,0,137287:0:0:0:0:
64,192,137051,128,0,137169:0:0:0:0:
192,192,137169,128,0,137287:0:0:0:0:
64,192,137287,128,0,137524:0:0:0:0:
448,192,137287,128,0,137642:0:0:0:0:
192,192,137405,128,0,137524:0:0:0:0:
320,192,137524,128,0,137760:0:0:0:0:
192,192,137642,128,0,137996:0:0:0:0:
64,192,137760,128,0,137878:0:0:0:0:
320,192,137878,128,0,138114:0:0:0:0:
448,192,137996,128,0,138232:0:0:0:0:
64,192,138114,128,0,138350:0:0:0:0:
320,192,138232,128,0,138468:0:0:0:0:
192,192,138232,128,0,138350:0:0:0:0:
448,192,138350,128,0,138587:0:0:0:0:
64,192,138468,128,0,138705:0:0:0:0:
192,192,138587,128,0,138823:0:0:0:0:
320,192,138705,128,0,138823:0:0:0:0:
448,192,138705,128,0,139059:0:0:0:0:
320,192,138941,128,0,139059:0:0:0:0:
64,192,138941,128,0,139059:0:0:0:0:
192,192,138941,128,0,139295:0:0:0:0:
448,192,139177,128,0,139295:0:0:0:0:
320,192,139177,128,0,139531:0:0:0:0:
64,192,139177,128,0,139295:0:0:0:0:
448,192,139413,128,0,139531:0:0:0:0:
64,192,139413,128,0,139768:0:0:0:0:
192,192,139413,128,0,139531:0:0:0:0:
192,192,139650,128,0,139768:0:0:0:0:
320,192,139650,128,0,140004:0:0:0:0:
448,192,139768,128,0,139886:0:0:0:0:
64,192,139886,128,0,140004:0:0:0:0:
192,192,139886,128,0,140004:0:0:0:0:
448,192,140004,128,0,140122:0:0:0:0:
64,192,140122,128,0,140240:0:0:0:0:
192,192,140122,128,0,140358:0:0:0:0:
320,192,140240,128,0,140476:0:0:0:0:
64,192,140358,128,0,140476:0:0:0:0:
448,192,140358,128,0,140476:0:0:0:0:
64,192,140594,128,0,140713:0:0:0:0:
448,192,140594,128,0,140831:0:0:0:0:
192,192,140594,128,0,140713:0:0:0:0:
320,192,140713,128,0,140831:0:0:0:0:
192,192,140831,128,0,140949:0:0:0:0:
64,192,140831,128,0,140949:0:0:0:0:
320,192,140949,128,0,141067:0:0:0:0:
448,192,141067,128,0,141303:0:0:0:0:
64,192,141067,128,0,141185:0:0:0:0:
192,192,141185,128,0,141303:0:0:0:0:
320,192,141185,128,0,141421:0:0:0:0:
64,192,141303,128,0,141539:0:0:0:0:
192,192,141421,128,0,141657:0:0:0:0:
320,192,141539,128,0,141657:0:0:0:0:
448,192,141539,128,0,141894:0:0:0:0:
64,192,141657,128,0,141776:0:0:0:0:
320,192,141776,128,0,141894:0:0:0:0:
192,192,141835,128,0,141953:0:0:0:0:
64,192,141894,128,0,142012:0:0:0:0:
448,192,141953,128,0,142071:0:0:0:0:
320,192,142012,128,0,142130:0:0:0:0:
192,192,142071,128,0,142189:0:0:0:0:
64,192,142130,128,0,142248:0:0:0:0:
448,192,142248,128,0,142366:0:0:0:0:
320,192,142248,128,0,142307:0:0:0:0:
64,192,142307,128,0,142425:0:0:0:0:
192,192,142366,128,0,142484:0:0:0:0:
320,192,142425,128,0,142543:0:0:0:0:
448,192,142484,128,0,142602:0:0:0:0:
64,192,142602,128,0,142720:0:0:0:0:
192,192,142602,128,0,142839:0:0:0:0:
320,192,142720,128,0,142957:0:0:0:0:
448,192,142839,128,0,143075:0:0:0:0:
64,192,142957,128,0,143075:0:0:0:0:
192,192,142957,128,0,143193:0:0:0:0:
320,192,143075,128,0,143311:0:0:0:0:
448,192,143193,128,0,143311:0:0:0:0:
64,192,143193,128,0,143311:0:0:0:0:
192,192,143311,128,0,143429:0:0:0:0:
64,192,143429,128,0,143547:0:0:0:0:
320,192,143429,128,0,143665:0:0:0:0:
448,192,143429,128,0,143547:0:0:0:0:
192,192,143547,128,0,143665:0:0:0:0:
448,192,143665,128,0,143783:0:0:0:0:
64,192,143665,128,0,143842:0:0:0:0:
320,192,143783,128,0,143902:0:0:0:0:
192,192,143783,128,0,143842:0:0:0:0:
64,192,143902,128,0,144256:0:0:0:0:
192,192,143902,128,0,144138:0:0:0:0:
448,192,143902,128,0,144020:0:0:0:0:
320,192,144020,128,0,144138:0:0:0:0:
448,192,144138,128,0,144374:0:0:0:0:
192,192,144256,128,0,144374:0:0:0:0:
320,192,144256,128,0,144492:0:0:0:0:
64,192,144374,128,0,144728:0:0:0:0:
192,192,144492,128,0,144610:0:0:0:0:
320,192,144610,128,0,144728:0:0:0:0:
448,192,144728,128,0,144846:0:0:0:0:
192,192,144846,128,0,145083:0:0:0:0:
320,192,144846,128,0,144965:0:0:0:0:
64,192,144846,128,0,144965:0:0:0:0:
448,192,144965,128,0,145083:0:0:0:0:
320,192,145083,128,0,145201:0:0:0:0:
64,192,145083,128,0,145319:0:0:0:0:
192,192,145201,128,0,145437:0:0:0:0:
320,192,145319,128,0,145437:0:0:0:0:
448,192,145319,128,0,145555:0:0:0:0:
64,192,145437,128,0,145555:0:0:0:0:
320,192,145555,128,0,145673:0:0:0:0:
192,192,145555,128,0,145673:0:0:0:0:
448,192,145673,128,0,145791:0:0:0:0:
64,192,145673,128,0,145732:0:0:0:0:
192,192,145791,128,0,146028:0:0:0:0:
64,192,145791,128,0,145909:0:0:0:0:
320,192,145909,128,0,146028:0:0:0:0:
448,192,146028,128,0,146146:0:0:0:0:
64,192,146028,128,0,146146:0:0:0:0:
320,192,146146,128,0,146264:0:0:0:0:
192,192,146146,128,0,146205:0:0:0:0:
448,192,146264,128,0,147091:0:0:0:0:
192,192,146264,128,0,146382:0:0:0:0:
64,192,146264,128,0,146736:0:0:0:0:
320,192,146500,128,0,146618:0:0:0:0:
192,192,146500,1,0,0:0:0:0:
192,192,146736,128,0,147091:0:0:0:0:
320,192,146736,1,0,0:0:0:0:
64,192,146854,1,0,0:0:0:0:
320,192,146972,1,0,0:0:0:0:
64,192,147091,1,0,0:0:0:0:
192,192,147209,128,0,147563:0:0:0:0:
448,192,147209,128,0,147327:0:0:0:0:
64,192,147209,128,0,147563:0:0:0:0:
320,192,147327,128,0,147445:0:0:0:0:
448,192,147445,128,0,147681:0:0:0:0:
320,192,147563,128,0,147681:0:0:0:0:
192,192,147681,128,0,147799:0:0:0:0:
64,192,147681,128,0,147917:0:0:0:0:
448,192,147799,128,0,148035:0:0:0:0:
320,192,147917,128,0,148154:0:0:0:0:
192,192,148035,128,0,148272:0:0:0:0:
64,192,148154,128,0,148508:0:0:0:0:
448,192,148154,128,0,148390:0:0:0:0:
320,192,148272,128,0,148390:0:0:0:0:
192,192,148390,128,0,148508:0:0:0:0:
448,192,148508,128,0,148567:0:0:0:0:
320,192,148508,128,0,148567:0:0:0:0:
192,192,148626,128,0,148862:0:0:0:0:
64,192,148626,128,0,148744:0:0:0:0:
448,192,148626,128,0,148744:0:0:0:0:
320,192,148862,128,0,148980:0:0:0:0:
64,192,148862,128,0,149098:0:0:0:0:
448,192,148862,128,0,148980:0:0:0:0:
192,192,148980,128,0,149217:0:0:0:0:
448,192,149098,128,0,149335:0:0:0:0:
320,192,149098,128,0,149453:0:0:0:0:
64,192,149217,128,0,149689:0:0:0:0:
192,192,149335,128,0,149571:0:0:0:0:
448,192,149453,128,0,149807:0:0:0:0:
320,192,149571,128,0,149689:0:0:0:0:
192,192,149689,128,0,149807:0:0:0:0:
64,192,149807,128,0,149925:0:0:0:0:
320,192,149807,128,0,150043:0:0:0:0:
448,192,149925,128,0,150161:0:0:0:0:
192,192,149925,128,0,150161:0:0:0:0:
64,192,150043,128,0,150161:0:0:0:0:
320,192,150161,128,0,150280:0:0:0:0:
64,192,150280,128,0,150398:0:0:0:0:
192,192,150339,128,0,150457:0:0:0:0:
448,192,150398,128,0,150516:0:0:0:0:
320,192,150457,128,0,150575:0:0:0:0:
192,192,150516,128,0,150634:0:0:0:0:
64,192,150575,128,0,150693:0:0:0:0:
320,192,150634,128,0,150752:0:0:0:0:
448,192,150693,128,0,150811:0:0:0:0:
64,192,150752,128,0,150870:0:0:0:0:
192,192,150752,128,0,151224:0:0:0:0:
320,192,150988,128,0,151106:0:0:0:0:
448,192,150988,128,0,151106:0:0:0:0:
64,192,151106,128,0,151224:0:0:0:0:
320,192,151224,128,0,151342:0:0:0:0:
448,192,151224,128,0,151815:0:0:0:0:
192,192,151342,128,0,151579:0:0:0:0:
64,192,151342,128,0,151461:0:0:0:0:
320,192,151461,128,0,151815:0:0:0:0:
64,192,151579,128,0,151815:0:0:0:0:
192,192,151697,128,0,151815:0:0:0:0:
448,192,151933,128,0,151992:0:0:0:0:
320,192,151933,128,0,151992:0:0:0:0:
64,192,151933,128,0,151992:0:0:0:0:
64,192,152169,128,0,152228:0:0:0:0:
192,192,152169,128,0,152228:0:0:0:0:
448,192,152169,128,0,152228:0:0:0:0:
192,192,152405,128,0,152465:0:0:0:0:
320,192,152405,128,0,152465:0:0:0:0:
64,192,152405,128,0,152465:0:0:0:0:
320,192,152642,128,0,152701:0:0:0:0:
192,192,152642,128,0,152701:0:0:0:0:
448,192,152642,128,0,152701:0:0:0:0:
64,192,152878,128,0,152937:0:0:0:0:
320,192,152878,128,0,152937:0:0:0:0:
448,192,152878,128,0,152937:0:0:0:0:
192,192,152996,128,0,153232:0:0:0:0:
320,192,153114,128,0,153232:0:0:0:0:
448,192,153232,128,0,153350:0:0:0:0:
64,192,153232,128,0,153291:0:0:0:0:
64,192,153350,128,0,153705:0:0:0:0:
192,192,153350,128,0,153468:0:0:0:0:
320,192,153350,128,0,153468:0:0:0:0:
448,192,153468,128,0,153587:0:0:0:0:
192,192,153587,128,0,153705:0:0:0:0:
320,192,153587,128,0,153823:0:0:0:0:
448,192,153705,128,0,153823:0:0:0:0:
192,192,153823,128,0,153941:0:0:0:0:
64,192,153823,128,0,154059:0:0:0:0:
448,192,153941,128,0,154059:0:0:0:0:
320,192,154059,128,0,154177:0:0:0:0:
192,192,154059,128,0,154118:0:0:0:0:
64,192,154177,128,0,154413:0:0:0:0:
448,192,154177,128,0,154236:0:0:0:0:
192,192,154295,128,0,154531:0:0:0:0:
320,192,154295,128,0,154531:0:0:0:0:
448,192,154413,128,0,154650:0:0:0:0:
64,192,154531,128,0,154768:0:0:0:0:
320,192,154650,128,0,154886:0:0:0:0:
192,192,154768,128,0,154886:0:0:0:0:
448,192,154768,128,0,155122:0:0:0:0:
64,192,155004,128,0,155122:0:0:0:0:
320,192,155004,128,0,155358:0:0:0:0:
192,192,155240,128,0,155358:0:0:0:0:
448,192,155240,128,0,155476:0:0:0:0:
64,192,155240,128,0,155299:0:0:0:0:
64,192,155358,128,0,155594:0:0:0:0:
192,192,155476,128,0,155713:0:0:0:0:
320,192,155476,128,0,155535:0:0:0:0:
320,192,155594,128,0,155831:0:0:0:0:
448,192,155713,128,0,155831:0:0:0:0:
64,192,155713,128,0,155831:0:0:0:0:
448,192,155949,128,0,156008:0:0:0:0:
320,192,155949,128,0,156008:0:0:0:0:
64,192,155949,128,0,156008:0:0:0:0:
64,192,156185,128,0,156244:0:0:0:0:
192,192,156185,128,0,156244:0:0:0:0:
448,192,156185,128,0,156244:0:0:0:0:
320,192,156421,128,0,156480:0:0:0:0:
448,192,156421,128,0,156480:0:0:0:0:
192,192,156421,128,0,156480:0:0:0:0:
64,192,156657,128,0,156717:0:0:0:0:
192,192,156657,128,0,156717:0:0:0:0:
320,192,156657,128,0,156717:0:0:0:0:
320,192,156894,128,0,156953:0:0:0:0:
448,192,156894,128,0,156953:0:0:0:0:
64,192,156894,128,0,156953:0:0:0:0:
192,192,157012,128,0,157130:0:0:0:0:
320,192,157130,128,0,157484:0:0:0:0:
64,192,157130,128,0,157366:0:0:0:0:
448,192,157130,128,0,157248:0:0:0:0:
192,192,157248,128,0,157366:0:0:0:0:
448,192,157366,128,0,157484:0:0:0:0:
64,192,157484,128,0,157602:0:0:0:0:
192,192,157484,128,0,157602:0:0:0:0:
320,192,157602,128,0,157839:0:0:0:0:
448,192,157602,128,0,157720:0:0:0:0:
192,192,157720,128,0,157839:0:0:0:0:
64,192,157839,128,0,158075:0:0:0:0:
192,192,157957,128,0,158075:0:0:0:0:
320,192,158016,128,0,158134:0:0:0:0:
448,192,158075,128,0,158193:0:0:0:0:
64,192,158134,128,0,158252:0:0:0:0:
192,192,158193,128,0,158311:0:0:0:0:
448,192,158252,128,0,158370:0:0:0:0:
320,192,158311,128,0,158429:0:0:0:0:
192,192,158370,128,0,158488:0:0:0:0:
64,192,158429,128,0,158547:0:0:0:0:
448,192,158488,128,0,158606:0:0:0:0:
320,192,158547,128,0,158665:0:0:0:0:
192,192,158665,128,0,158902:0:0:0:0:
64,192,158665,128,0,158902:0:0:0:0:
320,192,158783,128,0,159138:0:0:0:0:
448,192,158783,128,0,158902:0:0:0:0:
64,192,159020,128,0,159138:0:0:0:0:
192,192,159020,128,0,159256:0:0:0:0:
448,192,159020,128,0,159374:0:0:0:0:
320,192,159256,128,0,159374:0:0:0:0:
64,192,159256,128,0,159492:0:0:0:0:
192,192,159374,128,0,159610:0:0:0:0:
320,192,159492,128,0,159610:0:0:0:0:
448,192,159492,128,0,159610:0:0:0:0:
192,192,159728,128,0,159787:0:0:0:0:
64,192,159728,128,0,159787:0:0:0:0:
448,192,159728,128,0,159787:0:0:0:0:
320,192,159846,1,0,0:0:0:0:
192,192,159965,128,0,160024:0:0:0:0:
448,192,159965,128,0,160024:0:0:0:0:
320,192,159965,128,0,160024:0:0:0:0:
64,192,160083,1,0,0:0:0:0:
64,192,160201,128,0,160260:0:0:0:0:
192,192,160201,128,0,160260:0:0:0:0:
448,192,160201,128,0,160260:0:0:0:0:
320,192,160319,1,0,0:0:0:0:
448,192,160437,128,0,160496:0:0:0:0:
320,192,160437,128,0,160496:0:0:0:0:
64,192,160437,128,0,160496:0:0:0:0:
192,192,160555,1,0,0:0:0:0:
64,192,160673,128,0,160791:0:0:0:0:
320,192,160673,128,0,160791:0:0:0:0:
192,192,160791,128,0,161146:0:0:0:0:
448,192,160791,128,0,161028:0:0:0:0:
320,192,160909,128,0,161028:0:0:0:0:
64,192,160909,128,0,161028:0:0:0:0:
320,192,161146,128,0,161264:0:0:0:0:
448,192,161146,128,0,161382:0:0:0:0:
64,192,161146,128,0,161264:0:0:0:0:
192,192,161264,128,0,161500:0:0:0:0:
320,192,161382,128,0,161500:0:0:0:0:
64,192,161382,128,0,161618:0:0:0:0:
448,192,161500,128,0,161618:0:0:0:0:
320,192,161618,128,0,161736:0:0:0:0:
192,192,161618,128,0,161854:0:0:0:0:
64,192,161736,128,0,161972:0:0:0:0:
448,192,161854,128,0,161972:0:0:0:0:
320,192,161854,128,0,161972:0:0:0:0:
192,192,161972,128,0,162209:0:0:0:0:
64,192,162091,128,0,162327:0:0:0:0:
320,192,162091,128,0,162209:0:0:0:0:
448,192,162209,128,0,162445:0:0:0:0:
320,192,162327,128,0,162445:0:0:0:0:
192,192,162327,128,0,162445:0:0:0:0:
64,192,162445,128,0,162563:0:0:0:0:
320,192,162563,128,0,162681:0:0:0:0:
192,192,162563,128,0,162799:0:0:0:0:
448,192,162563,128,0,162681:0:0:0:0:
64,192,162681,128,0,162799:0:0:0:0:
448,192,162799,128,0,162917:0:0:0:0:
320,192,162799,128,0,163272:0:0:0:0:
192,192,162917,128,0,163154:0:0:0:0:
448,192,163035,128,0,163154:0:0:0:0:
64,192,163035,128,0,163272:0:0:0:0:
448,192,163272,128,0,163390:0:0:0:0:
192,192,163272,128,0,163449:0:0:0:0:
64,192,163390,128,0,163449:0:0:0:0:
448,192,163508,128,0,163567:0:0:0:0:
64,192,163508,128,0,163567:0:0:0:0:
192,192,163508,128,0,163567:0:0:0:0:
320,192,163626,1,0,0:0:0:0:
320,192,163744,128,0,163803:0:0:0:0:
448,192,163744,128,0,163803:0:0:0:0:
64,192,163744,128,0,163803:0:0:0:0:
192,192,163862,1,0,0:0:0:0:
64,192,163980,128,0,164039:0:0:0:0:
320,192,163980,128,0,164039:0:0:0:0:
192,192,163980,128,0,164039:0:0:0:0:
448,192,164098,1,0,0:0:0:0:
448,192,164217,128,0,164276:0:0:0:0:
192,192,164217,128,0,164276:0:0:0:0:
64,192,164217,128,0,164276:0:0:0:0:
320,192,164335,1,0,0:0:0:0:
192,192,164453,128,0,164689:0:0:0:0:
64,192,164453,128,0,164571:0:0:0:0:
320,192,164571,128,0,164807:0:0:0:0:
448,192,164689,128,0,164925:0:0:0:0:
64,192,164689,128,0,164807:0:0:0:0:
192,192,164807,128,0,164925:0:0:0:0:
64,192,164925,128,0,165043:0:0:0:0:
320,192,164925,128,0,165043:0:0:0:0:
192,192,165043,128,0,165161:0:0:0:0:
448,192,165043,128,0,165161:0:0:0:0:
64,192,165161,128,0,165398:0:0:0:0:
320,192,165161,128,0,165280:0:0:0:0:
192,192,165280,128,0,165516:0:0:0:0:
448,192,165280,128,0,165398:0:0:0:0:
320,192,165398,128,0,165634:0:0:0:0:
448,192,165516,128,0,165634:0:0:0:0:
64,192,165516,128,0,165634:0:0:0:0:
192,192,165634,128,0,166106:0:0:0:0:
320,192,166106,128,0,166579:0:0:0:0:
448,192,166579,1,0,0:0:0:0:
64,192,166579,1,0,0:0:0:0:
192,192,166815,128,0,166933:0:0:0:0:
320,192,167051,128,0,167405:0:0:0:0:
192,192,167524,128,0,167760:0:0:0:0:
320,192,167760,128,0,167996:0:0:0:0:
64,192,167996,128,0,168232:0:0:0:0:
448,192,168232,128,0,168468:0:0:0:0:
192,192,168468,128,0,168705:0:0:0:0:
64,192,168468,128,0,168705:0:0:0:0:
320,192,168823,128,0,169059:0:0:0:0:
448,192,168823,128,0,169059:0:0:0:0:
320,192,169177,128,0,169295:0:0:0:0:
192,192,169177,128,0,169295:0:0:0:0:
192,192,169413,128,0,169650:0:0:0:0:
64,192,169413,128,0,169650:0:0:0:0:
448,192,169768,128,0,170004:0:0:0:0:
64,192,169768,128,0,170004:0:0:0:0:
64,192,170122,128,0,170476:0:0:0:0:
192,192,170122,128,0,170476:0:0:0:0:
448,192,170122,128,0,170476:0:0:0:0:
192,192,170831,128,0,171067:0:0:0:0:
320,192,171067,128,0,171303:0:0:0:0:
64,192,171303,128,0,171539:0:0:0:0:
448,192,171539,128,0,171776:0:0:0:0:
192,192,171776,128,0,172012:0:0:0:0:
320,192,172012,128,0,172130:0:0:0:0:
448,192,172012,128,0,172130:0:0:0:0:
192,192,172248,128,0,172484:0:0:0:0:
64,192,172248,128,0,172484:0:0:0:0:
192,192,172602,128,0,172839:0:0:0:0:
320,192,172602,128,0,172839:0:0:0:0:
320,192,172957,128,0,173075:0:0:0:0:
448,192,172957,128,0,173075:0:0:0:0:
192,192,173193,128,0,173547:0:0:0:0:
64,192,173193,128,0,173547:0:0:0:0:
448,192,173193,128,0,173547:0:0:0:0:
192,192,173665,128,0,173902:0:0:0:0:
448,192,173665,128,0,173902:0:0:0:0:
320,192,173902,128,0,174020:0:0:0:0:
64,192,173902,128,0,174020:0:0:0:0:
64,192,174138,128,0,174492:0:0:0:0:
320,192,174138,128,0,174256:0:0:0:0:
448,192,174138,128,0,174492:0:0:0:0:
192,192,174138,1,0,0:0:0:0:
192,192,174256,128,0,174374:0:0:0:0:
320,192,174374,128,0,174610:0:0:0:0:
192,192,174492,128,0,174610:0:0:0:0:
448,192,174610,128,0,174728:0:0:0:0:
64,192,174610,128,0,174965:0:0:0:0:
320,192,174728,128,0,174846:0:0:0:0:
192,192,174846,128,0,175083:0:0:0:0:
448,192,174965,128,0,175083:0:0:0:0:
320,192,175083,128,0,175437:0:0:0:0:
64,192,175083,128,0,175201:0:0:0:0:
192,192,175201,128,0,175319:0:0:0:0:
448,192,175319,128,0,175555:0:0:0:0:
64,192,175437,128,0,175555:0:0:0:0:
192,192,175555,128,0,175673:0:0:0:0:
320,192,175555,128,0,175909:0:0:0:0:
448,192,175673,128,0,175791:0:0:0:0:
64,192,175791,128,0,176028:0:0:0:0:
192,192,175909,128,0,176028:0:0:0:0:
320,192,176028,128,0,176382:0:0:0:0:
448,192,176028,128,0,176146:0:0:0:0:
192,192,176146,128,0,176264:0:0:0:0:
64,192,176264,128,0,176500:0:0:0:0:
192,192,176382,128,0,176500:0:0:0:0:
320,192,176500,128,0,176618:0:0:0:0:
448,192,176500,128,0,176854:0:0:0:0:
64,192,176618,128,0,176736:0:0:0:0:
192,192,176736,128,0,176972:0:0:0:0:
64,192,176854,128,0,176972:0:0:0:0:
320,192,176972,128,0,177091:0:0:0:0:
448,192,176972,128,0,177327:0:0:0:0:
192,192,177091,128,0,177209:0:0:0:0:
64,192,177209,128,0,177445:0:0:0:0:
320,192,177327,128,0,177445:0:0:0:0:
192,192,177445,128,0,177799:0:0:0:0:
448,192,177445,128,0,177563:0:0:0:0:
64,192,177563,128,0,177681:0:0:0:0:
320,192,177681,128,0,177917:0:0:0:0:
448,192,177799,128,0,177917:0:0:0:0:
64,192,177917,1,0,0:0:0:0:
192,192,178035,1,0,0:0:0:0:
320,192,178035,1,0,0:0:0:0:
448,192,178154,1,0,0:0:0:0:
320,192,178272,1,0,0:0:0:0:
192,192,178272,1,0,0:0:0:0:
64,192,178390,1,0,0:0:0:0:
448,192,178390,1,0,0:0:0:0:
192,192,178508,1,0,0:0:0:0:
448,192,178626,1,0,0:0:0:0:
320,192,178744,1,0,0:0:0:0:
192,192,178862,1,0,0:0:0:0:
64,192,178862,1,0,0:0:0:0:
320,192,178980,1,0,0:0:0:0:
192,192,179098,1,0,0:0:0:0:
64,192,179217,1,0,0:0:0:0:
448,192,179335,1,0,0:0:0:0:
320,192,179335,1,0,0:0:0:0:
192,192,179453,1,0,0:0:0:0:
64,192,179571,1,0,0:0:0:0:
448,192,179571,1,0,0:0:0:0:
320,192,179689,1,0,0:0:0:0:
64,192,179807,1,0,0:0:0:0:
192,192,179866,1,0,0:0:0:0:
448,192,179925,1,0,0:0:0:0:
320,192,179984,1,0,0:0:0:0:
64,192,180043,1,0,0:0:0:0:
192,192,180102,1,0,0:0:0:0:
448,192,180161,1,0,0:0:0:0:
320,192,180220,1,0,0:0:0:0:
64,192,180280,1,0,0:0:0:0:
192,192,180339,1,0,0:0:0:0:
448,192,180398,1,0,0:0:0:0:
320,192,180457,1,0,0:0:0:0:
64,192,180516,1,0,0:0:0:0:
192,192,180575,1,0,0:0:0:0:
448,192,180634,1,0,0:0:0:0:
320,192,180693,1,0,0:0:0:0:
64,192,180752,1,0,0:0:0:0:
192,192,180811,1,0,0:0:0:0:
448,192,180870,1,0,0:0:0:0:
320,192,180929,1,0,0:0:0:0:
192,192,180988,1,0,0:0:0:0:
64,192,181047,1,0,0:0:0:0:
448,192,181106,1,0,0:0:0:0:
320,192,181165,1,0,0:0:0:0:
192,192,181224,1,0,0:0:0:0:
64,192,181224,1,0,0:0:0:0:
448,192,181224,1,0,0:0:0:0:
448,192,181342,1,0,0:0:0:0:
192,192,181342,1,0,0:0:0:0:
64,192,181342,1,0,0:0:0:0:
64,192,181461,1,0,0:0:0:0:
192,192,181461,1,0,0:0:0:0:
448,192,181461,1,0,0:0:0:0:
320,192,181579,1,0,0:0:0:0:
64,192,181697,128,0,182878:0:0:0:0:
192,192,181697,128,0,182878:0:0:0:0:
448,192,181697,128,0,182878:0:0:0:0:
448,192,183587,128,0,183941:0:0:0:0:
192,192,183587,1,0,0:0:0:0:
320,192,183587,1,0,0:0:0:0:
64,192,183705,128,0,183823:0:0:0:0:
320,192,183823,128,0,183941:0:0:0:0:
64,192,183941,128,0,184059:0:0:0:0:
448,192,184059,128,0,184413:0:0:0:0:
192,192,184059,128,0,184177:0:0:0:0:
320,192,184177,128,0,184413:0:0:0:0:
64,192,184177,128,0,184295:0:0:0:0:
192,192,184295,128,0,184531:0:0:0:0:
64,192,184413,128,0,184531:0:0:0:0:
320,192,184531,128,0,184768:0:0:0:0:
448,192,184531,128,0,184650:0:0:0:0:
192,192,184650,128,0,184886:0:0:0:0:
64,192,184768,128,0,184886:0:0:0:0:
448,192,184768,128,0,184886:0:0:0:0:
320,192,184886,128,0,185004:0:0:0:0:
64,192,185004,128,0,185122:0:0:0:0:
448,192,185004,128,0,185063:0:0:0:0:
192,192,185063,128,0,185181:0:0:0:0:
448,192,185122,128,0,185240:0:0:0:0:
320,192,185181,128,0,185299:0:0:0:0:
64,192,185240,128,0,185358:0:0:0:0:
192,192,185299,128,0,185417:0:0:0:0:
448,192,185358,128,0,185476:0:0:0:0:
320,192,185417,128,0,185535:0:0:0:0:
64,192,185476,128,0,185594:0:0:0:0:
192,192,185476,128,0,185713:0:0:0:0:
320,192,185594,128,0,185831:0:0:0:0:
448,192,185713,128,0,185831:0:0:0:0:
64,192,185831,128,0,185890:0:0:0:0:
448,192,185949,128,0,186421:0:0:0:0:
64,192,185949,128,0,186067:0:0:0:0:
192,192,186008,128,0,186126:0:0:0:0:
320,192,186067,128,0,186185:0:0:0:0:
64,192,186126,128,0,186244:0:0:0:0:
192,192,186185,128,0,186421:0:0:0:0:
320,192,186421,128,0,186657:0:0:0:0:
448,192,186539,128,0,186657:0:0:0:0:
192,192,186539,128,0,186598:0:0:0:0:
192,192,186657,128,0,186894:0:0:0:0:
64,192,186657,128,0,186776:0:0:0:0:
320,192,186776,128,0,187012:0:0:0:0:
448,192,186894,128,0,187012:0:0:0:0:
64,192,186894,128,0,187130:0:0:0:0:
192,192,187012,128,0,187248:0:0:0:0:
448,192,187130,128,0,187248:0:0:0:0:
320,192,187130,128,0,187248:0:0:0:0:
64,192,187248,128,0,187307:0:0:0:0:
320,192,187366,128,0,187484:0:0:0:0:
192,192,187366,128,0,187602:0:0:0:0:
448,192,187366,128,0,188547:0:0:0:0:
64,192,187484,128,0,187720:0:0:0:0:
320,192,187602,128,0,187720:0:0:0:0:
192,192,187720,128,0,187839:0:0:0:0:
320,192,187839,128,0,188075:0:0:0:0:
64,192,187839,128,0,187957:0:0:0:0:
192,192,187957,128,0,188193:0:0:0:0:
64,192,188075,128,0,188311:0:0:0:0:
320,192,188193,128,0,188429:0:0:0:0:
192,192,188311,128,0,188665:0:0:0:0:
64,192,188429,128,0,188547:0:0:0:0:
320,192,188547,128,0,188665:0:0:0:0:
448,192,188665,128,0,188783:0:0:0:0:
64,192,188783,128,0,188902:0:0:0:0:
192,192,188783,128,0,188902:0:0:0:0:
320,192,188842,128,0,188961:0:0:0:0:
448,192,188902,128,0,189020:0:0:0:0:
64,192,188961,128,0,189079:0:0:0:0:
192,192,189020,128,0,189138:0:0:0:0:
448,192,189079,128,0,189197:0:0:0:0:
320,192,189138,128,0,189256:0:0:0:0:
192,192,189197,128,0,189315:0:0:0:0:
64,192,189256,128,0,189374:0:0:0:0:
448,192,189256,128,0,189610:0:0:0:0:
320,192,189492,128,0,189610:0:0:0:0:
192,192,189551,128,0,189669:0:0:0:0:
64,192,189610,128,0,189728:0:0:0:0:
320,192,189728,128,0,189846:0:0:0:0:
448,192,189728,128,0,189846:0:0:0:0:
64,192,189846,128,0,189965:0:0:0:0:
320,192,189965,128,0,190083:0:0:0:0:
448,192,189965,128,0,190083:0:0:0:0:
192,192,190024,128,0,190142:0:0:0:0:
64,192,190083,128,0,190201:0:0:0:0:
448,192,190142,128,0,190260:0:0:0:0:
320,192,190201,128,0,190437:0:0:0:0:
192,192,190201,128,0,190319:0:0:0:0:
192,192,190437,128,0,190614:0:0:0:0:
64,192,190437,128,0,190673:0:0:0:0:
320,192,190555,128,0,190614:0:0:0:0:
320,192,190673,128,0,190850:0:0:0:0:
448,192,190673,128,0,190850:0:0:0:0:
64,192,190791,128,0,190909:0:0:0:0:
192,192,190791,128,0,190850:0:0:0:0:
320,192,190909,128,0,191087:0:0:0:0:
448,192,190909,128,0,191087:0:0:0:0:
192,192,191028,128,0,191087:0:0:0:0:
320,192,191146,128,0,191264:0:0:0:0:
448,192,191146,128,0,191264:0:0:0:0:
64,192,191146,128,0,191205:0:0:0:0:
192,192,191264,128,0,191618:0:0:0:0:
64,192,191264,128,0,191382:0:0:0:0:
320,192,191382,128,0,191500:0:0:0:0:
448,192,191382,128,0,191500:0:0:0:0:
64,192,191500,128,0,191618:0:0:0:0:
320,192,191618,128,0,191736:0:0:0:0:
448,192,191618,128,0,191972:0:0:0:0:
192,192,191736,128,0,191854:0:0:0:0:
64,192,191854,128,0,191972:0:0:0:0:
320,192,191854,128,0,192091:0:0:0:0:
192,192,191972,128,0,192209:0:0:0:0:
64,192,192091,128,0,192209:0:0:0:0:
448,192,192091,128,0,192327:0:0:0:0:
320,192,192209,128,0,192445:0:0:0:0:
192,192,192327,128,0,192445:0:0:0:0:
64,192,192327,128,0,192445:0:0:0:0:
448,192,192445,128,0,192563:0:0:0:0:
64,192,192563,128,0,192681:0:0:0:0:
192,192,192563,128,0,192681:0:0:0:0:
320,192,192622,128,0,192740:0:0:0:0:
448,192,192681,128,0,192799:0:0:0:0:
64,192,192740,128,0,192858:0:0:0:0:
192,192,192799,128,0,192917:0:0:0:0:
320,192,192858,128,0,192976:0:0:0:0:
448,192,192917,128,0,193035:0:0:0:0:
64,192,192976,128,0,193094:0:0:0:0:
192,192,193035,128,0,193272:0:0:0:0:
320,192,193154,128,0,193390:0:0:0:0:
448,192,193272,128,0,193449:0:0:0:0:
64,192,193390,128,0,193449:0:0:0:0:
448,192,193508,128,0,193980:0:0:0:0:
64,192,193508,128,0,193626:0:0:0:0:
192,192,193567,128,0,193685:0:0:0:0:
320,192,193626,128,0,193744:0:0:0:0:
64,192,193685,128,0,193803:0:0:0:0:
192,192,193744,128,0,193980:0:0:0:0:
320,192,193980,128,0,194217:0:0:0:0:
448,192,194098,128,0,194217:0:0:0:0:
192,192,194098,128,0,194157:0:0:0:0:
192,192,194217,128,0,194453:0:0:0:0:
64,192,194217,128,0,194335:0:0:0:0:
320,192,194335,128,0,194571:0:0:0:0:
448,192,194453,128,0,194571:0:0:0:0:
64,192,194453,128,0,194689:0:0:0:0:
192,192,194571,128,0,194807:0:0:0:0:
448,192,194689,128,0,194807:0:0:0:0:
320,192,194689,128,0,194807:0:0:0:0:
64,192,194807,128,0,194866:0:0:0:0:
320,192,194925,128,0,195043:0:0:0:0:
192,192,194925,128,0,195161:0:0:0:0:
448,192,194925,128,0,196106:0:0:0:0:
64,192,195043,128,0,195280:0:0:0:0:
320,192,195161,128,0,195280:0:0:0:0:
192,192,195280,128,0,195398:0:0:0:0:
320,192,195398,128,0,195634:0:0:0:0:
64,192,195398,128,0,195516:0:0:0:0:
192,192,195516,128,0,195752:0:0:0:0:
64,192,195634,128,0,195870:0:0:0:0:
320,192,195752,128,0,195988:0:0:0:0:
192,192,195870,128,0,196224:0:0:0:0:
64,192,195988,128,0,196106:0:0:0:0:
320,192,196106,128,0,196224:0:0:0:0:
448,192,196224,128,0,196342:0:0:0:0:
64,192,196342,128,0,196461:0:0:0:0:
192,192,196342,128,0,196461:0:0:0:0:
320,192,196402,128,0,196520:0:0:0:0:
448,192,196461,128,0,196579:0:0:0:0:
64,192,196520,128,0,196638:0:0:0:0:
192,192,196579,128,0,196697:0:0:0:0:
448,192,196638,128,0,196756:0:0:0:0:
320,192,196697,128,0,196815:0:0:0:0:
192,192,196756,128,0,196874:0:0:0:0:
64,192,196815,128,0,196933:0:0:0:0:
448,192,196815,128,0,197169:0:0:0:0:
320,192,197051,128,0,197169:0:0:0:0:
192,192,197110,128,0,197228:0:0:0:0:
64,192,197169,128,0,197287:0:0:0:0:
320,192,197287,128,0,197405:0:0:0:0:
448,192,197287,128,0,197405:0:0:0:0:
64,192,197405,128,0,197524:0:0:0:0:
320,192,197524,128,0,197642:0:0:0:0:
448,192,197524,128,0,197642:0:0:0:0:
192,192,197583,128,0,197701:0:0:0:0:
64,192,197642,128,0,197760:0:0:0:0:
448,192,197701,128,0,197819:0:0:0:0:
320,192,197760,128,0,197996:0:0:0:0:
192,192,197760,128,0,197878:0:0:0:0:
448,192,198232,128,0,198587:0:0:0:0:
192,192,198705,128,0,198941:0:0:0:0:
64,192,198705,128,0,198823:0:0:0:0:
448,192,198705,128,0,199059:0:0:0:0:
320,192,198823,128,0,199059:0:0:0:0:
64,192,198941,128,0,199177:0:0:0:0:
192,192,199059,128,0,199295:0:0:0:0:
320,192,199177,128,0,199295:0:0:0:0:
448,192,199177,128,0,199413:0:0:0:0:
64,192,199295,128,0,199531:0:0:0:0:
192,192,199413,128,0,199531:0:0:0:0:
320,192,199413,128,0,199650:0:0:0:0:
448,192,199531,128,0,199768:0:0:0:0:
64,192,199650,128,0,200122:0:0:0:0:
192,192,199650,128,0,199886:0:0:0:0:
448,192,199886,128,0,200004:0:0:0:0:
320,192,199886,128,0,200004:0:0:0:0:
192,192,200004,128,0,200240:0:0:0:0:
448,192,200122,128,0,200358:0:0:0:0:
320,192,200122,128,0,200240:0:0:0:0:
64,192,200240,128,0,200476:0:0:0:0:
320,192,200358,128,0,200594:0:0:0:0:
192,192,200476,128,0,200713:0:0:0:0:
64,192,200594,128,0,201067:0:0:0:0:
448,192,200594,128,0,200713:0:0:0:0:
320,192,200713,128,0,200831:0:0:0:0:
448,192,200831,128,0,200949:0:0:0:0:
192,192,200831,128,0,201067:0:0:0:0:
320,192,200949,128,0,201185:0:0:0:0:
448,192,201067,128,0,201421:0:0:0:0:
64,192,201185,128,0,201421:0:0:0:0:
192,192,201185,128,0,201421:0:0:0:0:
320,192,201303,128,0,201421:0:0:0:0:
320,192,201539,128,0,201894:0:0:0:0:
64,192,201539,128,0,201657:0:0:0:0:
448,192,201539,128,0,201894:0:0:0:0:
192,192,201657,128,0,201776:0:0:0:0:
64,192,201776,128,0,201894:0:0:0:0:
192,192,201894,128,0,202130:0:0:0:0:
64,192,202012,128,0,202130:0:0:0:0:
448,192,202071,128,0,202189:0:0:0:0:
320,192,202130,128,0,202248:0:0:0:0:
64,192,202189,128,0,202307:0:0:0:0:
192,192,202248,128,0,202366:0:0:0:0:
448,192,202307,128,0,202425:0:0:0:0:
320,192,202366,128,0,202484:0:0:0:0:
192,192,202425,128,0,202543:0:0:0:0:
64,192,202484,128,0,202720:0:0:0:0:
448,192,202602,128,0,202839:0:0:0:0:
192,192,202720,128,0,202839:0:0:0:0:
320,192,202839,128,0,202957:0:0:0:0:
64,192,202839,128,0,203075:0:0:0:0:
192,192,202957,128,0,203075:0:0:0:0:
448,192,202957,128,0,203311:0:0:0:0:
64,192,203193,128,0,203311:0:0:0:0:
192,192,203193,128,0,203547:0:0:0:0:
320,192,203429,128,0,203547:0:0:0:0:
448,192,203429,128,0,203783:0:0:0:0:
64,192,203547,128,0,203665:0:0:0:0:
192,192,203665,128,0,203783:0:0:0:0:
320,192,203665,128,0,203783:0:0:0:0:
64,192,203783,128,0,203902:0:0:0:0:
192,192,203902,128,0,204020:0:0:0:0:
320,192,203902,128,0,204138:0:0:0:0:
448,192,204020,128,0,204256:0:0:0:0:
64,192,204138,128,0,204256:0:0:0:0:
192,192,204138,128,0,204256:0:0:0:0:
64,192,204374,128,0,204492:0:0:0:0:
192,192,204374,128,0,204610:0:0:0:0:
448,192,204374,128,0,204846:0:0:0:0:
320,192,204492,128,0,204728:0:0:0:0:
64,192,204610,128,0,204728:0:0:0:0:
192,192,204728,128,0,204846:0:0:0:0:
64,192,204846,128,0,204965:0:0:0:0:
320,192,204846,128,0,205083:0:0:0:0:
448,192,204965,128,0,205083:0:0:0:0:
192,192,204965,128,0,205201:0:0:0:0:
64,192,205083,128,0,205319:0:0:0:0:
448,192,205201,128,0,205319:0:0:0:0:
320,192,205319,128,0,205673:0:0:0:0:
192,192,205319,128,0,205437:0:0:0:0:
64,192,205437,128,0,205673:0:0:0:0:
448,192,205437,128,0,205673:0:0:0:0:
192,192,205555,128,0,205673:0:0:0:0:
320,192,205791,128,0,205909:0:0:0:0:
448,192,205791,128,0,205909:0:0:0:0:
192,192,205850,128,0,205968:0:0:0:0:
64,192,205909,128,0,206028:0:0:0:0:
448,192,205968,128,0,206087:0:0:0:0:
320,192,206028,128,0,206146:0:0:0:0:
192,192,206087,128,0,206205:0:0:0:0:
64,192,206146,128,0,206264:0:0:0:0:
448,192,206205,128,0,206323:0:0:0:0:
320,192,206264,128,0,206500:0:0:0:0:
192,192,206264,128,0,206382:0:0:0:0:
64,192,206382,128,0,206500:0:0:0:0:
448,192,206500,128,0,206618:0:0:0:0:
192,192,206500,128,0,206618:0:0:0:0:
320,192,206618,128,0,206736:0:0:0:0:
448,192,206736,128,0,207091:0:0:0:0:
64,192,206736,128,0,206854:0:0:0:0:
320,192,206972,128,0,207327:0:0:0:0:
192,192,206972,128,0,207091:0:0:0:0:
448,192,207209,128,0,207563:0:0:0:0:
64,192,207209,128,0,207327:0:0:0:0:
192,192,207327,128,0,207445:0:0:0:0:
64,192,207445,128,0,207563:0:0:0:0:
320,192,207445,128,0,207563:0:0:0:0:
192,192,207563,128,0,207681:0:0:0:0:
64,192,207681,128,0,208154:0:0:0:0:
448,192,207681,128,0,207917:0:0:0:0:
192,192,207799,128,0,208035:0:0:0:0:
320,192,207799,128,0,207917:0:0:0:0:
320,192,208035,128,0,208154:0:0:0:0:
448,192,208154,128,0,208980:0:0:0:0:
192,192,208154,128,0,208390:0:0:0:0:
320,192,208272,128,0,208508:0:0:0:0:
64,192,208390,128,0,208626:0:0:0:0:
192,192,208508,128,0,208626:0:0:0:0:
320,192,208626,128,0,208744:0:0:0:0:
64,192,208744,128,0,208862:0:0:0:0:
192,192,208744,128,0,208980:0:0:0:0:
320,192,208862,128,0,209098:0:0:0:0:
64,192,208980,128,0,209098:0:0:0:0:
192,192,209098,128,0,209571:0:0:0:0:
448,192,209098,128,0,209335:0:0:0:0:
320,192,209217,128,0,209335:0:0:0:0:
64,192,209335,128,0,209571:0:0:0:0:
320,192,209453,128,0,209571:0:0:0:0:
448,192,209571,128,0,209689:0:0:0:0:
320,192,209630,128,0,209748:0:0:0:0:
64,192,209689,128,0,209807:0:0:0:0:
192,192,209748,128,0,209866:0:0:0:0:
448,192,209807,128,0,209925:0:0:0:0:
320,192,209866,128,0,209984:0:0:0:0:
64,192,209925,128,0,210043:0:0:0:0:
192,192,209984,128,0,210102:0:0:0:0:
448,192,210043,128,0,210870:0:0:0:0:
320,192,210043,128,0,210280:0:0:0:0:
64,192,210161,128,0,210398:0:0:0:0:
192,192,210280,128,0,210398:0:0:0:0:
320,192,210398,128,0,210634:0:0:0:0:
192,192,210516,128,0,210634:0:0:0:0:
64,192,210516,128,0,210634:0:0:0:0:
320,192,210752,128,0,210870:0:0:0:0:
192,192,210752,128,0,210870:0:0:0:0:
64,192,210752,128,0,210988:0:0:0:0:
320,192,210988,128,0,211106:0:0:0:0:
448,192,210988,128,0,211224:0:0:0:0:
192,192,210988,128,0,211815:0:0:0:0:
64,192,211224,128,0,211461:0:0:0:0:
320,192,211342,128,0,211579:0:0:0:0:
448,192,211461,128,0,211697:0:0:0:0:
64,192,211579,128,0,211697:0:0:0:0:
320,192,211697,128,0,211933:0:0:0:0:
448,192,211815,128,0,211933:0:0:0:0:
64,192,211933,128,0,212878:0:0:0:0:
192,192,211933,128,0,212169:0:0:0:0:
320,192,212051,128,0,212287:0:0:0:0:
448,192,212169,128,0,212405:0:0:0:0:
192,192,212287,128,0,212524:0:0:0:0:
320,192,212405,128,0,212524:0:0:0:0:
448,192,212524,128,0,212760:0:0:0:0:
320,192,212642,128,0,212760:0:0:0:0:
192,192,212760,128,0,212996:0:0:0:0:
320,192,212878,128,0,212996:0:0:0:0:
448,192,212878,128,0,213114:0:0:0:0:
64,192,212996,128,0,213232:0:0:0:0:
192,192,213114,128,0,213232:0:0:0:0:
320,192,213114,128,0,213232:0:0:0:0:
448,192,213232,1,0,0:0:0:0:
320,192,213350,1,0,0:0:0:0:
192,192,213350,1,0,0:0:0:0:
192,192,213468,1,0,0:0:0:0:
320,192,213468,1,0,0:0:0:0:
64,192,213587,128,0,213705:0:0:0:0:
448,192,213587,128,0,213705:0:0:0:0:
448,192,213823,1,0,0:0:0:0:
320,192,213823,1,0,0:0:0:0:
64,192,213823,1,0,0:0:0:0:
192,192,213823,1,0,0:0:0:0:
