osu file format v14

[General]
AudioFilename: lilac.mp3
AudioLeadIn: 0
PreviewTime: 58593
Countdown: 0
SampleSet: Normal
StackLeniency: 0.7
Mode: 3
LetterboxInBreaks: 0
SpecialStyle: 0
WidescreenStoryboard: 1

[Editor]
DistanceSpacing: 1
BeatDivisor: 8
GridSize: 32
TimelineZoom: 2.799999

[Metadata]
Title:Damned's LN KPOP Pack #1
TitleUnicode:Damned's LN KPOP Pack #1
Artist:Various Artists
ArtistUnicode:Various Artists
Creator:Damned
Version:Stage 3 IU - LILAC (4K Ver.)
Source:
Tags:
BeatmapID:3290595
BeatmapSetID:1587521

[Difficulty]
HPDrainRate:8
CircleSize:4
OverallDifficulty:2
ApproachRate:5
SliderMultiplier:1.4
SliderTickRate:1

[Events]
//Background and Video events
0,0,"iul.jpg",0,0
//Break Periods
//Storyboard Layer 0 (Background)
//Storyboard Layer 1 (Fail)
//Storyboard Layer 2 (Pass)
//Storyboard Layer 3 (Foreground)
//Storyboard Layer 4 (Overlay)
//Storyboard Sound Samples

[TimingPoints]
680,521.739130434783,4,1,0,0,1,0

[HitObjects]
192,192,680,5,0,0:0:0:0:
448,192,810,1,0,0:0:0:0:
64,192,940,1,0,0:0:0:0:
320,192,1071,1,0,0:0:0:0:
192,192,1332,1,0,0:0:0:0:
320,192,1462,1,0,0:0:0:0:
448,192,1462,1,0,0:0:0:0:
64,192,1593,1,0,0:0:0:0:
192,192,1723,1,0,0:0:0:0:
320,192,1723,1,0,0:0:0:0:
448,192,1853,1,0,0:0:0:0:
64,192,1984,1,0,0:0:0:0:
320,192,2245,1,0,0:0:0:0:
448,192,2245,1,0,0:0:0:0:
448,192,2375,1,0,0:0:0:0:
320,192,2375,1,0,0:0:0:0:
192,192,2506,1,0,0:0:0:0:
448,192,2636,1,0,0:0:0:0:
320,192,2766,1,0,0:0:0:0:
64,192,2897,128,0,3158:0:0:0:0:
448,192,3027,1,0,0:0:0:0:
320,192,3158,128,0,3419:0:0:0:0:
64,192,3288,128,0,3680:0:0:0:0:
192,192,3419,1,0,0:0:0:0:
320,192,3549,128,0,3680:0:0:0:0:
448,192,3680,1,0,0:0:0:0:
192,192,3810,128,0,3940:0:0:0:0:
448,192,3940,1,0,0:0:0:0:
320,192,4136,1,0,0:0:0:0:
448,192,4266,1,0,0:0:0:0:
192,192,4332,128,0,4462:0:0:0:0:
64,192,4332,1,0,0:0:0:0:
320,192,4462,128,0,4593:0:0:0:0:
448,192,4593,128,0,4723:0:0:0:0:
64,192,4593,128,0,4853:0:0:0:0:
448,192,4853,128,0,5375:0:0:0:0:
192,192,4853,128,0,4984:0:0:0:0:
320,192,4984,128,0,5114:0:0:0:0:
64,192,5114,128,0,5245:0:0:0:0:
192,192,5245,128,0,5375:0:0:0:0:
320,192,5375,1,0,0:0:0:0:
64,192,5375,1,0,0:0:0:0:
448,192,5506,1,0,0:0:0:0:
192,192,5636,1,0,0:0:0:0:
320,192,5766,1,0,0:0:0:0:
64,192,5897,1,0,0:0:0:0:
448,192,6027,1,0,0:0:0:0:
192,192,6158,1,0,0:0:0:0:
64,192,6419,1,0,0:0:0:0:
64,192,6549,1,0,0:0:0:0:
192,192,6680,1,0,0:0:0:0:
320,192,6810,1,0,0:0:0:0:
448,192,6940,128,0,7723:0:0:0:0:
64,192,6940,128,0,7853:0:0:0:0:
192,192,6940,1,0,0:0:0:0:
192,192,7201,1,0,0:0:0:0:
320,192,7332,1,0,0:0:0:0:
192,192,7462,1,0,0:0:0:0:
320,192,7723,1,0,0:0:0:0:
320,192,7897,128,0,8071:0:0:0:0:
448,192,8027,128,0,8201:0:0:0:0:
192,192,8158,128,0,8332:0:0:0:0:
320,192,8245,128,0,8419:0:0:0:0:
64,192,8245,128,0,8419:0:0:0:0:
448,192,8375,128,0,8636:0:0:0:0:
192,192,8506,128,0,8636:0:0:0:0:
320,192,8506,128,0,8636:0:0:0:0:
64,192,8506,128,0,8897:0:0:0:0:
320,192,8766,128,0,8897:0:0:0:0:
448,192,8766,128,0,8897:0:0:0:0:
192,192,9027,128,0,9288:0:0:0:0:
320,192,9027,128,0,9158:0:0:0:0:
448,192,9027,1,0,0:0:0:0:
448,192,9158,128,0,9419:0:0:0:0:
64,192,9288,128,0,9419:0:0:0:0:
320,192,9288,128,0,9419:0:0:0:0:
192,192,9549,1,0,0:0:0:0:
64,192,9549,1,0,0:0:0:0:
320,192,9549,1,0,0:0:0:0:
448,192,9680,1,0,0:0:0:0:
64,192,9810,1,0,0:0:0:0:
320,192,9810,1,0,0:0:0:0:
192,192,9940,1,0,0:0:0:0:
64,192,10071,1,0,0:0:0:0:
448,192,10071,1,0,0:0:0:0:
320,192,10071,1,0,0:0:0:0:
192,192,10201,1,0,0:0:0:0:
64,192,10332,1,0,0:0:0:0:
448,192,10462,1,0,0:0:0:0:
320,192,10593,1,0,0:0:0:0:
192,192,10593,1,0,0:0:0:0:
64,192,10593,1,0,0:0:0:0:
448,192,10723,1,0,0:0:0:0:
192,192,10853,1,0,0:0:0:0:
320,192,10984,1,0,0:0:0:0:
448,192,11114,1,0,0:0:0:0:
64,192,11114,128,0,11245:0:0:0:0:
320,192,11245,128,0,11375:0:0:0:0:
192,192,11375,1,0,0:0:0:0:
64,192,11506,128,0,11636:0:0:0:0:
448,192,11636,128,0,11766:0:0:0:0:
320,192,11636,1,0,0:0:0:0:
320,192,11897,128,0,12027:0:0:0:0:
448,192,11897,128,0,12027:0:0:0:0:
64,192,11897,128,0,12158:0:0:0:0:
192,192,12027,128,0,12288:0:0:0:0:
448,192,12158,128,0,12288:0:0:0:0:
320,192,12158,128,0,12288:0:0:0:0:
64,192,12288,128,0,12419:0:0:0:0:
448,192,12419,128,0,12680:0:0:0:0:
320,192,12419,128,0,12680:0:0:0:0:
192,192,12419,128,0,12549:0:0:0:0:
64,192,12549,1,0,0:0:0:0:
192,192,12680,128,0,12810:0:0:0:0:
64,192,12680,128,0,12810:0:0:0:0:
448,192,12810,128,0,12940:0:0:0:0:
320,192,12810,128,0,13071:0:0:0:0:
64,192,12940,128,0,13071:0:0:0:0:
448,192,13071,1,0,0:0:0:0:
320,192,13201,128,0,13332:0:0:0:0:
448,192,13201,128,0,13332:0:0:0:0:
64,192,13201,128,0,13723:0:0:0:0:
192,192,13332,1,0,0:0:0:0:
448,192,13462,1,0,0:0:0:0:
320,192,13593,128,0,13723:0:0:0:0:
192,192,13593,128,0,13723:0:0:0:0:
448,192,13723,1,0,0:0:0:0:
64,192,13984,1,0,0:0:0:0:
320,192,13984,1,0,0:0:0:0:
192,192,14114,1,0,0:0:0:0:
448,192,14114,1,0,0:0:0:0:
320,192,14245,1,0,0:0:0:0:
64,192,14245,1,0,0:0:0:0:
448,192,14375,1,0,0:0:0:0:
320,192,14506,1,0,0:0:0:0:
192,192,14636,1,0,0:0:0:0:
64,192,14766,1,0,0:0:0:0:
320,192,14766,1,0,0:0:0:0:
448,192,14766,128,0,15027:0:0:0:0:
192,192,14940,128,0,15201:0:0:0:0:
64,192,15027,1,0,0:0:0:0:
448,192,15158,1,0,0:0:0:0:
64,192,15201,128,0,15462:0:0:0:0:
320,192,15288,1,0,0:0:0:0:
192,192,15419,1,0,0:0:0:0:
448,192,15549,1,0,0:0:0:0:
320,192,15680,1,0,0:0:0:0:
64,192,15810,1,0,0:0:0:0:
192,192,15810,1,0,0:0:0:0:
448,192,15810,1,0,0:0:0:0:
64,192,16071,1,0,0:0:0:0:
192,192,16071,128,0,16332:0:0:0:0:
320,192,16201,1,0,0:0:0:0:
448,192,16332,1,0,0:0:0:0:
64,192,16332,128,0,16462:0:0:0:0:
320,192,16397,128,0,16527:0:0:0:0:
448,192,16462,128,0,16593:0:0:0:0:
64,192,16527,128,0,16658:0:0:0:0:
192,192,16593,128,0,16853:0:0:0:0:
320,192,16723,1,0,0:0:0:0:
448,192,16853,1,0,0:0:0:0:
64,192,16853,1,0,0:0:0:0:
320,192,16984,1,0,0:0:0:0:
64,192,17114,128,0,17375:0:0:0:0:
192,192,17114,1,0,0:0:0:0:
448,192,17114,1,0,0:0:0:0:
320,192,17245,1,0,0:0:0:0:
192,192,17375,1,0,0:0:0:0:
448,192,17375,128,0,17766:0:0:0:0:
192,192,17506,1,0,0:0:0:0:
64,192,17636,1,0,0:0:0:0:
192,192,17766,1,0,0:0:0:0:
64,192,17766,128,0,18158:0:0:0:0:
320,192,17897,1,0,0:0:0:0:
448,192,17897,1,0,0:0:0:0:
448,192,18158,1,0,0:0:0:0:
320,192,18158,1,0,0:0:0:0:
192,192,18288,1,0,0:0:0:0:
64,192,18288,1,0,0:0:0:0:
448,192,18419,1,0,0:0:0:0:
320,192,18419,1,0,0:0:0:0:
192,192,18549,1,0,0:0:0:0:
448,192,18549,1,0,0:0:0:0:
320,192,18680,1,0,0:0:0:0:
448,192,18810,1,0,0:0:0:0:
64,192,18810,128,0,19201:0:0:0:0:
192,192,18940,1,0,0:0:0:0:
320,192,18940,1,0,0:0:0:0:
448,192,19201,1,0,0:0:0:0:
320,192,19201,1,0,0:0:0:0:
192,192,19332,1,0,0:0:0:0:
64,192,19462,128,0,19723:0:0:0:0:
448,192,19462,1,0,0:0:0:0:
320,192,19593,1,0,0:0:0:0:
192,192,19723,1,0,0:0:0:0:
448,192,19853,128,0,20114:0:0:0:0:
320,192,19984,1,0,0:0:0:0:
64,192,19984,1,0,0:0:0:0:
192,192,20245,1,0,0:0:0:0:
320,192,20245,128,0,20506:0:0:0:0:
64,192,20375,1,0,0:0:0:0:
448,192,20506,128,0,20766:0:0:0:0:
192,192,20636,1,0,0:0:0:0:
64,192,20766,1,0,0:0:0:0:
192,192,20897,1,0,0:0:0:0:
448,192,20897,1,0,0:0:0:0:
320,192,21027,1,0,0:0:0:0:
64,192,21027,1,0,0:0:0:0:
448,192,21158,1,0,0:0:0:0:
192,192,21288,1,0,0:0:0:0:
320,192,21419,1,0,0:0:0:0:
448,192,21549,128,0,21940:0:0:0:0:
64,192,21549,1,0,0:0:0:0:
192,192,21549,1,0,0:0:0:0:
64,192,21680,1,0,0:0:0:0:
320,192,21810,128,0,22332:0:0:0:0:
192,192,21810,128,0,22332:0:0:0:0:
64,192,21940,1,0,0:0:0:0:
448,192,22071,1,0,0:0:0:0:
64,192,22201,1,0,0:0:0:0:
448,192,22332,1,0,0:0:0:0:
320,192,22462,1,0,0:0:0:0:
192,192,22593,1,0,0:0:0:0:
64,192,22593,1,0,0:0:0:0:
448,192,22723,1,0,0:0:0:0:
64,192,22723,1,0,0:0:0:0:
320,192,22853,1,0,0:0:0:0:
192,192,22853,1,0,0:0:0:0:
448,192,22984,128,0,23375:0:0:0:0:
64,192,22984,1,0,0:0:0:0:
320,192,23114,1,0,0:0:0:0:
192,192,23114,1,0,0:0:0:0:
192,192,23375,1,0,0:0:0:0:
64,192,23375,1,0,0:0:0:0:
320,192,23506,1,0,0:0:0:0:
448,192,23636,128,0,23897:0:0:0:0:
64,192,23636,1,0,0:0:0:0:
192,192,23636,1,0,0:0:0:0:
320,192,23766,1,0,0:0:0:0:
192,192,23897,1,0,0:0:0:0:
448,192,24027,128,0,24288:0:0:0:0:
64,192,24027,1,0,0:0:0:0:
320,192,24158,1,0,0:0:0:0:
192,192,24158,1,0,0:0:0:0:
64,192,24419,128,0,25593:0:0:0:0:
320,192,24419,1,0,0:0:0:0:
192,192,24419,1,0,0:0:0:0:
448,192,24680,1,0,0:0:0:0:
320,192,24680,1,0,0:0:0:0:
320,192,24810,1,0,0:0:0:0:
448,192,24810,1,0,0:0:0:0:
192,192,25071,1,0,0:0:0:0:
320,192,25071,1,0,0:0:0:0:
320,192,25201,1,0,0:0:0:0:
192,192,25201,1,0,0:0:0:0:
192,192,25332,1,0,0:0:0:0:
320,192,25332,1,0,0:0:0:0:
448,192,25462,1,0,0:0:0:0:
320,192,25462,1,0,0:0:0:0:
320,192,25593,1,0,0:0:0:0:
192,192,25593,1,0,0:0:0:0:
448,192,25723,1,0,0:0:0:0:
64,192,25723,1,0,0:0:0:0:
192,192,25723,128,0,26245:0:0:0:0:
320,192,25853,1,0,0:0:0:0:
448,192,25984,1,0,0:0:0:0:
64,192,25984,1,0,0:0:0:0:
320,192,26114,1,0,0:0:0:0:
64,192,26245,1,0,0:0:0:0:
448,192,26245,128,0,26766:0:0:0:0:
320,192,26375,1,0,0:0:0:0:
192,192,26506,1,0,0:0:0:0:
64,192,26506,1,0,0:0:0:0:
320,192,26636,1,0,0:0:0:0:
64,192,26766,128,0,27288:0:0:0:0:
192,192,26766,1,0,0:0:0:0:
320,192,26897,1,0,0:0:0:0:
448,192,27027,1,0,0:0:0:0:
192,192,27158,1,0,0:0:0:0:
320,192,27288,128,0,27549:0:0:0:0:
448,192,27288,1,0,0:0:0:0:
192,192,27419,1,0,0:0:0:0:
64,192,27549,128,0,28071:0:0:0:0:
448,192,27680,1,0,0:0:0:0:
320,192,27810,1,0,0:0:0:0:
192,192,27810,1,0,0:0:0:0:
448,192,27940,1,0,0:0:0:0:
192,192,28071,128,0,28332:0:0:0:0:
320,192,28071,1,0,0:0:0:0:
448,192,28201,1,0,0:0:0:0:
64,192,28332,128,0,28593:0:0:0:0:
320,192,28332,1,0,0:0:0:0:
448,192,28593,1,0,0:0:0:0:
192,192,28723,1,0,0:0:0:0:
320,192,28853,128,0,29114:0:0:0:0:
64,192,28853,1,0,0:0:0:0:
448,192,28853,1,0,0:0:0:0:
192,192,29114,1,0,0:0:0:0:
64,192,29245,1,0,0:0:0:0:
320,192,29245,1,0,0:0:0:0:
448,192,29245,128,0,29506:0:0:0:0:
192,192,29375,1,0,0:0:0:0:
64,192,29636,1,0,0:0:0:0:
192,192,29636,1,0,0:0:0:0:
320,192,29636,128,0,31201:0:0:0:0:
448,192,29766,1,0,0:0:0:0:
192,192,29897,1,0,0:0:0:0:
64,192,30027,1,0,0:0:0:0:
448,192,30158,1,0,0:0:0:0:
64,192,30288,1,0,0:0:0:0:
192,192,30419,1,0,0:0:0:0:
448,192,30549,1,0,0:0:0:0:
64,192,30680,1,0,0:0:0:0:
192,192,30810,1,0,0:0:0:0:
448,192,30940,1,0,0:0:0:0:
192,192,31071,1,0,0:0:0:0:
64,192,31201,1,0,0:0:0:0:
448,192,31332,1,0,0:0:0:0:
320,192,31332,1,0,0:0:0:0:
192,192,31462,1,0,0:0:0:0:
64,192,31462,1,0,0:0:0:0:
448,192,31462,1,0,0:0:0:0:
64,192,31723,1,0,0:0:0:0:
448,192,31723,1,0,0:0:0:0:
448,192,31853,128,0,32245:0:0:0:0:
64,192,31853,128,0,32245:0:0:0:0:
192,192,31984,1,0,0:0:0:0:
320,192,32114,1,0,0:0:0:0:
192,192,32245,1,0,0:0:0:0:
64,192,32375,1,0,0:0:0:0:
448,192,32375,1,0,0:0:0:0:
320,192,32506,1,0,0:0:0:0:
192,192,32506,1,0,0:0:0:0:
64,192,32506,1,0,0:0:0:0:
448,192,32636,1,0,0:0:0:0:
320,192,32766,1,0,0:0:0:0:
192,192,32766,1,0,0:0:0:0:
64,192,32897,1,0,0:0:0:0:
448,192,33027,1,0,0:0:0:0:
320,192,33027,1,0,0:0:0:0:
192,192,33027,1,0,0:0:0:0:
64,192,33158,1,0,0:0:0:0:
320,192,33288,1,0,0:0:0:0:
192,192,33288,1,0,0:0:0:0:
448,192,33419,1,0,0:0:0:0:
64,192,33549,1,0,0:0:0:0:
320,192,33549,1,0,0:0:0:0:
192,192,33680,1,0,0:0:0:0:
320,192,33810,1,0,0:0:0:0:
448,192,33810,1,0,0:0:0:0:
192,192,33940,1,0,0:0:0:0:
448,192,34071,128,0,34462:0:0:0:0:
64,192,34071,128,0,34462:0:0:0:0:
320,192,34332,1,0,0:0:0:0:
192,192,34462,1,0,0:0:0:0:
64,192,34593,1,0,0:0:0:0:
320,192,34593,128,0,34984:0:0:0:0:
448,192,34593,128,0,34984:0:0:0:0:
64,192,34853,1,0,0:0:0:0:
192,192,34984,1,0,0:0:0:0:
448,192,35114,128,0,35506:0:0:0:0:
192,192,35114,128,0,35506:0:0:0:0:
320,192,35375,1,0,0:0:0:0:
64,192,35506,1,0,0:0:0:0:
64,192,35636,128,0,36027:0:0:0:0:
320,192,35636,128,0,36027:0:0:0:0:
448,192,35636,1,0,0:0:0:0:
192,192,35897,1,0,0:0:0:0:
448,192,36027,1,0,0:0:0:0:
320,192,36158,128,0,36549:0:0:0:0:
192,192,36158,128,0,36549:0:0:0:0:
448,192,36419,1,0,0:0:0:0:
64,192,36549,1,0,0:0:0:0:
64,192,36680,128,0,37071:0:0:0:0:
320,192,36680,128,0,36940:0:0:0:0:
448,192,36940,128,0,37201:0:0:0:0:
320,192,37071,128,0,37332:0:0:0:0:
192,192,37201,128,0,37462:0:0:0:0:
64,192,37332,128,0,37462:0:0:0:0:
448,192,37462,128,0,37593:0:0:0:0:
320,192,37462,128,0,37723:0:0:0:0:
192,192,37593,128,0,37723:0:0:0:0:
64,192,37723,1,0,0:0:0:0:
448,192,37723,1,0,0:0:0:0:
64,192,37984,128,0,38114:0:0:0:0:
320,192,37984,128,0,38114:0:0:0:0:
448,192,37984,128,0,38114:0:0:0:0:
192,192,38245,128,0,38375:0:0:0:0:
448,192,38245,128,0,38375:0:0:0:0:
64,192,38245,128,0,38375:0:0:0:0:
320,192,38506,1,0,0:0:0:0:
192,192,38636,1,0,0:0:0:0:
64,192,38766,128,0,38897:0:0:0:0:
320,192,38766,128,0,38897:0:0:0:0:
448,192,38766,128,0,38897:0:0:0:0:
192,192,39027,1,0,0:0:0:0:
448,192,39158,1,0,0:0:0:0:
64,192,39288,1,0,0:0:0:0:
320,192,39419,1,0,0:0:0:0:
448,192,39549,1,0,0:0:0:0:
192,192,39680,1,0,0:0:0:0:
320,192,39810,1,0,0:0:0:0:
64,192,39940,1,0,0:0:0:0:
448,192,40071,1,0,0:0:0:0:
320,192,40201,1,0,0:0:0:0:
192,192,40332,128,0,40593:0:0:0:0:
64,192,40332,128,0,40593:0:0:0:0:
448,192,40332,128,0,40593:0:0:0:0:
320,192,40723,1,0,0:0:0:0:
448,192,40853,128,0,41114:0:0:0:0:
192,192,40853,128,0,41114:0:0:0:0:
64,192,40853,128,0,41114:0:0:0:0:
320,192,41245,1,0,0:0:0:0:
448,192,41375,1,0,0:0:0:0:
192,192,41375,1,0,0:0:0:0:
64,192,41375,1,0,0:0:0:0:
320,192,41506,1,0,0:0:0:0:
448,192,41636,1,0,0:0:0:0:
192,192,41636,1,0,0:0:0:0:
64,192,41636,128,0,42419:0:0:0:0:
320,192,41766,1,0,0:0:0:0:
192,192,41897,1,0,0:0:0:0:
448,192,41897,128,0,42419:0:0:0:0:
320,192,42027,1,0,0:0:0:0:
192,192,42158,1,0,0:0:0:0:
320,192,42288,1,0,0:0:0:0:
192,192,42419,128,0,42549:0:0:0:0:
320,192,42419,128,0,42680:0:0:0:0:
448,192,42549,128,0,42810:0:0:0:0:
64,192,42549,128,0,42810:0:0:0:0:
192,192,42680,128,0,42940:0:0:0:0:
320,192,42810,128,0,43071:0:0:0:0:
448,192,42940,128,0,43071:0:0:0:0:
64,192,42940,128,0,43071:0:0:0:0:
64,192,43201,1,0,0:0:0:0:
320,192,43201,1,0,0:0:0:0:
448,192,43201,1,0,0:0:0:0:
192,192,43332,1,0,0:0:0:0:
64,192,43332,1,0,0:0:0:0:
448,192,43462,1,0,0:0:0:0:
192,192,43462,1,0,0:0:0:0:
64,192,43723,1,0,0:0:0:0:
192,192,43723,1,0,0:0:0:0:
448,192,43853,1,0,0:0:0:0:
320,192,43853,1,0,0:0:0:0:
192,192,43984,1,0,0:0:0:0:
64,192,43984,1,0,0:0:0:0:
448,192,43984,128,0,44245:0:0:0:0:
320,192,44114,128,0,44375:0:0:0:0:
64,192,44245,128,0,44375:0:0:0:0:
192,192,44245,128,0,44506:0:0:0:0:
448,192,44375,128,0,44636:0:0:0:0:
320,192,44506,128,0,44636:0:0:0:0:
64,192,44506,128,0,44636:0:0:0:0:
64,192,44766,1,0,0:0:0:0:
320,192,44766,1,0,0:0:0:0:
192,192,44897,128,0,45158:0:0:0:0:
448,192,44897,128,0,45027:0:0:0:0:
64,192,45027,1,0,0:0:0:0:
320,192,45027,1,0,0:0:0:0:
192,192,45288,1,0,0:0:0:0:
320,192,45288,128,0,46071:0:0:0:0:
448,192,45288,128,0,45810:0:0:0:0:
64,192,45419,1,0,0:0:0:0:
192,192,45549,1,0,0:0:0:0:
64,192,45810,1,0,0:0:0:0:
192,192,45940,1,0,0:0:0:0:
64,192,46071,1,0,0:0:0:0:
448,192,46071,1,0,0:0:0:0:
64,192,46332,128,0,46593:0:0:0:0:
320,192,46332,1,0,0:0:0:0:
192,192,46462,128,0,46723:0:0:0:0:
320,192,46593,128,0,46853:0:0:0:0:
448,192,46593,128,0,47114:0:0:0:0:
64,192,46853,1,0,0:0:0:0:
320,192,46984,128,0,47114:0:0:0:0:
64,192,46984,128,0,47114:0:0:0:0:
192,192,47114,1,0,0:0:0:0:
320,192,47288,128,0,47375:0:0:0:0:
448,192,47288,128,0,47375:0:0:0:0:
64,192,47375,1,0,0:0:0:0:
192,192,47419,1,0,0:0:0:0:
448,192,47462,1,0,0:0:0:0:
320,192,47506,1,0,0:0:0:0:
192,192,47549,1,0,0:0:0:0:
64,192,47593,1,0,0:0:0:0:
448,192,47593,1,0,0:0:0:0:
320,192,47636,128,0,48288:0:0:0:0:
64,192,47897,1,0,0:0:0:0:
192,192,48027,1,0,0:0:0:0:
64,192,48158,1,0,0:0:0:0:
448,192,48158,128,0,48549:0:0:0:0:
320,192,48419,128,0,48549:0:0:0:0:
64,192,48419,1,0,0:0:0:0:
192,192,48549,1,0,0:0:0:0:
320,192,48680,128,0,48810:0:0:0:0:
448,192,48680,128,0,48810:0:0:0:0:
64,192,48680,1,0,0:0:0:0:
192,192,48810,1,0,0:0:0:0:
64,192,48940,1,0,0:0:0:0:
448,192,48940,1,0,0:0:0:0:
448,192,49071,128,0,49201:0:0:0:0:
64,192,49071,128,0,49201:0:0:0:0:
192,192,49201,1,0,0:0:0:0:
320,192,49332,1,0,0:0:0:0:
448,192,49462,1,0,0:0:0:0:
64,192,49462,128,0,49593:0:0:0:0:
192,192,49527,128,0,49658:0:0:0:0:
448,192,49593,128,0,49723:0:0:0:0:
320,192,49658,128,0,49788:0:0:0:0:
64,192,49723,1,0,0:0:0:0:
192,192,49723,128,0,50245:0:0:0:0:
320,192,49984,1,0,0:0:0:0:
448,192,49984,1,0,0:0:0:0:
448,192,50114,128,0,50245:0:0:0:0:
320,192,50114,128,0,50245:0:0:0:0:
64,192,50245,1,0,0:0:0:0:
192,192,50310,1,0,0:0:0:0:
448,192,50375,1,0,0:0:0:0:
320,192,50440,1,0,0:0:0:0:
192,192,50506,1,0,0:0:0:0:
448,192,50571,1,0,0:0:0:0:
320,192,50636,1,0,0:0:0:0:
64,192,50701,1,0,0:0:0:0:
448,192,50766,128,0,51549:0:0:0:0:
192,192,50766,128,0,51027:0:0:0:0:
64,192,50897,128,0,51158:0:0:0:0:
320,192,51027,128,0,51158:0:0:0:0:
192,192,51158,128,0,51288:0:0:0:0:
64,192,51288,128,0,51549:0:0:0:0:
320,192,51288,128,0,51549:0:0:0:0:
192,192,51549,1,0,0:0:0:0:
448,192,51810,1,0,0:0:0:0:
320,192,51810,1,0,0:0:0:0:
64,192,51810,1,0,0:0:0:0:
64,192,52071,128,0,52201:0:0:0:0:
320,192,52071,1,0,0:0:0:0:
192,192,52201,128,0,52332:0:0:0:0:
448,192,52201,1,0,0:0:0:0:
64,192,52332,128,0,52723:0:0:0:0:
320,192,52332,1,0,0:0:0:0:
320,192,52593,128,0,52723:0:0:0:0:
448,192,52593,1,0,0:0:0:0:
448,192,52853,128,0,52984:0:0:0:0:
192,192,52853,128,0,52984:0:0:0:0:
64,192,52853,1,0,0:0:0:0:
320,192,52984,1,0,0:0:0:0:
64,192,53114,1,0,0:0:0:0:
320,192,53245,128,0,53375:0:0:0:0:
192,192,53245,128,0,53375:0:0:0:0:
448,192,53245,1,0,0:0:0:0:
64,192,53375,1,0,0:0:0:0:
448,192,53506,1,0,0:0:0:0:
64,192,53636,1,0,0:0:0:0:
192,192,53636,128,0,54027:0:0:0:0:
320,192,53636,128,0,53897:0:0:0:0:
448,192,53766,1,0,0:0:0:0:
64,192,53897,1,0,0:0:0:0:
320,192,54158,1,0,0:0:0:0:
448,192,54158,128,0,54419:0:0:0:0:
192,192,54288,1,0,0:0:0:0:
64,192,54419,1,0,0:0:0:0:
320,192,54419,128,0,55332:0:0:0:0:
192,192,54680,1,0,0:0:0:0:
64,192,54810,1,0,0:0:0:0:
448,192,54940,1,0,0:0:0:0:
192,192,54940,1,0,0:0:0:0:
64,192,55201,128,0,55462:0:0:0:0:
192,192,55332,1,0,0:0:0:0:
448,192,55462,128,0,56245:0:0:0:0:
320,192,55462,1,0,0:0:0:0:
320,192,55723,128,0,55984:0:0:0:0:
64,192,55723,1,0,0:0:0:0:
192,192,55853,1,0,0:0:0:0:
64,192,55984,1,0,0:0:0:0:
320,192,56245,1,0,0:0:0:0:
192,192,56245,1,0,0:0:0:0:
64,192,56375,1,0,0:0:0:0:
448,192,56375,1,0,0:0:0:0:
320,192,56506,1,0,0:0:0:0:
192,192,56506,1,0,0:0:0:0:
64,192,56766,1,0,0:0:0:0:
448,192,56766,1,0,0:0:0:0:
320,192,56897,1,0,0:0:0:0:
192,192,57027,1,0,0:0:0:0:
64,192,57027,1,0,0:0:0:0:
448,192,57027,1,0,0:0:0:0:
192,192,57288,1,0,0:0:0:0:
320,192,57288,1,0,0:0:0:0:
448,192,57288,1,0,0:0:0:0:
64,192,57549,1,0,0:0:0:0:
448,192,57549,1,0,0:0:0:0:
320,192,57549,1,0,0:0:0:0:
192,192,57810,128,0,58593:0:0:0:0:
320,192,58593,128,0,59114:0:0:0:0:
448,192,58593,128,0,58723:0:0:0:0:
64,192,58593,128,0,58853:0:0:0:0:
192,192,58723,128,0,58984:0:0:0:0:
448,192,58853,128,0,58984:0:0:0:0:
64,192,58984,128,0,59114:0:0:0:0:
192,192,59114,128,0,59375:0:0:0:0:
448,192,59114,128,0,59375:0:0:0:0:
64,192,59375,1,0,0:0:0:0:
320,192,59375,128,0,59636:0:0:0:0:
448,192,59506,128,0,59766:0:0:0:0:
64,192,59636,128,0,59766:0:0:0:0:
192,192,59636,128,0,60027:0:0:0:0:
320,192,59897,128,0,60027:0:0:0:0:
448,192,59897,1,0,0:0:0:0:
64,192,59897,128,0,60027:0:0:0:0:
448,192,60027,128,0,60158:0:0:0:0:
64,192,60158,128,0,60680:0:0:0:0:
320,192,60158,1,0,0:0:0:0:
192,192,60419,1,0,0:0:0:0:
320,192,60549,1,0,0:0:0:0:
448,192,60680,128,0,60940:0:0:0:0:
192,192,60680,1,0,0:0:0:0:
320,192,60940,1,0,0:0:0:0:
192,192,60940,128,0,61201:0:0:0:0:
64,192,61071,128,0,61332:0:0:0:0:
320,192,61201,1,0,0:0:0:0:
448,192,61201,128,0,61593:0:0:0:0:
320,192,61462,128,0,61593:0:0:0:0:
64,192,61462,128,0,61723:0:0:0:0:
192,192,61593,128,0,61723:0:0:0:0:
320,192,61723,128,0,62636:0:0:0:0:
448,192,61723,128,0,61984:0:0:0:0:
64,192,61984,1,0,0:0:0:0:
192,192,62114,1,0,0:0:0:0:
448,192,62245,128,0,62636:0:0:0:0:
64,192,62245,1,0,0:0:0:0:
192,192,62506,1,0,0:0:0:0:
64,192,62636,1,0,0:0:0:0:
192,192,62766,128,0,62897:0:0:0:0:
320,192,62766,128,0,62897:0:0:0:0:
448,192,62766,128,0,63288:0:0:0:0:
192,192,63027,1,0,0:0:0:0:
64,192,63027,1,0,0:0:0:0:
320,192,63158,1,0,0:0:0:0:
64,192,63158,1,0,0:0:0:0:
192,192,63288,1,0,0:0:0:0:
64,192,63288,128,0,63810:0:0:0:0:
192,192,63549,128,0,63680:0:0:0:0:
320,192,63549,1,0,0:0:0:0:
320,192,63680,128,0,63810:0:0:0:0:
448,192,63680,1,0,0:0:0:0:
192,192,63810,128,0,64071:0:0:0:0:
448,192,63940,128,0,64201:0:0:0:0:
64,192,64071,128,0,64332:0:0:0:0:
320,192,64201,128,0,64332:0:0:0:0:
192,192,64332,1,0,0:0:0:0:
448,192,64332,128,0,64723:0:0:0:0:
320,192,64593,128,0,65375:0:0:0:0:
64,192,64593,128,0,64723:0:0:0:0:
192,192,64723,128,0,64984:0:0:0:0:
448,192,64853,128,0,65114:0:0:0:0:
64,192,64853,1,0,0:0:0:0:
192,192,65114,1,0,0:0:0:0:
448,192,65245,128,0,66288:0:0:0:0:
64,192,65245,1,0,0:0:0:0:
64,192,65375,128,0,66158:0:0:0:0:
192,192,65375,128,0,65506:0:0:0:0:
320,192,65636,128,0,65897:0:0:0:0:
192,192,65636,128,0,65766:0:0:0:0:
192,192,65897,128,0,66027:0:0:0:0:
320,192,66158,128,0,66288:0:0:0:0:
192,192,66288,1,0,0:0:0:0:
64,192,66419,128,0,66549:0:0:0:0:
448,192,66419,128,0,66810:0:0:0:0:
192,192,66549,128,0,66680:0:0:0:0:
320,192,66680,128,0,66810:0:0:0:0:
64,192,66680,128,0,66810:0:0:0:0:
192,192,66810,128,0,66940:0:0:0:0:
320,192,66940,128,0,67071:0:0:0:0:
448,192,66940,128,0,67201:0:0:0:0:
64,192,66940,1,0,0:0:0:0:
64,192,67071,128,0,67332:0:0:0:0:
192,192,67201,128,0,67332:0:0:0:0:
320,192,67332,128,0,67462:0:0:0:0:
64,192,67462,128,0,67593:0:0:0:0:
448,192,67462,128,0,67984:0:0:0:0:
192,192,67462,128,0,67723:0:0:0:0:
320,192,67723,128,0,67984:0:0:0:0:
64,192,67723,1,0,0:0:0:0:
192,192,67984,128,0,68245:0:0:0:0:
64,192,67984,128,0,68375:0:0:0:0:
448,192,68245,128,0,68506:0:0:0:0:
320,192,68245,1,0,0:0:0:0:
192,192,68506,128,0,68766:0:0:0:0:
64,192,68506,128,0,69027:0:0:0:0:
320,192,68506,1,0,0:0:0:0:
448,192,68766,128,0,68897:0:0:0:0:
320,192,68897,128,0,69027:0:0:0:0:
192,192,69027,128,0,69288:0:0:0:0:
320,192,69288,128,0,69419:0:0:0:0:
64,192,69288,128,0,69419:0:0:0:0:
192,192,69419,128,0,69549:0:0:0:0:
448,192,69419,128,0,69549:0:0:0:0:
64,192,69549,128,0,69940:0:0:0:0:
320,192,69549,1,0,0:0:0:0:
448,192,69810,128,0,69940:0:0:0:0:
64,192,70071,1,0,0:0:0:0:
320,192,70071,1,0,0:0:0:0:
448,192,70071,128,0,70462:0:0:0:0:
64,192,70332,128,0,70462:0:0:0:0:
320,192,70332,1,0,0:0:0:0:
192,192,70462,128,0,70593:0:0:0:0:
64,192,70593,1,0,0:0:0:0:
448,192,70593,128,0,70984:0:0:0:0:
320,192,70853,128,0,70984:0:0:0:0:
64,192,70853,1,0,0:0:0:0:
192,192,70984,128,0,71114:0:0:0:0:
64,192,71114,128,0,71245:0:0:0:0:
320,192,71114,128,0,71245:0:0:0:0:
448,192,71114,128,0,71506:0:0:0:0:
64,192,71375,1,0,0:0:0:0:
192,192,71375,1,0,0:0:0:0:
320,192,71506,1,0,0:0:0:0:
192,192,71636,1,0,0:0:0:0:
64,192,71636,1,0,0:0:0:0:
448,192,71636,128,0,72158:0:0:0:0:
192,192,71897,128,0,72027:0:0:0:0:
64,192,71897,1,0,0:0:0:0:
320,192,72027,128,0,72158:0:0:0:0:
192,192,72158,1,0,0:0:0:0:
64,192,72158,128,0,72419:0:0:0:0:
448,192,72288,128,0,72549:0:0:0:0:
192,192,72419,128,0,72680:0:0:0:0:
320,192,72549,128,0,72680:0:0:0:0:
64,192,72549,128,0,72810:0:0:0:0:
448,192,72680,128,0,72940:0:0:0:0:
64,192,72940,128,0,73201:0:0:0:0:
320,192,72940,128,0,73593:0:0:0:0:
192,192,73071,128,0,73332:0:0:0:0:
448,192,73201,128,0,73462:0:0:0:0:
64,192,73462,1,0,0:0:0:0:
192,192,73593,1,0,0:0:0:0:
448,192,73593,128,0,74766:0:0:0:0:
320,192,73723,128,0,74506:0:0:0:0:
64,192,73723,128,0,73853:0:0:0:0:
192,192,73984,128,0,74114:0:0:0:0:
64,192,74245,128,0,74375:0:0:0:0:
192,192,74506,128,0,74636:0:0:0:0:
64,192,74636,1,0,0:0:0:0:
320,192,74766,1,0,0:0:0:0:
192,192,74766,1,0,0:0:0:0:
320,192,74897,1,0,0:0:0:0:
192,192,74897,1,0,0:0:0:0:
448,192,75158,1,0,0:0:0:0:
64,192,75158,1,0,0:0:0:0:
448,192,75288,1,0,0:0:0:0:
64,192,75288,1,0,0:0:0:0:
448,192,75419,1,0,0:0:0:0:
64,192,75419,1,0,0:0:0:0:
320,192,75549,1,0,0:0:0:0:
192,192,75549,1,0,0:0:0:0:
192,192,75680,1,0,0:0:0:0:
320,192,75680,1,0,0:0:0:0:
64,192,76853,128,0,76984:0:0:0:0:
320,192,76984,128,0,77114:0:0:0:0:
448,192,77114,128,0,77245:0:0:0:0:
192,192,77375,128,0,77766:0:0:0:0:
64,192,77375,128,0,77506:0:0:0:0:
320,192,77375,128,0,77506:0:0:0:0:
448,192,77506,128,0,77636:0:0:0:0:
64,192,77636,128,0,77766:0:0:0:0:
320,192,77636,128,0,77766:0:0:0:0:
448,192,77962,128,0,78353:0:0:0:0:
64,192,77962,128,0,78353:0:0:0:0:
320,192,77962,128,0,78353:0:0:0:0:
320,192,78419,1,0,0:0:0:0:
448,192,78419,128,0,79397:0:0:0:0:
64,192,78419,128,0,79397:0:0:0:0:
192,192,79071,128,0,79397:0:0:0:0:
192,192,79462,1,0,0:0:0:0:
64,192,79462,1,0,0:0:0:0:
448,192,79462,1,0,0:0:0:0:
320,192,79593,1,0,0:0:0:0:
448,192,79593,1,0,0:0:0:0:
64,192,79723,1,0,0:0:0:0:
320,192,79723,1,0,0:0:0:0:
192,192,79853,1,0,0:0:0:0:
64,192,79853,1,0,0:0:0:0:
320,192,79984,1,0,0:0:0:0:
448,192,79984,1,0,0:0:0:0:
192,192,79984,1,0,0:0:0:0:
64,192,80114,1,0,0:0:0:0:
448,192,80245,1,0,0:0:0:0:
192,192,80375,1,0,0:0:0:0:
64,192,80506,1,0,0:0:0:0:
320,192,80506,1,0,0:0:0:0:
448,192,80506,1,0,0:0:0:0:
64,192,80766,128,0,81158:0:0:0:0:
192,192,80766,128,0,81027:0:0:0:0:
320,192,80766,128,0,80897:0:0:0:0:
448,192,80897,128,0,81158:0:0:0:0:
320,192,81027,128,0,81288:0:0:0:0:
192,192,81158,128,0,81419:0:0:0:0:
64,192,81288,128,0,81419:0:0:0:0:
448,192,81288,128,0,81549:0:0:0:0:
320,192,81419,1,0,0:0:0:0:
64,192,81549,128,0,81680:0:0:0:0:
192,192,81549,128,0,81680:0:0:0:0:
320,192,81680,128,0,81810:0:0:0:0:
448,192,81680,128,0,81810:0:0:0:0:
192,192,81810,128,0,81940:0:0:0:0:
64,192,81810,128,0,81940:0:0:0:0:
448,192,81940,1,0,0:0:0:0:
320,192,82071,128,0,82593:0:0:0:0:
192,192,82071,128,0,82201:0:0:0:0:
64,192,82071,128,0,82201:0:0:0:0:
448,192,82201,1,0,0:0:0:0:
64,192,82332,1,0,0:0:0:0:
192,192,82462,1,0,0:0:0:0:
448,192,82462,128,0,82593:0:0:0:0:
64,192,82593,1,0,0:0:0:0:
64,192,82853,1,0,0:0:0:0:
320,192,82853,1,0,0:0:0:0:
192,192,82984,1,0,0:0:0:0:
448,192,82984,1,0,0:0:0:0:
320,192,83114,1,0,0:0:0:0:
64,192,83114,1,0,0:0:0:0:
448,192,83245,1,0,0:0:0:0:
320,192,83375,1,0,0:0:0:0:
64,192,83375,1,0,0:0:0:0:
192,192,83506,1,0,0:0:0:0:
64,192,83636,1,0,0:0:0:0:
320,192,83636,1,0,0:0:0:0:
448,192,83636,128,0,83897:0:0:0:0:
192,192,83810,128,0,84071:0:0:0:0:
64,192,83897,1,0,0:0:0:0:
448,192,84027,1,0,0:0:0:0:
64,192,84071,128,0,84332:0:0:0:0:
320,192,84158,1,0,0:0:0:0:
192,192,84288,1,0,0:0:0:0:
448,192,84419,1,0,0:0:0:0:
320,192,84549,1,0,0:0:0:0:
64,192,84680,1,0,0:0:0:0:
192,192,84680,1,0,0:0:0:0:
448,192,84680,1,0,0:0:0:0:
64,192,84940,1,0,0:0:0:0:
192,192,84940,128,0,85201:0:0:0:0:
320,192,85071,1,0,0:0:0:0:
448,192,85201,1,0,0:0:0:0:
64,192,85201,128,0,85332:0:0:0:0:
320,192,85266,128,0,85397:0:0:0:0:
448,192,85332,128,0,85462:0:0:0:0:
64,192,85397,128,0,85527:0:0:0:0:
192,192,85462,128,0,85723:0:0:0:0:
320,192,85593,1,0,0:0:0:0:
448,192,85723,1,0,0:0:0:0:
64,192,85723,1,0,0:0:0:0:
320,192,85853,1,0,0:0:0:0:
64,192,85984,128,0,86245:0:0:0:0:
192,192,85984,1,0,0:0:0:0:
448,192,85984,1,0,0:0:0:0:
320,192,86114,1,0,0:0:0:0:
192,192,86245,1,0,0:0:0:0:
448,192,86245,128,0,86636:0:0:0:0:
192,192,86375,1,0,0:0:0:0:
64,192,86506,1,0,0:0:0:0:
192,192,86636,1,0,0:0:0:0:
64,192,86636,128,0,87027:0:0:0:0:
320,192,86766,1,0,0:0:0:0:
448,192,86766,1,0,0:0:0:0:
448,192,87027,1,0,0:0:0:0:
320,192,87027,1,0,0:0:0:0:
192,192,87158,1,0,0:0:0:0:
64,192,87158,1,0,0:0:0:0:
448,192,87288,1,0,0:0:0:0:
320,192,87288,1,0,0:0:0:0:
192,192,87419,1,0,0:0:0:0:
448,192,87419,1,0,0:0:0:0:
320,192,87549,1,0,0:0:0:0:
448,192,87680,1,0,0:0:0:0:
64,192,87680,128,0,88071:0:0:0:0:
192,192,87810,1,0,0:0:0:0:
320,192,87810,1,0,0:0:0:0:
448,192,88071,1,0,0:0:0:0:
320,192,88071,1,0,0:0:0:0:
192,192,88201,1,0,0:0:0:0:
64,192,88332,128,0,88593:0:0:0:0:
448,192,88332,1,0,0:0:0:0:
320,192,88332,1,0,0:0:0:0:
448,192,88462,1,0,0:0:0:0:
192,192,88593,1,0,0:0:0:0:
448,192,88723,128,0,88984:0:0:0:0:
320,192,88853,1,0,0:0:0:0:
64,192,88853,1,0,0:0:0:0:
192,192,89114,1,0,0:0:0:0:
320,192,89114,128,0,89375:0:0:0:0:
64,192,89245,1,0,0:0:0:0:
448,192,89375,128,0,89636:0:0:0:0:
192,192,89506,1,0,0:0:0:0:
64,192,89636,1,0,0:0:0:0:
192,192,89766,1,0,0:0:0:0:
448,192,89766,1,0,0:0:0:0:
320,192,89897,1,0,0:0:0:0:
64,192,89897,1,0,0:0:0:0:
448,192,90027,1,0,0:0:0:0:
192,192,90158,1,0,0:0:0:0:
320,192,90288,1,0,0:0:0:0:
448,192,90419,128,0,90810:0:0:0:0:
64,192,90419,1,0,0:0:0:0:
192,192,90419,1,0,0:0:0:0:
64,192,90549,1,0,0:0:0:0:
320,192,90680,128,0,91201:0:0:0:0:
192,192,90680,128,0,91201:0:0:0:0:
64,192,90810,1,0,0:0:0:0:
448,192,90940,1,0,0:0:0:0:
64,192,91071,1,0,0:0:0:0:
448,192,91201,1,0,0:0:0:0:
320,192,91332,1,0,0:0:0:0:
192,192,91462,1,0,0:0:0:0:
64,192,91462,1,0,0:0:0:0:
64,192,91593,1,0,0:0:0:0:
320,192,91723,1,0,0:0:0:0:
192,192,91723,1,0,0:0:0:0:
448,192,91853,128,0,92245:0:0:0:0:
64,192,91853,1,0,0:0:0:0:
320,192,91984,1,0,0:0:0:0:
192,192,91984,1,0,0:0:0:0:
192,192,92245,1,0,0:0:0:0:
64,192,92245,1,0,0:0:0:0:
320,192,92375,1,0,0:0:0:0:
448,192,92506,128,0,92766:0:0:0:0:
64,192,92506,1,0,0:0:0:0:
192,192,92506,1,0,0:0:0:0:
320,192,92636,1,0,0:0:0:0:
192,192,92766,1,0,0:0:0:0:
448,192,92897,128,0,93158:0:0:0:0:
64,192,92897,1,0,0:0:0:0:
320,192,93027,1,0,0:0:0:0:
192,192,93027,1,0,0:0:0:0:
64,192,93288,128,0,94462:0:0:0:0:
320,192,93288,1,0,0:0:0:0:
192,192,93288,1,0,0:0:0:0:
448,192,93549,1,0,0:0:0:0:
320,192,93549,1,0,0:0:0:0:
320,192,93680,1,0,0:0:0:0:
448,192,93680,1,0,0:0:0:0:
192,192,93940,1,0,0:0:0:0:
320,192,93940,1,0,0:0:0:0:
320,192,94071,1,0,0:0:0:0:
192,192,94071,1,0,0:0:0:0:
192,192,94201,1,0,0:0:0:0:
320,192,94201,1,0,0:0:0:0:
448,192,94332,1,0,0:0:0:0:
320,192,94332,1,0,0:0:0:0:
320,192,94462,1,0,0:0:0:0:
192,192,94462,1,0,0:0:0:0:
448,192,94593,1,0,0:0:0:0:
64,192,94593,1,0,0:0:0:0:
192,192,94593,128,0,95114:0:0:0:0:
320,192,94723,1,0,0:0:0:0:
448,192,94853,1,0,0:0:0:0:
64,192,94853,1,0,0:0:0:0:
320,192,94984,1,0,0:0:0:0:
64,192,95114,1,0,0:0:0:0:
448,192,95114,128,0,95636:0:0:0:0:
320,192,95245,1,0,0:0:0:0:
192,192,95375,1,0,0:0:0:0:
64,192,95375,1,0,0:0:0:0:
320,192,95506,1,0,0:0:0:0:
64,192,95636,128,0,96158:0:0:0:0:
192,192,95636,1,0,0:0:0:0:
320,192,95766,1,0,0:0:0:0:
448,192,95897,1,0,0:0:0:0:
192,192,96027,1,0,0:0:0:0:
320,192,96158,128,0,96419:0:0:0:0:
448,192,96158,1,0,0:0:0:0:
192,192,96288,1,0,0:0:0:0:
64,192,96419,128,0,96940:0:0:0:0:
448,192,96549,1,0,0:0:0:0:
320,192,96680,1,0,0:0:0:0:
192,192,96680,1,0,0:0:0:0:
448,192,96810,1,0,0:0:0:0:
192,192,96940,128,0,97201:0:0:0:0:
320,192,96940,1,0,0:0:0:0:
448,192,97071,1,0,0:0:0:0:
64,192,97201,128,0,97462:0:0:0:0:
320,192,97201,1,0,0:0:0:0:
448,192,97462,1,0,0:0:0:0:
192,192,97593,1,0,0:0:0:0:
320,192,97723,128,0,97984:0:0:0:0:
64,192,97723,1,0,0:0:0:0:
448,192,97723,1,0,0:0:0:0:
192,192,97984,1,0,0:0:0:0:
64,192,98114,1,0,0:0:0:0:
320,192,98114,1,0,0:0:0:0:
448,192,98114,128,0,98375:0:0:0:0:
192,192,98245,1,0,0:0:0:0:
64,192,98506,1,0,0:0:0:0:
192,192,98506,1,0,0:0:0:0:
320,192,98506,128,0,100071:0:0:0:0:
448,192,98636,1,0,0:0:0:0:
192,192,98766,1,0,0:0:0:0:
64,192,98897,1,0,0:0:0:0:
448,192,99027,1,0,0:0:0:0:
64,192,99158,1,0,0:0:0:0:
192,192,99288,1,0,0:0:0:0:
448,192,99419,1,0,0:0:0:0:
64,192,99549,1,0,0:0:0:0:
192,192,99680,1,0,0:0:0:0:
448,192,99810,1,0,0:0:0:0:
192,192,99940,1,0,0:0:0:0:
64,192,100071,1,0,0:0:0:0:
448,192,100201,1,0,0:0:0:0:
320,192,100201,1,0,0:0:0:0:
192,192,100332,1,0,0:0:0:0:
64,192,100332,1,0,0:0:0:0:
448,192,100332,1,0,0:0:0:0:
64,192,100593,1,0,0:0:0:0:
448,192,100593,1,0,0:0:0:0:
448,192,100723,128,0,101114:0:0:0:0:
64,192,100723,128,0,101114:0:0:0:0:
192,192,100853,1,0,0:0:0:0:
320,192,100984,1,0,0:0:0:0:
192,192,101114,1,0,0:0:0:0:
64,192,101245,1,0,0:0:0:0:
448,192,101245,1,0,0:0:0:0:
320,192,101375,1,0,0:0:0:0:
192,192,101375,1,0,0:0:0:0:
64,192,101375,1,0,0:0:0:0:
448,192,101506,1,0,0:0:0:0:
320,192,101636,1,0,0:0:0:0:
192,192,101636,1,0,0:0:0:0:
64,192,101766,1,0,0:0:0:0:
448,192,101897,1,0,0:0:0:0:
320,192,101897,1,0,0:0:0:0:
192,192,101897,1,0,0:0:0:0:
64,192,102027,1,0,0:0:0:0:
320,192,102158,1,0,0:0:0:0:
192,192,102158,1,0,0:0:0:0:
448,192,102288,1,0,0:0:0:0:
64,192,102419,1,0,0:0:0:0:
320,192,102419,1,0,0:0:0:0:
192,192,102549,1,0,0:0:0:0:
320,192,102680,1,0,0:0:0:0:
448,192,102680,1,0,0:0:0:0:
192,192,102810,1,0,0:0:0:0:
448,192,102940,128,0,103332:0:0:0:0:
64,192,102940,128,0,103332:0:0:0:0:
320,192,103201,1,0,0:0:0:0:
192,192,103332,1,0,0:0:0:0:
64,192,103462,1,0,0:0:0:0:
320,192,103462,128,0,103853:0:0:0:0:
448,192,103462,128,0,103853:0:0:0:0:
64,192,103723,1,0,0:0:0:0:
192,192,103853,1,0,0:0:0:0:
448,192,103984,128,0,104375:0:0:0:0:
192,192,103984,128,0,104375:0:0:0:0:
320,192,104245,1,0,0:0:0:0:
64,192,104375,1,0,0:0:0:0:
64,192,104506,128,0,104897:0:0:0:0:
320,192,104506,128,0,104897:0:0:0:0:
448,192,104506,1,0,0:0:0:0:
192,192,104766,1,0,0:0:0:0:
448,192,104897,1,0,0:0:0:0:
320,192,105027,128,0,105419:0:0:0:0:
192,192,105027,128,0,105419:0:0:0:0:
448,192,105288,1,0,0:0:0:0:
64,192,105419,1,0,0:0:0:0:
64,192,105549,128,0,105940:0:0:0:0:
320,192,105549,128,0,105810:0:0:0:0:
448,192,105810,128,0,106071:0:0:0:0:
320,192,105940,128,0,106201:0:0:0:0:
192,192,106071,128,0,106332:0:0:0:0:
64,192,106201,128,0,106332:0:0:0:0:
448,192,106332,128,0,106462:0:0:0:0:
320,192,106332,128,0,106593:0:0:0:0:
192,192,106462,128,0,106593:0:0:0:0:
64,192,106593,1,0,0:0:0:0:
448,192,106593,1,0,0:0:0:0:
64,192,106853,128,0,106984:0:0:0:0:
320,192,106853,128,0,106984:0:0:0:0:
448,192,106853,128,0,106984:0:0:0:0:
192,192,107114,128,0,107245:0:0:0:0:
448,192,107114,128,0,107245:0:0:0:0:
64,192,107114,128,0,107245:0:0:0:0:
320,192,107375,1,0,0:0:0:0:
192,192,107506,1,0,0:0:0:0:
64,192,107636,128,0,107766:0:0:0:0:
320,192,107636,128,0,107766:0:0:0:0:
448,192,107636,128,0,107766:0:0:0:0:
192,192,107897,1,0,0:0:0:0:
448,192,108027,1,0,0:0:0:0:
64,192,108158,1,0,0:0:0:0:
320,192,108288,1,0,0:0:0:0:
448,192,108419,1,0,0:0:0:0:
192,192,108549,1,0,0:0:0:0:
320,192,108680,1,0,0:0:0:0:
64,192,108810,1,0,0:0:0:0:
448,192,108940,1,0,0:0:0:0:
320,192,109071,1,0,0:0:0:0:
192,192,109201,128,0,109462:0:0:0:0:
64,192,109201,128,0,109462:0:0:0:0:
448,192,109201,128,0,109462:0:0:0:0:
320,192,109593,1,0,0:0:0:0:
448,192,109723,128,0,109984:0:0:0:0:
192,192,109723,128,0,109984:0:0:0:0:
64,192,109723,128,0,109984:0:0:0:0:
320,192,110114,1,0,0:0:0:0:
448,192,110245,1,0,0:0:0:0:
192,192,110245,1,0,0:0:0:0:
64,192,110245,1,0,0:0:0:0:
320,192,110375,1,0,0:0:0:0:
448,192,110506,1,0,0:0:0:0:
192,192,110506,1,0,0:0:0:0:
64,192,110506,128,0,111288:0:0:0:0:
320,192,110636,1,0,0:0:0:0:
192,192,110766,1,0,0:0:0:0:
448,192,110766,128,0,111288:0:0:0:0:
320,192,110897,1,0,0:0:0:0:
192,192,111027,1,0,0:0:0:0:
320,192,111158,1,0,0:0:0:0:
192,192,111288,128,0,111419:0:0:0:0:
320,192,111288,128,0,111549:0:0:0:0:
448,192,111419,128,0,111680:0:0:0:0:
64,192,111419,128,0,111680:0:0:0:0:
192,192,111549,128,0,111810:0:0:0:0:
320,192,111680,128,0,111940:0:0:0:0:
448,192,111810,128,0,111940:0:0:0:0:
64,192,111810,128,0,111940:0:0:0:0:
64,192,112071,1,0,0:0:0:0:
320,192,112071,1,0,0:0:0:0:
448,192,112071,1,0,0:0:0:0:
192,192,112201,1,0,0:0:0:0:
64,192,112201,1,0,0:0:0:0:
448,192,112332,1,0,0:0:0:0:
192,192,112332,1,0,0:0:0:0:
64,192,112593,1,0,0:0:0:0:
192,192,112593,1,0,0:0:0:0:
448,192,112723,1,0,0:0:0:0:
320,192,112723,1,0,0:0:0:0:
192,192,112853,1,0,0:0:0:0:
64,192,112853,1,0,0:0:0:0:
448,192,112853,128,0,113114:0:0:0:0:
320,192,112984,128,0,113245:0:0:0:0:
64,192,113114,128,0,113245:0:0:0:0:
192,192,113114,128,0,113375:0:0:0:0:
448,192,113245,128,0,113506:0:0:0:0:
320,192,113375,128,0,113506:0:0:0:0:
64,192,113375,128,0,113506:0:0:0:0:
64,192,113636,1,0,0:0:0:0:
320,192,113636,1,0,0:0:0:0:
192,192,113766,128,0,114027:0:0:0:0:
448,192,113766,128,0,113897:0:0:0:0:
64,192,113897,1,0,0:0:0:0:
320,192,113897,1,0,0:0:0:0:
192,192,114158,1,0,0:0:0:0:
320,192,114158,128,0,114940:0:0:0:0:
448,192,114158,128,0,114680:0:0:0:0:
64,192,114288,1,0,0:0:0:0:
192,192,114419,1,0,0:0:0:0:
64,192,114680,1,0,0:0:0:0:
192,192,114810,1,0,0:0:0:0:
64,192,114940,1,0,0:0:0:0:
448,192,114940,1,0,0:0:0:0:
64,192,115201,128,0,115462:0:0:0:0:
320,192,115201,1,0,0:0:0:0:
192,192,115332,128,0,115593:0:0:0:0:
320,192,115462,128,0,115723:0:0:0:0:
448,192,115462,128,0,115984:0:0:0:0:
64,192,115723,1,0,0:0:0:0:
320,192,115853,128,0,115984:0:0:0:0:
64,192,115853,128,0,115984:0:0:0:0:
192,192,115984,1,0,0:0:0:0:
320,192,116158,128,0,116245:0:0:0:0:
448,192,116158,128,0,116245:0:0:0:0:
64,192,116245,1,0,0:0:0:0:
192,192,116288,1,0,0:0:0:0:
448,192,116332,1,0,0:0:0:0:
320,192,116375,1,0,0:0:0:0:
192,192,116419,1,0,0:0:0:0:
64,192,116462,1,0,0:0:0:0:
448,192,116462,1,0,0:0:0:0:
320,192,116506,128,0,117158:0:0:0:0:
64,192,116766,1,0,0:0:0:0:
192,192,116897,1,0,0:0:0:0:
64,192,117027,1,0,0:0:0:0:
448,192,117027,128,0,117419:0:0:0:0:
320,192,117288,128,0,117419:0:0:0:0:
64,192,117288,1,0,0:0:0:0:
192,192,117419,1,0,0:0:0:0:
320,192,117549,128,0,117680:0:0:0:0:
448,192,117549,128,0,117680:0:0:0:0:
64,192,117549,1,0,0:0:0:0:
192,192,117680,1,0,0:0:0:0:
64,192,117810,1,0,0:0:0:0:
448,192,117810,1,0,0:0:0:0:
448,192,117940,128,0,118071:0:0:0:0:
64,192,117940,128,0,118071:0:0:0:0:
192,192,118071,1,0,0:0:0:0:
320,192,118201,1,0,0:0:0:0:
448,192,118332,1,0,0:0:0:0:
64,192,118332,128,0,118462:0:0:0:0:
192,192,118397,128,0,118527:0:0:0:0:
448,192,118462,128,0,118593:0:0:0:0:
320,192,118527,128,0,118658:0:0:0:0:
64,192,118593,1,0,0:0:0:0:
192,192,118593,128,0,119114:0:0:0:0:
320,192,118853,1,0,0:0:0:0:
448,192,118853,1,0,0:0:0:0:
448,192,118984,128,0,119114:0:0:0:0:
320,192,118984,128,0,119114:0:0:0:0:
64,192,119114,1,0,0:0:0:0:
192,192,119180,1,0,0:0:0:0:
448,192,119245,1,0,0:0:0:0:
320,192,119310,1,0,0:0:0:0:
192,192,119375,1,0,0:0:0:0:
448,192,119440,1,0,0:0:0:0:
320,192,119506,1,0,0:0:0:0:
64,192,119571,1,0,0:0:0:0:
448,192,119636,128,0,120419:0:0:0:0:
192,192,119636,128,0,119897:0:0:0:0:
64,192,119766,128,0,120027:0:0:0:0:
320,192,119897,128,0,120027:0:0:0:0:
192,192,120027,128,0,120158:0:0:0:0:
64,192,120158,128,0,120419:0:0:0:0:
320,192,120158,128,0,120419:0:0:0:0:
192,192,120419,1,0,0:0:0:0:
448,192,120680,1,0,0:0:0:0:
320,192,120680,1,0,0:0:0:0:
64,192,120680,1,0,0:0:0:0:
64,192,120940,128,0,121071:0:0:0:0:
320,192,120940,1,0,0:0:0:0:
192,192,121071,128,0,121201:0:0:0:0:
448,192,121071,1,0,0:0:0:0:
64,192,121201,128,0,121593:0:0:0:0:
320,192,121201,1,0,0:0:0:0:
320,192,121462,128,0,121593:0:0:0:0:
448,192,121462,1,0,0:0:0:0:
448,192,121723,128,0,121853:0:0:0:0:
192,192,121723,128,0,121853:0:0:0:0:
64,192,121723,1,0,0:0:0:0:
320,192,121853,1,0,0:0:0:0:
64,192,121984,1,0,0:0:0:0:
320,192,122114,128,0,122245:0:0:0:0:
192,192,122114,128,0,122245:0:0:0:0:
448,192,122114,1,0,0:0:0:0:
64,192,122245,1,0,0:0:0:0:
448,192,122375,1,0,0:0:0:0:
64,192,122506,1,0,0:0:0:0:
192,192,122506,128,0,122897:0:0:0:0:
320,192,122506,128,0,122766:0:0:0:0:
448,192,122636,1,0,0:0:0:0:
64,192,122766,1,0,0:0:0:0:
320,192,123027,1,0,0:0:0:0:
448,192,123027,128,0,123288:0:0:0:0:
192,192,123158,1,0,0:0:0:0:
64,192,123288,1,0,0:0:0:0:
320,192,123288,128,0,124201:0:0:0:0:
192,192,123549,1,0,0:0:0:0:
64,192,123680,1,0,0:0:0:0:
448,192,123810,1,0,0:0:0:0:
192,192,123810,1,0,0:0:0:0:
64,192,124071,128,0,124332:0:0:0:0:
192,192,124201,1,0,0:0:0:0:
448,192,124332,128,0,125114:0:0:0:0:
320,192,124332,1,0,0:0:0:0:
320,192,124593,128,0,124853:0:0:0:0:
64,192,124593,1,0,0:0:0:0:
192,192,124723,1,0,0:0:0:0:
64,192,124853,1,0,0:0:0:0:
320,192,125114,1,0,0:0:0:0:
192,192,125114,1,0,0:0:0:0:
64,192,125245,1,0,0:0:0:0:
448,192,125245,1,0,0:0:0:0:
320,192,125375,1,0,0:0:0:0:
192,192,125375,1,0,0:0:0:0:
64,192,125636,1,0,0:0:0:0:
448,192,125636,1,0,0:0:0:0:
320,192,125766,1,0,0:0:0:0:
192,192,125897,1,0,0:0:0:0:
64,192,125897,1,0,0:0:0:0:
448,192,125897,1,0,0:0:0:0:
192,192,126158,1,0,0:0:0:0:
320,192,126158,1,0,0:0:0:0:
448,192,126158,1,0,0:0:0:0:
64,192,126419,1,0,0:0:0:0:
448,192,126419,1,0,0:0:0:0:
320,192,126419,1,0,0:0:0:0:
192,192,126680,128,0,127462:0:0:0:0:
320,192,127462,128,0,127984:0:0:0:0:
448,192,127462,128,0,127593:0:0:0:0:
64,192,127462,128,0,127723:0:0:0:0:
192,192,127593,128,0,127853:0:0:0:0:
448,192,127723,128,0,127853:0:0:0:0:
64,192,127853,128,0,127984:0:0:0:0:
192,192,127984,128,0,128245:0:0:0:0:
448,192,127984,128,0,128245:0:0:0:0:
64,192,128245,1,0,0:0:0:0:
320,192,128245,128,0,128506:0:0:0:0:
448,192,128375,128,0,128636:0:0:0:0:
64,192,128506,128,0,128636:0:0:0:0:
192,192,128506,128,0,128897:0:0:0:0:
320,192,128766,128,0,128897:0:0:0:0:
448,192,128766,1,0,0:0:0:0:
64,192,128766,128,0,128897:0:0:0:0:
448,192,128897,128,0,129027:0:0:0:0:
64,192,129027,128,0,129549:0:0:0:0:
320,192,129027,1,0,0:0:0:0:
192,192,129288,1,0,0:0:0:0:
320,192,129419,1,0,0:0:0:0:
448,192,129549,128,0,129810:0:0:0:0:
192,192,129549,1,0,0:0:0:0:
320,192,129810,1,0,0:0:0:0:
192,192,129810,128,0,130071:0:0:0:0:
64,192,129940,128,0,130201:0:0:0:0:
320,192,130071,1,0,0:0:0:0:
448,192,130071,128,0,130462:0:0:0:0:
320,192,130332,128,0,130462:0:0:0:0:
64,192,130332,128,0,130593:0:0:0:0:
192,192,130462,128,0,130593:0:0:0:0:
320,192,130593,128,0,131506:0:0:0:0:
448,192,130593,128,0,130853:0:0:0:0:
64,192,130853,1,0,0:0:0:0:
192,192,130984,1,0,0:0:0:0:
448,192,131114,128,0,131506:0:0:0:0:
64,192,131114,1,0,0:0:0:0:
192,192,131375,1,0,0:0:0:0:
64,192,131506,1,0,0:0:0:0:
192,192,131636,128,0,131766:0:0:0:0:
320,192,131636,128,0,131766:0:0:0:0:
448,192,131636,128,0,132158:0:0:0:0:
192,192,131897,1,0,0:0:0:0:
64,192,131897,1,0,0:0:0:0:
320,192,132027,1,0,0:0:0:0:
64,192,132027,1,0,0:0:0:0:
192,192,132158,1,0,0:0:0:0:
64,192,132158,128,0,132680:0:0:0:0:
192,192,132419,128,0,132549:0:0:0:0:
320,192,132419,1,0,0:0:0:0:
320,192,132549,128,0,132680:0:0:0:0:
448,192,132549,1,0,0:0:0:0:
192,192,132680,128,0,132940:0:0:0:0:
448,192,132810,128,0,133071:0:0:0:0:
64,192,132940,128,0,133201:0:0:0:0:
320,192,133071,128,0,133201:0:0:0:0:
192,192,133201,1,0,0:0:0:0:
448,192,133201,128,0,133593:0:0:0:0:
320,192,133462,128,0,134245:0:0:0:0:
64,192,133462,128,0,133593:0:0:0:0:
192,192,133593,128,0,133853:0:0:0:0:
448,192,133723,128,0,133984:0:0:0:0:
64,192,133723,1,0,0:0:0:0:
192,192,133984,1,0,0:0:0:0:
448,192,134114,128,0,135158:0:0:0:0:
64,192,134114,1,0,0:0:0:0:
64,192,134245,128,0,135027:0:0:0:0:
192,192,134245,128,0,134375:0:0:0:0:
320,192,134506,128,0,134766:0:0:0:0:
192,192,134506,128,0,134636:0:0:0:0:
192,192,134766,128,0,134897:0:0:0:0:
320,192,135027,128,0,135158:0:0:0:0:
192,192,135158,1,0,0:0:0:0:
64,192,135288,128,0,135419:0:0:0:0:
448,192,135288,128,0,135680:0:0:0:0:
192,192,135419,128,0,135549:0:0:0:0:
320,192,135549,128,0,135680:0:0:0:0:
64,192,135549,128,0,135680:0:0:0:0:
192,192,135680,128,0,135810:0:0:0:0:
320,192,135810,128,0,135940:0:0:0:0:
448,192,135810,128,0,136071:0:0:0:0:
64,192,135810,1,0,0:0:0:0:
64,192,135940,128,0,136201:0:0:0:0:
192,192,136071,128,0,136201:0:0:0:0:
320,192,136201,128,0,136332:0:0:0:0:
64,192,136332,128,0,136462:0:0:0:0:
448,192,136332,128,0,136853:0:0:0:0:
192,192,136332,128,0,136593:0:0:0:0:
320,192,136593,128,0,136853:0:0:0:0:
64,192,136593,1,0,0:0:0:0:
192,192,136853,128,0,137114:0:0:0:0:
64,192,136853,128,0,137245:0:0:0:0:
448,192,137114,128,0,137375:0:0:0:0:
320,192,137114,1,0,0:0:0:0:
192,192,137375,128,0,137636:0:0:0:0:
64,192,137375,128,0,137897:0:0:0:0:
320,192,137375,1,0,0:0:0:0:
448,192,137636,128,0,137766:0:0:0:0:
320,192,137766,128,0,137897:0:0:0:0:
192,192,137897,128,0,138158:0:0:0:0:
320,192,138158,128,0,138288:0:0:0:0:
64,192,138158,128,0,138288:0:0:0:0:
192,192,138288,128,0,138419:0:0:0:0:
448,192,138288,128,0,138419:0:0:0:0:
64,192,138419,128,0,138810:0:0:0:0:
320,192,138419,1,0,0:0:0:0:
448,192,138680,128,0,138810:0:0:0:0:
64,192,138940,1,0,0:0:0:0:
320,192,138940,1,0,0:0:0:0:
448,192,138940,128,0,139332:0:0:0:0:
64,192,139201,128,0,139332:0:0:0:0:
320,192,139201,1,0,0:0:0:0:
192,192,139332,128,0,139462:0:0:0:0:
64,192,139462,1,0,0:0:0:0:
448,192,139462,128,0,139853:0:0:0:0:
320,192,139723,128,0,139853:0:0:0:0:
64,192,139723,1,0,0:0:0:0:
192,192,139853,128,0,139984:0:0:0:0:
64,192,139984,128,0,140114:0:0:0:0:
320,192,139984,128,0,140114:0:0:0:0:
448,192,139984,128,0,140375:0:0:0:0:
64,192,140245,1,0,0:0:0:0:
192,192,140245,1,0,0:0:0:0:
320,192,140375,1,0,0:0:0:0:
192,192,140506,1,0,0:0:0:0:
64,192,140506,1,0,0:0:0:0:
448,192,140506,128,0,141027:0:0:0:0:
192,192,140766,128,0,140897:0:0:0:0:
64,192,140766,1,0,0:0:0:0:
320,192,140897,128,0,141027:0:0:0:0:
192,192,141027,1,0,0:0:0:0:
64,192,141027,128,0,141288:0:0:0:0:
448,192,141158,128,0,141419:0:0:0:0:
192,192,141288,128,0,141549:0:0:0:0:
320,192,141419,128,0,141549:0:0:0:0:
64,192,141419,128,0,141680:0:0:0:0:
448,192,141549,128,0,141810:0:0:0:0:
64,192,141810,128,0,142071:0:0:0:0:
320,192,141810,128,0,142462:0:0:0:0:
192,192,141940,128,0,142201:0:0:0:0:
448,192,142071,128,0,142332:0:0:0:0:
64,192,142332,1,0,0:0:0:0:
192,192,142462,1,0,0:0:0:0:
448,192,142462,128,0,143636:0:0:0:0:
320,192,142593,128,0,143375:0:0:0:0:
64,192,142593,128,0,142723:0:0:0:0:
192,192,142853,128,0,142984:0:0:0:0:
64,192,143114,128,0,143245:0:0:0:0:
192,192,143375,128,0,144680:0:0:0:0:
320,192,143636,128,0,144680:0:0:0:0:
64,192,144680,1,0,0:0:0:0:
448,192,144680,1,0,0:0:0:0:
64,192,145462,128,0,145984:0:0:0:0:
320,192,145723,128,0,146245:0:0:0:0:
192,192,145984,128,0,146506:0:0:0:0:
448,192,146245,128,0,146766:0:0:0:0:
64,192,146766,128,0,147027:0:0:0:0:
320,192,146766,128,0,147288:0:0:0:0:
448,192,147549,128,0,148071:0:0:0:0:
64,192,147810,128,0,148332:0:0:0:0:
320,192,148071,128,0,148593:0:0:0:0:
192,192,148332,128,0,148853:0:0:0:0:
64,192,148853,128,0,149375:0:0:0:0:
320,192,148853,128,0,149375:0:0:0:0:
448,192,148853,128,0,149114:0:0:0:0:
64,192,150288,1,0,0:0:0:0:
448,192,150419,1,0,0:0:0:0:
320,192,150680,1,0,0:0:0:0:
192,192,150680,1,0,0:0:0:0:
192,192,150940,128,0,151201:0:0:0:0:
64,192,150940,128,0,151201:0:0:0:0:
64,192,151332,1,0,0:0:0:0:
192,192,151332,1,0,0:0:0:0:
320,192,151723,128,0,151984:0:0:0:0:
448,192,151723,128,0,151984:0:0:0:0:
448,192,152114,1,0,0:0:0:0:
320,192,152114,1,0,0:0:0:0:
320,192,152506,128,0,152766:0:0:0:0:
192,192,152506,128,0,152766:0:0:0:0:
448,192,152766,1,0,0:0:0:0:
64,192,152766,1,0,0:0:0:0:
320,192,152897,1,0,0:0:0:0:
192,192,152897,1,0,0:0:0:0:
448,192,153027,128,0,155114:0:0:0:0:
320,192,153810,128,0,154071:0:0:0:0:
192,192,154071,128,0,154332:0:0:0:0:
64,192,154332,128,0,154593:0:0:0:0:
320,192,154593,128,0,154984:0:0:0:0:
64,192,154853,128,0,155114:0:0:0:0:
192,192,155114,128,0,157201:0:0:0:0:
320,192,155114,128,0,155375:0:0:0:0:
448,192,155506,128,0,155766:0:0:0:0:
320,192,155897,128,0,156810:0:0:0:0:
448,192,155897,128,0,156810:0:0:0:0:
64,192,156940,128,0,157071:0:0:0:0:
320,192,157201,128,0,159223:0:0:0:0:
64,192,157593,128,0,157984:0:0:0:0:
192,192,157984,128,0,158375:0:0:0:0:
448,192,158375,128,0,159223:0:0:0:0:
64,192,158766,128,0,159223:0:0:0:0:
192,192,158766,128,0,159223:0:0:0:0:
64,192,159288,1,0,0:0:0:0:
192,192,159288,1,0,0:0:0:0:
320,192,159288,1,0,0:0:0:0:
448,192,159288,1,0,0:0:0:0:
448,192,159419,1,0,0:0:0:0:
64,192,159419,1,0,0:0:0:0:
192,192,159419,1,0,0:0:0:0:
320,192,159419,1,0,0:0:0:0:
64,192,159549,128,0,160723:0:0:0:0:
192,192,159549,128,0,160723:0:0:0:0:
448,192,159549,128,0,161245:0:0:0:0:
320,192,159549,128,0,160462:0:0:0:0:
320,192,160593,128,0,160853:0:0:0:0:
192,192,160853,1,0,0:0:0:0:
64,192,160853,128,0,161245:0:0:0:0:
320,192,160984,1,0,0:0:0:0:
192,192,161114,1,0,0:0:0:0:
320,192,161245,1,0,0:0:0:0:
192,192,161375,128,0,161506:0:0:0:0:
320,192,161375,128,0,161636:0:0:0:0:
448,192,161506,128,0,161766:0:0:0:0:
64,192,161506,128,0,161766:0:0:0:0:
192,192,161636,128,0,161897:0:0:0:0:
320,192,161766,128,0,162027:0:0:0:0:
448,192,161897,128,0,162027:0:0:0:0:
64,192,161897,128,0,162027:0:0:0:0:
64,192,162158,1,0,0:0:0:0:
320,192,162158,1,0,0:0:0:0:
448,192,162158,1,0,0:0:0:0:
192,192,162288,1,0,0:0:0:0:
64,192,162288,1,0,0:0:0:0:
448,192,162419,1,0,0:0:0:0:
192,192,162419,1,0,0:0:0:0:
64,192,162680,1,0,0:0:0:0:
192,192,162680,1,0,0:0:0:0:
448,192,162810,1,0,0:0:0:0:
320,192,162810,1,0,0:0:0:0:
192,192,162940,1,0,0:0:0:0:
64,192,162940,1,0,0:0:0:0:
448,192,162940,128,0,163201:0:0:0:0:
320,192,163071,128,0,163332:0:0:0:0:
64,192,163201,128,0,163332:0:0:0:0:
192,192,163201,128,0,163462:0:0:0:0:
448,192,163332,128,0,163593:0:0:0:0:
320,192,163462,128,0,163593:0:0:0:0:
64,192,163462,128,0,163593:0:0:0:0:
64,192,163723,1,0,0:0:0:0:
320,192,163723,1,0,0:0:0:0:
192,192,163853,128,0,164114:0:0:0:0:
448,192,163853,128,0,163984:0:0:0:0:
64,192,163984,1,0,0:0:0:0:
320,192,163984,1,0,0:0:0:0:
192,192,164245,1,0,0:0:0:0:
320,192,164245,128,0,165027:0:0:0:0:
448,192,164245,128,0,164766:0:0:0:0:
64,192,164375,1,0,0:0:0:0:
192,192,164506,1,0,0:0:0:0:
64,192,164766,1,0,0:0:0:0:
192,192,164897,1,0,0:0:0:0:
64,192,165027,1,0,0:0:0:0:
448,192,165027,1,0,0:0:0:0:
64,192,165288,128,0,165549:0:0:0:0:
320,192,165288,1,0,0:0:0:0:
192,192,165419,128,0,165680:0:0:0:0:
320,192,165549,128,0,165810:0:0:0:0:
448,192,165549,128,0,166071:0:0:0:0:
64,192,165810,1,0,0:0:0:0:
320,192,165940,128,0,166071:0:0:0:0:
64,192,165940,128,0,166071:0:0:0:0:
192,192,166071,1,0,0:0:0:0:
320,192,166245,128,0,166332:0:0:0:0:
448,192,166245,128,0,166332:0:0:0:0:
64,192,166332,1,0,0:0:0:0:
192,192,166375,1,0,0:0:0:0:
448,192,166419,1,0,0:0:0:0:
320,192,166462,1,0,0:0:0:0:
192,192,166506,1,0,0:0:0:0:
64,192,166549,1,0,0:0:0:0:
448,192,166549,1,0,0:0:0:0:
320,192,166593,128,0,167245:0:0:0:0:
64,192,166853,1,0,0:0:0:0:
192,192,166984,1,0,0:0:0:0:
64,192,167114,1,0,0:0:0:0:
448,192,167114,128,0,167506:0:0:0:0:
320,192,167375,128,0,167506:0:0:0:0:
64,192,167375,1,0,0:0:0:0:
192,192,167506,1,0,0:0:0:0:
320,192,167636,128,0,167766:0:0:0:0:
448,192,167636,128,0,167766:0:0:0:0:
64,192,167636,1,0,0:0:0:0:
192,192,167766,1,0,0:0:0:0:
64,192,167897,1,0,0:0:0:0:
448,192,167897,1,0,0:0:0:0:
448,192,168027,128,0,168158:0:0:0:0:
64,192,168027,128,0,168158:0:0:0:0:
192,192,168158,1,0,0:0:0:0:
320,192,168288,1,0,0:0:0:0:
448,192,168419,1,0,0:0:0:0:
64,192,168419,128,0,168549:0:0:0:0:
192,192,168484,128,0,168614:0:0:0:0:
448,192,168549,128,0,168680:0:0:0:0:
320,192,168614,128,0,168745:0:0:0:0:
64,192,168680,1,0,0:0:0:0:
192,192,168680,128,0,169201:0:0:0:0:
320,192,168940,1,0,0:0:0:0:
448,192,168940,1,0,0:0:0:0:
448,192,169071,128,0,169201:0:0:0:0:
320,192,169071,128,0,169201:0:0:0:0:
64,192,169201,1,0,0:0:0:0:
192,192,169266,1,0,0:0:0:0:
448,192,169332,1,0,0:0:0:0:
320,192,169397,1,0,0:0:0:0:
192,192,169462,1,0,0:0:0:0:
448,192,169527,1,0,0:0:0:0:
320,192,169593,1,0,0:0:0:0:
64,192,169658,1,0,0:0:0:0:
448,192,169723,128,0,170506:0:0:0:0:
192,192,169723,128,0,169984:0:0:0:0:
64,192,169853,128,0,170114:0:0:0:0:
320,192,169984,128,0,170114:0:0:0:0:
192,192,170114,128,0,170245:0:0:0:0:
64,192,170245,128,0,170506:0:0:0:0:
320,192,170245,128,0,170506:0:0:0:0:
192,192,170506,1,0,0:0:0:0:
448,192,170766,1,0,0:0:0:0:
320,192,170766,1,0,0:0:0:0:
64,192,170766,1,0,0:0:0:0:
64,192,171027,128,0,171158:0:0:0:0:
320,192,171027,1,0,0:0:0:0:
192,192,171158,128,0,171288:0:0:0:0:
448,192,171158,1,0,0:0:0:0:
64,192,171288,128,0,171680:0:0:0:0:
320,192,171288,1,0,0:0:0:0:
320,192,171549,128,0,171680:0:0:0:0:
448,192,171549,1,0,0:0:0:0:
448,192,171810,128,0,171940:0:0:0:0:
192,192,171810,128,0,171940:0:0:0:0:
64,192,171810,1,0,0:0:0:0:
320,192,171940,1,0,0:0:0:0:
64,192,172071,1,0,0:0:0:0:
320,192,172201,128,0,172332:0:0:0:0:
192,192,172201,128,0,172332:0:0:0:0:
448,192,172201,1,0,0:0:0:0:
64,192,172332,1,0,0:0:0:0:
448,192,172462,1,0,0:0:0:0:
64,192,172593,1,0,0:0:0:0:
192,192,172593,128,0,172984:0:0:0:0:
320,192,172593,128,0,172853:0:0:0:0:
448,192,172723,1,0,0:0:0:0:
64,192,172853,1,0,0:0:0:0:
320,192,173114,1,0,0:0:0:0:
448,192,173114,128,0,173375:0:0:0:0:
192,192,173245,1,0,0:0:0:0:
64,192,173375,1,0,0:0:0:0:
320,192,173375,128,0,174288:0:0:0:0:
192,192,173636,1,0,0:0:0:0:
64,192,173766,1,0,0:0:0:0:
448,192,173897,1,0,0:0:0:0:
192,192,173897,1,0,0:0:0:0:
64,192,174158,128,0,174419:0:0:0:0:
192,192,174288,1,0,0:0:0:0:
448,192,174419,128,0,175201:0:0:0:0:
320,192,174419,1,0,0:0:0:0:
320,192,174680,128,0,174940:0:0:0:0:
64,192,174680,1,0,0:0:0:0:
192,192,174810,1,0,0:0:0:0:
64,192,174940,1,0,0:0:0:0:
320,192,175201,1,0,0:0:0:0:
192,192,175201,1,0,0:0:0:0:
64,192,175332,1,0,0:0:0:0:
448,192,175332,1,0,0:0:0:0:
320,192,175462,1,0,0:0:0:0:
192,192,175462,1,0,0:0:0:0:
64,192,175723,1,0,0:0:0:0:
448,192,175723,1,0,0:0:0:0:
320,192,175853,1,0,0:0:0:0:
64,192,175984,128,0,176375:0:0:0:0:
192,192,175984,128,0,176114:0:0:0:0:
448,192,175984,128,0,176114:0:0:0:0:
192,192,176245,128,0,176375:0:0:0:0:
320,192,176245,128,0,176375:0:0:0:0:
448,192,176245,128,0,176636:0:0:0:0:
320,192,176506,128,0,176636:0:0:0:0:
64,192,176506,128,0,176636:0:0:0:0:
192,192,176766,128,0,177549:0:0:0:0:
320,192,177549,128,0,178071:0:0:0:0:
448,192,177549,128,0,177680:0:0:0:0:
64,192,177549,128,0,177810:0:0:0:0:
192,192,177680,128,0,177940:0:0:0:0:
448,192,177810,128,0,177940:0:0:0:0:
64,192,177940,128,0,178071:0:0:0:0:
192,192,178071,128,0,178332:0:0:0:0:
448,192,178071,128,0,178332:0:0:0:0:
64,192,178332,1,0,0:0:0:0:
320,192,178332,128,0,178593:0:0:0:0:
448,192,178462,128,0,178723:0:0:0:0:
64,192,178593,128,0,178723:0:0:0:0:
192,192,178593,128,0,178984:0:0:0:0:
320,192,178853,128,0,178984:0:0:0:0:
448,192,178853,1,0,0:0:0:0:
64,192,178853,128,0,178984:0:0:0:0:
448,192,178984,128,0,179114:0:0:0:0:
64,192,179114,128,0,179636:0:0:0:0:
320,192,179114,1,0,0:0:0:0:
192,192,179375,1,0,0:0:0:0:
320,192,179506,1,0,0:0:0:0:
448,192,179636,128,0,179897:0:0:0:0:
192,192,179636,1,0,0:0:0:0:
320,192,179897,1,0,0:0:0:0:
192,192,179897,128,0,180158:0:0:0:0:
64,192,180027,128,0,180288:0:0:0:0:
320,192,180158,1,0,0:0:0:0:
448,192,180158,128,0,180549:0:0:0:0:
320,192,180419,128,0,180549:0:0:0:0:
64,192,180419,128,0,180680:0:0:0:0:
192,192,180549,128,0,180680:0:0:0:0:
320,192,180680,128,0,181593:0:0:0:0:
448,192,180680,128,0,180940:0:0:0:0:
64,192,180940,1,0,0:0:0:0:
192,192,181071,1,0,0:0:0:0:
448,192,181201,128,0,181593:0:0:0:0:
64,192,181201,1,0,0:0:0:0:
192,192,181462,1,0,0:0:0:0:
64,192,181593,1,0,0:0:0:0:
192,192,181723,128,0,181853:0:0:0:0:
320,192,181723,128,0,181853:0:0:0:0:
448,192,181723,128,0,182245:0:0:0:0:
192,192,181984,1,0,0:0:0:0:
64,192,181984,1,0,0:0:0:0:
320,192,182114,1,0,0:0:0:0:
64,192,182114,1,0,0:0:0:0:
192,192,182245,1,0,0:0:0:0:
64,192,182245,128,0,182766:0:0:0:0:
192,192,182506,128,0,182636:0:0:0:0:
320,192,182506,1,0,0:0:0:0:
320,192,182636,128,0,182766:0:0:0:0:
448,192,182636,1,0,0:0:0:0:
192,192,182766,128,0,183027:0:0:0:0:
448,192,182897,128,0,183158:0:0:0:0:
64,192,183027,128,0,183288:0:0:0:0:
320,192,183158,128,0,183288:0:0:0:0:
192,192,183288,1,0,0:0:0:0:
448,192,183288,128,0,183680:0:0:0:0:
320,192,183549,128,0,184332:0:0:0:0:
64,192,183549,128,0,183680:0:0:0:0:
192,192,183680,128,0,183940:0:0:0:0:
448,192,183810,128,0,184071:0:0:0:0:
64,192,183810,1,0,0:0:0:0:
192,192,184071,1,0,0:0:0:0:
448,192,184201,128,0,185245:0:0:0:0:
64,192,184201,1,0,0:0:0:0:
64,192,184332,128,0,185114:0:0:0:0:
192,192,184332,128,0,184462:0:0:0:0:
320,192,184593,128,0,184853:0:0:0:0:
192,192,184593,128,0,184723:0:0:0:0:
192,192,184853,128,0,184984:0:0:0:0:
320,192,185114,128,0,185245:0:0:0:0:
192,192,185245,1,0,0:0:0:0:
64,192,185375,128,0,185506:0:0:0:0:
448,192,185375,128,0,185766:0:0:0:0:
192,192,185506,128,0,185636:0:0:0:0:
320,192,185636,128,0,185766:0:0:0:0:
64,192,185636,128,0,185766:0:0:0:0:
192,192,185766,128,0,185897:0:0:0:0:
320,192,185897,128,0,186027:0:0:0:0:
448,192,185897,128,0,186158:0:0:0:0:
64,192,185897,1,0,0:0:0:0:
64,192,186027,128,0,186288:0:0:0:0:
192,192,186158,128,0,186288:0:0:0:0:
320,192,186288,128,0,186419:0:0:0:0:
64,192,186419,128,0,186549:0:0:0:0:
448,192,186419,128,0,186940:0:0:0:0:
192,192,186419,128,0,186680:0:0:0:0:
320,192,186680,128,0,186940:0:0:0:0:
64,192,186680,1,0,0:0:0:0:
192,192,186940,128,0,187201:0:0:0:0:
64,192,186940,128,0,187332:0:0:0:0:
448,192,187201,128,0,187462:0:0:0:0:
320,192,187201,1,0,0:0:0:0:
192,192,187462,128,0,187723:0:0:0:0:
64,192,187462,128,0,187984:0:0:0:0:
320,192,187462,1,0,0:0:0:0:
448,192,187723,128,0,187853:0:0:0:0:
320,192,187853,128,0,187984:0:0:0:0:
192,192,187984,128,0,188245:0:0:0:0:
320,192,188245,128,0,188375:0:0:0:0:
64,192,188245,128,0,188375:0:0:0:0:
192,192,188375,128,0,188506:0:0:0:0:
448,192,188375,128,0,188506:0:0:0:0:
64,192,188506,128,0,188897:0:0:0:0:
320,192,188506,1,0,0:0:0:0:
448,192,188766,128,0,188897:0:0:0:0:
64,192,189027,1,0,0:0:0:0:
320,192,189027,1,0,0:0:0:0:
448,192,189027,128,0,189419:0:0:0:0:
64,192,189288,128,0,189419:0:0:0:0:
320,192,189288,1,0,0:0:0:0:
192,192,189419,128,0,189549:0:0:0:0:
64,192,189549,1,0,0:0:0:0:
448,192,189549,128,0,189940:0:0:0:0:
320,192,189810,128,0,189940:0:0:0:0:
64,192,189810,1,0,0:0:0:0:
192,192,189940,128,0,190071:0:0:0:0:
64,192,190071,128,0,190201:0:0:0:0:
320,192,190071,128,0,190201:0:0:0:0:
448,192,190071,128,0,190462:0:0:0:0:
64,192,190332,1,0,0:0:0:0:
192,192,190332,1,0,0:0:0:0:
320,192,190462,1,0,0:0:0:0:
192,192,190593,1,0,0:0:0:0:
64,192,190593,1,0,0:0:0:0:
448,192,190593,128,0,191114:0:0:0:0:
192,192,190853,128,0,190984:0:0:0:0:
64,192,190853,1,0,0:0:0:0:
320,192,190984,128,0,191114:0:0:0:0:
192,192,191114,1,0,0:0:0:0:
64,192,191114,128,0,191375:0:0:0:0:
448,192,191245,128,0,191506:0:0:0:0:
192,192,191375,128,0,191636:0:0:0:0:
320,192,191506,128,0,191636:0:0:0:0:
64,192,191506,128,0,191766:0:0:0:0:
448,192,191636,128,0,191897:0:0:0:0:
64,192,191897,128,0,192158:0:0:0:0:
320,192,191897,128,0,192549:0:0:0:0:
192,192,192027,128,0,192288:0:0:0:0:
448,192,192158,128,0,192419:0:0:0:0:
64,192,192419,1,0,0:0:0:0:
192,192,192549,1,0,0:0:0:0:
448,192,192549,128,0,193723:0:0:0:0:
320,192,192680,128,0,193462:0:0:0:0:
64,192,192680,128,0,192810:0:0:0:0:
192,192,192940,128,0,193071:0:0:0:0:
64,192,193201,128,0,193332:0:0:0:0:
192,192,193462,128,0,193593:0:0:0:0:
64,192,193593,1,0,0:0:0:0:
320,192,193723,1,0,0:0:0:0:
192,192,193723,1,0,0:0:0:0:
320,192,193853,1,0,0:0:0:0:
192,192,193853,1,0,0:0:0:0:
64,192,193984,1,0,0:0:0:0:
320,192,194114,1,0,0:0:0:0:
192,192,194114,1,0,0:0:0:0:
320,192,194245,1,0,0:0:0:0:
192,192,194245,1,0,0:0:0:0:
448,192,194375,1,0,0:0:0:0:
64,192,194375,1,0,0:0:0:0:
320,192,194506,1,0,0:0:0:0:
192,192,194506,1,0,0:0:0:0:
192,192,194636,1,0,0:0:0:0:
320,192,194636,1,0,0:0:0:0:
64,192,194766,128,0,195027:0:0:0:0:
192,192,194766,128,0,195027:0:0:0:0:
448,192,194766,1,0,0:0:0:0:
320,192,194766,1,0,0:0:0:0:
320,192,195027,128,0,195288:0:0:0:0:
448,192,195158,128,0,195419:0:0:0:0:
64,192,195288,128,0,195419:0:0:0:0:
192,192,195288,128,0,195680:0:0:0:0:
320,192,195549,128,0,195680:0:0:0:0:
448,192,195549,1,0,0:0:0:0:
64,192,195549,128,0,195680:0:0:0:0:
448,192,195680,128,0,195810:0:0:0:0:
64,192,195810,128,0,196332:0:0:0:0:
320,192,195810,1,0,0:0:0:0:
192,192,196071,1,0,0:0:0:0:
320,192,196201,1,0,0:0:0:0:
448,192,196332,128,0,196593:0:0:0:0:
192,192,196332,1,0,0:0:0:0:
320,192,196593,1,0,0:0:0:0:
192,192,196593,128,0,196853:0:0:0:0:
64,192,196723,128,0,196984:0:0:0:0:
320,192,196853,1,0,0:0:0:0:
448,192,196853,128,0,197245:0:0:0:0:
320,192,197114,128,0,197245:0:0:0:0:
64,192,197114,128,0,197375:0:0:0:0:
192,192,197245,128,0,197375:0:0:0:0:
320,192,197375,128,0,198288:0:0:0:0:
448,192,197375,128,0,197636:0:0:0:0:
64,192,197636,1,0,0:0:0:0:
192,192,197766,1,0,0:0:0:0:
448,192,197897,128,0,198288:0:0:0:0:
64,192,197897,1,0,0:0:0:0:
192,192,198158,1,0,0:0:0:0:
64,192,198288,1,0,0:0:0:0:
192,192,198419,128,0,198549:0:0:0:0:
320,192,198419,128,0,198549:0:0:0:0:
448,192,198419,128,0,198940:0:0:0:0:
192,192,198680,1,0,0:0:0:0:
64,192,198680,1,0,0:0:0:0:
320,192,198810,1,0,0:0:0:0:
64,192,198810,1,0,0:0:0:0:
192,192,198940,1,0,0:0:0:0:
64,192,198940,128,0,199462:0:0:0:0:
320,192,199201,128,0,199332:0:0:0:0:
192,192,199201,1,0,0:0:0:0:
192,192,199332,128,0,199462:0:0:0:0:
448,192,199332,1,0,0:0:0:0:
320,192,199462,1,0,0:0:0:0:
448,192,199462,128,0,199723:0:0:0:0:
64,192,199593,128,0,199853:0:0:0:0:
320,192,199723,128,0,199853:0:0:0:0:
192,192,199853,128,0,199984:0:0:0:0:
448,192,199984,1,0,0:0:0:0:
320,192,199984,128,0,200375:0:0:0:0:
64,192,199984,128,0,200245:0:0:0:0:
448,192,200245,128,0,200897:0:0:0:0:
64,192,200375,128,0,200636:0:0:0:0:
192,192,200506,128,0,200766:0:0:0:0:
320,192,200506,1,0,0:0:0:0:
64,192,200766,1,0,0:0:0:0:
192,192,200897,1,0,0:0:0:0:
320,192,200897,128,0,201419:0:0:0:0:
448,192,201027,128,0,202071:0:0:0:0:
64,192,201027,128,0,201158:0:0:0:0:
192,192,201288,128,0,201419:0:0:0:0:
64,192,201549,1,0,0:0:0:0:
192,192,201549,128,0,201680:0:0:0:0:
320,192,201810,128,0,201940:0:0:0:0:
192,192,201810,1,0,0:0:0:0:
64,192,202071,128,0,202201:0:0:0:0:
320,192,202071,1,0,0:0:0:0:
192,192,202071,128,0,202332:0:0:0:0:
448,192,202201,128,0,202332:0:0:0:0:
320,192,202332,128,0,202462:0:0:0:0:
64,192,202332,128,0,202593:0:0:0:0:
192,192,202462,128,0,202593:0:0:0:0:
320,192,202593,128,0,202853:0:0:0:0:
448,192,202593,128,0,202723:0:0:0:0:
192,192,202723,128,0,202984:0:0:0:0:
64,192,202853,128,0,202984:0:0:0:0:
320,192,202984,128,0,203114:0:0:0:0:
64,192,203114,128,0,203636:0:0:0:0:
448,192,203114,128,0,203375:0:0:0:0:
192,192,203114,128,0,203245:0:0:0:0:
320,192,203375,128,0,203636:0:0:0:0:
192,192,203375,128,0,203506:0:0:0:0:
192,192,203636,128,0,203897:0:0:0:0:
448,192,203636,128,0,203766:0:0:0:0:
64,192,203897,128,0,204027:0:0:0:0:
320,192,203897,128,0,204027:0:0:0:0:
192,192,204158,128,0,204288:0:0:0:0:
64,192,204158,128,0,204549:0:0:0:0:
448,192,204158,128,0,204419:0:0:0:0:
192,192,204419,128,0,204549:0:0:0:0:
320,192,204419,1,0,0:0:0:0:
320,192,204549,128,0,204680:0:0:0:0:
448,192,204549,1,0,0:0:0:0:
192,192,204680,128,0,204940:0:0:0:0:
64,192,204680,1,0,0:0:0:0:
64,192,204940,128,0,205071:0:0:0:0:
448,192,204940,128,0,205071:0:0:0:0:
320,192,205071,128,0,205201:0:0:0:0:
64,192,205201,128,0,205332:0:0:0:0:
192,192,205201,128,0,205593:0:0:0:0:
448,192,205201,1,0,0:0:0:0:
320,192,205462,128,0,205593:0:0:0:0:
448,192,205462,128,0,205593:0:0:0:0:
64,192,205723,128,0,206114:0:0:0:0:
192,192,205723,1,0,0:0:0:0:
448,192,205723,1,0,0:0:0:0:
320,192,205984,128,0,206114:0:0:0:0:
448,192,205984,128,0,206049:0:0:0:0:
192,192,206114,128,0,206245:0:0:0:0:
448,192,206114,128,0,206180:0:0:0:0:
64,192,206245,128,0,206636:0:0:0:0:
192,192,206506,128,0,206636:0:0:0:0:
320,192,206506,128,0,206571:0:0:0:0:
320,192,206636,128,0,206766:0:0:0:0:
448,192,206636,128,0,206701:0:0:0:0:
448,192,206766,128,0,206897:0:0:0:0:
192,192,206766,128,0,207288:0:0:0:0:
64,192,206766,1,0,0:0:0:0:
64,192,207027,1,0,0:0:0:0:
448,192,207027,1,0,0:0:0:0:
320,192,207158,1,0,0:0:0:0:
448,192,207288,1,0,0:0:0:0:
64,192,207288,128,0,207680:0:0:0:0:
320,192,207549,128,0,207680:0:0:0:0:
192,192,207549,1,0,0:0:0:0:
192,192,207680,128,0,207810:0:0:0:0:
448,192,207680,1,0,0:0:0:0:
320,192,207810,1,0,0:0:0:0:
64,192,207810,128,0,208071:0:0:0:0:
448,192,207940,128,0,208201:0:0:0:0:
320,192,208071,128,0,208201:0:0:0:0:
192,192,208201,128,0,208332:0:0:0:0:
64,192,208201,128,0,208462:0:0:0:0:
448,192,208332,128,0,208593:0:0:0:0:
320,192,208332,1,0,0:0:0:0:
192,192,208593,128,0,209375:0:0:0:0:
320,192,208723,128,0,208984:0:0:0:0:
448,192,208853,128,0,209114:0:0:0:0:
64,192,209114,1,0,0:0:0:0:
448,192,209245,1,0,0:0:0:0:
320,192,209245,1,0,0:0:0:0:
64,192,209375,1,0,0:0:0:0:
448,192,209375,128,0,209897:0:0:0:0:
320,192,209636,128,0,209897:0:0:0:0:
64,192,209636,1,0,0:0:0:0:
192,192,209766,1,0,0:0:0:0:
64,192,209897,128,0,210158:0:0:0:0:
192,192,210158,128,0,210680:0:0:0:0:
448,192,210158,1,0,0:0:0:0:
320,192,210288,1,0,0:0:0:0:
448,192,210419,1,0,0:0:0:0:
64,192,210419,1,0,0:0:0:0:
448,192,210549,1,0,0:0:0:0:
64,192,210549,1,0,0:0:0:0:
64,192,210810,1,0,0:0:0:0:
448,192,210810,1,0,0:0:0:0:
320,192,210810,1,0,0:0:0:0:
64,192,210940,1,0,0:0:0:0:
320,192,210940,1,0,0:0:0:0:
448,192,210940,1,0,0:0:0:0:
448,192,211071,1,0,0:0:0:0:
320,192,211071,1,0,0:0:0:0:
64,192,211071,1,0,0:0:0:0:
64,192,211201,1,0,0:0:0:0:
192,192,211201,1,0,0:0:0:0:
448,192,211332,1,0,0:0:0:0:
192,192,211332,1,0,0:0:0:0:
320,192,211332,1,0,0:0:0:0:
