osu file format v14

[General]
AudioFilename: Connecting Ver.Borders.mp3
AudioLeadIn: 0
PreviewTime: 253199
Countdown: 0
SampleSet: Soft
StackLeniency: 0.7
Mode: 0
LetterboxInBreaks: 1
WidescreenStoryboard: 1

[Editor]
Bookmarks: 2650,7924,13199,23748,34298,44847,55397,65946,76496,79133,81770,84408,97595,108144,118693,129243,137649,139792,150342,152979,155617,158254,171441,174078,176715,179353,184628,189902,200452,211001,221551,222869,224188,229463,232100,237375,242649,247924,253199,263748,274298,276935,279573,282210,284847,287485,290122,292759
DistanceSpacing: 1.2
BeatDivisor: 8
GridSize: 32
TimelineZoom: 1

[Metadata]
Title:Connecting -World Edition- [ver Borders]
TitleUnicode:Connecting -World Edition- 【ver Borders】
Artist:Various Artists
ArtistUnicode:Various Artists
Creator:buhei
Version:Connecting
Source:
Tags:蓮 renreiss Priti Krfawy -kevincela- Rohit6 Kyubey iyasine Nhawak SquaDus 茶理理 Lucky Howl cheeseman kuma☆ toriko Tune fuji halyosy [TEST] mao 530 Rinne Asako OccasionalSubs Gumiruku Lupea MGiant Umidori Vocaloid kanor Kikyo_77
BeatmapID:777147
BeatmapSetID:352658

[Difficulty]
HPDrainRate:7
CircleSize:4
OverallDifficulty:8
ApproachRate:9
SliderMultiplier:2.8
SliderTickRate:1

[Events]
//Background and Video events
0,0,"Connecting.JPG",0,0
Video,0,"Connecting[B].flv"
//Break Periods
//Storyboard Layer 0 (Background)
//Storyboard Layer 1 (Fail)
//Storyboard Layer 2 (Pass)
//Storyboard Layer 3 (Foreground)
Sprite,Foreground,Centre,"sb\Italia.png",320,240 F,0,23419,23748,0,1 S,0,23419,23748,0.45,0.4128386 M,0,23748,34298,77,130 F,0,33968,34298,1,0 F,0,128913,129243,0,1 S,0,128913,129243,0.45,0.4128386 M,0,128913,139792,77,130 F,0,139463,139792,1,0 F,0,184298,184628,0,1 M,0,184298,189902,77,377 F,0,189573,189902,1,0 F,0,222540,222869,0,1 M,0,222540,224188,300,130 F,0,223858,224188,1,0 F,0,284518,284847,0,1 M,0,284518,287485,77,320 F,0,287155,287485,1,0
Sprite,Foreground,Centre,"sb\-kevincela-.png",320,240 F,0,23419,23748,0,1 S,0,23419,23748,0.8,0.68 M,0,23748,34298,260,130 F,0,33968,34298,1,0 F,0,128913,129243,0,1 S,0,128913,129243,0.8,0.68 M,0,128913,139792,260,130 F,0,139463,139792,1,0 F,0,184298,184628,0,1 M,0,184298,189902,260,377 F,0,189573,189902,1,0 F,0,222540,222869,0,1 M,0,222540,224188,490,130 F,0,223858,224188,1,0 F,0,284518,284847,0,1 M,0,284518,287485,266,320 F,0,287155,287485,1,0
Sprite,Foreground,Centre,"sb\-kevincela- _light.png",320,240 F,0,23419,23748,0,1 S,0,23748,,0.6449031 F,0,23748,25067,1,0 S,0,23748,25067,0.68,0.75 M,0,23748,32979,260,130 F,0,129243,130232,1,0 S,0,129243,130232,0.68,0.75 M,0,129243,137649,260,130 S,0,184628,184792,0.68,0.75 M,0,184628,185287,260,377 F,0,184628,185287,1,0 S,0,184792,185287,0.75,0.79 S,0,222869,223199,0.68,0.72 M,0,222869,223529,490,130 F,0,222869,223529,1,0 S,0,223199,223529,0.72,0.75 M,0,284847,285836,266,320 F,0,284847,285836,1,0 S,0,284847,285836,0.6449031,0.75
Sprite,Foreground,Centre,"sb\Brazil.png",320,240 F,0,33968,34298,0,1 S,0,33968,34298,0.5623222,0.4219353 M,0,34298,44847,323,138 F,0,44518,44847,1,0 F,0,139463,139792,0,1 M,0,139463,150342,305,355 F,0,150012,150342,1,0 F,0,189573,189902,0,1 M,0,189573,200452,305,150 F,0,200122,200452,1,0 F,0,221221,221551,0,1 M,0,221221,222869,90,377 F,0,222540,222869,1,0 F,0,281880,282210,0,1 M,0,281880,284847,315,150 F,0,284518,284847,1,0
Sprite,Foreground,Centre,"sb\Nhawak.png",320,240 F,0,33968,34298,0,1 S,0,33968,34298,0.9258066,0.81 M,0,34298,44847,500,142 F,0,44518,44847,1,0 F,0,139463,139792,0,1 M,0,139463,150342,490,360 F,0,150012,150342,1,0 F,0,189573,189902,0,1 M,0,189573,200452,490,150 F,0,200122,200452,1,0 F,0,221221,221551,0,1 M,0,221221,222869,270,377 F,0,222540,222869,1,0 F,0,281880,282210,0,1 M,0,281880,284847,500,150 F,0,284518,284847,1,0
Sprite,Foreground,Centre,"sb\Nhawak_light.png",320,240 F,0,34298,35617,1,0 S,0,34298,35617,0.81,0.92 M,0,34298,44847,500,142 S,0,43529,,0.7357418 F,0,139792,140781,1,0 S,0,139792,140781,0.81,0.92 M,0,139792,150342,490,360 M,0,189902,190562,490,150 F,0,189902,190562,1,0 S,0,189902,190562,0.81,0.92 S,0,221551,221880,0.81,0.88 M,0,221551,222210,270,377 F,0,221551,222210,1,0 S,0,221880,222210,0.88,0.92 S,0,282210,282375,0.81,0.92 M,0,282210,282869,500,150 F,0,282210,282869,1,0 S,0,282375,282869,0.92,1.16
Sprite,Foreground,Centre,"sb\China.png",320,240 F,0,12869,13199,0,1 S,0,12869,13199,0.4879999,0.4136774 M,0,13199,23748,352,378 F,0,23419,23748,1,0 M,0,44518,44847,48,141,78,141 F,0,44518,44847,0,1 M,0,44847,55397,78,141 F,0,54737,55397,1,0 F,0,84078,84408,0,1 M,0,84078,97595,93,359 F,0,97265,97595,1,0 F,0,157924,158254,0,1 M,0,157924,171441,334,142 M,0,157924,176715,334,142 F,0,171111,171441,1,0 F,0,173748,174078,0,1 F,0,176386,176715,1,0 F,0,223858,224188,0,1 M,0,223858,229463,78,359 F,0,229133,229463,1,0 F,0,263419,263748,0,1 M,0,263419,274298,334,142 F,0,273968,274298,1,0 F,0,287155,287485,0,1 M,0,287155,290122,334,142 F,0,289782,290122,1,0
Sprite,Foreground,Centre,"sb\buhei.png",320,240 F,0,12869,13199,0,1 S,0,12869,13199,1.21471,1 F,0,13199,23419,1 M,0,13199,23748,512,379 F,0,23419,23748,1,0 M,0,44518,44847,260,146,230,146 F,0,44518,44847,0,1 S,0,44518,44847,1 M,0,44847,55397,230,146 F,0,54737,55397,1,0 F,0,84078,84408,0,1 M,0,84078,97595,245,364 F,0,97265,97595,1,0 F,0,157924,158254,0,1 M,0,157924,171441,497,145 F,0,171111,171441,1,0 F,0,173748,174078,0,1 F,0,173748,174078,0,1 M,0,173748,176715,497,145 M,0,173748,176715,497,145 F,0,176386,176715,1,0 F,0,176386,176715,1,0 F,0,223858,224188,0,1 M,0,223858,229463,230,359 F,0,228803,229463,1,0 F,0,263419,263748,0,1 M,0,263419,274298,497,145 F,0,273968,274298,1,0 F,0,287155,287485,0,1 M,0,287155,290122,497,145 F,0,289782,290122,1,0
Sprite,Foreground,Centre,"sb\buhei_light.png",320,240 M,0,13199,,511,378 F,0,13199,14518,1,0 S,0,13199,14518,1,1.2 M,0,44847,46166,230,146 F,0,44847,46166,1,0 S,0,44847,46166,1,1.2 M,0,44847,55397,230,146 F,0,84408,85397,1,0 S,0,84408,85397,1,1.2 M,0,84408,97595,245,364 F,0,85397,158254,0 S,0,158254,158419,1,1.2 F,0,158254,159078,1,0 S,0,158254,159078,1.2,1.266065 M,0,158254,171441,497,145 M,0,173748,176715,497,145 S,0,174078,174243,1,1.2 F,0,174078,174737,1,0 S,0,174243,174737,1.2,1.25 M,0,224188,225507,230,359 F,0,224188,225507,1,0 S,0,224188,225507,1,1.2 M,0,263748,264737,497,145 F,0,263748,264737,1,0 S,0,263748,264737,1,1.2 M,0,287485,288474,497,145 F,0,287485,288474,1,0 S,0,287485,288474,1,1.2
Sprite,Foreground,Centre,"sb\India.png",320,240 S,0,55067,55397,0.5458065,0.4219354 F,0,55397,,1 M,0,55397,65946,313,134 F,0,65617,65946,1,0 F,0,97265,97595,0,1 S,0,97265,97595,0.5458065,0.4219354 M,0,97265,108144,313,134 F,0,107814,108144,1,0 F,0,150012,150342,0,1 M,0,150012,152979,37,320 F,0,152649,152979,1,0 F,0,155287,155617,0,1 M,0,155287,158254,37,320 F,0,157924,158254,1,0 F,0,179023,179353,0,1 M,0,179023,184628,310,145 F,0,184298,184628,1,0 F,0,237045,237375,0,1 M,0,237045,242649,300,145 F,0,242320,242649,1,0 F,0,279243,279573,0,1 M,0,279243,282210,37,320 F,0,281880,282210,1,0
Sprite,Foreground,Centre,"sb\Rohit6.png",320,240 F,0,55067,55397,0,1 S,0,55067,55397,1.24,1 M,0,55397,65946,484,136 F,0,65617,65946,1,0 F,0,97265,97595,0,1 S,0,97265,97595,1.24,1 S,0,97595,,1 M,0,97595,108144,484,136 F,0,107814,108144,1,0 F,0,150012,150342,0,1 M,0,150012,152979,222,321 F,0,152649,152979,1,0 F,0,155287,155617,0,1 M,0,155287,158254,222,321 F,0,157924,158254,1,0 F,0,179023,179353,0,1 M,0,179023,184628,497,145 F,0,184298,184628,1,0 F,0,237045,237375,0,1 M,0,237045,242649,497,145 F,0,242320,242649,1,0 F,0,279243,279573,0,1 M,0,279243,282210,222,321 F,0,281880,282210,1,0
Sprite,Foreground,Centre,"sb\Rohit6_light.png",320,240 M,0,55397,,484,136 F,0,55397,56386,1,0 S,0,55397,56386,1,1.2 M,0,97595,,484,136 F,0,97595,98913,1,0 S,0,97595,98913,1,1.2 M,0,150342,,192,321 S,0,150342,150507,1,1.233033 F,0,150342,151331,1,0 M,0,150342,152979,222,321 S,0,150507,151331,1.233033,1.348646 M,0,155287,158254,222,321 S,0,155617,155781,1,1.233033 F,0,155617,156606,1,0 S,0,155781,156606,1.233033,1.348646 F,0,179023,179353,0,1 S,0,179023,179353,1 M,0,179023,180012,497,145 S,0,179353,180012,1,1.233033 F,0,179682,180012,1,0 M,0,237375,238364,497,145 F,0,237375,238364,1,0 S,0,237375,238364,1,1.233033 S,0,279573,279737,1,1.233 M,0,279573,280232,222,321 F,0,279573,280232,1,0 S,0,279737,280232,1.233,1.4
Sprite,Foreground,Centre,"sb\Isreal.png",320,240 S,0,2650,,0.4136774 M,0,7595,7924,407,145,373,145 F,0,7595,7924,0,1 M,0,7924,13199,373,145 F,0,12540,13199,1,0 F,0,78803,79133,0,1 M,0,78803,81770,68,357 F,0,81441,81770,1,0 F,0,210671,211001,0,1 M,0,210671,221551,373,145 F,0,221221,221551,1,0 F,0,247595,247924,0,1 M,0,247595,253199,373,145 F,0,252869,253199,1,0 F,0,292430,292759,0,1 M,0,292430,295397,334,142 F,0,294737,295397,1,0
Sprite,Foreground,Centre,"sb\Priti.png",320,240 M,0,7595,7924,549,145,515,145 F,0,7595,7924,0,1 M,0,7924,13199,515,145 F,0,12540,13199,1,0 F,0,78803,79133,0,1 S,0,78803,79133,1.082581,1 M,0,78803,81770,220,358 F,0,81441,81770,1,0 F,0,210671,211001,0,1 M,0,210671,221551,515,145 F,0,221221,221551,1,0 F,0,247595,247924,0,1 M,0,247595,253199,515,145 M,0,247924,253199,515,145 F,0,252869,253199,1,0 F,0,292430,292759,0,1 M,0,292430,295397,497,145 F,0,294737,295397,1,0
Sprite,Foreground,Centre,"sb\Priti_light.png",320,240 M,0,7924,,512,146 F,0,7924,8913,1,0 S,0,7924,8913,1,1.2 M,0,79133,79325,217,360 F,0,79133,80122,1,0 S,0,79133,80122,1,1.171812 M,0,211001,212320,512,146 F,0,211001,212320,1,0 S,0,211001,212320,1,1.171812 M,0,247924,248584,512,146 F,0,247924,248584,1,0 S,0,247924,248584,1,1.171812 M,0,292759,293419,495.3484,146.6516 F,0,292759,293419,1,0 S,0,292759,293419,1,1.2
Sprite,Foreground,Centre,"sb\Poland.png",320,240 M,0,1990,2650,32,370,66,370 F,0,1990,2650,0,1 S,0,2650,,0.4136774 M,0,2650,7924,66,370 F,0,7595,7924,1,0 F,0,76166,76496,0,1 M,0,76166,79133,320,126 F,0,78803,79133,1,0 F,0,81441,81770,0,1 M,0,81441,84408,320,126 F,0,84078,84408,1,0 F,0,200122,200452,0,1 M,0,200122,211001,52,370 F,0,210671,211001,1,0 F,0,242320,242649,0,1 M,0,242320,247924,52,370 F,0,247595,247924,1,0 F,0,273968,274298,0,1 M,0,273968,276935,52,320 F,0,276606,276935,1,0
Sprite,Foreground,Centre,"sb\krfawy.png",320,240 M,0,1990,2650,204,370,238,370 F,0,1990,2650,0,1 M,0,2650,7924,238,370 F,0,7595,7924,1,0 F,0,76248,76496,0,1 M,0,76248,79133,502,130 F,0,78803,79133,1,0 F,0,81441,81770,0,1 M,0,81770,84408,502,130 F,0,84078,84408,1,0 F,0,200122,200452,0,1 M,0,200122,211001,238,370 F,0,210671,211001,1,0 F,0,242320,242649,0,1 M,0,242320,247924,238,370 F,0,247595,247924,1,0 F,0,273968,274298,0,1 M,0,273968,276935,238,320 S,0,274298,,0.9091611 F,0,276606,276935,1,0
Sprite,Foreground,Centre,"sb\krfawy_light.png",320,240 M,0,2650,,238,370 S,0,2650,,1 F,0,2650,3639,1,0 S,0,2650,3639,1,1.2 F,0,76496,77485,1,0 S,0,76496,77485,1,1.2 M,0,76496,79133,502,130 F,0,81770,82759,1,0 S,0,81770,82759,1,1.2 M,0,200452,201770,238,370 F,0,200452,201770,1,0 S,0,200452,201770,1,1.2 M,0,242649,243309,238,370 F,0,242649,243309,1,0 S,0,242649,243309,1,1.2 S,0,274298,274463,0.900903,1.084387 M,0,274298,274957,238,320 F,0,274298,274957,1,0 S,0,274463,274957,1.084387,1.25
Sprite,Foreground,Centre,"sb\Rus.png",320,240 F,0,65617,65946,1 S,0,65617,65946,0.5623227,0.4384516 M,0,65946,76496,68,357 F,0,76166,76496,1,0 M,0,107814,108144,24,141,54,141 F,0,107814,108144,0,1 M,0,108144,118693,64,141 F,0,118364,118693,1,0 F,0,152649,152979,0,1 M,0,152649,155617,323,142 F,0,155287,155617,1,0 F,0,231770,232100,0,1 M,0,231770,237375,54,377 F,0,237045,237375,1,0 F,0,276606,276935,0,1 M,0,276606,279573,323,142 F,0,279243,279573,1,0
Sprite,Foreground,Centre,"sb\Kyubey.png",320,240 F,0,65617,65946,0,1 S,0,65617,65946,0.9669678,0.8348386 M,0,65946,76496,245,358 F,0,76166,76496,1,0 M,0,107814,108144,210,146,240,146 F,0,107814,108144,0,1 M,0,108144,118693,240,146 F,0,118364,118693,1,0 F,0,152649,152979,0,1 M,0,152649,155617,497,145 F,0,155287,155617,1,0 F,0,231770,232100,0,1 M,0,231770,237375,240,377 F,0,237045,237375,1,0 F,0,276606,276935,0,1 M,0,276606,279573,497,145 F,0,279243,279573,1,0
Sprite,Foreground,Centre,"sb\Kyubey_light.png",320,240 M,0,65946,,245,358 F,0,65946,66935,1,0 S,0,65946,66935,0.8348386,1 F,0,108144,109463,1,0 S,0,108144,109463,0.8348386,1 M,0,108144,118693,240,146 S,0,152979,153144,0.8348386,1 F,0,152979,153968,1,0 M,0,152979,155617,497,145 S,0,153144,153968,1,1.23 S,0,153968,160891,1.23,1.205226 M,0,232100,233089,240,377 F,0,232100,233089,1,0 S,0,232100,233089,1,1.23 S,0,276935,277100,0.8265806,0.9987742 M,0,276935,277595,497,145 F,0,276935,277595,1,0 S,0,277100,277595,0.9987742,1.078323
Sprite,Foreground,Centre,"sb\japan.png",320,240 M,0,118364,118693,295,380 F,0,118364,118693,0,1 S,0,118364,118693,0.6449032,0.4467095 F,0,128913,129243,1,0 M,0,170946,171441,35,360,90,360 F,0,170946,171441,0,1 M,0,171441,174078,90,360 F,0,173748,174078,1,0 F,0,176386,176715,0,1 M,0,176386,179353,90,360 F,0,179023,179353,1,0 F,0,229133,229463,0,1 M,0,229133,232100,275,145 F,0,231770,232100,1,0 F,0,252869,253199,0,1 M,0,252869,263748,150,360 F,0,263419,263748,1,0 F,0,289792,290122,0,1 M,0,289792,292759,100,310 F,0,292430,292759,1,0
Sprite,Foreground,Centre,"sb\iyasine.png",320,240 F,0,118364,118693,0,1 S,0,118364,118693,1.1,0.8 M,0,118693,129243,466,381 F,0,128934,129243,1,0 M,0,170946,171441,225,360,270,360 F,0,170946,171441,0,1 M,0,171441,174078,270,360 F,0,173748,174078,1,0 F,0,176386,176715,0,1 M,0,176386,179353,270,360 F,0,179023,179353,1,0 F,0,229133,229463,0,1 M,0,229133,232100,450,145 F,0,231770,232100,1,0 F,0,252869,253199,0,1 M,0,252869,263748,320,360 F,0,263419,263748,1,0 F,0,289792,290122,0,1 M,0,289792,292759,270,310 F,0,292430,292759,1,0
Sprite,Foreground,Centre,"sb\iyasine_light.png",320,240 M,0,118693,,466,381 F,0,118693,120012,1,0 S,0,118693,120012,0.8,1 S,0,171441,171606,0.8,1 F,0,171441,172100,1,0 M,0,171441,174078,270,360 S,0,171606,172100,1,1.1 S,0,176715,176880,0.8,1 M,0,176715,177375,270,360 F,0,176715,177375,1,0 S,0,176880,177375,1,1.1 S,0,229463,229628,0.8,1 M,0,229463,229957,450,145 F,0,229463,229957,1,0 S,0,229628,229957,1,1.1 M,0,253199,254191,320,360 F,0,253199,254191,1,0 S,0,253199,254191,0.8,1 M,0,290122,291111,270,310 F,0,290122,291111,1,0 S,0,290122,291111,0.8,1
//Storyboard Sound Samples

[TimingPoints]
12,659.340659340659,4,2,1,0,1,0
1990,-100,4,2,1,50,0,0
13199,-100,4,2,1,60,0,0
22100,-133.333333333333,4,2,1,45,0,0
23748,-100,4,2,1,55,0,0
48803,-133.333333333333,4,2,1,55,0,0
49298,-100,4,2,1,55,0,0
50121,-133.333333333333,4,2,1,65,0,0
50286,-133.333333333333,4,2,1,5,0,0
50451,-133.333333333333,4,2,1,65,0,0
50616,-133.333333333333,4,2,1,5,0,0
50781,-133.333333333333,4,2,1,65,0,0
50946,-133.333333333333,4,2,1,5,0,0
51110,-133.333333333333,4,2,1,65,0,0
51275,-133.333333333333,4,2,1,5,0,0
51440,-133.333333333333,4,2,1,65,0,0
51605,-133.333333333333,4,2,1,5,0,0
51770,-133.333333333333,4,2,1,65,0,0
51935,-133.333333333333,4,2,1,5,0,0
52099,-133.333333333333,4,2,1,65,0,0
52264,-133.333333333333,4,2,1,5,0,0
52429,-133.333333333333,4,2,1,65,0,0
52759,-83.3333333333333,4,2,1,70,0,0
55397,-76.9230769230769,4,2,1,80,0,0
64298,-100,4,2,1,80,0,0
64792,-76.9230769230769,4,2,1,80,0,0
72210,-100,4,2,1,80,0,0
72869,-76.9230769230769,4,2,1,80,0,0
74847,-100,4,2,1,80,0,0
75342,-76.9230769230769,4,2,1,80,0,0
87044,-100,4,2,1,60,0,0
95946,-133.333333333333,4,2,1,55,0,0
97594,-133.333333333333,4,2,1,55,0,0
118693,-100,4,2,1,55,0,0
122649,-133.333333333333,4,2,1,55,0,0
123308,-100,4,2,1,55,0,0
123968,-133.333333333333,4,2,1,65,0,0
124132,-133.333333333333,4,2,1,5,0,0
124297,-133.333333333333,4,2,1,65,0,0
124462,-133.333333333333,4,2,1,5,0,0
124627,-133.333333333333,4,2,1,65,0,0
124792,-133.333333333333,4,2,1,5,0,0
124957,-133.333333333333,4,2,1,65,0,0
125121,-133.333333333333,4,2,1,5,0,0
125286,-133.333333333333,4,2,1,65,0,0
125451,-133.333333333333,4,2,1,5,0,0
125616,-133.333333333333,4,2,1,65,0,0
125781,-133.333333333333,4,2,1,5,0,0
125946,-133.333333333333,4,2,1,65,0,0
126110,-133.333333333333,4,2,1,5,0,0
126275,-133.333333333333,4,2,1,65,0,0
126606,-83.3333333333333,4,2,1,70,0,0
129243,-76.9230769230769,4,2,1,80,0,0
162540,-133.333333333333,4,2,1,65,0,0
162869,-76.9230769230769,4,2,1,75,0,0
165507,-62.5,4,2,1,75,0,0
165836,-76.9230769230769,4,2,1,75,0,0
197814,-133.333333333333,4,2,1,75,0,0
199709,-133.333333333333,4,2,1,45,0,0
200452,-133.333333333333,4,2,1,55,0,0
211001,-100,4,2,1,60,0,0
225507,-133.333333333333,4,2,1,60,0,0
226166,-100,4,2,1,60,0,0
226825,-133.333333333333,4,2,1,70,0,0
226990,-133.333333333333,4,2,1,5,0,0
227154,-133.333333333333,4,2,1,70,0,0
227319,-133.333333333333,4,2,1,5,0,0
227484,-133.333333333333,4,2,1,70,0,0
227649,-133.333333333333,4,2,1,5,0,0
227814,-133.333333333333,4,2,1,70,0,0
227979,-133.333333333333,4,2,1,5,0,0
228143,-133.333333333333,4,2,1,70,0,0
228308,-133.333333333333,4,2,1,5,0,0
228473,-133.333333333333,4,2,1,70,0,0
228638,-133.333333333333,4,2,1,5,0,0
228803,-133.333333333333,4,2,1,70,0,0
228968,-133.333333333333,4,2,1,5,0,0
229132,-133.333333333333,4,2,1,70,0,0
229463,-200,4,2,1,75,0,0
229957,-83.3333333333333,4,2,1,75,0,0
230781,-166.666666666667,4,2,1,75,0,0
231441,-100,4,2,1,70,0,0
232100,-100,4,2,1,45,0,0
241496,-100,4,2,1,50,0,0
242649,-100,4,2,1,55,0,0
250562,-83.3333333333333,4,2,1,65,0,0
251056,-71.4285714285714,4,2,1,65,0,0
251551,-62.5,4,2,1,65,0,0
251881,-62.5,4,2,1,70,0,0
253199,-76.9230769230769,4,2,1,80,0,0
284847,-117.647058823529,4,2,1,60,0,0
293830,-117.647058823529,4,2,1,20,0,0

[Colours]
Combo1 : 191,160,250
Combo2 : 255,128,255
Combo3 : 141,241,179
Combo4 : 247,184,100

[HitObjects]
103,151,1990,5,0,0:0:0:0:
114,156,2320,1,0,0:0:0:0:
125,161,2649,6,0,B|166:152|166:152|240:60,1,140,4|0,0:0|0:0,0:0:0:0:
256,168,3143,2,0,P|300:243|344:168,2,210,2|0|2,0:0|0:0|0:0,0:0:0:0:
263,158,4628,2,0,L|276:306,1,140,2|0,0:0|0:0,0:0:0:0:
377,192,5287,6,0,B|392:168|390:139|390:139|427:63,1,140,2|0,0:0|0:0,0:0:0:0:
373,203,5781,2,0,P|361:235|360:270,2,70,2|0|0,0:0|0:0|0:0,0:0:0:0:
337,24,6275,2,0,B|319:56|319:56|318:93|318:93|302:122|302:122|322:185|252:245|200:215,1,280,2|0,0:0|0:0,0:0:0:0:
193,206,7264,2,0,B|206:302|206:302|193:343,1,140,8|0,0:3|0:0,0:0:0:0:
190,193,7759,1,0,0:0:0:0:
347,235,7924,6,0,P|362:171|370:84,1,140,2|0,0:1|0:0,0:0:0:0:
317,13,8419,1,0,0:0:0:0:
165,81,8584,2,0,P|176:131|191:155,1,70,2|0,0:0|0:0,0:0:0:0:
251,259,8913,2,0,B|125:233|178:280|44:255,1,210,2|0,0:0|0:0,0:0:0:0:
8,162,9573,6,0,P|16:111|27:78,1,70,2|0,0:0|0:0,0:0:0:0:
165,29,9902,2,0,P|173:62|178:97,1,70,2|0,0:0|0:0,0:0:0:0:
114,213,10232,1,2,0:0:0:0:
114,213,10397,1,0,0:0:0:0:
161,337,10562,6,0,L|319:333,1,140,2|0,0:0|0:0,0:0:0:0:
388,289,11056,1,2,0:0:0:0:
275,124,11221,2,0,L|268:218,1,70
114,213,11551,2,0,B|96:73|96:73|116:113|159:120,1,210,2|0,0:0|0:0,0:0:0:0:
233,25,12210,1,0,0:0:0:0:
368,64,12540,5,0,3:0:0:0:
394,61,12622,1,0,3:0:0:0:
420,58,12704,1,0,3:0:0:0:
446,55,12787,1,0,3:0:0:0:
472,53,12869,1,0,3:0:0:0:
434,188,13033,1,2,0:1:0:0:
368,64,13199,6,0,L|360:144,1,70,4|0,0:0|0:0,0:0:0:0:
226,193,13529,1,2,3:2:0:0:
226,193,13611,1,0,3:0:0:0:
226,193,13693,2,0,L|300:187,1,70,0|8,3:0|3:0,0:0:0:0:
407,242,14023,5,0,0:0:0:0:
252,284,14188,1,2,3:2:0:0:
252,284,14270,1,0,3:0:0:0:
252,284,14353,2,0,P|215:288|182:281,1,70,0|8,3:0|3:0,0:0:0:0:
379,334,14682,5,0,0:0:0:0:
493,257,14847,1,2,3:2:0:0:
493,257,14930,1,0,3:0:0:0:
493,257,15012,2,0,L|485:184,1,70,0|8,3:0|3:0,0:0:0:0:
397,66,15342,5,8,3:0:0:0:
247,71,15507,1,8,3:0:0:0:
335,192,15672,1,8,3:0:0:0:
397,66,15836,6,0,L|473:50,1,70,0|0,3:0|0:0,0:0:0:0:
223,152,16166,1,2,3:2:0:0:
223,152,16248,1,0,3:0:0:0:
223,152,16330,2,0,P|185:153|153:140,1,70,0|8,3:0|3:0,0:0:0:0:
10,209,16660,5,0,0:0:0:0:
68,121,16825,1,2,3:2:0:0:
68,121,16908,1,0,3:0:0:0:
68,121,16990,2,0,L|61:46,1,70,0|8,3:0|3:0,0:0:0:0:
141,226,17320,5,0,0:0:0:0:
19,336,17484,1,2,3:2:0:0:
19,336,17567,1,0,3:0:0:0:
19,336,17649,2,0,P|52:320|88:315,1,70,0|8,3:0|3:0,0:0:0:0:
323,339,17979,5,8,3:0:0:0:
166,368,18144,1,8,3:0:0:0:
260,229,18309,1,8,3:0:0:0:
394,229,18473,6,0,L|466:239,1,70,0|0,3:0|0:0,0:0:0:0:
327,86,18803,1,2,3:2:0:0:
327,86,18886,1,0,3:0:0:0:
327,86,18968,2,0,L|255:96,1,70,0|8,3:0|3:0,0:0:0:0:
128,187,19298,5,0,0:0:0:0:
170,104,19463,1,2,3:2:0:0:
170,104,19545,1,0,3:0:0:0:
170,104,19628,2,0,P|177:70|165:29,1,70,0|8,3:0|3:0,0:0:0:0:
49,153,19957,5,0,0:0:0:0:
96,285,20122,1,2,3:2:0:0:
96,285,20204,1,0,3:0:0:0:
96,285,20287,2,0,P|130:292|171:280,1,70,0|8,3:0|3:0,0:0:0:0:
379,275,20617,5,8,3:0:0:0:
223,222,20781,1,8,3:0:0:0:
303,343,20946,1,8,3:0:0:0:
402,178,21110,6,0,L|332:188,1,70,4|0,3:1|0:0,0:0:0:0:
226,307,21441,1,2,0:0:0:0:
420,144,21605,6,0,L|350:154,1,70,4|0,3:1|0:0,0:0:0:0:
226,307,21935,1,2,0:0:0:0:
438,110,22100,6,0,L|281:133,1,157.500006008148,4|0,3:1|0:0,0:0:0:0:
201,98,22759,6,0,L|206:44,1,52.5000020027161,2|0,0:1|0:0,0:0:0:0:
139,152,23088,2,0,L|141:188,4,26.2500010013581,0|0|0|0|2,3:0|3:0|3:0|3:0|3:2,3:0:0:0:
75,104,23584,1,8,3:0:0:0:
100,264,23748,6,0,B|176:284|160:244|244:268,1,140,6|2,0:1|0:1,0:0:0:0:
336,312,24243,1,0,0:0:0:0:
420,252,24408,2,0,P|428:204|424:164,1,70,10|0,0:3|0:0,0:0:0:0:
316,104,24737,2,0,P|315:138|323:173,1,70,2|0,0:0|0:0,0:0:0:0:
384,56,25067,6,0,L|236:64,1,140,2|2,0:1|0:1,0:0:0:0:
156,120,25562,1,2,0:2:0:0:
56,88,25726,2,0,P|44:56|40:12,1,70,10|0,0:3|0:0,0:0:0:0:
156,120,26056,2,0,L|148:252,1,105,2|0,0:2|0:0,0:0:0:0:
128,248,26386,6,0,P|196:232|272:276,1,140,2|2,0:1|0:1,0:0:0:0:
332,340,26880,2,0,P|368:344|408:332,1,70,0|10,0:0|0:3,0:0:0:0:
504,216,27210,1,0,0:0:0:0:
412,164,27375,2,0,P|376:160|336:172,1,70,2|0,0:2|0:0,0:0:0:0:
257,259,27704,6,0,L|105:247,1,140,2|2,0:1|0:1,0:0:0:0:
32,176,28198,1,2,0:0:0:0:
104,104,28364,2,0,L|100:24,1,70,10|0,0:3|0:0,0:0:0:0:
32,176,28693,2,0,L|36:312,1,105,2|0,0:0|0:0,0:0:0:0:
20,300,29023,6,0,B|72:296|72:296|104:308|104:308|176:304,1,140,2|2,0:1|0:1,0:0:0:0:
256,260,29518,2,0,L|252:184,1,70,0|10,0:0|0:3,0:0:0:0:
152,24,29847,1,0,0:0:0:0:
104,104,30012,2,0,L|100:173,1,70,2|0,0:0|0:0,0:0:0:0:
256,260,30342,6,0,P|320:268|388:224,1,140,2|2,0:1|0:1,0:0:0:0:
448,148,30836,1,2,0:0:0:0:
300,96,31001,2,0,L|304:176,1,70,10|0,0:3|0:0,0:0:0:0:
386,300,31331,2,0,L|382:230,1,70,2|0,0:2|0:0,0:0:0:0:
300,96,31660,6,0,B|220:80|240:112|160:96,1,140,2|2,0:1|0:1,0:0:0:0:
68,52,32154,1,0,0:0:0:0:
96,176,32320,2,0,L|116:264,1,70,10|0,0:3|0:0,0:0:0:0:
4,124,32649,1,0,0:0:0:0:
161,96,32814,2,0,L|308:72,1,140,2|0,0:0|0:0,0:0:0:0:
340,192,33309,6,0,L|248:177,1,70,2|0,0:1|3:0,0:0:0:0:
424,108,33639,1,10,0:3:0:0:
404,268,33803,1,8,3:0:0:0:
404,268,33886,1,8,3:0:0:0:
404,268,33968,1,10,3:0:0:0:
270,180,34133,1,0,0:0:0:0:
232,340,34297,6,0,P|149:361|74:335,1,140,6|2,0:1|0:1,0:0:0:0:
20,277,34792,1,0,0:0:0:0:
82,192,34957,2,0,P|79:157|64:125,1,70,10|0,0:3|0:0,0:0:0:0:
135,1,35287,2,0,P|138:36|153:68,1,70,2|0,0:0|0:0,0:0:0:0:
261,250,35617,6,0,L|284:68,1,140,2|2,0:1|0:1,0:0:0:0:
293,7,36111,1,2,3:2:0:0:
293,7,36193,1,0,3:0:0:0:
293,7,36276,1,10,3:0:0:0:
384,154,36441,1,0,0:0:0:0:
185,148,36606,2,0,L|96:141,1,70,2|0,0:2|0:0,0:0:0:0:
0,265,36935,6,0,P|67:274|130:246,1,140,2|2,0:1|0:1,0:0:0:0:
185,148,37430,1,0,0:0:0:0:
253,227,37595,2,0,L|322:232,1,70,10|0,0:3|0:0,0:0:0:0:
451,135,37924,2,0,L|384:154,1,70,2|0,0:0|0:0,0:0:0:0:
209,316,38253,6,0,P|281:339|351:312,1,140,2|2,0:1|0:1,0:0:0:0:
143,247,38748,1,2,3:2:0:0:
143,247,38831,1,0,3:0:0:0:
143,247,38913,2,0,P|123:313|145:378,1,140,10|2,0:3|0:0,0:0:0:0:
209,316,39408,1,0,0:0:0:0:
80,183,39573,6,0,P|65:151|63:117,1,70,2|0,0:1|0:0,0:0:0:0:
162,0,39902,2,0,P|176:31|176:104,1,105,2|0,0:1|0:0,0:0:0:0:
166,138,40232,2,0,B|261:126|261:126|333:159,1,140,10|0,0:3|0:0,0:0:0:0:
358,232,40726,1,0,0:0:0:0:
447,61,40891,5,2,0:1:0:0:
427,293,41221,2,0,P|424:327|409:359,1,70,2|0,0:1|0:0,0:0:0:0:
358,232,41551,2,0,P|360:197|375:165,1,70,10|0,0:3|0:0,0:0:0:0:
269,258,41880,2,0,P|266:292|251:324,1,70,2|0,0:0|0:0,0:0:0:0:
169,236,42210,6,0,B|131:168|219:171|136:60,1,140,2|2,0:1|0:1,0:0:0:0:
94,21,42704,1,0,0:0:0:0:
291,102,42869,2,0,P|362:118|437:70,1,140,10|2,0:3|0:0,0:0:0:0:
344,16,43364,1,0,0:0:0:0:
295,192,43529,6,0,P|366:208|441:160,1,140,2|2,0:1|0:1,0:0:0:0:
344,16,44023,1,0,3:0:0:0:
344,16,44106,1,0,3:0:0:0:
344,16,44188,1,10,3:0:0:0:
437,196,44516,1,2,0:1:0:0:
270,61,44847,6,0,L|262:133,1,70,6|0,0:0|0:0,0:0:0:0:
330,215,45177,1,2,0:1:0:0:
437,196,45342,1,0,0:0:0:0:
369,291,45506,2,0,P|316:298|242:230,1,140,10|2,0:3|0:0,0:0:0:0:
153,193,46001,1,2,0:0:0:0:
153,193,46166,6,0,L|156:268,1,70,2|0,0:1|0:0,0:0:0:0:
32,331,46496,2,0,L|34:261,1,70,2|0,0:1|0:0,0:0:0:0:
6,109,46825,2,0,P|53:125|137:100,1,140,10|2,0:3|0:0,0:0:0:0:
206,34,47320,1,0,0:0:0:0:
298,168,47485,6,0,L|441:172,1,140,2|2,0:1|0:1,0:0:0:0:
482,74,47979,1,0,0:0:0:0:
482,74,48144,2,0,P|444:78|407:69,1,70,10|0,0:3|0:0,0:0:0:0:
260,96,48474,2,0,P|294:89|328:93,1,70,2|0,0:1|0:0,0:0:0:0:
356,281,48803,6,0,L|250:278,1,105.000004005432,2|0,0:3|0:0,0:0:0:0:
440,208,49298,1,2,0:1:0:0:
328,352,49462,6,0,L|188:348,1,140,6|0,0:0|0:0,0:0:0:0:
192,208,49957,1,0,3:0:0:0:
192,208,50040,1,0,3:0:0:0:
192,208,50121,6,0,L|251:202,1,52.5000020027161,8|0,3:0|0:0,0:0:0:0:
440,88,50451,2,0,L|381:82,1,52.5000020027161,8|0,3:0|0:0,0:0:0:0:
272,32,50781,6,0,L|277:84,1,52.5000020027161,8|0,3:0|0:0,0:0:0:0:
96,260,51111,2,0,L|101:207,1,52.5000020027161,8|0,3:0|0:0,0:0:0:0:
144,80,51441,6,0,L|85:74,1,52.5000020027161,8|0,3:0|0:0,0:0:0:0:
318,163,51770,2,0,L|377:157,1,52.5000020027161,8|0,3:0|0:0,0:0:0:0:
475,287,52100,6,0,L|416:281,1,52.5000020027161,8|0,3:0|0:0,0:0:0:0:
196,201,52430,2,0,L|201:253,1,52.5000020027161,8|2,3:0|0:0,0:0:0:0:
163,328,52677,1,0,0:0:0:0:
163,328,52759,6,0,P|98:348|2:289,1,167.999994873047,6|0,0:1|0:0,0:0:0:0:
133,124,53253,2,0,P|198:104|294:163,1,167.999994873047,6|0,0:1|0:0,0:0:0:0:
312,283,53748,5,10,0:3:0:0:
196,201,53913,1,0,0:0:0:0:
386,132,54078,1,6,0:0:0:0:
386,132,54737,5,0,3:0:0:0:
373,158,54819,1,0,3:0:0:0:
370,187,54902,1,0,3:0:0:0:
373,216,54985,1,0,3:0:0:0:
384,242,55067,1,8,3:0:0:0:
473,326,55232,1,0,0:0:0:0:
458,188,55397,6,0,P|346:164|296:218,1,181.999991668702,6|0,0:1|0:0,0:0:0:0:
147,218,55891,2,0,P|259:242|309:188,1,181.999991668702,2|0,0:1|0:0,0:0:0:0:
368,66,56386,2,0,B|394:124|394:124|383:250,1,181.999991668702,8|0,3:0|0:0,0:0:0:0:
234,347,56880,2,0,B|208:289|208:289|219:163,1,181.999991668702,2|0,3:2|0:0,0:0:0:0:
382,142,57374,6,0,P|437:103|446:69,1,90.9999958343508,2|0,0:1|0:0,0:0:0:0:
204,95,57704,2,0,P|149:134|140:168,1,90.9999958343508,2|0,0:3|0:0,0:0:0:0:
396,220,58034,2,0,B|442:190|442:190|465:92,1,136.499993751526,6|0,0:1|0:0,0:0:0:0:
451,64,58364,1,2,0:1:0:0:
319,210,58528,2,0,P|320:247|363:291,2,90.9999958343508,8|2|0,3:0|0:0|0:0,0:0:0:0:
329,52,59023,2,0,P|254:36|162:83,1,181.999991668702,10|0,3:0|0:0,0:0:0:0:
94,238,59518,6,0,B|60:208|60:208|46:109,1,136.499993751526,2|0,0:1|0:0,0:0:0:0:
42,65,59847,1,2,0:0:0:0:
131,129,60012,1,6,0:1:0:0:
181,18,60176,1,0,0:0:0:0:
228,168,60342,1,8,3:0:0:0:
302,0,60507,1,0,0:0:0:0:
337,188,60671,6,0,P|332:243|359:302,2,90.9999958343508,6|0|2,0:1|0:0|0:1,0:0:0:0:
476,112,61165,2,0,P|481:57|454:-2,2,90.9999958343508,8|2|0,3:0|0:0|0:0,0:0:0:0:
401,239,61660,2,0,P|331:270|306:113,1,272.999987503052,10|0,3:0|0:0,0:0:0:0:
409,91,62320,2,0,L|460:16,1,90.9999958343508,2|0,0:1|0:0,0:0:0:0:
337,188,62649,5,8,3:0:0:0:
290,310,62814,1,0,0:0:0:0:
213,167,62979,1,2,3:0:0:0:
149,344,63143,1,0,0:0:0:0:
79,138,63309,6,0,P|111:83|163:79,1,90.9999958343508,6|0,0:1|0:0,0:0:0:0:
268,76,63639,1,2,0:0:0:0:
95,169,63803,6,0,P|116:109|167:96,1,90.9999958343508,8|0,3:0|0:0,0:0:0:0:
276,98,64133,1,2,3:0:0:0:
121,191,64298,6,0,P|95:245|194:245,1,175,6|0,0:1|0:0,0:0:0:0:
211,247,64792,6,0,P|261:240|313:270,1,90.9999958343508,2|10,0:1|3:0,0:0:0:0:
399,313,65122,1,0,3:0:0:0:
496,188,65287,1,8,3:0:0:0:
388,32,65452,1,0,0:0:0:0:
252,143,65617,1,2,3:2:0:0:
245,178,65699,1,0,3:0:0:0:
257,212,65781,1,0,3:0:0:0:
283,236,65864,1,0,3:0:0:0:
317,245,65946,6,0,L|336:104,1,136.499993751526,6|0,0:1|0:0,0:0:0:0:
328,88,66276,1,2,0:1:0:0:
245,178,66441,2,0,P|200:188|128:168,1,90.9999958343508,8|2,3:0|0:0,0:0:0:0:
132,40,66770,1,0,0:0:0:0:
200,108,66935,6,0,L|192:300,1,181.999991668702,2|0,0:1|0:0,0:0:0:0:
312,272,67430,2,0,L|408:284,1,90.9999958343508,8|0,3:0|0:0,0:0:0:0:
272,376,67759,1,2,0:0:0:0:
192,289,67924,5,6,0:1:0:0:
104,356,68089,1,0,0:0:0:0:
272,376,68254,1,2,3:0:0:0:
240,176,68419,2,0,L|232:120,1,45.4999979171754,2|0,0:0|0:0,0:0:0:0:
108,110,68584,6,0,P|196:142|260:110,1,136.499993751526,6|0,0:1|0:0,0:0:0:0:
248,112,68913,1,2,0:1:0:0:
44,48,69077,2,0,P|24:92|32:160,1,90.9999958343508,8|0,3:0|0:0,0:0:0:0:
68,232,69408,1,2,3:0:0:0:
216,252,69573,6,0,P|308:240|400:252,1,181.999991668702,2|2,0:1|0:0,0:0:0:0:
496,192,70067,1,2,0:1:0:0:
492,308,70232,1,8,3:0:0:0:
396,132,70397,1,0,0:0:0:0:
496,72,70562,1,6,0:1:0:0:
396,250,70726,1,0,0:0:0:0:
288,192,70891,2,0,P|274:148|280:84,1,90.9999958343508,2|0,0:0|0:0,0:0:0:0:
224,24,71221,6,0,P|232:84|204:168,1,136.499993751526,6|0,0:1|0:0,0:0:0:0:
188,164,71551,1,2,0:1:0:0:
80,252,71715,2,0,P|145:241|236:256,1,136.499993751526,8|0,3:0|0:0,0:0:0:0:
224,272,72045,1,2,3:0:0:0:
112,360,72210,6,0,L|100:140,1,210,6|0,0:1|0:0,0:0:0:0:
235,101,72869,1,8,3:0:0:0:
192,192,73034,1,2,0:0:0:0:
144,60,73199,1,2,0:1:0:0:
228,0,73364,1,0,0:0:0:0:
296,188,73529,1,2,3:0:0:0:
192,192,73693,2,0,L|104:176,1,45.4999979171754,2|0,0:0|0:0,0:0:0:0:
52,236,73858,6,0,P|116:224|240:236,1,181.999991668702,6|0,0:1|0:0,0:0:0:0:
392,212,74353,2,0,L|368:108,1,90.9999958343508,8|0,3:0|0:0,0:0:0:0:
340,292,74682,1,2,0:0:0:0:
472,192,74847,6,0,L|432:28,1,140,6|0,0:1|0:0,0:0:0:0:
308,104,75342,6,0,P|260:116|232:68,1,90.9999958343508,8|0,3:0|0:0,0:0:0:0:
348,24,75671,1,0,3:0:0:0:
348,24,75754,1,0,3:0:0:0:
348,24,75836,1,10,3:0:0:0:
368,200,76001,1,0,3:0:0:0:
200,128,76166,1,2,3:2:0:0:
172,112,76248,1,0,3:0:0:0:
140,108,76331,1,0,3:0:0:0:
108,112,76413,1,0,3:0:0:0:
78,121,76496,6,0,P|48:145|21:190,1,90.9999958343508,6|0,0:0|0:0,0:0:0:0:
143,229,76825,1,2,0:1:0:0:
48,314,76990,2,0,B|74:330|121:333|106:318|154:320|179:336,1,136.499993751526,8|0,3:0|0:0,0:0:0:0:
211,336,77320,1,2,0:0:0:0:
365,136,77485,1,6,0:0:0:0:
238,144,77649,2,0,P|171:154|113:121,1,136.499993751526,2|0,3:0|0:0,0:0:0:0:
88,101,77979,2,0,B|117:156|117:156|113:264,1,136.499993751526,8|0,3:0|0:0,0:0:0:0:
114,262,78309,1,2,0:1:0:0:
301,328,78474,6,0,L|211:336,1,90.9999958343508,8|0,3:0|0:0,0:0:0:0:
210,127,78803,2,0,L|300:119,1,90.9999958343508,2|0,3:2|0:0,0:0:0:0:
256,228,79133,6,0,L|126:239,1,90.9999958343508,6|0,0:0|0:0,0:0:0:0:
51,173,79463,1,2,0:1:0:0:
92,332,79627,2,0,P|157:331|280:353,1,181.999991668702,8|0,3:0|0:0,0:0:0:0:
422,298,80122,6,0,P|400:261|401:205,1,90.9999958343508,6|2,0:0|3:0,0:0:0:0:
477,238,80452,1,2,0:0:0:0:
311,269,80617,2,0,L|300:69,1,181.999991668702,8|2,3:0|0:1,0:0:0:0:
205,17,81111,6,0,L|177:112,1,90.9999958343508,10|0,3:0|0:0,0:0:0:0:
388,7,81440,2,0,L|429:95,1,90.9999958343508,8|0,3:0|0:0,0:0:0:0:
132,223,81770,5,6,0:0:0:0:
255,254,81935,2,0,B|280:266|328:271|319:248|366:253|387:265,1,136.499993751526,2|0,0:1|0:0,0:0:0:0:
401,295,82265,2,0,P|411:228|461:184,1,136.499993751526,8|0,3:0|0:0,0:0:0:0:
493,180,82595,1,2,0:0:0:0:
305,145,82759,1,6,0:0:0:0:
209,145,82924,2,0,P|141:135|76:115,1,136.499993751526,2|0,3:0|0:0,0:0:0:0:
4,52,83254,2,0,P|70:66|190:48,1,181.999991668702,8|2,3:0|0:1,0:0:0:0:
301,8,83749,5,8,3:0:0:0:
387,51,83914,1,0,0:0:0:0:
277,161,84077,1,2,0:0:0:0:
182,175,84242,1,0,0:0:0:0:
292,285,84408,5,6,0:0:0:0:
387,299,84572,2,0,P|430:314|461:348,1,90.9999958343508,0|2,0:0|0:1,0:0:0:0:
277,161,84902,2,0,L|83:148,1,181.999991668702,8|2,3:0|0:0,0:0:0:0:
29,106,85314,1,0,0:0:0:0:
29,106,85397,6,0,P|21:60|36:17,1,90.9999958343508,6|0,3:1|0:0,0:0:0:0:
217,27,85726,1,8,3:0:0:0:
182,175,85891,2,0,P|190:221|175:264,1,90.9999958343508,2|2,0:1|0:0,0:0:0:0:
304,87,86221,1,2,3:0:0:0:
395,202,86386,5,0,3:0:0:0:
395,202,86468,1,0,3:0:0:0:
395,202,86551,1,8,3:0:0:0:
447,115,86715,1,10,3:0:0:0:
482,280,86880,1,10,3:0:0:0:
321,227,87044,6,0,L|250:232,1,70,6|0,0:0|0:0,0:0:0:0:
109,315,87375,1,2,3:2:0:0:
109,315,87457,1,0,3:0:0:0:
109,315,87540,2,0,L|180:320,1,70,0|8,3:0|3:0,0:0:0:0:
132,194,87869,5,0,0:0:0:0:
267,120,88034,1,2,3:2:0:0:
267,120,88117,1,0,3:0:0:0:
267,120,88198,2,0,P|272:87|263:45,1,70,0|8,3:0|3:0,0:0:0:0:
177,91,88529,5,0,0:0:0:0:
348,28,88693,1,2,3:2:0:0:
348,28,88776,1,0,3:0:0:0:
348,28,88858,2,0,L|421:29,1,70,0|8,3:0|3:0,0:0:0:0:
489,151,89188,5,8,3:0:0:0:
351,110,89353,1,8,3:0:0:0:
496,266,89518,1,8,3:0:0:0:
311,224,89682,6,0,P|276:230|245:253,1,70,8|0,3:0|0:0,0:0:0:0:
327,351,90012,1,2,3:2:0:0:
327,351,90095,1,0,3:0:0:0:
327,351,90177,2,0,P|362:345|393:322,1,70,0|8,3:0|3:0,0:0:0:0:
221,346,90507,5,0,0:0:0:0:
133,262,90671,1,2,3:2:0:0:
133,262,90754,1,0,3:0:0:0:
133,262,90836,2,0,L|63:266,1,70,0|8,3:0|3:0,0:0:0:0:
6,126,91166,5,0,0:0:0:0:
184,146,91331,1,2,3:2:0:0:
184,146,91413,1,0,3:0:0:0:
184,146,91496,2,0,P|149:166|117:169,1,70,0|8,3:0|3:0,0:0:0:0:
289,156,91825,5,8,3:0:0:0:
204,47,91990,1,8,3:0:0:0:
233,235,92155,1,8,3:0:0:0:
382,127,92319,6,0,P|355:101|344:63,1,70,8|0,3:0|0:0,0:0:0:0:
479,189,92649,1,2,3:2:0:0:
479,189,92732,1,0,3:0:0:0:
479,189,92814,2,0,L|474:260,1,70,0|8,3:0|3:0,0:0:0:0:
403,338,93144,5,0,0:0:0:0:
274,306,93309,1,2,3:2:0:0:
274,306,93391,1,0,3:0:0:0:
274,306,93474,2,0,P|239:316|202:309,1,70,0|8,3:0|3:0,0:0:0:0:
47,186,93803,5,0,0:0:0:0:
154,214,93968,1,2,3:2:0:0:
154,214,94051,1,0,3:0:0:0:
154,214,94133,2,0,L|166:140,1,70,0|8,3:0|3:0,0:0:0:0:
294,23,94463,5,8,3:0:0:0:
112,45,94628,1,8,3:0:0:0:
247,121,94792,1,8,3:0:0:0:
445,87,94957,6,0,L|369:94,1,70,4|0,3:1|0:0,0:0:0:0:
248,227,95286,1,2,0:0:0:0:
468,117,95452,6,0,L|392:124,1,70,4|0,3:1|0:0,0:0:0:0:
248,227,95781,1,2,0:0:0:0:
491,147,95946,6,0,L|325:161,1,157.500006008148,4|0,3:1|0:0,0:0:0:0:
248,227,96605,2,0,P|246:256|250:285,1,52.5000020027161,2|0,0:1|0:0,0:0:0:0:
339,320,96935,2,0,L|336:355,4,26.2500010013581,0|0|0|0|2,3:0|3:0|3:0|3:0|3:2,3:0:0:0:
429,278,97430,1,8,3:0:0:0:
476,178,97594,6,0,L|482:105,1,52.5000020027161,6|0,0:1|0:0,0:0:0:0:
372,79,97924,2,0,L|366:152,1,52.5000020027161,2|2,0:0|0:1,0:0:0:0:
363,259,98254,2,0,P|331:283|248:272,1,105.000004005432,10|2,3:0|0:0,0:0:0:0:
175,233,98748,1,0,0:0:0:0:
256,166,98913,5,2,0:1:0:0:
161,75,99078,1,0,0:0:0:0:
290,41,99243,2,0,P|326:49|356:43,1,52.5000020027161,2|0,0:1|0:0,0:0:0:0:
402,173,99573,2,0,P|366:165|336:171,1,52.5000020027161,10|0,3:0|0:0,0:0:0:0:
253,240,99902,1,2,0:0:0:0:
235,94,100067,1,0,0:0:0:0:
371,240,100232,6,0,P|400:245|439:236,1,52.5000020027161,2|0,0:1|0:0,0:0:0:0:
433,104,100562,2,0,P|404:99|365:108,1,52.5000020027161,2|2,0:0|0:1,0:0:0:0:
297,213,100891,2,0,B|254:241|254:241|278:128,1,157.500006008148,10|2,3:0|0:0,0:0:0:0:
301,16,101551,5,2,0:1:0:0:
222,83,101715,1,0,0:0:0:0:
129,41,101880,1,2,0:1:0:0:
84,133,102045,1,0,0:0:0:0:
177,172,102210,2,0,L|245:163,1,52.5000020027161,10|0,3:0|0:0,0:0:0:0:
297,272,102540,2,0,L|229:281,1,52.5000020027161,2|0,0:0|0:0,0:0:0:0:
108,283,102869,6,0,P|84:262|76:237,1,52.5000020027161,2|0,0:1|0:0,0:0:0:0:
145,132,103199,2,0,P|169:153|177:178,1,52.5000020027161,2|2,0:0|0:1,0:0:0:0:
208,301,103528,2,0,B|248:309|248:309|313:293,1,105.000004005432,10|0,3:0|0:0,0:0:0:0:
431,219,104023,1,0,0:0:0:0:
321,180,104188,6,0,P|301:157|300:132,1,52.5000020027161,2|0,0:1|0:0,0:0:0:0:
449,76,104517,2,0,P|468:98|470:124,1,52.5000020027161,2|0,0:1|0:0,0:0:0:0:
503,262,104847,2,0,B|462:296|462:296|407:299,1,105.000004005432,10|2,3:0|0:0,0:0:0:0:
305,283,105342,1,0,0:0:0:0:
206,343,105507,6,0,P|177:344|148:334,1,52.5000020027161,2|0,0:1|0:0,0:0:0:0:
169,189,105836,2,0,P|198:188|227:198,1,52.5000020027161,2|2,0:0|0:1,0:0:0:0:
333,284,106165,2,0,L|385:288,2,52.5000020027161,10|0|2,3:0|0:0|0:0,0:0:0:0:
188,264,106660,1,2,3:0:0:0:
273,90,106825,5,2,0:0:0:0:
367,44,106990,1,2,0:1:0:0:
416,136,107155,1,10,3:0:0:0:
321,181,107320,1,0,3:0:0:0:
321,181,107402,1,0,3:0:0:0:
321,181,107485,2,0,L|252:177,1,52.5000020027161,2|0,3:1|3:0,0:0:0:0:
195,170,107731,1,0,3:0:0:0:
195,170,107814,2,0,L|187:108,1,52.5000020027161,2|0,3:2|0:0,0:0:0:0:
68,43,108144,6,0,P|60:88|68:160,1,105.000004005432,6|2,0:1|0:1,0:0:0:0:
32,236,108639,1,0,0:0:0:0:
32,236,108803,2,0,L|104:224,1,52.5000020027161,10|0,3:0|0:0,0:0:0:0:
152,296,109133,2,0,L|203:304,1,52.5000020027161,2|0,0:0|0:0,0:0:0:0:
264,232,109463,2,0,P|248:280|276:344,1,105.000004005432,2|2,0:1|0:1,0:0:0:0:
344,280,109957,1,0,0:0:0:0:
424,232,110122,1,10,3:0:0:0:
428,328,110287,1,0,0:0:0:0:
344,184,110452,2,0,P|352:148|340:104,1,78.7500030040742,2|0,0:0|0:0,0:0:0:0:
296,96,110781,6,0,L|400:80,1,105.000004005432,2|2,0:1|0:1,0:0:0:0:
300,20,111276,1,0,0:0:0:0:
300,20,111441,2,0,L|233:11,1,52.5000020027161,10|0,3:0|0:0,0:0:0:0:
152,20,111770,2,0,L|85:11,1,52.5000020027161,2|0,0:0|0:0,0:0:0:0:
104,108,112100,2,0,P|156:116|212:100,1,105.000004005432,2|2,0:1|0:1,0:0:0:0:
288,152,112595,1,2,3:2:0:0:
288,152,112677,1,0,3:0:0:0:
288,152,112759,2,0,L|280:228,1,52.5000020027161,10|0,3:0|0:0,0:0:0:0:
224,280,113089,1,2,0:0:0:0:
192,192,113254,1,0,0:0:0:0:
196,368,113419,6,0,B|236:380|268:363|268:363|320:376,1,105.000004005432,2|2,0:1|0:1,0:0:0:0:
376,320,113913,1,0,0:0:0:0:
376,320,114078,2,0,L|388:244,1,52.5000020027161,10|0,3:0|0:0,0:0:0:0:
344,184,114408,2,0,L|336:92,1,78.7500030040742,2|0,0:0|0:0,0:0:0:0:
344,60,114737,2,0,L|396:63,1,52.5000020027161,2|0,0:1|0:0,0:0:0:0:
260,100,115067,2,0,L|207:96,1,52.5000020027161,2|0,0:1|0:0,0:0:0:0:
120,132,115397,1,10,3:0:0:0:
120,132,115562,1,0,0:0:0:0:
196,188,115726,2,0,L|281:194,1,78.7500030040742,2|0,0:0|0:0,0:0:0:0:
296,236,116056,6,0,P|240:224|192:236,1,105.000004005432,2|2,0:1|0:1,0:0:0:0:
196,332,116551,1,0,0:0:0:0:
196,332,116715,2,0,L|256:304,1,52.5000020027161,10|8,3:0|3:0,0:0:0:0:
340,320,117045,1,2,3:0:0:0:
436,312,117210,1,0,0:0:0:0:
380,232,117375,2,0,P|372:176|380:128,1,105.000004005432,2|2,0:1|0:1,0:0:0:0:
444,60,117869,1,2,3:2:0:0:
444,60,117952,1,0,3:0:0:0:
444,60,118033,2,0,L|368:48,1,52.5000020027161,10|0,3:0|0:0,0:0:0:0:
288,88,118364,1,2,3:0:0:0:
188,44,118528,1,2,0:0:0:0:
92,89,118693,6,0,P|41:140|50:214,1,140,6|2,0:1|0:0,0:0:0:0:
81,287,119188,1,2,0:1:0:0:
81,287,119353,1,10,3:0:0:0:
185,126,119682,2,0,P|220:136|255:138,1,70,2|0,3:0|0:0,0:0:0:0:
390,261,120011,6,0,P|322:257|253:239,1,140,2|2,0:1|0:0,0:0:0:0:
184,316,120505,1,2,0:1:0:0:
326,220,120671,2,0,P|345:190|353:156,1,70,10|0,3:0|0:0,0:0:0:0:
335,53,121001,1,2,3:0:0:0:
435,88,121165,1,2,0:0:0:0:
319,32,121330,1,2,0:1:0:0:
326,220,121660,5,8,3:0:0:0:
419,109,121825,1,2,3:0:0:0:
298,228,122155,1,10,3:0:0:0:
483,165,122320,1,2,0:1:0:0:
483,165,122485,1,0,0:0:0:0:
449,258,122649,6,0,P|406:290|347:296,1,105.000004005432,10|0,3:0|0:0,0:0:0:0:
241,329,123144,6,0,L|283:348,1,26.2500010013581,2|0,0:1|0:0,0:0:0:0:
284,348,123308,2,0,L|145:368,1,140,6|0,0:0|0:0,0:0:0:0:
21,283,123803,1,0,3:0:0:0:
21,283,123886,1,0,3:0:0:0:
21,283,123968,6,0,L|6:227,1,52.5000020027161,8|0,3:0|0:0,0:0:0:0:
167,82,124298,2,0,L|180:132,1,52.5000020027161,8|0,3:0|0:0,0:0:0:0:
0,207,124628,2,0,L|49:188,1,52.5000020027161,8|0,3:0|0:0,0:0:0:0:
191,305,124958,2,0,L|134:280,1,52.5000020027161,8|0,3:0|0:0,0:0:0:0:
81,176,125287,6,0,L|72:123,1,52.5000020027161,8|0,3:0|0:0,0:0:0:0:
274,217,125617,2,0,L|264:165,1,52.5000020027161,8|0,3:0|0:0,0:0:0:0:
441,104,125946,6,0,L|495:96,1,52.5000020027161,8|0,3:0|0:0,0:0:0:0:
242,297,126276,2,0,L|188:305,1,52.5000020027161,8|2,3:0|0:0,0:0:0:0:
112,275,126523,1,0,0:0:0:0:
112,275,126606,6,0,P|68:223|87:127,1,167.999994873047,6|0,0:1|0:0,0:0:0:0:
308,54,127100,2,0,P|355:119|335:198,1,167.999994873047,6|0,0:1|0:0,0:0:0:0:
149,193,127595,5,10,3:0:0:0:
273,136,127759,1,0,0:0:0:0:
65,53,127924,1,6,0:0:0:0:
65,53,128583,6,0,L|58:98,1,41.9999987182618,0|0,3:0|3:0,0:0:0:0:
273,136,128748,2,0,L|280:91,1,41.9999987182618,0|0,3:0|3:0,0:0:0:0:
168,94,128913,5,10,3:0:0:0:
168,94,129078,1,0,3:0:0:0:
228,260,129243,6,0,B|320:288|308:240|412:264,1,181.999991668702,6|0,0:1|0:0,0:0:0:0:
172,336,129737,2,0,P|140:288|192:172,1,181.999991668702,2|0,0:1|0:0,0:0:0:0:
460,188,130232,2,0,P|492:236|440:352,1,181.999991668702,8|0,3:0|0:0,0:0:0:0:
312,364,130726,2,0,B|334:264|286:276|314:184,1,181.999991668702,2|0,3:0|0:0,0:0:0:0:
376,108,131221,5,2,0:1:0:0:
280,96,131386,1,0,0:0:0:0:
400,208,131550,1,8,3:0:0:0:
224,168,131715,1,0,0:0:0:0:
96,256,131880,6,0,L|88:112,1,136.499993751526,6|0,0:1|0:0,0:0:0:0:
88,92,132210,1,2,0:1:0:0:
232,31,132375,6,0,L|224:167,1,136.499993751526,8|0,3:0|0:0,0:0:0:0:
220,192,132704,1,2,3:0:0:0:
84,184,132869,6,0,P|-1:98|87:2,1,272.999987503052,6|2,0:1|0:1,0:0:0:0:
184,32,133529,5,8,3:0:0:0:
184,32,133693,1,0,0:0:0:0:
88,92,133858,5,4,0:1:0:0:
192,140,134022,1,0,0:0:0:0:
96,196,134188,5,2,3:0:0:0:
220,264,134352,1,0,0:0:0:0:
91,182,134518,6,0,L|104:364,1,181.999991668702,6|2,0:1|0:1,0:0:0:0:
240,188,135011,2,0,L|253:6,1,181.999991668702,8|0,3:0|0:0,0:0:0:0:
352,168,135506,2,0,P|344:248|176:280,1,272.999987503052,2|0,3:0|0:0,0:0:0:0:
112,200,136166,5,8,3:0:0:0:
168,104,136331,1,2,0:1:0:0:
240,188,136496,5,10,3:0:0:0:
276,340,136660,1,0,0:0:0:0:
340,240,136825,5,2,3:0:0:0:
180,283,136990,1,0,0:0:0:0:
324,132,137154,6,0,P|264:96|194:100,1,136.499993751526,6|0,0:1|0:0,0:0:0:0:
172,112,137485,1,2,0:1:0:0:
55,250,137649,6,0,P|115:286|184:281,1,136.499993751526,8|0,3:0|0:0,0:0:0:0:
207,270,137979,1,2,3:0:0:0:
103,49,138144,6,0,P|83:134|140:201,1,181.999991668702,6|0,0:1|0:0,0:0:0:0:
262,115,138639,6,0,L|172:112,1,90.9999958343508,2|8,0:1|3:0,0:0:0:0:
320,196,138968,1,0,0:0:0:0:
320,196,139133,5,10,3:0:0:0:
364,100,139298,1,0,0:0:0:0:
420,240,139463,1,10,3:0:0:0:
272,292,139628,1,0,0:0:0:0:
216,152,139792,6,0,P|123:137|10:203,1,181.999991668702,6|0,0:1|0:0,0:0:0:0:
199,94,140287,2,0,P|106:111|22:212,1,181.999991668702,2|0,0:1|0:0,0:0:0:0:
163,45,140781,2,0,P|82:93|37:216,1,181.999991668702,8|0,3:0|0:0,0:0:0:0:
41,168,141275,2,0,L|18:53,1,90.9999958343508,2|0,3:0|0:0,0:0:0:0:
104,261,141606,5,0,0:0:0:0:
104,261,141770,1,2,0:1:0:0:
280,185,141935,1,0,0:0:0:0:
197,334,142100,1,10,3:0:0:0:
210,122,142265,1,0,0:0:0:0:
283,277,142429,6,0,P|385:267|436:170,1,181.999991668702,6|2,0:1|0:1,0:0:0:0:
464,30,142924,2,0,P|362:40|311:137,1,181.999991668702,10|2,3:0|0:0,0:0:0:0:
283,277,143419,2,0,L|267:378,1,90.9999958343508,6|0,0:1|0:0,0:0:0:0:
214,213,143748,5,2,3:0:0:0:
375,244,143913,1,2,0:1:0:0:
207,122,144078,5,10,3:0:0:0:
373,130,144243,1,0,0:0:0:0:
201,31,144407,5,2,3:0:0:0:
371,11,144573,1,0,0:0:0:0:
214,213,144737,6,0,P|150:241|54:210,1,136.499993751526,8|0,3:0|0:0,0:0:0:0:
48,132,145066,2,0,L|33:344,1,181.999991668702,6|2,0:1|0:1,0:0:0:0:
214,213,145562,2,0,L|199:1,1,181.999991668702,8|2,3:0|0:0,0:0:0:0:
319,142,146055,2,0,P|418:165|516:92,1,181.999991668702,10|2,3:0|0:0,0:0:0:0:
401,13,146550,5,0,0:0:0:0:
401,249,146715,1,8,3:0:0:0:
262,58,146880,1,2,0:1:0:0:
486,131,147045,1,2,3:0:0:0:
262,204,147210,1,0,3:0:0:0:
262,204,147292,1,0,3:0:0:0:
262,204,147374,1,10,3:0:0:0:
401,13,147540,1,2,0:0:0:0:
401,249,147704,6,0,B|301:271|313:223|221:251,1,181.999991668702,6|2,0:1|0:1,0:0:0:0:
22,347,148199,2,0,P|106:377|187:340,1,181.999991668702,8|0,3:0|0:0,0:0:0:0:
187,175,148693,2,0,P|103:145|22:182,1,181.999991668702,6|2,0:1|0:0,0:0:0:0:
61,72,149188,6,0,P|112:61|197:102,1,90.9999958343508,2|8,0:1|3:0,0:0:0:0:
254,221,149518,1,0,3:0:0:0:
254,221,149600,1,0,3:0:0:0:
254,221,149682,1,10,3:0:0:0:
341,92,149847,1,2,0:1:0:0:
419,273,150012,2,0,P|475:280|489:275,2,45.4999979171754,2|0|0,0:0|0:0|0:0,0:0:0:0:
341,92,150342,6,0,P|289:83|229:116,1,90.9999958343508,6|2,0:0|0:0,0:0:0:0:
218,245,150671,1,2,0:1:0:0:
407,144,150836,2,0,P|426:98|398:34,1,90.9999958343508,8|0,3:0|0:0,0:0:0:0:
220,170,151165,6,0,L|108:152,1,90.9999958343508,0|6,0:0|0:0,0:0:0:0:
363,274,151496,2,0,L|475:256,1,90.9999958343508,2|2,0:0|0:1,0:0:0:0:
496,130,151825,1,8,3:0:0:0:
376,47,151990,1,2,0:0:0:0:
294,163,152155,1,0,0:0:0:0:
122,103,152320,6,0,B|110:148|110:148|116:209,1,90.9999958343508,10|0,3:0|0:0,0:0:0:0:
361,214,152649,2,0,B|373:169|373:169|367:108,1,90.9999958343508,2|0,3:0|0:0,0:0:0:0:
264,320,152979,6,0,L|380:296,1,90.9999958343508,6|2,0:0|0:0,0:0:0:0:
172,240,153309,1,2,0:1:0:0:
172,240,153474,2,0,L|82:258,1,90.9999958343508,8|0,3:0|0:0,0:0:0:0:
204,376,153803,1,0,0:0:0:0:
284,196,153968,2,0,L|292:92,1,90.9999958343508,6|2,0:0|0:0,0:0:0:0:
128,84,154298,1,2,0:1:0:0:
128,84,154463,2,0,L|121:174,1,90.9999958343508,8|0,3:0|0:0,0:0:0:0:
284,196,154792,5,0,0:0:0:0:
208,132,154957,1,10,3:0:0:0:
244,288,155122,1,0,0:0:0:0:
300,100,155287,2,0,L|293:9,1,90.9999958343508,2|0,3:0|0:0,0:0:0:0:
192,304,155617,6,0,P|140:313|80:280,1,90.9999958343508,6|2,0:0|0:0,0:0:0:0:
36,168,155946,1,2,0:1:0:0:
262,190,156111,2,0,P|281:144|253:80,1,90.9999958343508,8|0,3:0|0:0,0:0:0:0:
337,311,156441,6,0,L|426:325,1,90.9999958343508,0|6,0:0|0:0,0:0:0:0:
152,232,156771,2,0,L|62:246,1,90.9999958343508,2|2,0:0|0:1,0:0:0:0:
116,124,157100,1,8,3:0:0:0:
228,276,157265,1,0,0:0:0:0:
213,147,157430,1,0,0:0:0:0:
359,335,157595,6,0,B|404:347|404:347|447:336,1,90.9999958343508,10|0,3:0|0:0,0:0:0:0:
259,79,157924,2,0,B|214:67|214:67|170:77,1,90.9999958343508,2|0,3:0|0:0,0:0:0:0:
320,256,158254,5,6,0:0:0:0:
460,208,158419,1,2,0:0:0:0:
340,168,158584,1,2,0:1:0:0:
428,72,158748,2,0,P|372:56|348:32,1,90.9999958343508,8|0,3:0|0:0,0:0:0:0:
143,42,159078,1,2,3:2:0:0:
143,42,159160,1,0,3:0:0:0:
143,42,159243,6,0,P|199:58|223:82,1,90.9999958343508,6|0,3:2|0:0,0:0:0:0:
10,232,159573,1,2,3:0:0:0:
211,179,159737,1,2,0:1:0:0:
72,95,159902,5,8,3:0:0:0:
149,251,160067,1,0,0:0:0:0:
320,233,160232,1,2,3:2:0:0:
314,264,160314,1,0,3:0:0:0:
308,295,160397,1,0,3:0:0:0:
302,326,160479,1,0,3:0:0:0:
296,357,160562,1,2,3:0:0:0:
450,268,160726,1,2,0:1:0:0:
297,69,160891,5,6,0:0:0:0:
297,69,162540,2,0,L|216:64,1,78.7500030040742,2|0,0:1|0:0,0:0:0:0:
175,156,162869,5,6,3:2:0:0:
209,153,162952,1,0,3:0:0:0:
243,150,163034,1,0,3:0:0:0:
277,147,163117,1,0,3:0:0:0:
311,144,163199,1,0,3:0:0:0:
345,141,163281,1,0,3:0:0:0:
379,138,163364,1,0,3:0:0:0:
413,135,163447,1,0,3:0:0:0:
447,132,163528,5,6,0:0:0:0:
500,220,163693,2,0,L|491:318,1,90.9999958343508
308,240,164023,2,0,L|304:291,1,45.4999979171754
297,363,164188,5,0,0:0:0:0:
406,268,164353,1,0,0:0:0:0:
208,221,164518,1,0,0:0:0:0:
326,368,164682,1,0,0:0:0:0:
216,188,164847,2,0,L|123:202,1,90.9999958343508
309,57,165177,1,0,0:0:0:0:
446,105,165342,1,0,0:0:0:0:
245,108,165507,6,0,P|161:117|93:68,1,168
11,30,165836,2,0,L|21:124,1,90.9999958343508
34,208,166166,5,0,0:0:0:0:
178,263,166331,2,0,P|218:271|267:253,1,90.9999958343508
90,322,166660,2,0,L|98:271,1,45.4999979171754
112,199,166825,5,0,0:0:0:0:
180,23,166990,1,0,0:0:0:0:
221,173,167155,1,0,0:0:0:0:
377,94,167320,1,0,0:0:0:0:
193,56,167485,2,0,L|102:50,1,90.9999958343508
357,122,167814,2,0,L|448:116,1,90.9999958343508
311,208,168144,5,0,0:0:0:0:
312,218,168226,1,0,0:0:0:0:
313,228,168309,1,0,0:0:0:0:
314,238,168391,1,0,0:0:0:0:
315,248,168474,1,0,0:0:0:0:
316,258,168556,1,0,0:0:0:0:
317,268,168639,1,0,0:0:0:0:
318,278,168721,1,0,0:0:0:0:
319,288,168803,6,0,P|362:294|410:281,1,90.9999958343508
447,116,169133,2,0,P|404:110|356:123,1,90.9999958343508
498,188,169463,1,0,0:0:0:0:
503,50,169628,1,0,0:0:0:0:
302,59,169792,1,0,0:0:0:0:
297,197,169957,6,0,P|236:187|180:128,1,136.499993751526
171,63,170287,1,0,0:0:0:0:
34,193,170452,2,0,L|126:188,1,90.9999958343508
264,298,170781,5,0,0:0:0:0:
264,298,170864,1,0,0:0:0:0:
264,298,170946,1,0,0:0:0:0:
103,283,171111,2,0,P|60:300|30:333,1,90.9999958343508
226,194,171441,6,0,P|192:169|139:162,1,90.9999958343508
21,102,171770,2,0,L|34:197,1,90.9999958343508
264,298,172100,1,0,0:0:0:0:
355,203,172265,2,0,P|385:139|400:22,1,181.999991668702
118,186,172924,5,0,0:0:0:0:
118,186,173089,2,0,L|132:278,1,90.9999958343508
241,377,173419,1,0,0:0:0:0:
286,378,173501,1,0,0:0:0:0:
325,355,173584,1,0,0:0:0:0:
348,316,173666,1,0,0:0:0:0:
346,270,173748,5,0,0:0:0:0:
328,263,173831,1,0,0:0:0:0:
311,256,173913,1,0,0:0:0:0:
293,249,173996,1,0,0:0:0:0:
261,217,174078,6,0,P|250:168|259:123,1,90.9999958343508
432,38,174408,2,0,P|443:87|434:132,1,90.9999958343508
181,145,174737,1,0,0:0:0:0:
352,96,174902,1,0,0:0:0:0:
192,32,175067,1,0,0:0:0:0:
214,223,175232,6,0,P|151:224|101:175,1,136.499993751526
91,82,175562,1,0,0:0:0:0:
45,259,175726,2,0,L|141:255,1,90.9999958343508
333,341,176056,5,0,0:0:0:0:
241,229,176221,1,0,0:0:0:0:
241,229,176303,1,0,0:0:0:0:
241,229,176386,1,0,0:0:0:0:
414,282,176551,6,0,P|439:240|436:189,1,90.9999958343508
214,223,176880,2,0,P|199:141|249:49,1,181.999991668702
241,55,177375,1,0,0:0:0:0:
328,180,177540,1,0,0:0:0:0:
133,145,177704,2,0,L|236:127,1,90.9999958343508
265,51,177952,1,0,0:0:0:0:
286,48,178034,2,0,L|389:30,1,90.9999958343508
512,245,178364,2,0,L|409:263,1,90.9999958343508
312,345,178693,5,0,0:0:0:0:
287,358,178776,1,0,0:0:0:0:
261,373,178858,2,0,L|216:366,1,45.4999979171754
106,256,179023,1,0,0:0:0:0:
81,243,179106,1,0,0:0:0:0:
55,228,179188,2,0,L|9:239,1,45.4999979171754
152,89,179353,5,0,0:0:0:0:
140,329,179518,1,0,0:0:0:0:
242,43,180342,1,0,0:0:0:0:
274,338,180507,1,0,0:0:0:0:
343,77,181001,1,0,0:0:0:0:
195,143,181166,1,0,0:0:0:0:
327,265,181331,2,0,P|329:310|313:352,1,90.9999958343508
165,307,181660,2,0,B|159:264|159:264|168:217,1,90.9999958343508
229,26,181990,5,0,0:0:0:0:
282,341,182155,1,0,0:0:0:0:
311,32,182979,1,0,0:0:0:0:
167,325,183144,1,0,0:0:0:0:
344,128,183639,1,0,0:0:0:0:
242,291,183803,1,0,0:0:0:0:
196,294,183886,1,0,0:0:0:0:
150,293,183968,6,0,L|107:338,2,45.4999979171754
274,70,184298,1,0,0:0:0:0:
240,113,184380,1,0,0:0:0:0:
233,167,184463,1,0,0:0:0:0:
255,216,184545,1,0,0:0:0:0:
299,247,184628,5,0,0:0:0:0:
360,36,184792,1,0,0:0:0:0:
433,223,185617,5,0,0:0:0:0:
274,70,185781,1,0,0:0:0:0:
256,88,186276,6,0,P|200:92|152:76,1,90.9999958343508
360,32,186606,1,0,0:0:0:0:
336,172,186770,1,0,0:0:0:0:
166,83,186935,2,0,L|176:256,1,136.499993751526
108,268,187265,6,0,L|244:260,1,136.499993751526
324,324,187595,1,0,0:0:0:0:
344,284,187677,1,0,0:0:0:0:
346,238,187759,1,0,0:0:0:0:
329,197,187842,1,0,0:0:0:0:
295,167,187924,6,0,L|431:174,1,136.499993751526
380,72,188254,1,0,0:0:0:0:
334,74,188336,1,0,0:0:0:0:
289,77,188419,1,0,0:0:0:0:
243,79,188501,1,0,0:0:0:0:
198,82,188584,6,0,B|176:144|176:144|192:232,1,136.499993751526
208,312,188913,1,0,0:0:0:0:
168,292,188995,1,0,0:0:0:0:
122,290,189077,1,0,0:0:0:0:
81,307,189160,1,0,0:0:0:0:
51,341,189243,6,0,B|73:279|73:279|57:191,1,136.499993751526
40,104,189573,1,0,0:0:0:0:
86,106,189655,1,0,0:0:0:0:
131,109,189738,1,0,0:0:0:0:
177,111,189820,1,0,0:0:0:0:
222,114,189902,5,0,0:0:0:0:
208,312,190067,1,0,0:0:0:0:
320,80,190891,5,0,0:0:0:0:
304,356,191056,1,0,0:0:0:0:
416,56,191551,6,0,P|460:50|504:62,1,90.9999958343508
356,176,191880,2,0,P|311:181|267:169,1,90.9999958343508
460,144,192210,2,0,P|465:188|453:232,1,90.9999958343508
320,80,192540,5,0,0:0:0:0:
144,188,192704,1,0,0:0:0:0:
208,88,193529,5,0,0:0:0:0:
32,196,193693,1,0,0:0:0:0:
32,196,194188,5,0,0:0:0:0:
35,227,194270,1,0,0:0:0:0:
39,259,194352,1,0,0:0:0:0:
43,290,194435,1,0,0:0:0:0:
46,322,194517,1,0,0:0:0:0:
281,262,194847,5,0,0:0:0:0:
284,230,194929,1,0,0:0:0:0:
288,198,195011,1,0,0:0:0:0:
292,167,195094,1,0,0:0:0:0:
295,135,195177,6,0,B|425:117|425:117|495:147,1,181.999991668702
413,232,195671,2,0,P|360:133|386:25,1,227.499989585877
493,208,196166,2,0,P|492:260|458:310,1,90.9999958343508
284,230,196496,6,0,B|179:195|216:255|91:215,1,181.999991668702
54,122,196990,2,0,B|22:64|53:2|53:2|-11:40,1,181.999991668702
127,63,197485,1,0,0:0:0:0:
169,78,197567,1,0,0:0:0:0:
214,82,197649,1,0,0:0:0:0:
258,72,197732,1,0,0:0:0:0:
298,50,197814,6,0,B|345:1|416:9|466:41|484:125|442:184|387:191|329:179|329:179|412:220|412:220|355:299|422:383,1,630.000024032594,6|2,0:1|0:3,0:0:0:0:
511,293,200122,1,2,0:0:0:0:
365,103,200452,6,0,B|384:136|384:136|392:202,2,105.000004005432,6|2|10,0:1|0:1|3:0,0:0:0:0:
393,218,201275,1,0,0:0:0:0:
352,93,201441,2,0,P|326:88|300:90,1,52.5000020027161,2|0,0:0|0:0,0:0:0:0:
123,107,201770,2,0,P|174:116|227:113,1,105.000004005432,2|2,0:1|0:1,0:0:0:0:
365,101,202265,1,0,0:0:0:0:
497,65,202430,2,0,P|487:115|502:165,1,105.000004005432,10|2,3:0|0:0,0:0:0:0:
510,178,203089,6,0,P|484:173|458:175,1,52.5000020027161,2|0,0:1|0:0,0:0:0:0:
335,205,203419,2,0,P|361:206|386:202,1,52.5000020027161,2|0,0:1|0:0,0:0:0:0:
264,178,203749,1,10,3:0:0:0:
187,195,203914,1,0,0:0:0:0:
156,267,204078,2,0,B|156:292|156:292|165:318,1,52.5000020027161,2|0,0:0|0:0,0:0:0:0:
264,178,204408,6,0,B|273:126|273:126|264:74,1,105.000004005432,2|2,0:1|0:1,0:0:0:0:
260,193,204902,1,0,0:0:0:0:
258,59,205066,2,0,B|285:64|312:53|312:53|361:57,2,105.000004005432,10|2|2,3:0|0:0|0:1,0:0:0:0:
258,75,206056,5,2,0:1:0:0:
258,90,206386,1,10,3:0:0:0:
260,193,206715,1,2,0:0:0:0:
185,168,206880,1,2,0:0:0:0:
107,164,207045,6,0,P|56:174|16:208,2,105.000004005432,2|2|10,0:1|0:0|3:0,0:0:0:0:
260,193,208034,1,2,0:0:0:0:
30,149,208364,5,2,0:1:0:0:
283,331,208694,1,2,0:1:0:0:
411,46,209023,1,10,3:0:0:0:
344,87,209188,2,0,P|292:93|243:75,1,105.000004005432,2|2,3:0|0:0,0:0:0:0:
418,37,209682,1,2,0:1:0:0:
418,37,210012,5,2,0:1:0:0:
423,115,210177,1,0,0:0:0:0:
430,240,210342,2,0,L|434:279,4,26.2500010013581,10|0|0|0|2,3:0|3:0|3:0|3:0|3:2,0:0:0:0:
311,172,210836,1,0,3:0:0:0:
423,115,211001,6,0,P|331:96|272:102,1,140,6|2,0:1|0:1,0:0:0:0:
207,132,211496,1,0,0:0:0:0:
156,65,211660,1,10,3:0:0:0:
28,174,211990,2,0,L|35:258,1,70,2|0,0:0|0:0,0:0:0:0:
93,303,212320,6,0,L|232:314,1,140,2|2,0:1|0:1,0:0:0:0:
399,267,212814,1,0,0:0:0:0:
304,224,212979,2,0,P|316:344|312:388,1,140,10|2,3:0|0:0,0:0:0:0:
93,303,213639,6,0,P|92:233|103:164,1,140,2|2,0:1|0:1,0:0:0:0:
150,94,214133,1,0,0:0:0:0:
228,63,214298,1,10,3:0:0:0:
61,38,214628,2,0,L|46:129,1,70,2|0,0:0|0:0,0:0:0:0:
156,233,214957,6,0,L|150:94,1,140,2|2,0:1|0:1,0:0:0:0:
237,29,215452,1,0,3:0:0:0:
232,46,215533,1,0,3:0:0:0:
228,63,215617,1,10,3:0:0:0:
291,117,215781,1,2,0:0:0:0:
366,80,215946,2,0,P|411:86|441:105,1,70,2|0,0:0|0:0,0:0:0:0:
455,178,216275,6,0,L|302:190,1,140,2|2,0:1|0:1,0:0:0:0:
315,188,216770,1,0,0:0:0:0:
390,351,216935,2,0,L|402:269,1,70,10|0,3:0|0:0,0:0:0:0:
442,109,217265,2,0,P|442:144|455:177,1,70,2|0,0:0|0:0,0:0:0:0:
507,56,217595,6,0,L|355:64,1,140,2|2,0:1|0:1,0:0:0:0:
291,100,218089,1,0,0:0:0:0:
239,33,218254,2,0,P|186:23|100:69,1,140,10|2,3:0|0:0,0:0:0:0:
156,268,218913,6,0,P|178:202|189:133,1,140,2|2,0:1|0:1,0:0:0:0:
40,78,219408,2,0,L|49:165,1,70,2|10,0:0|3:0,0:0:0:0:
54,231,219737,1,0,0:0:0:0:
63,314,219902,1,2,0:0:0:0:
156,268,220067,1,0,0:0:0:0:
229,343,220232,2,0,P|291:339|376:318,1,140,2|0,0:1|0:1,0:0:0:0:
457,221,220726,1,0,3:0:0:0:
461,238,220809,1,0,3:0:0:0:
465,254,220891,1,10,3:0:0:0:
343,213,221056,1,0,0:0:0:0:
439,127,221221,2,0,P|436:88|427:52,1,70,2|0,0:0|0:0,0:0:0:0:
343,213,221551,6,0,P|332:281|365:341,1,140,6|2,0:1|0:1,0:0:0:0:
244,225,222044,2,0,P|263:159|319:118,1,140,10|0,3:0|0:0,0:0:0:0:
421,265,222540,1,2,0:0:0:0:
421,265,222704,1,2,0:0:0:0:
264,352,222869,6,0,L|120:336,1,140,2|2,0:1|0:1,0:0:0:0:
16,216,223364,2,0,L|160:200,1,140,10|0,3:0|0:0,0:0:0:0:
320,180,223858,1,2,0:0:0:0:
248,268,224023,1,2,0:0:0:0:
232,116,224187,6,0,L|301:102,1,70,2|0,0:1|0:0,0:0:0:0:
406,81,224518,1,2,0:1:0:0:
488,222,224682,2,0,L|419:208,1,70,10|0,3:0|0:0,0:0:0:0:
314,187,225012,1,2,0:0:0:0:
200,292,225176,2,0,L|269:278,1,70,2|0,0:0|0:0,0:0:0:0:
126,344,225507,6,0,P|115:315|136:232,1,105.000004005432,2|2,0:1|0:1,0:0:0:0:
262,131,226001,1,0,3:0:0:0:
262,131,226084,1,0,3:0:0:0:
262,131,226166,6,0,P|196:146|121:122,1,140,6|0,0:0|0:0,0:0:0:0:
31,31,226660,1,0,3:0:0:0:
31,31,226743,1,0,3:0:0:0:
31,31,226825,6,0,L|34:86,1,52.5000020027161,8|0,3:0|0:0,0:0:0:0:
138,270,227155,2,0,L|140:217,1,52.5000020027161,8|0,3:0|0:0,0:0:0:0:
268,90,227485,2,0,L|215:87,1,52.5000020027161,8|0,3:0|0:0,0:0:0:0:
402,162,227815,2,0,L|454:159,1,52.5000020027161,8|0,3:0|0:0,0:0:0:0:
309,256,228144,2,0,L|306:308,1,52.5000020027161,8|0,3:0|0:0,0:0:0:0:
162,374,228474,2,0,L|159:321,1,52.5000020027161,8|0,3:0|0:0,0:0:0:0:
5,206,228803,2,0,L|57:208,1,52.5000020027161,8|0,3:0|0:0,0:0:0:0:
237,91,229133,2,0,L|184:93,1,52.5000020027161,8|0,3:0|0:0,0:0:0:0:
112,103,229380,1,0,0:0:0:0:
112,103,229463,6,0,P|87:61|87:19,1,87.5,6|0,0:1|0:0,0:0:0:0:
138,116,229957,6,0,L|171:302,1,167.999994873047,6|0,0:1|0:0,0:0:0:0:
413,360,230452,2,0,P|440:298|424:213,1,125.999996154785,6|0,0:1|0:0,0:0:0:0:
430,106,230781,6,0,P|407:167|445:249,1,146.999995513916,6|0,0:1|0:0,0:0:0:0:
395,249,231441,6,0,L|354:263,1,35,8|0,3:0|3:0,0:0:0:0:
321,335,231606,2,0,L|286:327,1,35,0|0,3:0|3:0,0:0:0:0:
193,285,231770,1,10,3:0:0:0:
193,285,231935,1,0,3:0:0:0:
83,350,232100,5,6,0:0:0:0:
27,206,232429,1,0,0:0:0:0:
27,206,232594,1,2,0:0:0:0:
91,66,232924,1,0,0:0:0:0:
160,99,233089,1,2,0:0:0:0:
231,70,233254,1,2,0:0:0:0:
359,154,233584,1,0,0:0:0:0:
480,59,233913,1,0,0:0:0:0:
452,130,234078,1,2,0:0:0:0:
484,199,234243,1,0,0:0:0:0:
467,274,234408,1,2,0:0:0:0:
392,294,234573,1,0,0:0:0:0:
323,366,234737,6,0,P|250:359|171:368,1,140,2|0,0:0|0:0,0:0:0:0:
177,288,235231,2,0,P|111:319|47:368,1,140,2|0,0:0|0:0,0:0:0:0:
15,269,235726,1,2,0:0:0:0:
15,269,235891,1,0,0:0:0:0:
27,115,236221,1,2,0:0:0:0:
173,161,236551,1,0,0:0:0:0:
240,124,236715,1,2,0:0:0:0:
240,124,236880,1,0,0:0:0:0:
255,48,237045,1,2,0:0:0:0:
255,48,237210,1,0,0:0:0:0:
239,201,237375,6,0,B|287:224|287:224|389:192,1,140,2|0,0:0|0:0,0:0:0:0:
457,286,237869,2,0,B|409:263|409:263|307:295,1,140,2|0,0:0|0:0,0:0:0:0:
193,323,238364,1,2,0:0:0:0:
193,323,238529,1,0,0:0:0:0:
293,141,238858,5,2,0:0:0:0:
132,188,239188,1,0,0:0:0:0:
239,253,239518,1,0,0:0:0:0:
215,173,239682,1,2,0:0:0:0:
239,253,239847,1,0,0:0:0:0:
263,108,240012,6,0,P|217:94|138:150,1,140,2|0,0:0|0:0,0:0:0:0:
170,240,240507,2,0,P|213:251|292:195,1,140,2|0,0:0|0:0,0:0:0:0:
263,108,241001,2,0,B|195:92|195:92|134:147,1,140,2|0,0:0|0:0,0:0:0:0:
57,218,241496,5,0,0:0:0:0:
215,173,241660,1,2,0:3:0:0:
96,61,241825,1,2,0:3:0:0:
161,273,241990,5,2,3:2:0:0:
197,261,242073,1,0,3:0:0:0:
233,249,242155,1,0,3:0:0:0:
269,237,242237,1,0,3:0:0:0:
305,225,242320,1,10,3:0:0:0:
301,116,242485,1,0,3:0:0:0:
96,61,242649,6,0,P|116:127|107:196,1,140,6|0,0:0|0:0,0:0:0:0:
92,236,243062,1,0,3:0:0:0:
56,258,243144,1,0,3:0:0:0:
82,44,243309,1,8,3:0:0:0:
333,60,243639,5,0,3:0:0:0:
374,69,243720,1,0,3:0:0:0:
414,80,243804,1,0,3:0:0:0:
452,96,243885,1,0,3:0:0:0:
485,118,243968,2,0,P|502:149|507:184,1,70,8|8,3:0|3:0,0:0:0:0:
446,341,244298,1,0,3:0:0:0:
427,332,244380,1,0,3:0:0:0:
410,320,244463,1,0,3:0:0:0:
314,238,244628,5,8,3:0:0:0:
314,238,244793,1,0,3:0:0:0:
256,125,244958,1,8,3:0:0:0:
256,125,245122,1,0,3:0:0:0:
295,5,245287,6,0,B|328:-10|359:8|383:33|383:33|401:32|423:42,1,140,8|0,3:0|3:0,0:0:0:0:
437,57,245699,1,0,3:0:0:0:
445,76,245781,1,0,3:0:0:0:
465,199,245946,2,0,P|481:168|507:145,1,70,8|0,3:0|3:0,0:0:0:0:
426,274,246276,1,0,3:0:0:0:
406,311,246358,1,0,3:0:0:0:
372,336,246441,1,0,3:0:0:0:
249,365,246606,6,0,B|191:367|148:344|148:344|112:341,1,140,8|0,3:0|3:0,0:0:0:0:
91,340,247018,1,0,3:0:0:0:
70,334,247100,1,0,3:0:0:0:
8,208,247264,1,8,3:0:0:0:
8,208,247430,1,0,3:0:0:0:
53,69,247595,2,0,P|61:102|54:137,1,70,8|0,3:0|3:0,0:0:0:0:
174,195,247924,6,0,P|174:113|206:49,1,140,8|0,3:0|3:0,0:0:0:0:
214,58,248336,1,0,3:0:0:0:
231,56,248418,1,0,3:0:0:0:
357,116,248584,2,0,L|361:47,1,70,8|0,3:0|3:0,0:0:0:0:
486,13,248913,1,0,3:0:0:0:
489,30,248996,1,0,3:0:0:0:
491,47,249078,1,0,3:0:0:0:
436,196,249242,6,0,P|345:196|290:215,1,140,8|0,3:0|3:0,0:0:0:0:
284,220,249655,1,0,3:0:0:0:
270,231,249737,1,0,3:0:0:0:
136,188,249902,2,0,L|145:113,1,70,8|0,3:0|3:0,0:0:0:0:
264,44,250231,2,0,L|272:113,1,70,8|0,3:0|3:0,0:0:0:0:
201,274,250562,6,0,B|84:288|84:288|40:252,1,167.999994873047,6|2,0:1|0:0,0:0:0:0:
105,64,251056,2,0,B|140:31|140:31|126:178,1,195.999994018555,6|2,0:1|0:0,0:0:0:0:
252,331,251551,2,0,L|247:204,1,112,2|0,3:0|0:0,0:0:0:0:
321,73,251881,5,4,0:1:0:0:
404,40,252210,1,0,3:0:0:0:
454,113,252540,1,2,3:2:0:0:
452,133,252622,1,0,3:0:0:0:
451,154,252704,1,0,3:0:0:0:
450,175,252787,1,0,3:0:0:0:
448,196,252869,2,0,L|457:256,1,56,10|0,3:0|3:0,0:0:0:0:
358,347,253034,2,0,L|365:291,1,56,0|0,3:0|3:0,0:0:0:0:
283,167,253199,6,0,P|231:246|251:335,1,181.999991668702,6|0,0:1|0:0,0:0:0:0:
488,281,253693,2,0,B|424:298|367:245|304:266,1,181.999991668702,2|0,0:1|0:0,0:0:0:0:
130,247,254187,2,0,B|194:230|251:283|314:262,1,181.999991668702,8|0,3:0|0:0,0:0:0:0:
448,196,254682,1,2,0:0:0:0:
448,196,255012,1,0,0:0:0:0:
309,264,255177,1,8,3:0:0:0:
384,319,255342,1,0,0:0:0:0:
461,106,255507,2,0,L|444:217,1,90.9999958343508,2|0,3:0|0:0,0:0:0:0:
254,50,255836,6,0,P|329:54|404:21,1,136.499993751526,6|0,0:1|0:0,0:0:0:0:
406,16,256166,1,2,0:1:0:0:
189,195,256330,2,0,P|158:138|150:47,1,136.499993751526,8|0,3:0|0:0,0:0:0:0:
150,37,256660,1,2,0:0:0:0:
293,214,256825,2,0,P|226:212|125:276,1,181.999991668702,2|0,0:1|0:0,0:0:0:0:
68,346,257320,1,2,3:0:0:0:
68,346,257649,1,0,0:0:0:0:
129,269,257814,2,0,L|96:176,1,90.9999958343508,10|0,3:0|0:0,0:0:0:0:
185,111,258144,2,0,P|230:119|283:124,1,90.9999958343508,2|0,3:0|0:0,0:0:0:0:
453,293,258474,6,0,P|407:288|355:280,1,90.9999958343508,6|0,0:1|0:0,0:0:0:0:
362,281,258803,1,2,0:1:0:0:
459,90,258968,2,0,L|483:192,1,90.9999958343508,10|0,3:0|0:0,0:0:0:0:
479,178,259297,1,0,0:0:0:0:
246,58,259463,2,0,P|353:71|281:188,1,272.999987503052,2|0,0:1|0:0,0:0:0:0:
156,89,260122,2,0,P|104:107|50:124,1,90.9999958343508,2|2,0:0|0:1,0:0:0:0:
259,267,260452,2,0,P|214:261|157:254,1,90.9999958343508,8|0,3:0|0:0,0:0:0:0:
73,210,260781,1,10,3:0:0:0:
203,167,260946,1,0,0:0:0:0:
73,210,261111,6,0,L|50:115,1,90.9999958343508,6|0,0:1|0:0,0:0:0:0:
80,36,261440,1,2,0:1:0:0:
170,265,261606,2,0,L|153:356,1,90.9999958343508,8|0,3:0|0:0,0:0:0:0:
66,300,261935,1,2,3:0:0:0:
203,167,262099,2,0,P|255:155|296:145,2,90.9999958343508,2|2|0,0:1|0:0|0:0,0:0:0:0:
19,130,262595,1,2,0:1:0:0:
73,210,262759,1,8,3:0:0:0:
196,77,262924,1,2,3:2:0:0:
196,77,263007,1,0,3:0:0:0:
196,77,263089,2,0,L|261:10,1,90.9999958343508,6|0,3:1|0:0,0:0:0:0:
363,249,263419,2,0,P|315:242|268:227,1,90.9999958343508,2|0,3:0|0:0,0:0:0:0:
425,172,263748,6,0,P|458:222|420:332,1,181.999991668702,6|0,0:1|0:0,0:0:0:0:
274,229,264243,2,0,P|272:175|286:134,1,90.9999958343508,2|0,0:1|0:0,0:0:0:0:
349,360,264573,1,2,0:0:0:0:
363,249,264737,6,0,L|179:235,1,181.999991668702,8|0,3:0|0:0,0:0:0:0:
49,135,265232,2,0,L|141:129,1,90.9999958343508,2|0,3:0|0:0,0:0:0:0:
223,60,265562,1,0,0:0:0:0:
301,178,265726,5,2,0:1:0:0:
474,127,265891,1,0,0:0:0:0:
410,275,266056,1,10,3:0:0:0:
365,112,266221,1,0,0:0:0:0:
262,55,266386,6,0,P|323:77|427:22,1,181.999991668702,6|2,0:1|0:1,0:0:0:0:
512,187,266880,2,0,P|465:175|420:179,1,90.9999958343508,8|0,3:0|0:0,0:0:0:0:
282,262,267209,1,0,0:0:0:0:
347,354,267374,6,0,P|409:292|494:312,1,181.999991668702,6|2,0:1|0:0,0:0:0:0:
495,207,267869,2,0,P|498:158|478:119,2,90.9999958343508,2|8|0,0:1|3:0|0:0,0:0:0:0:
348,355,268364,1,2,0:1:0:0:
397,185,268529,1,0,0:0:0:0:
348,355,268693,1,0,0:0:0:0:
307,139,268858,1,2,3:0:0:0:
384,275,269023,6,0,L|286:268,1,90.9999958343508,6|0,0:1|0:0,0:0:0:0:
173,200,269353,1,2,0:1:0:0:
92,64,269518,2,0,L|190:57,1,90.9999958343508,8|0,3:0|0:0,0:0:0:0:
307,139,269848,1,2,3:0:0:0:
244,294,270012,6,0,P|158:288|230:174,1,272.999987503052,6|0,0:1|0:0,0:0:0:0:
320,213,270671,1,10,3:0:0:0:
320,213,270836,1,8,3:0:0:0:
405,271,271001,5,2,0:1:0:0:
383,101,271166,1,0,0:0:0:0:
329,317,271331,1,8,3:0:0:0:
465,174,271496,1,0,0:0:0:0:
298,76,271660,6,0,L|308:170,1,90.9999958343508,6|0,0:1|0:0,0:0:0:0:
329,317,271990,1,2,0:1:0:0:
187,368,272155,2,0,L|197:274,1,90.9999958343508,8|0,3:0|0:0,0:0:0:0:
207,180,272485,1,0,0:0:0:0:
304,62,272649,6,0,P|400:59|317:137,1,272.999987503052,6|2,0:1|0:1,0:0:0:0:
265,210,273309,2,0,P|311:228|366:227,1,90.9999958343508,8|0,3:0|3:0,0:0:0:0:
352,229,273556,1,0,3:0:0:0:
352,229,273639,5,2,3:0:0:0:
498,288,273803,1,0,0:0:0:0:
442,137,273968,2,0,L|453:87,2,45.4999979171754,2|0|0,3:2|3:0|3:0,3:0:0:0:
396,331,274298,5,6,0:0:0:0:
287,344,274463,2,0,B|263:351|240:351|220:336|201:320|178:320|154:328,1,136.499993751526,2|0,0:1|0:0,0:0:0:0:
130,338,274792,2,0,P|84:339|44:320,2,90.9999958343508,8|2|0,3:0|0:0|0:0,0:0:0:0:
112,230,275287,5,6,0:0:0:0:
80,116,275452,2,0,B|88:136|105:146|105:146|49:157|33:203,1,136.499993751526,2|0,3:0|0:0,0:0:0:0:
31,230,275781,2,0,B|67:223|67:223|188:240,1,136.499993751526,8|0,3:0|0:0,0:0:0:0:
193,242,276111,1,2,0:1:0:0:
370,318,276276,6,0,P|325:319|284:302,1,90.9999958343508,10|0,3:0|0:0,0:0:0:0:
167,134,276606,2,0,P|212:133|254:151,1,90.9999958343508,2|0,3:0|0:0,0:0:0:0:
383,190,276935,5,6,0:0:0:0:
473,111,277100,2,0,P|481:155|489:212,1,90.9999958343508,2|2,0:0|0:1,0:0:0:0:
367,325,277430,2,0,P|374:257|388:156,1,136.499993751526,8|0,3:0|0:0,0:0:0:0:
352,106,277759,5,0,0:0:0:0:
292,228,277924,1,6,0:0:0:0:
199,129,278089,2,0,P|191:86|179:33,1,90.9999958343508,2|2,0:0|0:1,0:0:0:0:
0,160,278419,2,0,P|66:164|161:172,1,136.499993751526,8|0,3:0|0:0,0:0:0:0:
183,236,278748,1,2,0:1:0:0:
346,123,278913,2,0,P|301:129|246:140,1,90.9999958343508,10|0,3:0|0:0,0:0:0:0:
104,261,279243,2,0,P|148:267|204:278,1,90.9999958343508,2|0,3:0|0:0,0:0:0:0:
433,325,279573,5,6,0:0:0:0:
344,211,279737,2,0,P|335:172|365:92,1,90.9999958343508,2|2,0:0|0:1,0:0:0:0:
455,227,280066,2,0,L|268:247,1,181.999991668702,8|0,3:0|0:0,0:0:0:0:
96,117,280562,1,6,0:0:0:0:
254,72,280726,2,0,L|272:161,1,90.9999958343508,2|2,0:0|0:1,0:0:0:0:
198,321,281056,2,0,B|169:179,1,136.499993751526,8|0,3:0|0:0,0:0:0:0:
174,183,281386,5,2,0:1:0:0:
72,323,281550,2,0,B|48:284|48:284|57:234,1,90.9999958343508,10|0,3:0|0:0,0:0:0:0:
263,235,281880,2,0,L|131:267,1,136.499993751526,2|0,3:0|0:0,0:0:0:0:
130,267,282210,5,6,0:0:0:0:
312,169,282375,2,0,P|340:217|328:281,1,90.9999958343508,2|2,0:0|0:1,0:0:0:0:
174,183,282704,2,0,L|142:31,1,136.499993751526,8|0,3:0|0:0,0:0:0:0:
141,32,283034,1,2,3:0:0:0:
41,171,283198,6,0,B|-3:271|105:263|49:371|49:371|1:331,1,272.999987503052,6|2,0:0|0:1,0:0:0:0:
174,183,283858,1,10,3:0:0:0:
299,341,284023,1,2,0:1:0:0:
402,183,284188,5,2,3:2:0:0:
424,179,284270,1,0,3:0:0:0:
447,179,284352,1,0,3:0:0:0:
469,183,284435,1,0,3:0:0:0:
490,191,284518,5,10,3:0:0:0:
469,150,284600,1,0,3:0:0:0:
466,105,284682,1,0,3:0:0:0:
481,62,284765,1,0,3:0:0:0:
511,29,284847,5,6,0:0:0:0:
396,68,285011,2,0,P|336:76|266:55,1,119.000002269745,8|0,3:0|0:0,0:0:0:0:
148,12,285507,5,8,3:2:0:0:
148,12,285836,1,2,3:0:0:0:
84,92,286001,2,0,P|76:120|80:168,1,59.5000011348725,2|0,0:0|0:0,0:0:0:0:
196,255,286331,2,0,P|201:196|189:138,1,119.000002269745,8|0,3:0|0:0,0:0:0:0:
148,12,286825,6,0,L|272:20,1,119.000002269745,8|0,0:0|0:0,0:0:0:0:
287,32,287485,5,2,3:0:0:0:
361,126,287649,2,0,L|351:216,1,89.2500017023087,8|0,3:0|0:0,0:0:0:0:
347,231,287979,2,0,L|340:164,1,59.5000011348725,8|0,0:0|0:0,0:0:0:0:
333,157,288474,5,2,3:0:0:0:
419,299,288638,2,0,P|370:278|300:281,1,119.000002269745,2|0,0:0|0:0,0:0:0:0:
208,334,289133,1,8,3:0:0:0:
103,302,289298,5,0,0:0:0:0:
103,302,289463,2,0,P|83:268|102:225,1,89.2500017023087,8|0,0:0|0:0,0:0:0:0:
173,163,289792,2,0,L|47:145,1,119.000002269745,0|2,3:0|3:0,0:0:0:0:
20,73,290287,5,2,0:0:0:0:
20,73,290616,1,0,0:0:0:0:
95,17,290781,2,0,L|109:80,1,59.5000011348725,8|0,0:0|0:0,0:0:0:0:
173,163,291111,5,2,3:0:0:0:
173,163,291276,2,0,L|158:231,1,59.5000011348725,2|0,0:0|0:0,0:0:0:0:
80,297,291605,2,0,P|139:340|194:323,1,119.000002269745,8|0,3:0|0:0,0:0:0:0:
270,362,292100,6,0,L|333:344,1,59.5000011348725,8|0,0:0|0:0,0:0:0:0:
411,280,292430,2,0,P|417:243|416:212,1,59.5000011348725,2|0,0:0|0:0,0:0:0:0:
367,125,292759,5,2,3:0:0:0:
367,125,292924,2,0,L|281:133,1,59.5000011348725,2|0,0:0|0:0,0:0:0:0:
222,69,293254,2,0,P|218:128|201:185,1,119.000002269745,2|0,0:0|0:0,0:0:0:0:
121,283,293748,6,0,B|99:251|87:229|81:196|89:165|105:129|148:105|191:123|206:153|200:185|200:185|238:141|273:129|322:155|331:194|320:237|294:268|268:296|237:309|194:324,1,595.000011348725,2|0,0:0|0:0,0:0:0:0:
