osu file format v14

[General]
AudioFilename: audio.mp3
AudioLeadIn: 0
PreviewTime: 82825
Countdown: 0
SampleSet: Normal
StackLeniency: 0.7
Mode: 0
LetterboxInBreaks: 0
WidescreenStoryboard: 0

[Editor]
Bookmarks: 113178,122541,128220
DistanceSpacing: 0.4
BeatDivisor: 3
GridSize: 16
TimelineZoom: 1.9

[Metadata]
Title:CocktaiL
TitleUnicode:CocktaiL
Artist:Various Artists
ArtistUnicode:Various Artists
Creator:edgykatsu
Version:Cheers!
Source:Nico Nico Douga
Tags:utaite group cocktail araki un:c senra soraru nqrse piko mafumafu luz edm nico nico douga
BeatmapID:1609771
BeatmapSetID:765646

[Difficulty]
HPDrainRate:5
CircleSize:4
OverallDifficulty:9
ApproachRate:9
SliderMultiplier:1.8
SliderTickRate:1

[Events]
//Background and Video events
0,0,"CocktaiL.png",0,0
//Break Periods
//Storyboard Layer 0 (Background)
//Storyboard Layer 1 (Fail)
//Storyboard Layer 2 (Pass)
//Storyboard Layer 3 (Foreground)
//Storyboard Sound Samples

[TimingPoints]
1848.85812026803,470.588235294118,4,2,0,60,1,0
1948.85812026803,-133.333333333333,4,2,4,60,0,0
13071,-100,4,2,4,70,0,0
13212,272.727272727273,4,2,4,70,1,0
19757,-83.3333333333333,4,1,2,90,0,1
20111,-83.3333333333333,4,1,2,90,0,1
34202,470.588235294118,4,1,2,90,1,1
34202,-100,4,1,2,90,0,0
34643,-166.666666666667,4,2,0,60,0,0
47440,-200,4,2,0,60,0,0
48224,-200,4,2,0,60,0,0
49403,-200,4,2,0,60,0,0
49840,-166.666666666667,4,2,0,60,0,0
53202,-166.666666666667,4,2,0,60,0,0
56958,-166.666666666667,4,2,0,60,0,0
62825,272.727272727273,4,2,0,60,1,0
62896,-100,4,2,0,70,0,0
68341,-100,4,2,0,90,0,0
69022,-83.3333333333333,4,2,0,90,0,0
81610,-111.111111111111,4,2,4,90,0,0
83451,272.727272727273,4,1,2,80,1,1
83541,-83.3333333333333,4,1,2,90,0,1
97632,-83.3333333333333,4,1,2,90,0,0
98723,-83.3333333333333,4,1,2,90,0,1
124905,-83.3333333333333,4,2,4,90,0,0
126924,-100,4,1,2,90,0,0
127213,-111.111111111111,4,1,2,90,0,0
127635,-100,4,1,2,90,0,0
128077,-166.666666666667,4,2,6,90,0,0
128220,470.588235294118,4,2,6,90,1,0
132154,-166.666666666667,4,2,4,90,0,0
133770,-166.666666666667,4,2,6,90,0,0
143786,-142.857142857143,4,2,6,90,0,0
158632,-125,4,2,6,90,0,0
166177,-111.111111111111,4,2,6,90,0,0
171324,-111.111111111111,4,2,4,90,0,0
172067,-111.111111111111,4,2,6,90,0,0
172353,-200,4,2,0,90,0,0
173621,-90.9090909090909,4,2,6,90,0,0
173623,272.727272727273,4,2,6,90,1,0
177544,-90.9090909090909,4,2,6,90,0,0
190336,470.588235294118,4,2,6,90,1,0
191579,-200,4,2,4,43,0,0
199006,272.727272727273,4,2,6,60,1,0
199008,-166.666666666667,4,2,6,60,0,0
199937,-111.111111111111,4,2,6,70,0,0
202652,-90.9090909090909,4,2,6,80,0,0
206392,-100,4,1,2,90,0,0
207187,-100,4,1,2,90,0,1
221369,-100,4,1,2,90,0,0
222062,-83.3333333333333,4,1,2,90,0,0
222199,272.727272727273,4,1,2,90,1,0
222199,-100,4,1,2,90,0,1
248380,-100,4,1,2,90,0,0
248399,-83.3333333333333,4,1,2,90,0,0
250089,-133.333333333333,4,1,2,90,0,0
251007,400,4,1,2,90,1,0
251601,-200,4,2,4,50,0,0
261679,-83.3333333333333,4,1,2,90,0,0
261680,272.727272727273,4,1,2,90,1,0
263608,-100,4,1,2,90,0,0
264952,-83.3333333333333,4,1,2,90,0,1
280410,470.588235294118,4,1,2,90,1,0
280413,-200,4,1,2,90,0,0

[HitObjects]
152,167,2790,6,0,P|190:118|248:103,1,90.0000034332277
215,107,3574,1,0,0:0:0:0:
334,137,4672,2,0,P|350:197|320:257,1,90.0000034332277
343,222,5456,1,0,0:0:0:0:
248,279,6554,2,0,P|205:269|170:242,1,90.0000034332277
171,242,7339,1,0,0:0:0:0:
159,166,8437,2,0,P|179:115|235:109,1,90.0000034332277
209,103,9221,1,0,0:0:0:0:
298,108,10319,2,0,P|347:137|377:196,1,90.0000034332277
366,162,10946,1,0,0:0:0:0:
336,255,11260,6,0,P|300:285|236:296,2,90.0000034332277
261,191,12044,2,0,P|224:149|243:104,1,90.0000034332277
311,139,12515,2,0,P|346:186|334:221,1,90.0000034332277
340,212,12986,1,0,0:0:0:0:
153,208,13212,2,0,P|146:126|177:102,2,120
236,236,13849,2,0,P|306:253|316:315,1,120,4|0,0:0|0:0,0:0:0:0:
320,292,14121,1,0,0:0:0:0:
397,249,14302,2,0,P|410:182|383:118,2,120,0|4|0,0:0|0:0|0:0,0:0:0:0:
397,249,14757,1,0,0:0:0:0:
319,217,15121,1,0,0:0:0:0:
232,202,15302,6,0,P|182:135|210:108,1,120,4|0,0:0|0:0,0:0:0:0:
256,192,15575,12,0,17575,0:0:0:0:
121,118,17757,6,0,P|200:74|257:113,1,150
275,173,18030,1,0,0:0:0:0:
178,217,18121,1,0,0:0:0:0:
275,260,18212,1,0,0:0:0:0:
368,209,18302,1,0,0:0:0:0:
368,209,18393,1,0,0:0:0:0:
366,113,18484,2,0,B|316:48|310:43|310:43|245:80|245:80|192:58,1,150
170,125,18757,2,0,P|90:100|103:40,1,150
208,51,19030,1,0,0:0:0:0:
208,51,19121,1,0,0:0:0:0:
277,140,19212,6,0,B|323:208|278:271|347:327|354:329,2,150
166,180,19757,2,2,P|92:139|132:97,1,143.999995605469,6|2,0:0|0:0,0:0:0:0:
109,106,20030,1,0,0:0:0:0:
109,106,20121,1,0,0:0:0:0:
224,94,20212,2,0,P|301:113|319:183,1,143.999995605469
321,168,20484,1,0,0:0:0:0:
294,244,20575,1,0,0:0:0:0:
294,244,20757,2,0,P|222:290|154:277,2,143.999995605469
230,195,21212,1,0,0:0:0:0:
230,195,21302,1,0,0:0:0:0:
139,148,21484,6,0,P|145:61|193:55,1,143.999995605469
186,53,21757,1,0,0:0:0:0:
186,53,21848,1,0,0:0:0:0:
186,53,21939,1,0,0:0:0:0:
287,129,22030,2,0,L|357:177,3,71.9999978027344
356,255,22393,2,0,P|277:300|207:288,1,143.999995605469
145,251,22666,2,0,B|106:183|106:183|176:152,1,143.999995605469
165,156,22939,1,0,0:0:0:0:
165,156,23030,1,0,0:0:0:0:
269,143,23121,6,0,B|352:131|352:131|346:59,1,143.999995605469
434,108,23393,1,0,0:0:0:0:
434,108,23484,1,0,0:0:0:0:
434,108,23575,2,0,P|462:184|412:211,2,143.999995605469
434,108,24030,1,0,0:0:0:0:
434,108,24121,1,0,0:0:0:0:
335,147,24212,1,0,0:0:0:0:
290,215,24393,2,0,P|203:234|148:213,1,143.999995605469
153,216,24666,1,0,0:0:0:0:
217,153,24757,2,0,P|294:132|354:183,1,143.999995605469,4|0,0:0|0:0,0:0:0:0:
345,166,25030,5,0,0:0:0:0:
345,166,25121,1,0,0:0:0:0:
372,268,25302,1,0,0:0:0:0:
272,264,25393,2,0,L|235:181,4,71.9999978027344
272,264,25848,1,0,0:0:0:0:
272,264,25939,1,0,0:0:0:0:
167,283,26121,2,0,B|194:210|105:181|212:116,1,143.999995605469
226,91,26484,2,0,P|321:75|372:120,1,143.999995605469
356,98,26757,1,0,0:0:0:0:
402,173,26939,1,0,0:0:0:0:
316,236,27121,6,2,P|257:163|310:132,1,143.999995605469
275,142,27393,1,0,0:0:0:0:
275,142,27575,1,0,0:0:0:0:
139,137,27757,1,0,0:0:0:0:
139,137,27939,1,0,0:0:0:0:
143,218,28121,2,0,P|160:304|108:321,1,143.999995605469
252,277,28393,2,0,L|340:294,1,71.9999978027344
322,290,28575,1,0,0:0:0:0:
359,216,28757,1,0,0:0:0:0:
240,192,28939,2,0,L|264:112,1,71.9999978027344
176,136,29302,6,0,P|162:32|160:16,1,71.9999978027344
51,95,29575,1,0,0:0:0:0:
75,182,29666,1,0,0:0:0:0:
145,244,29939,2,0,P|228:237|279:196,1,143.999995605469
274,201,30212,1,0,0:0:0:0:
336,144,30302,2,0,P|394:206|372:262,1,143.999995605469
378,254,30575,1,0,0:0:0:0:
296,266,30757,1,0,0:0:0:0:
209,250,30848,2,0,P|201:156|250:138,1,143.999995605469
291,195,31121,2,0,P|306:271|252:337,1,143.999995605469,4|0,0:0|0:0,0:0:0:0:
272,324,31393,5,0,0:0:0:0:
194,303,31575,1,0,0:0:0:0:
198,220,31757,1,0,0:0:0:0:
198,220,31939,2,0,P|245:151|228:89,1,143.999995605469
167,146,32212,2,0,P|159:62|204:17,1,143.999995605469,4|0,0:0|0:0,0:0:0:0:
285,84,32484,2,0,P|322:164|381:182,2,143.999995605469
285,84,32939,1,0,0:0:0:0:
285,84,33030,1,0,0:0:0:0:
285,84,33121,1,0,0:0:0:0:
234,158,33212,2,0,P|172:206|105:198,1,143.999995605469
327,233,33484,6,0,P|265:281|198:273,1,143.999995605469
108,295,33757,2,0,P|37:247|110:152,1,215.999993408203
92,152,34121,1,0,0:0:0:0:
92,152,34202,1,0,0:0:0:0:
208,151,34358,1,0,0:0:0:0:
208,151,34515,2,2,P|267:184|250:242,1,120
329,126,34986,1,0,0:0:0:0:
361,183,35300,1,0,0:0:0:0:
384,249,35613,1,0,0:0:0:0:
406,306,36084,1,0,0:0:0:0:
328,268,36398,6,0,P|280:311|220:329,1,107.999996704102
239,326,37025,1,0,0:0:0:0:
190,264,37182,1,0,0:0:0:0:
161,156,37496,1,0,0:0:0:0:
244,149,37652,1,0,0:0:0:0:
333,137,37966,2,0,L|332:91,1,35.9999989013672,4|0,0:0|0:0,0:0:0:0:
229,150,38594,1,0,0:0:0:0:
236,217,39064,1,0,0:0:0:0:
241,284,39535,1,0,0:0:0:0:
245,342,40005,1,0,0:0:0:0:
336,299,40162,6,0,P|397:258|403:211,1,107.999996704102
404,228,40790,1,0,0:0:0:0:
332,191,40947,1,0,0:0:0:0:
387,117,41260,1,0,0:0:0:0:
237,115,41417,2,0,L|235:162,1,35.9999989013672
166,161,41888,2,0,L|162:206,1,35.9999989013672,4|0,0:0|0:0,0:0:0:0:
158,273,42202,1,0,0:0:0:0:
229,274,42672,1,0,0:0:0:0:
298,273,43143,1,0,0:0:0:0:
385,268,43613,2,0,L|385:213,1,35.9999989013672
319,185,43927,6,0,L|253:189,1,35.9999989013672,4|0,0:0|0:0,0:0:0:0:
205,191,44241,1,0,0:0:0:0:
132,194,44711,1,0,0:0:0:0:
59,196,45182,1,0,0:0:0:0:
63,124,45496,2,0,L|66:60,1,35.9999989013672,4|0,0:0|0:0,0:0:0:0:
165,101,46123,2,0,L|225:134,1,35.9999989013672
196,118,46594,1,0,0:0:0:0:
245,192,46751,2,0,L|259:242,1,35.9999989013672
330,223,47064,2,0,L|325:272,1,35.9999989013672
253,309,47378,1,0,0:0:0:0:
175,280,47535,6,0,P|141:233|161:174,1,120,4|0,0:0|0:0,0:0:0:0:
157,177,48319,1,0,0:0:0:0:
157,177,48476,1,0,0:0:0:0:
226,129,48790,1,0,0:0:0:0:
310,125,48947,1,0,0:0:0:0:
354,198,49260,2,4,L|355:235,1,30
301,291,49731,2,0,L|235:291,1,60
241,291,50202,1,0,0:0:0:0:
241,291,50358,1,0,0:0:0:0:
165,251,50515,2,0,L|138:189,1,35.9999989013672
225,171,50829,6,0,L|236:214,1,35.9999989013672,4|0,0:0|0:0,0:0:0:0:
310,206,51143,1,0,0:0:0:0:
310,206,51300,1,0,0:0:0:0:
388,193,51456,2,0,P|410:140|401:110,1,71.9999978027344
408,128,51927,1,0,0:0:0:0:
408,128,52084,1,0,0:0:0:0:
408,128,52241,1,0,0:0:0:0:
315,113,52398,2,0,L|270:90,1,35.9999989013672
239,168,52711,2,0,L|217:198,1,35.9999989013672
212,274,53025,2,4,L|249:295,1,35.9999989013672
126,240,53339,6,0,L|92:219,1,35.9999989013672
135,157,53809,2,0,L|162:126,1,35.9999989013672
239,149,54437,1,0,0:0:0:0:
239,149,54594,1,0,0:0:0:0:
325,238,54907,1,4,0:0:0:0:
430,202,55221,2,0,P|424:135|406:120,1,71.9999978027344
423,134,55692,1,0,0:0:0:0:
423,134,55849,1,0,0:0:0:0:
334,142,56005,1,0,0:0:0:0:
185,96,56319,1,0,0:0:0:0:
204,235,56633,5,0,0:0:0:0:
337,153,56947,1,0,0:0:0:0:
274,105,57260,2,0,L|242:73,1,35.9999989013672,4|0,0:0|0:0,0:0:0:0:
138,138,57731,1,0,0:0:0:0:
142,206,58202,1,0,0:0:0:0:
157,278,58672,2,0,L|178:317,1,35.9999989013672
233,245,58986,2,0,L|257:193,1,35.9999989013672,4|0,0:0|0:0,0:0:0:0:
296,145,59300,1,0,0:0:0:0:
296,145,59456,1,0,0:0:0:0:
368,168,59770,2,0,P|387:205|377:236,1,71.9999978027344
379,232,60241,5,0,0:0:0:0:
379,232,60398,1,0,0:0:0:0:
312,294,60554,2,0,L|258:276,2,35.9999989013672,4|0|0,0:0|0:0|0:0,0:0:0:0:
312,294,61025,1,4,0:0:0:0:
217,227,61339,1,0,0:0:0:0:
217,227,61496,1,0,0:0:0:0:
177,157,61652,2,0,L|157:120,1,35.9999989013672
266,117,61966,2,0,L|293:168,2,35.9999989013672
305,215,62437,1,0,0:0:0:0:
394,298,62594,1,0,0:0:0:0:
259,282,62825,6,0,L|195:305,4,60
94,209,63279,2,0,L|158:232,4,60
217,166,63734,2,0,P|289:151|316:193,1,120
313,181,64097,1,0,0:0:0:0:
336,271,64461,1,4,0:0:0:0:
174,344,64734,2,0,L|148:279,3,60
153,287,65188,1,0,0:0:0:0:
153,287,65279,1,0,0:0:0:0:
130,209,65461,1,0,0:0:0:0:
130,209,65552,1,0,0:0:0:0:
177,129,65734,6,0,P|264:75|299:133,1,180
298,119,66097,1,0,0:0:0:0:
274,228,66370,1,0,0:0:0:0:
274,228,66461,1,0,0:0:0:0:
169,296,66552,2,0,P|83:269|43:221,1,120
97,168,66825,2,0,P|155:180|202:216,1,120
158,75,67097,2,0,L|245:111,3,60
213,97,67552,1,0,0:0:0:0:
272,169,67643,1,0,0:0:0:0:
326,230,67825,1,0,0:0:0:0:
326,230,67915,5,0,0:0:0:0:
206,259,68188,1,0,0:0:0:0:
150,131,68370,1,0,0:0:0:0:
237,111,68643,2,0,P|329:123|323:198,1,180,4|0,0:0|0:0,0:0:0:0:
326,193,69097,1,0,0:0:0:0:
268,261,69279,1,0,0:0:0:0:
326,193,69370,1,0,0:0:0:0:
252,274,69461,1,0,0:0:0:0:
190,192,69643,2,0,P|195:116|152:102,1,107.999996704102
176,104,70006,1,0,0:0:0:0:
98,160,70097,5,0,0:0:0:0:
133,241,70279,2,0,P|138:284|203:296,1,107.999996704102
193,300,70643,1,0,0:0:0:0:
250,235,70825,2,0,P|270:198|342:213,2,107.999996704102
250,235,71188,1,0,0:0:0:0:
164,235,71461,2,0,P|130:194|139:142,2,107.999996704102
164,235,71825,1,0,0:0:0:0:
164,235,71915,1,0,0:0:0:0:
289,212,72188,2,0,P|347:237|356:287,1,107.999996704102,4|0,0:0|0:0,0:0:0:0:
459,264,72460,2,0,P|481:180|460:135,1,107.999996704102
401,89,72733,5,0,0:0:0:0:
306,153,72824,1,0,0:0:0:0:
306,153,72915,2,0,P|264:182|201:179,1,107.999996704102
114,72,73097,2,0,P|156:101|219:98,1,107.999996704102
303,91,73370,2,0,P|360:102|397:163,1,107.999996704102
384,225,73552,2,0,L|308:271,1,71.9999978027344
193,270,73825,2,0,L|269:316,1,71.9999978027344
344,333,74097,2,0,P|424:303|445:239,1,143.999995605469
420,153,74370,1,0,0:0:0:0:
336,160,74552,2,0,P|242:180|239:224,2,143.999995605469
290,71,75006,5,0,0:0:0:0:
290,71,75097,1,0,0:0:0:0:
228,111,75279,2,0,L|152:164,1,71.9999978027344
53,178,75461,2,0,L|129:231,1,71.9999978027344
208,268,75643,2,0,P|293:285|330:248,1,143.999995605469
329,250,76097,1,0,0:0:0:0:
377,134,76188,1,0,0:0:0:0:
296,113,76279,2,0,L|233:69,3,71.9999978027344
171,93,76643,2,0,L|158:164,3,71.9999978027344
163,247,77006,1,0,0:0:0:0:
163,247,77097,5,0,0:0:0:0:
163,247,77188,1,0,0:0:0:0:
246,253,77279,2,0,L|347:286,3,71.9999978027344
435,317,77643,2,0,L|334:350,3,71.9999978027344
266,339,78006,1,0,0:0:0:0:
266,339,78097,1,0,0:0:0:0:
167,323,78188,2,0,P|99:288|114:207,1,143.999995605469
166,155,78461,2,0,L|224:89,1,71.9999978027344
95,104,78643,2,0,L|64:21,1,71.9999978027344
70,36,78825,1,0,0:0:0:0:
70,36,78916,5,0,0:0:0:0:
148,80,79006,2,0,P|203:160|185:240,2,143.999995605469
78,124,79461,2,0,P|45:212|96:247,1,143.999995605469
149,289,79734,2,0,P|224:311|309:250,1,143.999995605469
281,287,80006,1,0,0:0:0:0:
349,238,80097,2,0,P|377:148|350:105,1,143.999995605469,4|0,0:0|0:0,0:0:0:0:
291,39,80370,2,0,P|266:104|297:167,1,143.999995605469,4|0,0:0|0:0,0:0:0:0:
400,225,80734,1,0,0:0:0:0:
406,220,80825,1,0,0:0:0:0:
412,216,80915,1,0,0:0:0:0:
419,213,81006,5,0,0:0:0:0:
429,122,81279,2,0,P|486:63|486:62,1,71.9999978027344,4|0,0:0|0:0,0:0:0:0:
397,45,81461,2,0,P|340:103|340:105,1,71.9999978027344,4|0,0:0|0:0,0:0:0:0:
211,267,81734,1,0,0:0:0:0:
270,173,81915,1,0,0:0:0:0:
270,173,82097,2,0,P|347:163|399:202,2,107.999996704102
154,173,82643,1,0,0:0:0:0:
215,103,82915,1,0,0:0:0:0:
215,103,83279,1,0,0:0:0:0:
206,191,83541,2,0,P|154:269|210:308,1,161.999995056153,4|0,0:0|0:0,0:0:0:0:
273,326,83905,6,0,P|357:261|347:227,1,143.999995605469
327,167,84178,1,0,0:0:0:0:
326,165,84270,2,0,P|258:176|237:241,1,143.999995605469
252,315,84541,1,0,0:0:0:0:
333,334,84632,2,0,P|390:274|372:182,2,143.999995605469
261,300,85087,2,0,P|243:225|300:207,1,143.999995605469
292,205,85360,1,0,0:0:0:0:
292,205,85451,1,0,0:0:0:0:
373,191,85632,2,0,P|438:113|408:38,1,143.999995605469
368,33,85905,2,0,P|297:36|251:89,1,143.999995605469
251,88,86178,5,0,0:0:0:0:
251,88,86269,1,0,0:0:0:0:
197,244,86451,1,0,0:0:0:0:
83,325,86632,1,0,0:0:0:0:
92,181,86723,1,0,0:0:0:0:
92,181,86996,2,0,P|102:93|146:85,1,143.999995605469
143,84,87269,1,4,0:0:0:0:
227,124,87451,2,0,P|276:181|268:258,1,143.999995605469
275,247,87723,1,0,0:0:0:0:
363,183,87814,1,0,0:0:0:0:
361,284,87905,5,0,0:0:0:0:
454,250,87996,1,0,0:0:0:0:
454,250,88087,1,0,0:0:0:0:
454,250,88360,2,0,P|463:139|434:91,1,143.999995605469
363,85,88632,2,0,P|307:131|304:206,1,143.999995605469
301,199,88996,1,0,0:0:0:0:
339,271,89178,2,0,P|402:294|449:244,1,143.999995605469
421,172,89451,2,0,P|336:140|269:187,1,143.999995605469
236,215,89723,2,0,P|209:295|305:330,1,143.999995605469
243,333,89996,1,0,0:0:0:0:
243,333,90087,5,0,0:0:0:0:
328,298,90360,1,0,0:0:0:0:
407,262,90541,1,0,0:0:0:0:
489,277,90723,1,0,0:0:0:0:
476,191,90996,2,0,P|437:111|353:141,1,143.999995605469,4|0,0:0|0:0,0:0:0:0:
390,109,91360,1,0,0:0:0:0:
390,109,91451,1,0,0:0:0:0:
244,171,91632,2,0,P|308:222|374:201,1,143.999995605469
439,189,92087,1,0,0:0:0:0:
411,285,92360,1,0,0:0:0:0:
301,285,92632,5,0,0:0:0:0:
145,190,92996,2,0,P|202:122|264:185,1,143.999995605469,4|0,0:0|0:0,0:0:0:0:
239,213,93269,2,0,P|326:220|326:131,1,143.999995605469
345,180,93632,1,0,0:0:0:0:
334,57,93723,1,0,0:0:0:0:
259,121,93814,1,0,0:0:0:0:
167,148,93996,2,0,P|126:214|168:255,1,143.999995605469
131,148,94269,2,0,P|90:214|132:255,1,143.999995605469
204,290,94541,2,0,B|300:295|300:295|274:230,1,143.999995605469,4|0,0:0|0:0,0:0:0:0:
282,250,94814,1,0,0:0:0:0:
282,250,94905,5,0,0:0:0:0:
219,198,94996,2,0,P|173:131|210:93,2,143.999995605469
301,213,95451,2,0,B|396:216|396:216|359:173,1,143.999995605469,4|0,0:0|0:0,0:0:0:0:
289,140,95814,2,0,P|265:66|318:46,2,143.999995605469
366,182,96360,2,0,P|407:245|306:300,1,215.999993408203,4|0,0:0|0:0,0:0:0:0:
231,272,96814,1,0,0:0:0:0:
196,254,96904,1,0,0:0:0:0:
179,219,96995,1,0,0:0:0:0:
190,181,97086,1,0,0:0:0:0:
223,160,97177,1,0,0:0:0:0:
262,166,97268,5,0,0:0:0:0:
262,166,97360,1,0,0:0:0:0:
262,166,97451,1,0,0:0:0:0:
347,109,97723,1,0,0:0:0:0:
393,189,98087,1,0,0:0:0:0:
333,266,98269,1,0,0:0:0:0:
210,251,98541,2,0,P|161:181|188:134,1,143.999995605469,4|0,0:0|0:0,0:0:0:0:
276,123,98905,2,0,P|339:178|324:228,1,143.999995605469
310,114,99178,2,0,P|373:169|358:219,1,143.999995605469
358,218,99451,1,0,0:0:0:0:
358,218,99541,5,0,0:0:0:0:
337,297,99632,1,0,0:0:0:0:
247,280,99814,1,0,0:0:0:0:
159,304,100087,1,0,0:0:0:0:
92,264,100360,2,0,P|79:185|134:169,1,143.999995605469,4|0,0:0|0:0,0:0:0:0:
207,176,100632,2,0,P|281:131|225:60,1,143.999995605469
188,84,100996,2,0,B|86:97|86:97|130:60,1,143.999995605469
117,70,101269,1,0,0:0:0:0:
117,70,101360,1,0,0:0:0:0:
146,153,101632,1,0,0:0:0:0:
116,238,101814,5,0,0:0:0:0:
179,294,101996,1,0,0:0:0:0:
272,282,102269,2,0,P|335:232|330:168,1,143.999995605469,4|0,0:0|0:0,0:0:0:0:
332,174,102541,1,0,0:0:0:0:
332,174,102632,1,0,0:0:0:0:
249,164,102723,2,0,P|215:93|305:46,1,143.999995605469
250,47,102996,1,0,0:0:0:0:
347,87,103178,1,0,0:0:0:0:
386,162,103451,2,0,B|363:139|316:92|295:149|310:154|227:204,1,143.999995605469
386,162,103723,2,0,B|374:150|350:126|347:123|254:133|231:86,1,143.999995605469
386,162,103996,6,0,B|395:155|398:152|401:59|451:42,2,143.999995605469,0|4|0,0:0|0:0|0:0,0:0:0:0:
386,162,104451,1,0,0:0:0:0:
386,162,104541,1,0,0:0:0:0:
320,232,104632,2,0,B|225:239|225:239|276:204,1,143.999995605469
245,307,104905,2,0,B|334:304|334:304|284:349,1,143.999995605469
293,341,105178,1,0,0:0:0:0:
293,341,105269,1,0,0:0:0:0:
206,305,105360,1,0,0:0:0:0:
137,338,105541,1,0,0:0:0:0:
59,282,105723,1,0,0:0:0:0:
67,196,105996,6,0,P|88:103|146:90,1,143.999995605469,4|0,0:0|0:0,0:0:0:0:
207,96,106269,2,0,P|298:100|326:57,1,143.999995605469
324,63,106541,1,0,0:0:0:0:
324,63,106632,1,0,0:0:0:0:
324,63,106723,1,0,0:0:0:0:
257,139,106814,1,0,0:0:0:0:
252,240,106905,1,0,0:0:0:0:
352,268,107178,2,0,P|415:200|403:146,2,143.999995605469
352,268,107632,1,4,0:0:0:0:
253,254,107814,2,0,B|215:157|215:157|268:203,1,143.999995605469
345,185,108087,6,0,B|389:81|389:81|336:127,1,143.999995605469
244,80,108451,2,0,P|173:42|105:89,2,143.999995605469
244,80,108905,1,0,0:0:0:0:
244,80,108996,1,0,0:0:0:0:
195,166,109087,2,0,P|128:232|67:210,1,143.999995605469
302,187,109360,2,0,P|301:281|242:308,2,143.999995605469,0|4|0,0:0|0:0|0:0,0:0:0:0:
302,187,109814,1,0,0:0:0:0:
302,187,109905,1,0,0:0:0:0:
389,135,109996,2,0,P|370:63|301:43,2,143.999995605469
389,135,110451,1,4,0:0:0:0:
265,200,110723,6,0,P|177:193|169:152,1,143.999995605469
312,121,110996,2,0,P|242:68|259:29,2,143.999995605469,0|4|0,0:0|0:0|0:0,0:0:0:0:
387,136,111541,1,0,0:0:0:0:
407,139,111631,1,0,0:0:0:0:
426,148,111722,1,0,0:0:0:0:
442,161,111813,1,0,0:0:0:0:
454,178,111904,1,0,0:0:0:0:
461,198,111995,1,0,0:0:0:0:
462,219,112087,1,0,0:0:0:0:
458,239,112177,1,0,0:0:0:0:
449,258,112268,5,0,0:0:0:0:
435,274,112359,1,0,0:0:0:0:
418,285,112450,1,0,0:0:0:0:
318,195,112541,1,4,0:0:0:0:
240,122,112723,1,0,0:0:0:0:
240,122,112814,1,0,0:0:0:0:
56,168,113178,2,0,L|194:237,2,143.999995605469
56,168,113632,1,0,0:0:0:0:
56,168,113723,1,0,0:0:0:0:
151,93,113814,2,0,P|229:103|215:163,2,143.999995605469
75,143,114269,6,0,L|211:214,2,143.999995605469
202,209,114723,1,0,0:0:0:0:
202,209,114814,1,0,0:0:0:0:
267,241,114905,2,0,P|284:315|231:354,1,143.999995605469
149,327,115178,1,0,0:0:0:0:
53,295,115360,1,0,0:0:0:0:
53,195,115632,1,0,0:0:0:0:
149,163,115813,1,0,0:0:0:0:
208,245,115995,1,0,0:0:0:0:
288,249,116178,1,0,0:0:0:0:
288,126,116269,5,0,0:0:0:0:
394,187,116360,1,0,0:0:0:0:
429,92,116541,1,0,0:0:0:0:
429,92,116632,1,0,0:0:0:0:
429,92,116723,2,0,P|352:53|255:66,1,143.999995605469
379,171,116996,2,0,L|232:209,2,143.999995605469
379,171,117451,1,0,0:0:0:0:
379,171,117541,1,0,0:0:0:0:
386,257,117632,2,0,P|304:297|268:257,2,143.999995605469
357,133,118087,2,0,L|215:175,2,143.999995605469
218,173,118541,5,0,0:0:0:0:
218,173,118632,1,0,0:0:0:0:
134,179,118723,2,0,P|103:102|185:55,1,143.999995605469
232,60,118996,1,0,0:0:0:0:
294,129,119178,1,0,0:0:0:0:
390,129,119360,1,0,0:0:0:0:
459,58,119541,1,0,0:0:0:0:
463,158,119723,1,0,0:0:0:0:
459,255,119905,1,0,0:0:0:0:
370,264,119996,2,0,P|282:248|298:175,1,143.999995605469
276,207,120269,5,0,0:0:0:0:
276,207,120360,1,0,0:0:0:0:
235,134,120541,2,0,L|88:180,2,143.999995605469
235,134,120996,1,0,0:0:0:0:
235,134,121087,1,0,0:0:0:0:
253,203,121178,2,0,P|201:259|163:203,2,143.999995605469
221,91,121632,2,0,L|79:143,2,143.999995605469
85,140,122087,1,0,0:0:0:0:
85,140,122178,1,0,0:0:0:0:
19,176,122269,2,0,P|14:252|73:289,1,143.999995605469
249,284,122632,5,0,0:0:0:0:
169,250,122814,1,0,0:0:0:0:
176,164,122996,1,0,0:0:0:0:
261,144,123178,1,0,0:0:0:0:
305,218,123360,1,0,0:0:0:0:
305,218,123451,1,0,0:0:0:0:
385,209,123541,2,0,P|417:128|379:113,1,143.999995605469
307,116,123814,2,0,B|199:96|199:96|260:86,2,143.999995605469
307,116,124269,1,0,0:0:0:0:
307,116,124360,1,0,0:0:0:0:
186,185,124451,5,0,0:0:0:0:
294,193,124541,2,0,P|351:256|319:291,2,143.999995605469
205,227,125178,2,0,P|118:267|80:264,1,71.9999978027344
170,145,125451,2,0,P|80:111|55:82,1,71.9999978027344
170,60,125632,1,0,0:0:0:0:
252,78,125905,1,0,0:0:0:0:
325,124,126087,1,0,0:0:0:0:
325,124,126178,1,0,0:0:0:0:
256,192,126269,12,0,126905,0:0:0:0:
159,191,126996,5,0,0:0:0:0:
256,192,127269,1,0,0:0:0:0:
379,100,127632,1,4,0:0:0:0:
146,153,128690,2,0,P|237:93|278:99,1,120,0|8,0:0|0:0,0:0:0:0:
322,145,129161,2,0,L|348:209,2,60
225,191,129945,1,8,0:0:0:0:
240,205,130886,1,8,0:0:0:0:
262,234,131514,1,8,0:0:0:0:
330,125,131827,1,8,0:0:0:0:
121,137,132298,2,0,L|183:167,3,35.9999989013672
243,141,132925,6,0,L|283:118,1,35.9999989013672
341,164,133239,2,0,L|377:191,3,35.9999989013672
434,243,133867,1,8,0:0:0:0:
419,266,134651,1,8,0:0:0:0:
399,291,135278,1,8,0:0:0:0:
323,165,135592,1,8,0:0:0:0:
221,168,136063,2,0,P|189:115|214:98,2,71.9999978027344
308,113,136847,1,0,0:0:0:0:
308,144,137474,1,8,0:0:0:0:
310,170,138416,1,8,0:0:0:0:
308,197,139200,5,8,0:0:0:0:
226,296,139357,1,8,0:0:0:0:
144,245,139670,1,0,0:0:0:0:
144,245,139827,2,0,P|146:178|167:156,1,71.9999978027344,0|8,0:0|0:0,0:0:0:0:
160,150,141239,1,8,0:0:0:0:
174,124,142180,1,8,0:0:0:0:
187,95,142808,1,8,0:0:0:0:
254,194,142965,1,8,0:0:0:0:
322,236,143278,2,0,L|354:198,1,35.9999989013672
414,244,143592,2,0,L|447:284,1,35.9999989013672
352,314,144063,5,8,0:0:0:0:
321,317,145004,1,8,0:0:0:0:
296,318,145945,1,8,0:0:0:0:
270,319,146729,1,8,0:0:0:0:
227,167,146886,1,8,0:0:0:0:
227,167,147043,1,0,0:0:0:0:
307,142,147200,2,0,P|350:182|346:198,1,41.9999987182618
407,180,147670,1,8,0:0:0:0:
408,210,148769,1,8,0:0:0:0:
406,242,149710,1,8,0:0:0:0:
400,280,150337,5,8,0:0:0:0:
312,168,150494,1,8,0:0:0:0:
215,182,150651,2,0,L|173:206,1,41.9999987182618
120,153,150965,2,0,L|123:102,1,41.9999987182618
202,114,151592,1,8,0:0:0:0:
234,115,152376,1,8,0:0:0:0:
267,115,153318,1,8,0:0:0:0:
302,113,154102,1,8,0:0:0:0:
344,213,154259,1,8,0:0:0:0:
299,276,154416,2,0,L|264:309,1,41.9999987182618
207,256,154729,6,0,L|192:208,1,41.9999987182618
172,142,155200,1,8,0:0:0:0:
167,111,156141,1,8,0:0:0:0:
244,148,156612,1,0,0:0:0:0:
325,125,156769,1,0,0:0:0:0:
361,50,156925,1,0,0:0:0:0:
361,50,157082,1,8,0:0:0:0:
435,108,157239,2,0,L|421:169,2,41.9999987182618
435,108,157867,1,8,0:0:0:0:
336,176,158023,1,8,0:0:0:0:
207,188,158180,6,0,L|235:138,1,41.9999987182618
288,219,158494,2,0,L|309:262,1,41.9999987182618,4|0,0:0|0:0,0:0:0:0:
277,312,158808,1,0,0:0:0:0:
228,317,159278,1,0,0:0:0:0:
188,318,159749,1,0,0:0:0:0:
150,323,160220,1,0,0:0:0:0:
113,326,160690,1,0,0:0:0:0:
131,209,161004,1,8,0:0:0:0:
131,209,161318,1,8,0:0:0:0:
131,209,161631,1,8,0:0:0:0:
203,160,161788,6,0,L|234:110,1,48
283,185,162102,2,0,L|306:235,1,48
386,228,162572,1,0,0:0:0:0:
388,193,163043,1,0,0:0:0:0:
390,156,163514,1,0,0:0:0:0:
396,133,163827,1,0,0:0:0:0:
396,133,163984,1,0,0:0:0:0:
296,114,164141,2,0,L|276:65,2,48
281,202,164612,2,0,L|232:233,1,48
194,154,164925,2,0,L|179:88,3,48
183,107,165553,5,8,0:0:0:0:
183,107,165710,1,8,0:0:0:0:
283,117,165867,2,0,L|326:153,1,48
326,196,166337,1,0,0:0:0:0:
322,237,166808,1,0,0:0:0:0:
316,279,167278,1,0,0:0:0:0:
309,313,167592,1,0,0:0:0:0:
226,243,167906,1,0,0:0:0:0:
288,179,168063,2,0,L|338:130,2,53.9999983520508,0|0|8,0:0|0:0|0:0,0:0:0:0:
288,179,168533,1,8,0:0:0:0:
339,252,168847,5,8,0:0:0:0:
339,252,169004,1,8,0:0:0:0:
241,303,169161,1,8,0:0:0:0:
179,240,169318,2,8,L|173:160,1,53.9999983520508
258,194,169631,2,8,L|271:127,1,53.9999983520508
270,102,170102,1,0,0:0:0:0:
241,102,170572,1,0,0:0:0:0:
208,104,171043,1,0,0:0:0:0:
174,109,171357,1,4,0:0:0:0:
145,194,171514,2,0,L|168:262,1,53.9999983520508
162,245,171827,5,0,0:0:0:0:
250,246,172141,1,0,0:0:0:0:
330,206,172298,2,0,L|350:138,1,53.9999983520508,4|0,0:0|0:0,0:0:0:0:
259,131,172925,2,0,P|283:64|316:74,1,120,4|2,0:0|0:0,0:0:0:0:
313,72,173623,1,0,0:0:0:0:
313,72,173714,1,0,0:0:0:0:
392,146,173804,2,0,L|334:257,1,120
336,252,174077,1,0,0:0:0:0:
258,212,174168,1,0,0:0:0:0:
336,252,174259,1,0,0:0:0:0:
214,194,174350,5,0,0:0:0:0:
214,194,174532,1,0,0:0:0:0:
137,167,174623,2,0,P|170:88|226:86,1,120,4|0,0:0|0:0,0:0:0:0:
295,92,174895,2,0,P|360:157|317:189,1,120,4|0,0:0|0:0,0:0:0:0:
338,234,175168,2,0,L|320:301,1,60
237,320,175350,2,0,L|209:228,1,60
199,187,175532,2,0,P|225:115|264:108,2,120
199,187,175986,1,0,0:0:0:0:
283,209,176077,2,0,L|345:233,1,60
443,209,176259,2,0,L|381:236,1,60
354,298,176441,6,0,P|270:345|221:312,1,120
255,340,176713,1,0,0:0:0:0:
255,340,176804,1,0,0:0:0:0:
178,320,176895,2,0,P|160:238|193:198,1,120
218,112,177168,2,0,P|290:70|348:120,1,120
410,193,177441,2,0,P|348:176|295:209,1,120,4|0,0:0|0:0,0:0:0:0:
415,239,177713,2,0,P|340:222|301:260,1,132.00000402832
226,254,177986,1,0,0:0:0:0:
195,160,178077,1,0,0:0:0:0:
151,257,178168,1,0,0:0:0:0:
195,160,178259,5,0,0:0:0:0:
114,149,178350,2,0,P|186:62|225:78,1,132.00000402832
280,66,178623,2,0,P|335:123|305:199,1,132.00000402832,4|0,0:0|0:0,0:0:0:0:
434,180,178986,1,0,0:0:0:0:
403,263,179077,2,0,L|325:297,1,66.0000020141602,4|0,0:0|0:0,0:0:0:0:
306,260,179350,2,0,L|221:291,1,66.0000020141602,4|0,0:0|0:0,0:0:0:0:
243,282,179532,1,0,0:0:0:0:
243,282,179622,1,0,0:0:0:0:
179,231,179713,1,0,0:0:0:0:
250,164,179804,1,0,0:0:0:0:
250,164,179895,6,0,P|356:149|363:112,1,132.00000402832,0|4,0:0|0:0,0:0:0:0:
374,64,180168,2,0,P|305:25|241:38,1,132.00000402832
219,102,180532,2,0,P|140:105|125:57,1,132.00000402832,4|0,0:0|0:0,0:0:0:0:
126,69,181077,1,4,0:0:0:0:
71,140,181350,1,0,0:0:0:0:
91,150,181441,1,0,0:0:0:0:
111,161,181531,1,0,0:0:0:0:
193,194,181713,2,0,P|268:220|323:188,1,132.00000402832
333,121,181986,2,0,L|397:74,1,66.0000020141602
413,170,182168,2,0,L|477:123,1,66.0000020141602
466,130,182350,5,0,0:0:0:0:
466,130,182623,1,0,0:0:0:0:
387,184,182804,2,0,P|319:216|248:183,1,132.00000402832
260,126,183077,2,0,P|190:74|143:109,3,132.00000402832
158,88,183713,1,0,0:0:0:0:
158,88,183804,1,0,0:0:0:0:
158,88,183895,1,0,0:0:0:0:
117,182,184077,2,0,P|185:250|225:262,1,132.00000402832
225,212,184350,2,0,P|293:280|333:292,2,132.00000402832
230,178,184895,1,0,0:0:0:0:
237,160,184985,5,0,0:0:0:0:
250,146,185076,1,0,0:0:0:0:
276,120,185168,2,0,L|349:111,3,66.0000020141602
430,157,185532,1,0,0:0:0:0:
444,172,185622,1,0,0:0:0:0:
451,192,185713,1,0,0:0:0:0:
452,234,185804,2,0,L|416:299,2,66.0000020141602
399,320,186077,2,0,P|314:346|290:342,1,66.0000020141602
338,345,186350,1,0,0:0:0:0:
266,236,186441,1,0,0:0:0:0:
235,155,186623,5,0,0:0:0:0:
249,141,186713,1,0,0:0:0:0:
266,131,186804,1,0,0:0:0:0:
207,235,186895,2,0,P|150:289|112:250,1,132.00000402832
118,266,187168,1,0,0:0:0:0:
118,266,187350,1,0,0:0:0:0:
99,178,187441,2,0,P|155:122|193:146,2,132.00000402832
135,257,187895,2,0,P|210:309|252:304,1,132.00000402832
288,235,188168,2,0,B|332:166|332:166|335:229,2,132.00000402832
172,189,188804,2,0,P|156:94|212:64,1,132.00000402832,4|0,0:0|0:0,0:0:0:0:
323,120,189077,6,0,P|334:225|297:262,1,132.00000402832,4|0,0:0|0:0,0:0:0:0:
286,284,189350,1,0,0:0:0:0:
266,302,189440,1,0,0:0:0:0:
244,315,189531,1,0,0:0:0:0:
219,323,189622,1,0,0:0:0:0:
192,325,189713,1,0,0:0:0:0:
166,321,189804,1,0,0:0:0:0:
114,199,189986,1,0,0:0:0:0:
93,336,190077,1,0,0:0:0:0:
278,267,190492,2,0,L|305:334,1,60
368,253,190963,6,0,L|389:171,1,60
302,181,191277,2,0,P|197:188|182:215,1,120
195,190,191747,1,0,0:0:0:0:
195,190,192061,1,0,0:0:0:0:
203,266,192375,2,0,B|179:309|179:309|124:269,1,90
136,208,193473,1,0,0:0:0:0:
136,208,193786,1,0,0:0:0:0:
220,138,193943,1,0,0:0:0:0:
325,177,194100,2,0,L|300:225,1,30
399,171,194414,2,0,L|417:117,1,30
356,88,194885,2,0,L|281:80,1,60
296,81,195355,5,0,0:0:0:0:
296,81,195512,1,0,0:0:0:0:
296,81,195826,1,0,0:0:0:0:
270,171,196139,2,0,L|232:201,1,30
179,137,196453,2,0,L|160:93,1,30
264,87,196767,2,0,L|264:135,1,30
210,198,197237,1,0,0:0:0:0:
210,198,197394,1,0,0:0:0:0:
210,198,197551,1,0,0:0:0:0:
158,293,197865,1,0,0:0:0:0:
374,193,198179,5,0,0:0:0:0:
256,75,198649,1,0,0:0:0:0:
153,164,199006,2,0,L|216:189,1,60
227,190,199187,2,0,L|291:212,1,35.9999989013672
300,207,199369,2,0,P|358:206|394:148,1,107.999996704102
389,171,199733,1,4,0:0:0:0:
356,93,199824,1,0,0:0:0:0:
330,68,199914,1,0,0:0:0:0:
295,62,200005,1,0,0:0:0:0:
224,108,200096,2,0,P|175:151|185:193,1,107.999996704102
189,98,200369,6,0,P|140:141|150:183,1,107.999996704102
167,257,200642,1,0,0:0:0:0:
206,291,200732,1,0,0:0:0:0:
259,292,200823,1,0,0:0:0:0:
352,239,200915,2,0,P|363:163|334:113,1,107.999996704102
338,135,201187,1,0,0:0:0:0:
325,136,201369,1,0,0:0:0:0:
237,158,201551,1,0,0:0:0:0:
236,210,201641,1,0,0:0:0:0:
272,249,201732,1,0,0:0:0:0:
379,293,201824,6,0,P|338:203|297:195,1,107.999996704102
258,184,202096,1,0,0:0:0:0:
208,166,202186,1,0,0:0:0:0:
158,185,202277,1,0,0:0:0:0:
117,255,202369,2,0,B|63:228|63:228|95:137,1,107.999996704102
78,183,202642,1,0,0:0:0:0:
138,94,202733,1,0,0:0:0:0:
239,130,202824,2,0,P|282:200|298:211,2,66.0000020141602
239,130,203096,1,0,0:0:0:0:
327,86,203278,2,0,P|403:160|386:211,1,132.00000402832
398,249,203551,5,0,0:0:0:0:
362,198,203641,1,0,0:0:0:0:
395,145,203732,1,0,0:0:0:0:
486,151,203824,2,0,P|461:61|395:45,2,132.00000402832
441,237,204278,2,0,P|359:267|317:253,1,132.00000402832
345,193,204551,1,0,0:0:0:0:
394,234,204641,1,0,0:0:0:0:
393,297,204732,1,0,0:0:0:0:
337,345,204824,2,0,L|255:296,1,66.0000020141602
215,195,205006,2,0,L|292:240,1,66.0000020141602
404,184,205187,6,0,P|392:95|328:75,1,132.00000402832
312,157,205460,1,0,0:0:0:0:
294,218,205550,1,0,0:0:0:0:
246,262,205641,1,0,0:0:0:0:
182,273,205732,1,0,0:0:0:0:
121,249,205823,1,0,0:0:0:0:
82,196,205914,1,0,0:0:0:0:
79,132,206005,1,0,0:0:0:0:
109,74,206096,1,0,0:0:0:0:
166,42,206187,1,0,0:0:0:0:
231,44,206278,5,4,0:0:0:0:
296,97,206460,2,0,P|316:181|284:185,1,120
234,175,206733,2,0,P|203:239|241:276,1,120
329,232,207006,2,0,P|347:297|308:339,1,120,0|4,0:0|0:0,0:0:0:0:
317,334,207278,1,0,0:0:0:0:
422,248,207369,1,0,0:0:0:0:
422,248,207460,1,0,0:0:0:0:
311,169,207551,2,0,P|368:69|403:78,1,120
405,143,207824,2,0,P|388:244|364:251,2,120
405,143,208278,1,0,0:0:0:0:
325,90,208369,5,0,0:0:0:0:
227,140,208460,2,0,L|230:241,1,60
321,196,208642,2,0,L|306:271,1,60
223,280,208824,2,0,L|233:349,1,60
347,307,209006,1,0,0:0:0:0:
347,307,209097,1,0,0:0:0:0:
403,210,209187,6,0,P|388:129|346:110,1,120
161,104,209460,2,0,P|258:84|285:128,1,120
269,134,209733,2,0,P|209:109|169:171,2,120
269,134,210187,1,0,0:0:0:0:
269,134,210278,1,0,0:0:0:0:
126,188,210369,2,0,L|154:296,1,60
203,110,210551,2,0,L|213:37,1,60
300,248,210733,2,0,P|222:310|183:306,1,120
352,141,211006,5,4,0:0:0:0:
419,117,211096,2,0,P|467:172|434:206,1,120
447,200,211369,1,0,0:0:0:0:
447,200,211460,1,0,0:0:0:0:
411,69,211551,2,0,P|337:55|286:89,1,120
299,74,211824,1,0,0:0:0:0:
299,74,211915,1,0,0:0:0:0:
299,74,212006,1,0,0:0:0:0:
316,211,212187,1,0,0:0:0:0:
206,224,212369,1,0,0:0:0:0:
256,144,212642,6,0,P|350:137|361:166,1,120
212,74,212915,2,0,P|117:60|86:100,1,120
104,69,213187,1,0,0:0:0:0:
104,69,213278,1,0,0:0:0:0:
166,157,213369,2,0,P|208:212|270:216,1,120
255,219,213642,1,0,0:0:0:0:
255,219,213733,1,0,0:0:0:0:
358,198,213824,1,0,0:0:0:0:
280,314,213915,1,0,0:0:0:0:
222,328,214005,1,0,0:0:0:0:
166,309,214096,5,0,0:0:0:0:
170,191,214187,2,0,P|99:150|55:164,1,120
274,229,214460,2,0,P|350:248|395:212,2,120,0|0|4,0:0|0:0|0:0,0:0:0:0:
353,319,214915,2,0,P|268:319|242:295,1,120
244,298,215187,1,0,0:0:0:0:
244,298,215278,1,0,0:0:0:0:
209,208,215460,1,0,0:0:0:0:
135,281,215551,1,0,0:0:0:0:
135,281,215642,1,0,0:0:0:0:
72,182,215824,2,0,B|43:106|43:106|81:121,1,120
177,124,216096,6,0,B|206:48|206:48|168:63,2,120
206,291,216551,2,0,P|135:309|88:280,1,120,4|0,0:0|0:0,0:0:0:0:
96,288,216824,1,0,0:0:0:0:
96,288,216915,1,0,0:0:0:0:
250,200,217006,2,0,P|335:180|361:232,1,120
217,272,217278,2,0,P|133:275|77:242,1,120
101,261,217551,1,0,0:0:0:0:
161,166,217642,1,0,0:0:0:0:
257,98,217733,2,0,P|348:86|360:149,1,120
281,269,218006,2,0,P|194:290|170:240,1,120
