osu file format v14

[General]
AudioFilename: audio.mp3
AudioLeadIn: 0
PreviewTime: -1
Countdown: 0
SampleSet: Normal
StackLeniency: 0.2
Mode: 0
LetterboxInBreaks: 0
WidescreenStoryboard: 0

[Editor]
DistanceSpacing: 0.1
BeatDivisor: 4
GridSize: 16
TimelineZoom: 1

[Metadata]
Title:Chorus Compilation from yuru yuri
TitleUnicode:Chorus Compilation from yuru yuri
Artist:Various Artists
ArtistUnicode:Various Artists
Creator:Y33ZY69
Version:Yuri
Source:
Tags:
BeatmapID:1680570
BeatmapSetID:800539

[Difficulty]
HPDrainRate:7
CircleSize:4
OverallDifficulty:9
ApproachRate:9.5
SliderMultiplier:1.4
SliderTickRate:1

[Events]
//Background and Video events
0,0,"yuruyuri.jpg",0,0
//Break Periods
//Storyboard Layer 0 (Background)
//Storyboard Layer 1 (Fail)
//Storyboard Layer 2 (Pass)
//Storyboard Layer 3 (Foreground)
//Storyboard Sound Samples

[TimingPoints]
2548,315.789473684211,4,1,0,100,1,0
39175,315.789473684211,4,1,0,100,1,0
39175,-100,4,1,0,100,0,0
39806,-80,4,1,0,100,0,0
40438,-66.6666666666667,4,1,0,100,0,0
41069,-57.1428571428571,4,1,0,100,0,0
41701,-100,4,1,0,100,0,0
44227,-66.6666666666667,4,1,0,100,0,0
53859,-57.1428571428571,4,1,0,100,0,0
64349,324.324324324324,4,1,0,100,1,0
64349,-100,4,1,0,100,0,0
71484,-80,4,1,0,100,0,0
71808,-66.6666666666667,4,1,0,100,0,0
92889,-80,4,1,0,100,0,0
106186,-57.1428571428571,4,1,0,100,0,0
106835,-50,4,1,0,100,0,0
107321,-80,4,1,0,100,0,0
119023,329.67032967033,4,1,0,100,1,0
128253,-80,4,1,0,100,0,0
142759,-100,4,1,0,100,0,0
149175,370.37037037037,4,1,0,100,1,0
186239,342.857142857143,4,1,0,100,1,0
190353,-66.6666666666667,4,1,0,100,0,0
214353,-80,4,1,0,100,0,0
214696,-100,4,1,0,100,0,0
215039,-133.333333333333,4,1,0,100,0,0
217781,-66.6666666666667,4,1,0,100,0,0
218296,-100,4,1,0,100,0,0
223267,-66.6666666666667,4,1,0,100,0,0
223781,-100,4,1,0,100,0,0
229492,324.324324324324,4,1,0,100,1,0
240519,-66.6666666666667,4,1,0,100,0,0
247005,-100,4,1,0,100,0,0
275683,326.086956521739,4,1,0,100,1,0
284976,-66.6666666666667,4,1,0,100,0,0

[Colours]
Combo1 : 255,255,128
Combo2 : 255,70,70
Combo3 : 255,128,128
Combo4 : 251,181,243
Combo5 : 219,81,253
Combo6 : 3,90,252
Combo7 : 16,210,252
Combo8 : 147,255,147

[HitObjects]
196,174,2548,5,0,0:0:0:0:
296,134,3179,1,0,0:0:0:0:
380,193,3811,5,0,0:0:0:0:
296,134,4442,1,0,0:0:0:0:
204,65,5074,5,0,0:0:0:0:
309,244,5390,1,0,0:0:0:0:
157,186,5705,1,0,0:0:0:0:
358,108,6021,1,0,0:0:0:0:
364,116,6337,5,0,0:0:0:0:
179,241,6495,1,0,0:0:0:0:
402,186,6653,1,0,0:0:0:0:
123,166,6811,1,0,0:0:0:0:
408,193,6969,1,0,0:0:0:0:
435,171,7047,1,0,0:0:0:0:
451,140,7126,1,0,0:0:0:0:
454,105,7205,1,0,0:0:0:0:
453,77,7284,5,0,0:0:0:0:
472,106,7363,1,0,0:0:0:0:
478,140,7442,1,0,0:0:0:0:
470,174,7521,1,0,0:0:0:0:
450,202,7599,1,0,0:0:0:0:
341,119,7758,1,0,0:0:0:0:
303,253,7916,1,0,0:0:0:0:
346,126,8074,1,0,0:0:0:0:
207,155,8232,6,0,L|214:234,1,70
85,177,8548,2,0,L|78:107,1,70
73,34,8863,1,0,0:0:0:0:
248,142,9021,1,0,0:0:0:0:
212,1,9179,1,0,0:0:0:0:
85,177,9337,1,0,0:0:0:0:
321,190,9495,5,0,0:0:0:0:
90,184,9653,1,0,0:0:0:0:
302,68,9811,1,0,0:0:0:0:
95,191,9969,1,0,0:0:0:0:
389,120,10126,2,0,P|414:174|396:252,1,140
133,120,10758,6,0,L|147:218,1,70
158,301,11074,1,0,0:0:0:0:
142,189,11232,1,0,0:0:0:0:
246,236,11390,2,0,L|316:211,1,70
241,129,11705,2,0,L|311:104,1,70
432,65,12021,5,0,0:0:0:0:
311,212,12179,1,0,0:0:0:0:
446,197,12337,1,0,0:0:0:0:
306,105,12495,1,0,0:0:0:0:
311,110,12574,1,0,0:0:0:0:
316,116,12653,1,0,0:0:0:0:
447,231,12811,1,0,0:0:0:0:
435,97,12969,1,0,0:0:0:0:
313,248,13126,1,0,0:0:0:0:
222,183,13284,6,0,P|203:230|210:273,1,70
234,330,13600,1,0,0:0:0:0:
85,185,13758,1,0,0:0:0:0:
212,346,13916,1,0,0:0:0:0:
106,169,14074,1,0,0:0:0:0:
77,332,14232,1,0,0:0:0:0:
222,183,14390,1,0,0:0:0:0:
173,61,14548,6,0,L|240:83,1,70
155,161,14863,2,0,L|222:183,1,70
360,226,15179,2,0,P|368:157|318:86,1,140
173,61,15811,6,0,P|126:72|99:103,1,70
61,185,16126,1,0,0:0:0:0:
110,85,16284,1,0,0:0:0:0:
176,180,16442,1,0,0:0:0:0:
378,91,16600,1,0,0:0:0:0:
262,279,16758,1,0,0:0:0:0:
241,55,16916,1,0,0:0:0:0:
391,229,17074,5,0,0:0:0:0:
389,196,17152,1,0,0:0:0:0:
385,161,17231,1,0,0:0:0:0:
382,126,17310,1,0,0:0:0:0:
378,91,17390,1,0,0:0:0:0:
375,126,17469,1,0,0:0:0:0:
372,161,17548,1,0,0:0:0:0:
370,196,17627,1,0,0:0:0:0:
367,229,17705,5,0,0:0:0:0:
203,80,17863,1,0,0:0:0:0:
172,278,18021,1,0,0:0:0:0:
208,86,18179,1,0,0:0:0:0:
370,241,18337,2,0,L|377:148,1,70
381,59,18653,2,0,P|345:81|291:80,1,70
208,86,18969,5,0,0:0:0:0:
103,222,19126,1,0,0:0:0:0:
86,94,19284,1,0,0:0:0:0:
263,245,19442,1,0,0:0:0:0:
180,338,19600,2,0,P|228:370|319:365,1,140
308,369,20074,1,0,0:0:0:0:
409,303,20232,6,0,P|382:265|335:249,1,70
406,165,20548,2,0,P|362:149|314:163,1,70
326,54,20863,2,0,P|281:66|249:105,1,70
194,10,21179,2,0,P|164:46|162:96,1,70
159,68,21495,5,0,0:0:0:0:
264,81,21653,1,0,0:0:0:0:
339,151,21811,1,0,0:0:0:0:
362,254,21969,2,0,P|338:302|304:323,1,70
207,348,22284,1,0,0:0:0:0:
113,258,22442,1,0,0:0:0:0:
234,240,22600,1,0,0:0:0:0:
93,368,22758,5,0,0:0:0:0:
161,147,22916,1,0,0:0:0:0:
307,334,23074,1,0,0:0:0:0:
166,152,23232,1,0,0:0:0:0:
58,234,23390,1,0,0:0:0:0:
298,191,23548,1,0,0:0:0:0:
63,152,23705,1,0,0:0:0:0:
303,109,23863,1,0,0:0:0:0:
225,315,24021,5,0,0:0:0:0:
376,155,24179,1,0,0:0:0:0:
126,103,24337,1,0,0:0:0:0:
298,191,24495,1,0,0:0:0:0:
73,44,24653,2,0,P|46:86|46:112,1,70
126,103,24969,2,0,P|120:137|97:163,1,70
62,180,25284,5,0,0:0:0:0:
134,271,25442,1,0,0:0:0:0:
185,173,25600,5,0,0:0:0:0:
256,277,25758,1,0,0:0:0:0:
19,275,25916,5,0,0:0:0:0:
287,190,26074,1,0,0:0:0:0:
19,120,26232,5,0,0:0:0:0:
292,199,26390,1,0,0:0:0:0:
163,18,26548,5,0,0:0:0:0:
339,312,26705,1,0,0:0:0:0:
19,120,26863,5,0,0:0:0:0:
353,101,27021,1,0,0:0:0:0:
75,318,27179,5,0,0:0:0:0:
102,296,27257,1,0,0:0:0:0:
135,286,27336,1,0,0:0:0:0:
170,289,27415,1,0,0:0:0:0:
202,303,27495,2,0,P|146:251|124:204,1,105
122,197,27811,6,0,L|191:203,1,70
202,303,28126,1,0,0:0:0:0:
311,216,28284,1,0,0:0:0:0:
106,379,28442,2,0,P|88:346|79:293,1,70
202,303,28758,1,0,0:0:0:0:
101,197,28916,1,0,0:0:0:0:
265,181,29074,5,0,0:0:0:0:
172,81,29232,1,0,0:0:0:0:
202,303,29390,1,0,0:0:0:0:
178,86,29548,1,0,0:0:0:0:
383,202,29705,2,0,L|316:239,1,70
202,303,30021,1,0,0:0:0:0:
189,187,30179,1,0,0:0:0:0:
321,235,30337,5,0,0:0:0:0:
202,303,30653,1,0,0:0:0:0:
66,239,30969,1,0,0:0:0:0:
202,303,31284,1,0,0:0:0:0:
333,237,31600,5,0,0:0:0:0:
455,302,31758,1,0,0:0:0:0:
427,202,31916,1,0,0:0:0:0:
356,338,32074,1,0,0:0:0:0:
359,154,32232,2,0,P|321:150|247:215,2,140
333,237,33021,5,0,0:0:0:0:
202,303,33179,1,0,0:0:0:0:
338,243,33337,1,0,0:0:0:0:
202,162,33495,1,0,0:0:0:0:
344,251,33653,1,0,0:0:0:0:
202,303,33811,1,0,0:0:0:0:
350,260,33969,1,0,0:0:0:0:
326,140,34126,6,0,L|269:214,1,70
202,303,34442,1,0,0:0:0:0:
283,195,34600,1,0,0:0:0:0:
130,112,34758,2,0,L|162:199,1,70
202,303,35074,1,0,0:0:0:0:
154,177,35232,1,0,0:0:0:0:
60,277,35390,5,0,0:0:0:0:
202,303,35705,1,0,0:0:0:0:
299,199,36021,1,0,0:0:0:0:
202,303,36337,1,0,0:0:0:0:
393,230,36653,5,0,0:0:0:0:
393,71,36811,1,0,0:0:0:0:
299,199,36969,5,0,0:0:0:0:
450,150,37126,1,0,0:0:0:0:
299,101,37284,1,0,0:0:0:0:
312,198,39175,6,0,L|336:230,1,35
312,198,39806,6,0,L|273:234,1,43.75
312,198,40438,6,0,L|276:150,1,52.5000020027161
312,198,41069,6,0,L|361:150,1,61.2500005841255
262,109,41701,6,0,P|221:192|243:265,1,140
196,161,42332,1,0,0:0:0:0:
314,191,42964,5,0,0:0:0:0:
262,109,43280,5,0,0:0:0:0:
376,111,43596,5,0,0:0:0:0:
178,174,43753,5,0,0:0:0:0:
192,196,43911,1,0,0:0:0:0:
207,220,44069,1,0,0:0:0:0:
289,346,44227,6,0,P|342:296|356:256,1,105.000004005432
372,158,44543,1,0,0:0:0:0:
353,267,44701,1,0,0:0:0:0:
290,347,44859,2,0,L|272:237,1,105.000004005432
178,174,45175,2,0,L|194:277,1,105.000004005432
211,381,45490,5,0,0:0:0:0:
41,303,45648,1,0,0:0:0:0:
188,184,45806,1,0,0:0:0:0:
349,287,45964,2,0,P|360:232|366:163,1,105.000004005432
363,77,46280,1,0,0:0:0:0:
349,100,46438,1,0,0:0:0:0:
335,124,46596,1,0,0:0:0:0:
246,242,46753,5,0,0:0:0:0:
354,225,46911,1,0,0:0:0:0:
244,143,47069,1,0,0:0:0:0:
246,332,47227,1,0,0:0:0:0:
175,199,47385,1,0,0:0:0:0:
349,325,47543,1,0,0:0:0:0:
335,124,47701,1,0,0:0:0:0:
134,122,47859,1,0,0:0:0:0:
221,129,48017,6,0,P|248:233|228:261,1,105.000004005432
173,286,48332,1,0,0:0:0:0:
84,323,48490,2,0,L|38:97,1,210.000008010865
42,117,48964,1,0,0:0:0:0:
134,122,49122,2,0,P|186:89|228:68,1,105.000004005432
342,41,49438,5,0,0:0:0:0:
254,176,49596,2,0,P|310:152|355:139,1,105.000004005432
461,141,49911,1,0,0:0:0:0:
397,249,50069,1,0,0:0:0:0:
352,140,50227,1,0,0:0:0:0:
511,253,50385,1,0,0:0:0:0:
440,352,50543,6,0,L|337:333,1,105.000004005432
232,316,50859,1,0,0:0:0:0:
397,249,51017,2,0,L|294:230,1,105.000004005432
189,213,51333,1,0,0:0:0:0:
293,229,51490,1,0,0:0:0:0:
194,218,51648,1,0,0:0:0:0:
251,127,51806,6,0,P|198:106|126:132,1,105.000004005432
89,195,52122,1,0,0:0:0:0:
122,280,52280,2,0,P|169:311|245:301,1,105.000004005432
294,247,52596,1,0,0:0:0:0:
298,253,52911,1,0,0:0:0:0:
304,259,53227,5,0,0:0:0:0:
309,266,53385,1,0,0:0:0:0:
377,156,53543,1,0,0:0:0:0:
423,265,53701,1,0,0:0:0:0:
243,112,53859,1,0,0:0:0:0:
231,139,54017,1,0,0:0:0:0:
220,167,54175,1,0,0:0:0:0:
135,323,54332,5,0,0:0:0:0:
380,255,54490,1,0,0:0:0:0:
121,187,54648,5,0,0:0:0:0:
384,262,54806,1,0,0:0:0:0:
212,88,54964,5,0,0:0:0:0:
390,270,55122,1,0,0:0:0:0:
341,52,55280,5,0,0:0:0:0:
395,278,55438,1,0,0:0:0:0:
348,57,55596,5,0,0:0:0:0:
212,88,55753,1,0,0:0:0:0:
121,187,55911,1,0,0:0:0:0:
135,323,56069,2,0,P|192:366|293:378,1,122.500001168251
244,252,56385,1,0,0:0:0:0:
256,224,56543,1,0,0:0:0:0:
267,195,56701,1,0,0:0:0:0:
311,65,56859,6,0,P|371:98|401:155,1,122.500001168251
353,271,57175,2,0,L|212:283,1,122.500001168251
108,289,57490,1,0,0:0:0:0:
173,182,57648,1,0,0:0:0:0:
230,281,57806,1,0,0:0:0:0:
72,191,57964,2,0,L|43:57,1,122.500001168251
107,121,58280,5,0,0:0:0:0:
173,182,58438,2,0,L|144:48,1,122.500001168251
210,112,58753,1,0,0:0:0:0:
275,172,58911,2,0,P|277:98|321:63,1,122.500001168251
357,142,59227,2,0,P|331:237|223:100,1,367.500003504753
300,62,59859,5,0,0:0:0:0:
399,73,60017,1,0,0:0:0:0:
461,149,60175,1,0,0:0:0:0:
448,243,60332,1,0,0:0:0:0:
377,178,60490,1,0,0:0:0:0:
473,328,60648,5,0,0:0:0:0:
298,227,60806,1,0,0:0:0:0:
461,149,60964,5,0,0:0:0:0:
280,228,61122,1,0,0:0:0:0:
473,328,61280,5,0,0:0:0:0:
261,229,61438,1,0,0:0:0:0:
461,149,61596,5,0,0:0:0:0:
242,232,61753,2,0,B|163:237|98:222,1,122.500001168251
256,192,62069,12,0,64122,0:0:0:0:
188,155,64997,5,0,0:0:0:0:
268,237,65646,5,0,0:0:0:0:
293,133,66294,5,0,0:0:0:0:
370,217,66943,5,0,0:0:0:0:
431,307,67105,1,0,0:0:0:0:
454,281,67267,1,0,0:0:0:0:
472,239,67430,1,0,0:0:0:0:
229,235,67754,5,0,0:0:0:0:
253,198,67916,1,0,0:0:0:0:
278,161,68078,1,0,0:0:0:0:
41,182,68403,5,0,0:0:0:0:
65,145,68565,1,0,0:0:0:0:
90,108,68727,1,0,0:0:0:0:
116,71,68889,5,0,0:0:0:0:
138,137,69051,1,0,0:0:0:0:
160,203,69213,1,0,0:0:0:0:
182,270,69375,1,0,0:0:0:0:
205,338,69538,5,0,0:0:0:0:
406,228,69700,1,0,0:0:0:0:
131,324,69862,5,0,0:0:0:0:
393,298,70024,1,0,0:0:0:0:
86,191,70186,5,0,0:0:0:0:
466,278,70349,1,0,0:0:0:0:
45,276,70511,5,0,0:0:0:0:
474,198,70673,1,0,0:0:0:0:
50,106,70835,1,0,0:0:0:0:
181,59,71159,2,0,P|194:118|161:162,1,105
181,59,71484,6,0,P|214:111|156:153,1,131.25
181,59,71808,6,0,P|228:113|168:153,1,157.500006008148
104,102,72132,6,0,P|86:154|107:207,1,105.000004005432
184,264,72457,1,0,0:0:0:0:
294,242,72619,1,0,0:0:0:0:
390,170,72781,2,0,P|405:228|403:299,1,105.000004005432
391,374,73105,1,0,0:0:0:0:
406,273,73267,1,0,0:0:0:0:
390,169,73430,6,0,P|378:119|353:69,1,105.000004005432
263,157,73754,1,0,0:0:0:0:
354,71,73916,1,0,0:0:0:0:
227,54,74078,2,0,P|173:89|151:160,1,105.000004005432
169,228,74403,1,0,0:0:0:0:
469,50,74565,1,0,0:0:0:0:
474,57,74646,1,0,0:0:0:0:
479,64,74727,6,0,L|461:178,1,105.000004005432
446,271,75051,1,0,0:0:0:0:
309,113,75213,2,0,L|384:200,1,105.000004005432
446,271,75537,1,0,0:0:0:0:
237,275,75700,2,0,L|352:272,1,105.000004005432
446,271,76024,5,0,0:0:0:0:
436,137,76186,1,0,0:0:0:0:
335,80,76348,1,0,0:0:0:0:
340,205,76511,1,0,0:0:0:0:
438,21,76673,1,0,0:0:0:0:
246,2,76835,1,0,0:0:0:0:
320,188,76997,1,0,0:0:0:0:
444,27,77159,1,0,0:0:0:0:
218,114,77321,6,0,P|201:175|206:227,1,105.000004005432
251,310,77646,1,0,0:0:0:0:
375,101,77808,2,0,P|340:139|319:187,1,105.000004005432
91,198,78132,2,0,P|98:249|121:296,1,105.000004005432
195,372,78457,1,0,0:0:0:0:
324,351,78619,6,0,P|303:303|268:264,1,105.000004005432
380,209,78943,2,0,P|340:174|292:154,1,105.000004005432
362,54,79267,2,0,P|311:39|259:41,1,105.000004005432
259,41,79592,1,0,0:0:0:0:
292,154,79754,1,0,0:0:0:0:
268,264,79916,6,0,L|158:215,1,105.000004005432
328,207,80240,2,0,L|218:158,1,105.000004005432
384,150,80565,2,0,L|274:101,1,105.000004005432
437,91,80889,2,0,L|327:42,1,105.000004005432
341,48,81213,5,0,0:0:0:0:
188,49,81376,1,0,0:0:0:0:
194,54,81457,1,0,0:0:0:0:
200,59,81538,1,0,0:0:0:0:
280,142,81700,1,0,0:0:0:0:
141,157,81862,1,0,0:0:0:0:
245,244,82024,1,0,0:0:0:0:
73,60,82186,1,0,0:0:0:0:
121,276,82348,1,0,0:0:0:0:
200,59,82511,6,0,P|248:109|257:158,1,105.000004005432
245,244,82835,1,0,0:0:0:0:
205,340,82997,1,0,0:0:0:0:
56,153,83159,2,0,L|155:199,1,105.000004005432
245,244,83484,1,0,0:0:0:0:
342,293,83646,1,0,0:0:0:0:
405,383,83808,6,0,P|441:334|443:269,1,105.000004005432
437,186,84132,1,0,0:0:0:0:
382,90,84294,1,0,0:0:0:0:
332,180,84457,2,0,P|290:140|275:80,1,105.000004005432
316,1,84781,1,0,0:0:0:0:
275,99,84943,1,0,0:0:0:0:
197,13,85105,5,0,0:0:0:0:
383,82,85267,1,0,0:0:0:0:
171,102,85430,1,0,0:0:0:0:
355,164,85592,1,0,0:0:0:0:
145,191,85754,1,0,0:0:0:0:
293,100,85916,1,0,0:0:0:0:
213,266,86078,1,0,0:0:0:0:
171,102,86240,1,0,0:0:0:0:
45,223,86403,6,0,L|159:186,1,105.000004005432
169,295,86727,2,0,L|269:229,1,105.000004005432
317,314,87051,2,0,L|397:224,1,105.000004005432
455,155,87376,1,0,0:0:0:0:
387,235,87538,1,0,0:0:0:0:
317,314,87700,6,0,L|302:206,1,105.000004005432
289,105,88024,1,0,0:0:0:0:
193,294,88186,2,0,L|242:196,1,105.000004005432
102,205,88511,2,0,L|198:153,1,105.000004005432
289,105,88835,1,0,0:0:0:0:
289,105,89159,5,0,0:0:0:0:
430,140,89321,1,0,0:0:0:0:
375,41,89484,1,0,0:0:0:0:
299,209,89646,2,0,L|288:98,1,105.000004005432
167,45,89970,2,0,L|156:149,1,105.000004005432
69,92,90294,6,0,P|108:127|169:153,1,105.000004005432
110,255,90619,2,0,P|162:261|226:247,1,105.000004005432
241,358,90943,2,0,P|287:333|332:284,1,105.000004005432
419,371,91267,2,0,P|442:324|452:258,1,105.000004005432
452,272,91592,5,0,0:0:0:0:
410,70,91754,1,0,0:0:0:0:
415,75,91835,1,0,0:0:0:0:
421,82,91916,1,0,0:0:0:0:
301,196,92078,1,0,0:0:0:0:
422,194,92240,1,0,0:0:0:0:
280,52,92403,1,0,0:0:0:0:
489,139,92565,1,0,0:0:0:0:
183,134,92727,1,0,0:0:0:0:
260,131,92889,6,0,P|160:61|111:162,1,262.5
186,255,93538,2,0,B|185:139|185:139|222:240|325:181|325:181|375:150|375:150|403:228|403:228|267:339|109:236|109:236|109:111,1,875
109,90,95321,1,0,0:0:0:0:
110,64,95484,6,0,L|298:47,1,175
304,47,95970,1,0,0:0:0:0:
327,46,96132,6,0,B|566:47|526:337|371:335|371:335|449:247|459:107|323:103|281:126|248:158|256:237,1,875
268,328,98078,6,0,P|210:322|160:214,1,175
201,84,98727,2,0,P|215:166|156:226,1,175
10,260,99376,2,0,P|75:205|156:226,1,175
98,316,100024,5,0,0:0:0:0:
75,231,100186,1,0,0:0:0:0:
84,145,100348,1,0,0:0:0:0:
133,72,100511,1,0,0:0:0:0:
206,33,100673,6,0,P|261:30|370:96,1,175
396,160,101159,1,0,0:0:0:0:
399,239,101321,2,0,P|334:318|252:335,1,175
282,208,101970,6,0,L|257:135,4,43.75
187,202,102457,1,0,0:0:0:0:
116,264,102619,1,0,0:0:0:0:
116,264,103267,5,0,0:0:0:0:
305,201,103430,1,0,0:0:0:0:
117,162,103592,5,0,0:0:0:0:
313,280,103754,1,0,0:0:0:0:
46,209,103916,1,0,0:0:0:0:
46,209,104565,5,0,0:0:0:0:
326,172,104727,1,0,0:0:0:0:
51,108,104889,5,0,0:0:0:0:
369,88,105051,1,0,0:0:0:0:
37,303,105213,1,0,0:0:0:0:
37,303,105862,5,0,0:0:0:0:
402,241,106024,1,0,0:0:0:0:
194,143,106186,2,0,B|220:123|228:89|228:89|225:156|248:225,1,183.750001752377
303,341,106511,5,0,0:0:0:0:
0,192,106673,1,0,0:0:0:0:
167,121,106835,2,0,B|204:93|216:44|216:44|212:140|244:240,1,280
279,336,107321,2,0,P|340:299|351:192,1,175
308,76,107808,2,0,P|293:127|276:160,1,87.5
152,253,108132,2,0,L|184:169,1,87.5
215,89,108457,1,0,0:0:0:0:
256,192,108538,12,0,109754,0:0:0:0:
197,145,110078,6,0,B|221:126|229:93|229:93|226:157|248:224,1,175
242,205,110727,1,0,0:0:0:0:
256,192,111051,12,0,114943,0:0:0:0:
257,200,119023,5,0,0:0:0:0:
297,69,119242,1,0,0:0:0:0:
413,160,119462,1,0,0:0:0:0:
269,210,119682,5,0,0:0:0:0:
288,78,119902,1,0,0:0:0:0:
426,155,120121,1,0,0:0:0:0:
282,221,120341,6,0,P|196:186|163:133,2,140
383,201,121165,1,0,0:0:0:0:
467,137,121330,2,0,L|477:218,1,70
490,308,121660,6,0,L|411:319,1,70
350,324,121990,1,0,0:0:0:0:
309,190,122154,1,0,0:0:0:0:
268,247,122319,2,0,L|212:323,1,70
182,230,122649,1,0,0:0:0:0:
121,266,122814,2,0,L|39:314,1,70
0,337,123143,5,0,0:0:0:0:
87,341,123308,1,0,0:0:0:0:
171,344,123473,1,0,0:0:0:0:
257,345,123638,2,0,P|238:287|215:272,1,70
127,268,123968,2,0,P|106:239|103:205,1,70
188,145,124297,6,0,L|260:99,1,70
306,69,124627,1,0,0:0:0:0:
246,107,124792,1,0,0:0:0:0:
188,145,124957,2,0,L|145:78,1,70
111,27,125286,1,0,0:0:0:0:
43,160,125451,1,0,0:0:0:0:
43,160,125781,6,0,P|71:209|168:246,1,140
213,252,126275,1,0,0:0:0:0:
355,237,126440,1,0,0:0:0:0:
280,164,126605,1,0,0:0:0:0:
284,313,126770,1,0,0:0:0:0:
374,129,126935,6,0,P|416:147|451:184,1,70
355,237,127264,2,0,P|379:275|386:326,1,70
284,313,127594,2,0,P|281:358|258:404,1,70
190,335,127924,2,0,P|161:370|116:395,1,70
98,284,128253,6,0,L|69:202,1,87.5
172,188,128583,2,0,L|195:104,1,87.5
283,158,128913,2,0,L|350:102,1,87.5
418,47,129242,1,0,0:0:0:0:
352,102,129407,1,0,0:0:0:0:
435,129,129572,5,0,0:0:0:0:
330,22,129737,1,0,0:0:0:0:
501,77,129902,5,0,0:0:0:0:
267,78,130066,1,0,0:0:0:0:
413,270,130231,5,0,0:0:0:0:
181,188,130396,1,0,0:0:0:0:
420,277,130561,5,0,0:0:0:0:
406,71,130726,2,0,P|396:134|308:211,1,175
230,211,131220,1,0,0:0:0:0:
317,207,131385,1,0,0:0:0:0:
277,283,131550,1,0,0:0:0:0:
267,137,131715,1,0,0:0:0:0:
192,281,131880,1,0,0:0:0:0:
357,275,132044,1,0,0:0:0:0:
230,211,132209,6,0,L|152:167,1,87.5
77,123,132539,1,0,0:0:0:0:
172,130,132704,1,0,0:0:0:0:
263,138,132869,2,0,P|295:161|313:210,1,87.5
298,290,133198,1,0,0:0:0:0:
283,376,133363,2,0,L|474:339,1,175
454,342,133858,5,0,0:0:0:0:
505,271,134023,1,0,0:0:0:0:
459,197,134187,2,0,L|409:122,1,87.5
356,197,134517,2,0,L|272:164,1,87.5
279,256,134847,6,0,L|191:277,1,87.5
108,296,135176,1,0,0:0:0:0:
176,241,135341,1,0,0:0:0:0:
241,183,135506,2,0,P|195:157|153:158,1,87.5
74,170,135836,1,0,0:0:0:0:
105,92,136001,2,0,P|183:76|282:114,1,175
339,160,136495,5,0,0:0:0:0:
375,239,136660,1,0,0:0:0:0:
363,325,136825,1,0,0:0:0:0:
375,239,136990,1,0,0:0:0:0:
430,171,137154,1,0,0:0:0:0:
449,90,137319,1,0,0:0:0:0:
406,23,137484,6,0,P|374:66|378:126,1,87.5
278,66,137814,2,0,P|278:118|303:172,1,87.5
195,186,138143,2,0,P|224:228|276:258,1,87.5
349,261,138473,1,0,0:0:0:0:
253,249,138638,1,0,0:0:0:0:
296,321,138803,5,0,0:0:0:0:
311,190,138968,1,0,0:0:0:0:
210,320,139132,1,0,0:0:0:0:
393,192,139297,1,0,0:0:0:0:
146,178,139462,2,0,L|112:95,1,87.5
347,165,139792,2,0,L|381:248,1,87.5
415,326,140121,5,0,0:0:0:0:
442,83,140286,1,0,0:0:0:0:
333,307,140451,5,0,0:0:0:0:
361,87,140616,1,0,0:0:0:0:
261,283,140781,5,0,0:0:0:0:
407,150,140946,1,0,0:0:0:0:
223,217,141110,5,0,0:0:0:0:
399,222,141275,1,0,0:0:0:0:
259,150,141440,6,0,P|206:142|161:176,1,87.5
145,238,141770,2,0,L|91:195,2,58.3333333333333
177,156,142099,2,0,L|157:90,2,58.3333333333333
262,123,142429,2,0,L|284:55,2,58.3333333333333
350,126,142759,6,0,P|403:177|414:248,1,140
383,345,143418,2,0,L|241:330,1,140
243,330,143913,1,0,0:0:0:0:
173,242,144242,5,0,0:0:0:0:
160,199,144407,1,0,0:0:0:0:
286,193,144572,5,0,0:0:0:0:
298,147,144737,1,0,0:0:0:0:
321,57,145066,1,0,0:0:0:0:
76,163,149175,5,0,0:0:0:0:
175,174,149545,5,0,0:0:0:0:
297,189,149915,5,0,0:0:0:0:
433,209,150193,1,0,0:0:0:0:
351,311,150471,1,0,0:0:0:0:
380,101,150656,2,0,P|301:73|184:121,1,210
150,176,151397,2,0,P|152:223|161:248,1,70
223,270,151675,2,0,P|181:248|155:243,1,70
104,286,151952,1,0,0:0:0:0:
134,268,152044,1,0,0:0:0:0:
158,243,152137,5,0,0:0:0:0:
183,178,152323,1,0,0:0:0:0:
200,70,152508,1,0,0:0:0:0:
106,114,152693,1,0,0:0:0:0:
273,134,152878,2,0,L|281:212,1,70
388,111,153156,2,0,L|377:193,1,70
497,165,153434,1,0,0:0:0:0:
483,197,153526,1,0,0:0:0:0:
470,229,153619,5,0,0:0:0:0:
386,282,153804,1,0,0:0:0:0:
280,203,153989,1,0,0:0:0:0:
160,246,154175,1,0,0:0:0:0:
194,151,154360,2,0,P|173:110|166:62,1,70
269,82,154637,2,0,P|275:37|297:-5,1,70
375,66,154915,1,0,0:0:0:0:
397,39,155007,1,0,0:0:0:0:
426,19,155100,5,0,0:0:0:0:
474,110,155286,1,0,0:0:0:0:
367,193,155471,1,0,0:0:0:0:
482,212,155656,1,0,0:0:0:0:
261,174,155841,1,0,0:0:0:0:
351,366,156026,1,0,0:0:0:0:
421,295,156212,1,0,0:0:0:0:
191,232,156397,1,0,0:0:0:0:
171,149,156582,6,0,P|127:167|106:199,1,70
76,257,156952,1,0,0:0:0:0:
150,334,157137,1,0,0:0:0:0:
191,232,157323,1,0,0:0:0:0:
280,158,157508,2,0,L|302:227,2,70
300,61,158063,5,0,0:0:0:0:
300,61,158434,2,0,P|282:100|238:129,1,70
216,50,158804,2,0,P|186:81|178:117,1,70
106,80,159082,2,0,P|99:122|113:156,1,70
129,174,159360,1,0,0:0:0:0:
269,120,159545,5,0,0:0:0:0:
290,97,159730,1,0,0:0:0:0:
313,70,159915,1,0,0:0:0:0:
437,102,160100,1,0,0:0:0:0:
445,109,160193,1,0,0:0:0:0:
453,116,160286,1,0,0:0:0:0:
377,200,160471,1,0,0:0:0:0:
306,283,160656,1,0,0:0:0:0:
155,88,160841,1,0,0:0:0:0:
393,60,161026,5,0,0:0:0:0:
174,179,161212,1,0,0:0:0:0:
384,130,161397,5,0,0:0:0:0:
98,137,161582,1,0,0:0:0:0:
373,200,161767,5,0,0:0:0:0:
105,220,161952,1,0,0:0:0:0:
393,60,162137,5,0,0:0:0:0:
170,277,162323,1,0,0:0:0:0:
313,48,162508,6,0,L|299:127,1,70
286,203,162878,1,0,0:0:0:0:
261,117,163063,1,0,0:0:0:0:
226,31,163249,2,0,P|194:49|172:80,1,70
99,58,163526,2,0,P|101:98|126:134,1,70
67,183,163804,1,0,0:0:0:0:
97,199,163896,1,0,0:0:0:0:
132,198,163989,5,0,0:0:0:0:
331,150,164174,1,0,0:0:0:0:
115,123,164360,1,0,0:0:0:0:
315,67,164545,1,0,0:0:0:0:
97,199,164730,2,0,L|176:188,1,70
206,274,165008,2,0,L|263:219,1,70
334,274,165286,1,0,0:0:0:0:
341,239,165378,1,0,0:0:0:0:
348,205,165471,5,0,0:0:0:0:
373,71,165656,1,0,0:0:0:0:
463,228,165841,1,0,0:0:0:0:
379,77,166026,1,0,0:0:0:0:
274,205,166212,2,0,L|260:274,1,70
176,317,166489,2,0,L|190:248,1,70
129,182,166767,1,0,0:0:0:0:
121,216,166859,1,0,0:0:0:0:
114,250,166952,5,0,0:0:0:0:
96,337,167137,1,0,0:0:0:0:
344,282,167323,1,0,0:0:0:0:
41,277,167508,1,0,0:0:0:0:
356,204,167693,1,0,0:0:0:0:
133,152,167878,2,0,P|147:109|230:15,1,140
310,0,168434,5,0,0:0:0:0:
203,34,168619,1,0,0:0:0:0:
285,107,168804,1,0,0:0:0:0:
396,68,168989,1,0,0:0:0:0:
175,124,169174,1,0,0:0:0:0:
258,213,169360,2,0,L|309:269,2,70
175,124,169915,5,0,0:0:0:0:
175,124,170286,2,0,P|146:165|133:211,1,70
127,268,170656,1,0,0:0:0:0:
208,236,170841,2,0,P|241:223|352:237,1,140
428,286,171397,5,0,0:0:0:0:
344,232,171582,1,0,0:0:0:0:
292,150,171767,1,0,0:0:0:0:
281,57,171952,1,0,0:0:0:0:
207,117,172137,2,0,L|134:131,1,70
138,130,172508,1,0,0:0:0:0:
416,152,172693,1,0,0:0:0:0:
157,59,172878,5,0,0:0:0:0:
427,222,173063,1,0,0:0:0:0:
159,197,173249,5,0,0:0:0:0:
489,174,173434,1,0,0:0:0:0:
209,143,173619,5,0,0:0:0:0:
505,250,173804,1,0,0:0:0:0:
101,245,173989,5,0,0:0:0:0:
508,100,174174,1,0,0:0:0:0:
256,45,174360,5,0,0:0:0:0:
263,53,174730,1,0,0:0:0:0:
270,62,175100,1,0,0:0:0:0:
105,40,175471,5,0,0:0:0:0:
112,46,175656,1,0,0:0:0:0:
117,51,175841,2,0,P|206:22|329:60,1,210
315,50,176582,1,0,0:0:0:0:
387,114,176952,1,0,0:0:0:0:
397,202,177137,1,0,0:0:0:0:
377,283,177323,5,0,0:0:0:0:
244,182,177600,1,0,0:0:0:0:
394,121,177878,1,0,0:0:0:0:
401,127,178063,1,0,0:0:0:0:
445,213,178434,1,0,0:0:0:0:
409,133,178619,1,0,0:0:0:0:
224,205,178804,5,0,0:0:0:0:
435,288,178989,1,0,0:0:0:0:
212,206,179174,1,0,0:0:0:0:
416,140,179360,1,0,0:0:0:0:
201,207,179545,1,0,0:0:0:0:
190,208,179915,1,0,0:0:0:0:
176,209,180286,2,0,P|98:161|215:78,1,280
168,135,181767,1,0,0:0:0:0:
256,192,181860,12,0,184730,0:0:0:0:
188,128,186239,5,0,0:0:0:0:
275,168,186924,5,0,0:0:0:0:
364,125,187610,5,0,0:0:0:0:
365,211,187781,1,0,0:0:0:0:
282,173,187953,1,0,0:0:0:0:
369,131,188124,1,0,0:0:0:0:
280,81,188467,5,0,0:0:0:0:
287,85,188553,1,0,0:0:0:0:
295,90,188639,1,0,0:0:0:0:
449,175,188810,1,0,0:0:0:0:
303,243,188981,5,0,0:0:0:0:
144,153,189153,1,0,0:0:0:0:
382,215,189324,5,0,0:0:0:0:
124,83,189496,1,0,0:0:0:0:
382,135,189667,5,0,0:0:0:0:
108,217,189839,1,0,0:0:0:0:
436,82,190010,5,0,0:0:0:0:
68,144,190181,1,0,0:0:0:0:
366,231,190353,6,0,L|486:272,1,105.000004005432
158,70,190696,2,0,L|58:36,1,105.000004005432
256,192,191039,12,0,191724,0:0:0:0:
126,250,192239,6,0,B|77:278|61:200|95:192|127:214|162:192|144:255|251:210,1,210.000008010865
326,188,192753,1,0,0:0:0:0:
225,219,192924,1,0,0:0:0:0:
404,90,193096,6,0,P|459:160|395:286,1,210.000008010865
329,295,193610,2,0,L|203:322,1,105.000004005432
122,332,193953,1,0,0:0:0:0:
159,222,194124,1,0,0:0:0:0:
226,317,194296,1,0,0:0:0:0:
129,338,194467,6,0,P|67:284|59:161,1,210.000008010865
112,72,194981,2,0,P|163:55|227:68,1,105.000004005432
289,134,195324,1,0,0:0:0:0:
303,238,195496,1,0,0:0:0:0:
209,190,195667,1,0,0:0:0:0:
221,288,195839,6,0,P|287:331|396:252,1,210.000008010865
382,110,196353,2,0,P|341:56|284:46,1,105.000004005432
204,65,196696,1,0,0:0:0:0:
137,145,196867,1,0,0:0:0:0:
159,247,197039,1,0,0:0:0:0:
237,177,197210,6,0,P|264:237|257:285,1,105.000004005432
218,88,197553,2,0,P|283:96|320:128,1,105.000004005432
374,205,197896,2,0,L|341:310,1,105.000004005432
291,174,198239,2,0,L|258:279,1,105.000004005432
446,57,198581,5,0,0:0:0:0:
446,57,199267,1,0,0:0:0:0:
446,57,199953,6,0,L|432:164,1,105.000004005432
419,265,200296,1,0,0:0:0:0:
432,161,200467,1,0,0:0:0:0:
490,353,200639,1,0,0:0:0:0:
437,168,200810,1,0,0:0:0:0:
343,333,200981,1,0,0:0:0:0:
443,176,201153,1,0,0:0:0:0:
470,264,201324,5,0,0:0:0:0:
450,184,201496,1,0,0:0:0:0:
392,109,201667,1,0,0:0:0:0:
314,66,201839,2,0,B|296:108|311:142|311:142|327:182|319:220|319:220|388:218|489:274,1,315.000012016297
465,367,202696,1,0,0:0:0:0:
468,262,202868,1,0,0:0:0:0:
444,168,203039,1,0,0:0:0:0:
187,289,203210,6,0,B|138:317|122:239|156:231|188:253|223:231|205:294|312:249,1,210.000008010865
374,200,203724,1,0,0:0:0:0:
286,258,203896,1,0,0:0:0:0:
269,165,204067,6,0,B|256:106|219:74|219:74|183:105|168:170,1,210.000008010865
154,287,204581,2,0,B|229:326|229:326|96:346,1,210.000008010865
3,361,205096,1,0,0:0:0:0:
101,322,205267,1,0,0:0:0:0:
195,264,205439,6,0,B|244:248|275:202|275:202|235:155|173:158,1,210.000008010865
57,141,205953,2,0,P|90:87|264:78,1,210.000008010865
318,105,206467,1,0,0:0:0:0:
393,178,206639,1,0,0:0:0:0:
430,275,206810,6,0,P|382:304|204:317,1,210.000008010865
133,266,207324,2,0,B|84:294|68:216|102:208|134:230|169:208|151:271|258:226,1,210.000008010865
323,182,207839,1,0,0:0:0:0:
389,101,208010,1,0,0:0:0:0:
282,97,208181,6,0,B|215:102|174:74|174:74|200:129|197:197,1,210.000008010865
197,280,208867,2,0,L|315:309,1,105.000004005432
278,206,209210,2,0,L|396:235,1,105.000004005432
482,255,209553,5,0,0:0:0:0:
482,255,210239,1,0,0:0:0:0:
468,166,210924,6,0,P|408:197|391:229,1,105.000004005432
334,161,211267,2,0,P|307:220|309:265,1,105.000004005432
223,240,211610,2,0,P|234:303|262:339,1,105.000004005432
355,374,211953,1,0,0:0:0:0:
257,335,212124,1,0,0:0:0:0:
160,289,212296,5,0,0:0:0:0:
371,228,212467,1,0,0:0:0:0:
128,209,212639,1,0,0:0:0:0:
403,152,212810,1,0,0:0:0:0:
97,136,212981,2,0,P|150:132|194:163,1,105.000004005432
342,300,213324,2,0,P|297:258|296:205,1,105.000004005432
321,78,213667,5,0,0:0:0:0:
235,300,213839,1,0,0:0:0:0:
403,152,214010,1,0,0:0:0:0:
166,234,214181,1,0,0:0:0:0:
152,147,214353,2,0,P|206:158|236:183,1,87.5
264,98,214696,2,0,P|302:132|324:172,1,70
381,97,215039,6,0,P|402:153|389:197,1,105.000004005432
292,250,215724,2,0,L|313:142,1,105.000004005432
312,146,216410,5,0,0:0:0:0:
362,58,216753,1,0,0:0:0:0:
419,124,217096,1,0,0:0:0:0:
279,75,217268,1,0,0:0:0:0:
383,198,217439,1,0,0:0:0:0:
252,154,217611,1,0,0:0:0:0:
186,260,217781,6,0,B|137:288|121:210|155:202|187:224|222:202|204:265|311:220,1,210.000008010865
428,79,218296,2,0,L|453:155,1,70
379,350,218639,2,0,L|357:283,1,70
203,167,218981,2,0,L|228:243,1,70
150,343,219324,2,0,L|128:276,1,70
128,276,219667,5,0,0:0:0:0:
357,283,219839,1,0,0:0:0:0:
224,233,220010,1,0,0:0:0:0:
449,145,220181,1,0,0:0:0:0:
228,68,220353,1,0,0:0:0:0:
34,177,220524,6,0,P|50:209|142:281,1,140
423,79,221039,2,0,L|451:152,1,70
366,160,221381,2,0,L|347:236,1,70
274,188,221724,2,0,L|214:240,1,70
189,155,222067,2,0,L|110:163,1,70
49,166,222410,5,0,0:0:0:0:
118,162,222581,1,0,0:0:0:0:
86,226,222753,1,0,0:0:0:0:
78,99,222924,1,0,0:0:0:0:
86,300,223096,1,0,0:0:0:0:
253,206,223267,6,0,B|204:234|188:156|222:148|254:170|289:148|271:211|378:166,1,210.000008010865
441,120,223781,2,0,P|462:160|457:213,1,70
350,335,224124,2,0,P|371:295|366:242,1,70
294,54,224467,2,0,P|315:94|310:147,1,70
201,360,224810,2,0,P|222:320|217:267,1,70
223,295,225153,5,0,0:0:0:0:
122,202,225324,1,0,0:0:0:0:
106,300,225496,1,0,0:0:0:0:
234,180,225667,1,0,0:0:0:0:
18,229,225839,1,0,0:0:0:0:
318,243,226010,5,0,0:0:0:0:
158,36,226353,1,0,0:0:0:0:
26,238,226696,1,0,0:0:0:0:
33,247,226867,1,0,0:0:0:0:
371,126,227210,1,0,0:0:0:0:
256,192,227381,12,0,228924,0:0:0:0:
189,113,230140,5,0,0:0:0:0:
201,136,230302,1,0,0:0:0:0:
324,108,230464,5,0,0:0:0:0:
335,129,230627,1,0,0:0:0:0:
349,149,230789,1,0,0:0:0:0:
279,209,231113,1,0,0:0:0:0:
291,232,231275,1,0,0:0:0:0:
306,259,231437,6,0,L|220:227,1,70
194,302,231762,2,0,L|141:226,1,70
79,275,232086,2,0,L|79:183,1,70
103,199,232410,1,0,0:0:0:0:
159,263,232573,1,0,0:0:0:0:
159,263,232897,2,0,P|192:232|201:183,1,70
209,124,233383,5,0,0:0:0:0:
279,181,233546,1,0,0:0:0:0:
200,209,233708,1,0,0:0:0:0:
200,209,234032,2,0,P|258:259|358:197,1,210
277,168,234681,6,0,P|368:112|442:179,1,210
464,240,235329,2,0,B|335:239|335:239|314:247|314:247|173:246,1,280
185,246,236627,5,0,0:0:0:0:
280,247,236951,1,0,0:0:0:0:
378,240,237275,1,0,0:0:0:0:
464,240,237600,1,0,0:0:0:0:
471,246,237763,1,0,0:0:0:0:
477,253,237925,1,0,0:0:0:0:
477,338,238248,2,0,P|419:314|405:289,1,70
394,232,238573,2,0,L|316:286,1,70
301,207,238897,2,0,L|223:261,1,70
187,288,239221,5,0,0:0:0:0:
336,271,239383,1,0,0:0:0:0:
221,174,239546,1,0,0:0:0:0:
286,345,239708,1,0,0:0:0:0:
124,196,239870,1,0,0:0:0:0:
367,144,240032,1,0,0:0:0:0:
372,355,240194,1,0,0:0:0:0:
249,261,240356,1,0,0:0:0:0:
291,121,240519,6,0,P|315:83|386:70,1,105
467,132,240843,2,0,L|451:248,1,105.000004005432
384,170,241167,2,0,L|369:65,1,105.000004005432
286,131,241492,2,0,L|177:122,1,105.000004005432
159,137,241735,1,0,0:0:0:0:
159,137,241816,5,0,0:0:0:0:
237,239,241978,1,0,0:0:0:0:
228,53,242140,1,0,0:0:0:0:
96,50,242302,2,0,P|60:99|72:187,1,105.000004005432
75,245,242627,1,0,0:0:0:0:
55,141,242789,1,0,0:0:0:0:
164,301,242951,1,0,0:0:0:0:
283,134,243113,5,0,0:0:0:0:
158,85,243275,1,0,0:0:0:0:
270,261,243437,1,0,0:0:0:0:
372,174,243600,2,0,P|374:100|254:43,1,210.000008010865
158,85,244086,2,0,L|140:200,1,105.000004005432
126,292,244410,5,0,0:0:0:0:
188,376,244573,1,0,0:0:0:0:
215,292,244735,1,0,0:0:0:0:
274,360,244897,1,0,0:0:0:0:
304,277,245059,2,0,P|269:221|216:206,1,105.000004005432
297,140,245383,2,0,P|234:120|184:132,1,105.000004005432
196,126,245708,5,0,0:0:0:0:
234,207,245870,1,0,0:0:0:0:
297,142,246032,5,0,0:0:0:0:
316,210,246194,1,0,0:0:0:0:
394,159,246356,5,0,0:0:0:0:
407,205,246519,1,0,0:0:0:0:
475,170,246681,5,0,0:0:0:0:
481,191,246843,1,0,0:0:0:0:
487,215,247005,6,0,P|450:274|346:153,1,280
343,151,247816,1,0,0:0:0:0:
358,123,247978,1,0,0:0:0:0:
374,88,248140,1,0,0:0:0:0:
389,57,248302,5,0,0:0:0:0:
226,56,248464,1,0,0:0:0:0:
327,177,248627,5,0,0:0:0:0:
166,178,248789,1,0,0:0:0:0:
313,87,248951,5,0,0:0:0:0:
247,241,249113,1,0,0:0:0:0:
154,94,249275,5,0,0:0:0:0:
327,177,249437,1,0,0:0:0:0:
159,263,249600,6,0,P|176:295|201:318,1,70
371,228,249924,2,0,P|354:196|318:174,1,70
259,159,250248,1,0,0:0:0:0:
327,177,250410,1,0,0:0:0:0:
277,228,250573,1,0,0:0:0:0:
310,105,250735,1,0,0:0:0:0:
410,212,250897,6,0,L|398:301,1,70
332,234,251221,2,0,L|271:300,1,70
252,215,251546,2,0,L|164:234,1,70
204,153,251870,2,0,L|121:118,1,70
74,99,252194,6,0,P|69:141|94:180,1,70
129,215,252519,1,0,0:0:0:0:
139,126,252681,2,0,P|212:177|211:247,1,140
208,306,253167,2,0,L|293:290,1,70
345,280,253491,5,0,0:0:0:0:
276,293,253654,1,0,0:0:0:0:
224,240,253816,1,0,0:0:0:0:
235,171,253978,2,0,P|236:107|172:72,1,140
106,75,254464,1,0,0:0:0:0:
74,151,254627,1,0,0:0:0:0:
68,240,254789,6,0,L|152:257,1,70
191,170,255113,2,0,L|273:145,1,70
256,284,255437,2,0,L|335:315,1,70
346,191,255762,2,0,L|422:152,1,70
430,81,256086,5,0,0:0:0:0:
306,70,256248,1,0,0:0:0:0:
408,159,256410,1,0,0:0:0:0:
453,8,256573,1,0,0:0:0:0:
295,172,256735,1,0,0:0:0:0:
510,149,256897,1,0,0:0:0:0:
306,70,257059,1,0,0:0:0:0:
283,272,257221,1,0,0:0:0:0:
385,74,257383,6,0,P|300:-8|236:107,1,280
283,189,258194,1,0,0:0:0:0:
168,172,258356,1,0,0:0:0:0:
232,98,258519,1,0,0:0:0:0:
142,79,258681,5,0,0:0:0:0:
219,247,258843,1,0,0:0:0:0:
83,173,259005,5,0,0:0:0:0:
250,172,259167,1,0,0:0:0:0:
35,81,259329,5,0,0:0:0:0:
131,261,259491,1,0,0:0:0:0:
144,71,259654,5,0,0:0:0:0:
21,246,259816,1,0,0:0:0:0:
206,154,259978,2,0,L|261:218,1,70
308,145,260302,2,0,L|363:209,1,70
401,249,260627,1,0,0:0:0:0:
407,318,260789,1,0,0:0:0:0:
342,291,260951,2,0,P|330:263|334:220,1,70
384,177,261275,5,0,0:0:0:0:
448,126,261437,1,0,0:0:0:0:
436,232,261600,1,0,0:0:0:0:
336,115,261762,1,0,0:0:0:0:
501,186,261924,1,0,0:0:0:0:
380,285,262086,1,0,0:0:0:0:
342,120,262248,1,0,0:0:0:0:
508,191,262410,1,0,0:0:0:0:
328,207,262573,6,0,P|286:188|256:145,1,70
216,231,262897,2,0,P|192:191|192:138,1,70
213,79,263221,1,0,0:0:0:0:
283,147,263383,1,0,0:0:0:0:
219,83,263546,1,0,0:0:0:0:
110,103,263708,1,0,0:0:0:0:
116,108,263789,1,0,0:0:0:0:
123,115,263870,6,0,L|110:208,1,70
99,268,264194,1,0,0:0:0:0:
111,187,264356,1,0,0:0:0:0:
176,236,264519,1,0,0:0:0:0:
39,215,264681,1,0,0:0:0:0:
186,157,264843,1,0,0:0:0:0:
166,315,265005,1,0,0:0:0:0:
51,135,265167,6,0,P|84:114|131:112,1,70
144,25,265491,2,0,P|178:43|202:83,1,70
279,47,265816,2,0,P|280:86|257:126,1,70
330,171,266140,2,0,P|297:192|250:192,1,70
167,155,266464,5,0,0:0:0:0:
291,273,266627,1,0,0:0:0:0:
101,205,266789,5,0,0:0:0:0:
228,104,266951,1,0,0:0:0:0:
149,269,267113,5,0,0:0:0:0:
52,140,267275,1,0,0:0:0:0:
211,223,267437,5,0,0:0:0:0:
86,322,267600,1,0,0:0:0:0:
161,134,267762,6,0,B|248:104|299:172|299:172|317:71|480:115|430:219|382:236|382:236|356:312|356:312|295:243|295:243|273:269|248:265|215:256|216:211|216:211|156:258|96:257|96:257|64:256,1,840
179,78,270356,1,0,0:0:0:0:
256,192,270437,12,0,274248,0:0:0:0:
98,160,275683,5,0,0:0:0:0:
423,96,276987,5,0,0:0:0:0:
387,282,277639,5,0,0:0:0:0:
236,143,278291,5,0,0:0:0:0:
154,0,278943,5,0,0:0:0:0:
110,291,279596,5,0,0:0:0:0:
332,79,280900,5,0,0:0:0:0:
115,148,282041,5,0,0:0:0:0:
138,231,283509,5,0,0:0:0:0:
394,162,283672,1,0,0:0:0:0:
99,127,283835,5,0,0:0:0:0:
424,249,283998,1,0,0:0:0:0:
180,326,284161,5,0,0:0:0:0:
368,75,284324,1,0,0:0:0:0:
227,78,284487,5,0,0:0:0:0:
232,112,284568,1,0,0:0:0:0:
247,144,284650,1,0,0:0:0:0:
268,171,284731,1,0,0:0:0:0:
296,192,284813,1,0,0:0:0:0:
426,238,284976,6,0,L|338:308,1,105.000004005432
260,369,285302,1,0,0:0:0:0:
261,373,285384,1,0,0:0:0:0:
264,380,285465,2,0,L|183:304,1,105.000004005432
116,239,285791,1,0,0:0:0:0:
61,175,285954,6,0,P|111:155|163:169,1,105.000004005432
268,242,286280,2,0,P|318:253|366:233,1,105.000004005432
445,81,286606,1,0,0:0:0:0:
443,86,286688,1,0,0:0:0:0:
441,90,286769,2,0,L|400:194,1,105.000004005432
261,252,287096,2,0,L|276:148,1,105.000004005432
276,148,287422,5,0,0:0:0:0:
164,183,287585,1,0,0:0:0:0:
236,77,287748,1,0,0:0:0:0:
318,219,287911,1,0,0:0:0:0:
164,106,288074,1,0,0:0:0:0:
314,50,288237,1,0,0:0:0:0:
194,176,288400,1,0,0:0:0:0:
132,37,288563,6,0,L|92:147,1,105.000004005432
0,219,288889,2,0,L|40:329,1,105.000004005432
163,223,289215,1,0,0:0:0:0:
166,226,289297,1,0,0:0:0:0:
169,229,289378,2,0,P|223:228|297:219,1,105.000004005432
418,195,289704,2,0,P|419:256|381:317,1,105.000004005432
291,353,289949,1,0,0:0:0:0:
291,353,290030,6,0,L|172:344,1,105.000004005432
81,337,290356,1,0,0:0:0:0:
48,178,290519,1,0,0:0:0:0:
214,206,290683,1,0,0:0:0:0:
28,271,290846,1,0,0:0:0:0:
63,87,291009,1,0,0:0:0:0:
249,61,291172,1,0,0:0:0:0:
253,65,291253,1,0,0:0:0:0:
259,70,291335,5,0,0:0:0:0:
301,239,291498,1,0,0:0:0:0:
155,84,291661,1,0,0:0:0:0:
366,52,291824,1,0,0:0:0:0:
171,174,291987,1,0,0:0:0:0:
139,2,292150,1,0,0:0:0:0:
262,165,292313,1,0,0:0:0:0:
85,183,292476,1,0,0:0:0:0:
85,183,292802,5,0,0:0:0:0:
273,256,292965,1,0,0:0:0:0:
94,184,293128,1,0,0:0:0:0:
324,154,293291,1,0,0:0:0:0:
104,185,293454,1,0,0:0:0:0:
284,261,293617,1,0,0:0:0:0:
114,186,293780,1,0,0:0:0:0:
155,104,294269,6,0,P|202:151|208:190,1,105.000004005432
272,105,294596,2,0,P|286:155|285:240,1,105.000004005432
366,151,294922,2,0,P|370:214|357:274,1,105.000004005432
342,358,295248,5,0,0:0:0:0:
434,58,295411,1,0,0:0:0:0:
430,368,295574,5,0,0:0:0:0:
330,34,295737,1,0,0:0:0:0:
301,299,295900,5,0,0:0:0:0:
225,27,296063,1,0,0:0:0:0:
210,308,296226,5,0,0:0:0:0:
103,30,296389,1,0,0:0:0:0:
114,333,296552,1,0,0:0:0:0:
114,333,296878,6,0,L|126:199,1,105.000004005432
239,39,297204,2,0,L|229:143,1,105.000004005432
301,299,297530,2,0,L|313:165,1,105.000004005432
319,89,297856,5,0,0:0:0:0:
141,189,298019,1,0,0:0:0:0:
407,187,298183,5,0,0:0:0:0:
107,94,298346,1,0,0:0:0:0:
434,90,298509,5,0,0:0:0:0:
125,280,298672,1,0,0:0:0:0:
496,162,298835,5,0,0:0:0:0:
199,327,298998,1,0,0:0:0:0:
156,40,299161,6,0,L|205:146,1,105.000004005432
301,71,299487,2,0,L|300:187,1,105.000004005432
406,185,299813,2,0,L|356:290,1,105.000004005432
459,317,300139,2,0,L|369:391,1,105.000004005432
378,384,300465,5,0,0:0:0:0:
246,112,300628,1,0,0:0:0:0:
479,155,300791,5,0,0:0:0:0:
180,224,300954,1,0,0:0:0:0:
454,263,301117,5,0,0:0:0:0:
136,109,301280,1,0,0:0:0:0:
463,44,301443,5,0,0:0:0:0:
90,198,301606,1,0,0:0:0:0:
446,152,301769,5,0,0:0:0:0:
46,111,301933,1,0,0:0:0:0:
379,84,302096,5,0,0:0:0:0:
130,279,302259,1,0,0:0:0:0:
302,43,302422,5,0,0:0:0:0:
167,357,302585,1,0,0:0:0:0:
231,2,302748,5,0,0:0:0:0:
304,376,302911,1,0,0:0:0:0:
307,380,302992,1,0,0:0:0:0:
309,384,303074,5,0,0:0:0:0:
153,12,303237,1,0,0:0:0:0:
389,308,303400,5,0,0:0:0:0:
95,62,303563,1,0,0:0:0:0:
418,233,303726,5,0,0:0:0:0:
61,128,303889,1,0,0:0:0:0:
429,152,304052,5,0,0:0:0:0:
61,206,304215,1,0,0:0:0:0:
408,82,304378,5,0,0:0:0:0:
76,46,304541,1,0,0:0:0:0:
211,343,304704,1,0,0:0:0:0:
242,31,304867,5,0,0:0:0:0:
43,304,305030,1,0,0:0:0:0:
389,323,305193,1,0,0:0:0:0:
64,100,305356,5,0,0:0:0:0:
210,358,305519,1,0,0:0:0:0:
394,101,305683,1,0,0:0:0:0:
