osu file format v14

[General]
AudioFilename: OfCourse You Need.mp3
AudioLeadIn: 0
PreviewTime: 80912
Countdown: 0
SampleSet: Normal
StackLeniency: 0.7
Mode: 3
LetterboxInBreaks: 0
SpecialStyle: 0
WidescreenStoryboard: 0

[Editor]
Bookmarks: 16485,48485,64485,79485,116610,120485,137485,149485,169485,177485,185485,201485
DistanceSpacing: 1.2
BeatDivisor: 6
GridSize: 8
TimelineZoom: 2

[Metadata]
Title:Charts for X Girlz
TitleUnicode:Charts for X Girlz
Artist:Various Artists
ArtistUnicode:Various Artists
Creator:Chronocide
Version:t+pazolite - Ofcourse You Need and nEed and neEd and neeD and NEED ME? (reprise)
Source:
Tags:Jacks, Dense, Icy
BeatmapID:1113232
BeatmapSetID:524483

[Difficulty]
HPDrainRate:8.5
CircleSize:4
OverallDifficulty:9
ApproachRate:5
SliderMultiplier:1.4
SliderTickRate:1

[Events]
//Background and Video events
0,0,"OfCourse You Need.jpg",0,0
//Break Periods
//Storyboard Layer 0 (Background)
//Storyboard Layer 1 (Fail)
//Storyboard Layer 2 (Pass)
//Storyboard Layer 3 (Foreground)
//Storyboard Sound Samples

[TimingPoints]
485,250,4,1,0,40,1,0
16485,-100,4,1,0,20,0,0
46860,-100,4,1,0,40,0,0
48485,-133.333333333333,4,1,0,40,0,0
64485,-111.111111111111,4,1,0,40,0,0
79485,-105.263157894737,4,1,0,30,0,0
86485,-100,4,1,0,20,0,0
88485,-100,4,1,0,20,0,1
120485,-100,4,1,0,20,0,0
137485,-133.333333333333,4,1,0,40,0,0
148485,-133.333333333333,4,1,0,15,0,0
148547.5,-130.612244897959,4,1,0,15,0,0
148610,-128,4,1,0,15,0,0
148672.5,-125.490196078431,4,1,0,15,0,0
148735,-123.076923076923,4,1,0,15,0,0
148797.5,-120.754716981132,4,1,0,15,0,0
148860,-118.518518518519,4,1,0,15,0,0
148922.5,-116.363636363636,4,1,0,15,0,0
148985,-114.285714285714,4,1,0,15,0,0
149047.5,-112.280701754386,4,1,0,15,0,0
149110,-110.344827586207,4,1,0,15,0,0
149172.5,-108.474576271186,4,1,0,15,0,0
149235,-106.666666666667,4,1,0,15,0,0
149297.5,-104.918032786885,4,1,0,15,0,0
149360,-103.225806451613,4,1,0,15,0,0
149422.5,-101.587301587302,4,1,0,15,0,0
149485,-100,4,1,0,15,0,0
169485,-111.111111111111,4,1,0,20,0,0
177485,-105.263157894737,4,1,0,20,0,0
182485,-100,4,1,0,20,0,0
185485,-111.111111111111,4,1,0,20,0,0
193485,-105.263157894737,4,1,0,20,0,0
199485,-100,4,1,0,20,0,0
201485,-100,4,1,0,20,0,1
233485,-100,4,1,0,20,0,0

[HitObjects]
448,192,485,5,0,0:0:0:0:
64,192,485,1,0,0:0:0:0:
192,192,485,1,0,0:0:0:0:
320,192,485,1,0,0:0:0:0:
448,192,4485,1,0,0:0:0:0:
320,192,4485,1,0,0:0:0:0:
192,192,4485,1,0,0:0:0:0:
64,192,4485,1,0,0:0:0:0:
64,192,8485,1,0,0:0:0:0:
192,192,8485,1,0,0:0:0:0:
320,192,8485,1,0,0:0:0:0:
448,192,8485,1,0,0:0:0:0:
448,192,10485,1,0,0:0:0:0:
320,192,10485,1,0,0:0:0:0:
192,192,10485,1,0,0:0:0:0:
64,192,10485,1,0,0:0:0:0:
448,192,12485,1,0,0:0:0:0:
320,192,12485,1,0,0:0:0:0:
192,192,12485,1,0,0:0:0:0:
64,192,12485,1,0,0:0:0:0:
448,192,13485,1,0,0:0:0:0:
320,192,13485,1,0,0:0:0:0:
192,192,13485,1,0,0:0:0:0:
64,192,13485,1,0,0:0:0:0:
448,192,14485,1,0,0:0:0:0:
320,192,14485,1,0,0:0:0:0:
192,192,14485,1,0,0:0:0:0:
64,192,14485,1,0,0:0:0:0:
448,192,14985,1,0,0:0:0:0:
320,192,14985,1,0,0:0:0:0:
192,192,14985,1,0,0:0:0:0:
64,192,14985,1,0,0:0:0:0:
448,192,15485,1,0,0:0:0:0:
320,192,15485,1,0,0:0:0:0:
192,192,15485,1,0,0:0:0:0:
64,192,15485,1,0,0:0:0:0:
448,192,16485,1,0,0:0:0:0:
320,192,16485,1,0,0:0:0:0:
192,192,16485,1,0,0:0:0:0:
64,192,16485,1,0,0:0:0:0:
64,192,16610,1,0,0:0:0:0:
320,192,16610,1,0,0:0:0:0:
448,192,16735,1,0,0:0:0:0:
320,192,16735,1,0,0:0:0:0:
192,192,16735,1,0,0:0:0:0:
448,192,16860,1,0,0:0:0:0:
192,192,16860,1,0,0:0:0:0:
320,192,16985,1,0,0:0:0:0:
192,192,16985,1,0,0:0:0:0:
64,192,16985,1,0,0:0:0:0:
192,192,17110,1,0,0:0:0:0:
320,192,17110,1,0,0:0:0:0:
448,192,17235,1,0,0:0:0:0:
320,192,17235,1,0,0:0:0:0:
64,192,17235,1,0,0:0:0:0:
320,192,17360,1,0,0:0:0:0:
192,192,17360,1,0,0:0:0:0:
192,192,17485,1,0,0:0:0:0:
64,192,17485,1,0,0:0:0:0:
448,192,17485,1,0,0:0:0:0:
64,192,17610,1,0,0:0:0:0:
320,192,17610,1,0,0:0:0:0:
192,192,17735,1,0,0:0:0:0:
320,192,17735,1,0,0:0:0:0:
448,192,17735,1,0,0:0:0:0:
192,192,17860,1,0,0:0:0:0:
448,192,17860,1,0,0:0:0:0:
320,192,17985,1,0,0:0:0:0:
192,192,17985,1,0,0:0:0:0:
64,192,17985,1,0,0:0:0:0:
192,192,18110,1,0,0:0:0:0:
320,192,18110,1,0,0:0:0:0:
64,192,18235,1,0,0:0:0:0:
448,192,18235,1,0,0:0:0:0:
320,192,18235,1,0,0:0:0:0:
320,192,18360,1,0,0:0:0:0:
192,192,18360,1,0,0:0:0:0:
192,192,18485,1,0,0:0:0:0:
448,192,18485,1,0,0:0:0:0:
64,192,18485,1,0,0:0:0:0:
320,192,18610,1,0,0:0:0:0:
64,192,18610,1,0,0:0:0:0:
448,192,18735,1,0,0:0:0:0:
320,192,18735,1,0,0:0:0:0:
192,192,18735,1,0,0:0:0:0:
448,192,18860,1,0,0:0:0:0:
192,192,18860,1,0,0:0:0:0:
64,192,18985,1,0,0:0:0:0:
192,192,18985,1,0,0:0:0:0:
320,192,18985,1,0,0:0:0:0:
192,192,19110,1,0,0:0:0:0:
320,192,19110,1,0,0:0:0:0:
320,192,19235,1,0,0:0:0:0:
448,192,19235,1,0,0:0:0:0:
64,192,19235,1,0,0:0:0:0:
320,192,19360,1,0,0:0:0:0:
192,192,19360,1,0,0:0:0:0:
64,192,19485,1,0,0:0:0:0:
448,192,19485,1,0,0:0:0:0:
192,192,19485,1,0,0:0:0:0:
64,192,19610,1,0,0:0:0:0:
320,192,19610,1,0,0:0:0:0:
192,192,19735,1,0,0:0:0:0:
320,192,19735,1,0,0:0:0:0:
448,192,19735,1,0,0:0:0:0:
192,192,19860,1,0,0:0:0:0:
448,192,19860,1,0,0:0:0:0:
320,192,19985,1,0,0:0:0:0:
192,192,19985,1,0,0:0:0:0:
64,192,19985,1,0,0:0:0:0:
192,192,20110,1,0,0:0:0:0:
320,192,20110,1,0,0:0:0:0:
64,192,20235,1,0,0:0:0:0:
448,192,20235,1,0,0:0:0:0:
320,192,20235,1,0,0:0:0:0:
192,192,20360,1,0,0:0:0:0:
320,192,20360,1,0,0:0:0:0:
64,192,20360,1,0,0:0:0:0:
192,192,20485,1,0,0:0:0:0:
320,192,20485,1,0,0:0:0:0:
448,192,20485,1,0,0:0:0:0:
320,192,20610,1,0,0:0:0:0:
64,192,20610,1,0,0:0:0:0:
192,192,20735,1,0,0:0:0:0:
320,192,20735,1,0,0:0:0:0:
448,192,20735,1,0,0:0:0:0:
192,192,20860,1,0,0:0:0:0:
448,192,20860,1,0,0:0:0:0:
320,192,20985,1,0,0:0:0:0:
192,192,20985,1,0,0:0:0:0:
64,192,20985,1,0,0:0:0:0:
320,192,21110,1,0,0:0:0:0:
192,192,21110,1,0,0:0:0:0:
64,192,21235,1,0,0:0:0:0:
448,192,21235,1,0,0:0:0:0:
320,192,21235,1,0,0:0:0:0:
192,192,21360,1,0,0:0:0:0:
320,192,21360,1,0,0:0:0:0:
64,192,21485,1,0,0:0:0:0:
192,192,21485,1,0,0:0:0:0:
448,192,21485,1,0,0:0:0:0:
320,192,21610,1,0,0:0:0:0:
64,192,21610,1,0,0:0:0:0:
448,192,21735,1,0,0:0:0:0:
192,192,21735,1,0,0:0:0:0:
320,192,21735,1,0,0:0:0:0:
192,192,21860,1,0,0:0:0:0:
448,192,21860,1,0,0:0:0:0:
192,192,21985,1,0,0:0:0:0:
320,192,21985,1,0,0:0:0:0:
64,192,21985,1,0,0:0:0:0:
320,192,22110,1,0,0:0:0:0:
192,192,22110,1,0,0:0:0:0:
320,192,22235,1,0,0:0:0:0:
64,192,22235,1,0,0:0:0:0:
448,192,22235,1,0,0:0:0:0:
192,192,22360,1,0,0:0:0:0:
320,192,22360,1,0,0:0:0:0:
192,192,22485,1,0,0:0:0:0:
64,192,22485,1,0,0:0:0:0:
448,192,22485,1,0,0:0:0:0:
320,192,22610,1,0,0:0:0:0:
64,192,22610,1,0,0:0:0:0:
320,192,22735,1,0,0:0:0:0:
192,192,22735,1,0,0:0:0:0:
448,192,22735,1,0,0:0:0:0:
192,192,22860,1,0,0:0:0:0:
448,192,22860,1,0,0:0:0:0:
64,192,22985,1,0,0:0:0:0:
320,192,22985,1,0,0:0:0:0:
192,192,22985,1,0,0:0:0:0:
320,192,23110,1,0,0:0:0:0:
192,192,23110,1,0,0:0:0:0:
448,192,23235,1,0,0:0:0:0:
64,192,23235,1,0,0:0:0:0:
320,192,23235,1,0,0:0:0:0:
192,192,23360,1,0,0:0:0:0:
320,192,23360,1,0,0:0:0:0:
448,192,23485,1,0,0:0:0:0:
64,192,23485,1,0,0:0:0:0:
192,192,23485,1,0,0:0:0:0:
320,192,23610,1,0,0:0:0:0:
64,192,23610,1,0,0:0:0:0:
448,192,23735,1,0,0:0:0:0:
192,192,23735,1,0,0:0:0:0:
320,192,23735,1,0,0:0:0:0:
192,192,23860,1,0,0:0:0:0:
448,192,23860,1,0,0:0:0:0:
192,192,23985,1,0,0:0:0:0:
320,192,23985,1,0,0:0:0:0:
64,192,23985,1,0,0:0:0:0:
64,192,24110,1,0,0:0:0:0:
448,192,24110,1,0,0:0:0:0:
320,192,24172,1,0,0:0:0:0:
192,192,24172,1,0,0:0:0:0:
64,192,24235,1,0,0:0:0:0:
448,192,24235,1,0,0:0:0:0:
320,192,24360,1,0,0:0:0:0:
192,192,24422,1,0,0:0:0:0:
64,192,24485,1,0,0:0:0:0:
320,192,24485,1,0,0:0:0:0:
448,192,24485,1,0,0:0:0:0:
192,192,24610,1,0,0:0:0:0:
320,192,24610,1,0,0:0:0:0:
64,192,24735,1,0,0:0:0:0:
448,192,24735,1,0,0:0:0:0:
320,192,24735,1,0,0:0:0:0:
64,192,24860,1,0,0:0:0:0:
192,192,24860,1,0,0:0:0:0:
320,192,24985,1,0,0:0:0:0:
192,192,24985,1,0,0:0:0:0:
64,192,24985,1,0,0:0:0:0:
448,192,25110,1,0,0:0:0:0:
320,192,25110,1,0,0:0:0:0:
448,192,25235,1,0,0:0:0:0:
320,192,25235,1,0,0:0:0:0:
64,192,25235,1,0,0:0:0:0:
64,192,25360,1,0,0:0:0:0:
192,192,25360,1,0,0:0:0:0:
192,192,25485,1,0,0:0:0:0:
64,192,25485,1,0,0:0:0:0:
448,192,25485,1,0,0:0:0:0:
448,192,25610,1,0,0:0:0:0:
320,192,25610,1,0,0:0:0:0:
320,192,25735,1,0,0:0:0:0:
448,192,25735,1,0,0:0:0:0:
192,192,25735,1,0,0:0:0:0:
64,192,25860,1,0,0:0:0:0:
192,192,25860,1,0,0:0:0:0:
320,192,25985,1,0,0:0:0:0:
192,192,25985,1,0,0:0:0:0:
64,192,25985,1,0,0:0:0:0:
448,192,26110,1,0,0:0:0:0:
320,192,26110,1,0,0:0:0:0:
64,192,26235,1,0,0:0:0:0:
448,192,26235,1,0,0:0:0:0:
320,192,26235,1,0,0:0:0:0:
64,192,26360,1,0,0:0:0:0:
192,192,26360,1,0,0:0:0:0:
192,192,26485,1,0,0:0:0:0:
448,192,26485,1,0,0:0:0:0:
64,192,26485,1,0,0:0:0:0:
448,192,26610,1,0,0:0:0:0:
320,192,26610,1,0,0:0:0:0:
192,192,26735,1,0,0:0:0:0:
448,192,26735,1,0,0:0:0:0:
320,192,26735,1,0,0:0:0:0:
64,192,26860,1,0,0:0:0:0:
192,192,26860,1,0,0:0:0:0:
64,192,26985,1,0,0:0:0:0:
192,192,26985,1,0,0:0:0:0:
320,192,26985,1,0,0:0:0:0:
448,192,27110,1,0,0:0:0:0:
320,192,27110,1,0,0:0:0:0:
320,192,27235,1,0,0:0:0:0:
448,192,27235,1,0,0:0:0:0:
64,192,27235,1,0,0:0:0:0:
64,192,27360,1,0,0:0:0:0:
192,192,27360,1,0,0:0:0:0:
64,192,27485,1,0,0:0:0:0:
448,192,27485,1,0,0:0:0:0:
192,192,27485,1,0,0:0:0:0:
448,192,27610,1,0,0:0:0:0:
320,192,27610,1,0,0:0:0:0:
320,192,27735,1,0,0:0:0:0:
448,192,27735,1,0,0:0:0:0:
192,192,27735,1,0,0:0:0:0:
64,192,27860,1,0,0:0:0:0:
192,192,27860,1,0,0:0:0:0:
320,192,27985,1,0,0:0:0:0:
192,192,27985,1,0,0:0:0:0:
64,192,27985,1,0,0:0:0:0:
448,192,28110,1,0,0:0:0:0:
320,192,28110,1,0,0:0:0:0:
64,192,28235,1,0,0:0:0:0:
448,192,28235,1,0,0:0:0:0:
320,192,28235,1,0,0:0:0:0:
320,192,28360,1,0,0:0:0:0:
192,192,28360,1,0,0:0:0:0:
448,192,28360,1,0,0:0:0:0:
320,192,28485,1,0,0:0:0:0:
192,192,28485,1,0,0:0:0:0:
64,192,28485,1,0,0:0:0:0:
320,192,28610,1,0,0:0:0:0:
192,192,28610,1,0,0:0:0:0:
448,192,28735,1,0,0:0:0:0:
320,192,28735,1,0,0:0:0:0:
64,192,28735,1,0,0:0:0:0:
192,192,28860,1,0,0:0:0:0:
320,192,28860,1,0,0:0:0:0:
192,192,28985,1,0,0:0:0:0:
64,192,28985,1,0,0:0:0:0:
448,192,28985,1,0,0:0:0:0:
320,192,29110,1,0,0:0:0:0:
64,192,29110,1,0,0:0:0:0:
448,192,29235,1,0,0:0:0:0:
320,192,29235,1,0,0:0:0:0:
192,192,29235,1,0,0:0:0:0:
192,192,29360,1,0,0:0:0:0:
448,192,29360,1,0,0:0:0:0:
64,192,29485,1,0,0:0:0:0:
192,192,29485,1,0,0:0:0:0:
320,192,29485,1,0,0:0:0:0:
320,192,29610,1,0,0:0:0:0:
192,192,29610,1,0,0:0:0:0:
64,192,29735,1,0,0:0:0:0:
320,192,29735,1,0,0:0:0:0:
448,192,29735,1,0,0:0:0:0:
192,192,29860,1,0,0:0:0:0:
320,192,29860,1,0,0:0:0:0:
192,192,29985,1,0,0:0:0:0:
64,192,29985,1,0,0:0:0:0:
448,192,29985,1,0,0:0:0:0:
320,192,30110,1,0,0:0:0:0:
64,192,30110,1,0,0:0:0:0:
192,192,30235,1,0,0:0:0:0:
448,192,30235,1,0,0:0:0:0:
320,192,30235,1,0,0:0:0:0:
192,192,30360,1,0,0:0:0:0:
448,192,30360,1,0,0:0:0:0:
64,192,30485,1,0,0:0:0:0:
320,192,30485,1,0,0:0:0:0:
192,192,30485,1,0,0:0:0:0:
192,192,30610,1,0,0:0:0:0:
320,192,30610,1,0,0:0:0:0:
448,192,30735,128,0,30860:0:0:0:0:
64,192,30735,128,0,30860:0:0:0:0:
192,192,30860,128,0,30985:0:0:0:0:
320,192,30860,128,0,30985:0:0:0:0:
64,192,30985,1,0,0:0:0:0:
448,192,30985,1,0,0:0:0:0:
192,192,31110,1,0,0:0:0:0:
320,192,31110,1,0,0:0:0:0:
64,192,31235,128,0,31360:0:0:0:0:
320,192,31235,128,0,31360:0:0:0:0:
448,192,31360,1,0,0:0:0:0:
192,192,31360,128,0,31485:0:0:0:0:
448,192,31485,128,0,31610:0:0:0:0:
320,192,31485,128,0,31610:0:0:0:0:
192,192,31610,128,0,31735:0:0:0:0:
64,192,31610,128,0,31735:0:0:0:0:
320,192,31735,1,0,0:0:0:0:
448,192,31735,128,0,31860:0:0:0:0:
64,192,31860,128,0,31985:0:0:0:0:
192,192,31860,128,0,31985:0:0:0:0:
448,192,31985,1,0,0:0:0:0:
320,192,31985,128,0,32110:0:0:0:0:
192,192,32110,1,0,0:0:0:0:
64,192,32110,128,0,32235:0:0:0:0:
192,192,32235,128,0,32360:0:0:0:0:
448,192,32235,128,0,32360:0:0:0:0:
64,192,32360,128,0,32485:0:0:0:0:
320,192,32360,128,0,32485:0:0:0:0:
192,192,32485,1,0,0:0:0:0:
448,192,32485,1,0,0:0:0:0:
320,192,32610,1,0,0:0:0:0:
64,192,32610,1,0,0:0:0:0:
448,192,32735,1,0,0:0:0:0:
64,192,32735,1,0,0:0:0:0:
192,192,32735,1,0,0:0:0:0:
320,192,32860,1,0,0:0:0:0:
448,192,32860,1,0,0:0:0:0:
64,192,32985,1,0,0:0:0:0:
192,192,32985,1,0,0:0:0:0:
448,192,32985,1,0,0:0:0:0:
320,192,33110,1,0,0:0:0:0:
64,192,33110,1,0,0:0:0:0:
192,192,33235,1,0,0:0:0:0:
320,192,33235,1,0,0:0:0:0:
448,192,33235,1,0,0:0:0:0:
64,192,33360,1,0,0:0:0:0:
192,192,33360,1,0,0:0:0:0:
320,192,33485,1,0,0:0:0:0:
64,192,33485,1,0,0:0:0:0:
448,192,33485,1,0,0:0:0:0:
320,192,33610,1,0,0:0:0:0:
192,192,33610,1,0,0:0:0:0:
64,192,33735,1,0,0:0:0:0:
448,192,33735,1,0,0:0:0:0:
192,192,33735,1,0,0:0:0:0:
64,192,33860,1,0,0:0:0:0:
320,192,33860,1,0,0:0:0:0:
192,192,33985,1,0,0:0:0:0:
64,192,33985,1,0,0:0:0:0:
448,192,33985,1,0,0:0:0:0:
320,192,34110,1,0,0:0:0:0:
192,192,34110,1,0,0:0:0:0:
448,192,34235,1,0,0:0:0:0:
320,192,34235,1,0,0:0:0:0:
64,192,34235,1,0,0:0:0:0:
192,192,34360,1,0,0:0:0:0:
320,192,34360,1,0,0:0:0:0:
192,192,34485,1,0,0:0:0:0:
320,192,34485,1,0,0:0:0:0:
64,192,34485,1,0,0:0:0:0:
448,192,34610,1,0,0:0:0:0:
192,192,34610,1,0,0:0:0:0:
320,192,34735,1,0,0:0:0:0:
448,192,34735,1,0,0:0:0:0:
64,192,34735,1,0,0:0:0:0:
192,192,34860,1,0,0:0:0:0:
320,192,34860,1,0,0:0:0:0:
448,192,34985,1,0,0:0:0:0:
64,192,34985,1,0,0:0:0:0:
192,192,34985,1,0,0:0:0:0:
320,192,35110,1,0,0:0:0:0:
64,192,35110,1,0,0:0:0:0:
192,192,35235,1,0,0:0:0:0:
448,192,35235,1,0,0:0:0:0:
64,192,35235,1,0,0:0:0:0:
448,192,35360,1,0,0:0:0:0:
320,192,35360,1,0,0:0:0:0:
64,192,35485,1,0,0:0:0:0:
320,192,35485,1,0,0:0:0:0:
192,192,35485,1,0,0:0:0:0:
448,192,35610,1,0,0:0:0:0:
64,192,35610,1,0,0:0:0:0:
320,192,35672,1,0,0:0:0:0:
192,192,35672,1,0,0:0:0:0:
448,192,35735,1,0,0:0:0:0:
64,192,35735,1,0,0:0:0:0:
320,192,35860,1,0,0:0:0:0:
192,192,35860,1,0,0:0:0:0:
448,192,35985,1,0,0:0:0:0:
64,192,35985,1,0,0:0:0:0:
320,192,35985,1,0,0:0:0:0:
192,192,36110,1,0,0:0:0:0:
320,192,36110,1,0,0:0:0:0:
64,192,36235,1,0,0:0:0:0:
192,192,36235,1,0,0:0:0:0:
448,192,36235,1,0,0:0:0:0:
448,192,36360,1,0,0:0:0:0:
320,192,36360,1,0,0:0:0:0:
192,192,36360,1,0,0:0:0:0:
320,192,36485,1,0,0:0:0:0:
192,192,36485,1,0,0:0:0:0:
64,192,36485,1,0,0:0:0:0:
320,192,36610,1,0,0:0:0:0:
64,192,36610,1,0,0:0:0:0:
448,192,36735,1,0,0:0:0:0:
320,192,36735,1,0,0:0:0:0:
192,192,36735,1,0,0:0:0:0:
192,192,36860,1,0,0:0:0:0:
448,192,36860,1,0,0:0:0:0:
320,192,36985,1,0,0:0:0:0:
192,192,36985,1,0,0:0:0:0:
64,192,36985,1,0,0:0:0:0:
320,192,37110,1,0,0:0:0:0:
192,192,37110,1,0,0:0:0:0:
320,192,37235,1,0,0:0:0:0:
448,192,37235,1,0,0:0:0:0:
64,192,37235,1,0,0:0:0:0:
192,192,37360,1,0,0:0:0:0:
320,192,37360,1,0,0:0:0:0:
192,192,37485,1,0,0:0:0:0:
64,192,37485,1,0,0:0:0:0:
448,192,37485,1,0,0:0:0:0:
320,192,37610,1,0,0:0:0:0:
192,192,37610,1,0,0:0:0:0:
192,192,37735,1,0,0:0:0:0:
64,192,37735,1,0,0:0:0:0:
448,192,37735,1,0,0:0:0:0:
320,192,37860,1,0,0:0:0:0:
192,192,37860,1,0,0:0:0:0:
192,192,37985,1,0,0:0:0:0:
64,192,37985,1,0,0:0:0:0:
448,192,37985,1,0,0:0:0:0:
448,192,38110,1,0,0:0:0:0:
64,192,38110,1,0,0:0:0:0:
192,192,38110,1,0,0:0:0:0:
192,192,38235,1,0,0:0:0:0:
320,192,38235,1,0,0:0:0:0:
64,192,38360,1,0,0:0:0:0:
192,192,38360,1,0,0:0:0:0:
448,192,38360,1,0,0:0:0:0:
448,192,38485,1,0,0:0:0:0:
320,192,38485,1,0,0:0:0:0:
192,192,38485,1,0,0:0:0:0:
320,192,38610,1,0,0:0:0:0:
64,192,38610,1,0,0:0:0:0:
64,192,38735,1,0,0:0:0:0:
192,192,38735,1,0,0:0:0:0:
320,192,38735,1,0,0:0:0:0:
448,192,38860,1,0,0:0:0:0:
192,192,38860,1,0,0:0:0:0:
448,192,38985,1,0,0:0:0:0:
320,192,38985,1,0,0:0:0:0:
192,192,38985,1,0,0:0:0:0:
320,192,39110,1,0,0:0:0:0:
192,192,39110,1,0,0:0:0:0:
192,192,39235,1,0,0:0:0:0:
64,192,39235,1,0,0:0:0:0:
448,192,39235,1,0,0:0:0:0:
320,192,39360,1,0,0:0:0:0:
192,192,39360,1,0,0:0:0:0:
448,192,39485,1,0,0:0:0:0:
320,192,39485,1,0,0:0:0:0:
64,192,39485,1,0,0:0:0:0:
320,192,39735,1,0,0:0:0:0:
192,192,39735,1,0,0:0:0:0:
64,192,39735,1,0,0:0:0:0:
448,192,39985,1,0,0:0:0:0:
320,192,39985,1,0,0:0:0:0:
192,192,39985,1,0,0:0:0:0:
64,192,40110,1,0,0:0:0:0:
192,192,40172,1,0,0:0:0:0:
448,192,40235,1,0,0:0:0:0:
320,192,40297,1,0,0:0:0:0:
192,192,40360,1,0,0:0:0:0:
64,192,40360,1,0,0:0:0:0:
320,192,40485,1,0,0:0:0:0:
192,192,40485,1,0,0:0:0:0:
64,192,40485,1,0,0:0:0:0:
448,192,40610,1,0,0:0:0:0:
320,192,40610,1,0,0:0:0:0:
192,192,40735,1,0,0:0:0:0:
320,192,40735,1,0,0:0:0:0:
448,192,40735,1,0,0:0:0:0:
192,192,40860,1,0,0:0:0:0:
64,192,40860,1,0,0:0:0:0:
64,192,40985,1,0,0:0:0:0:
192,192,40985,1,0,0:0:0:0:
320,192,40985,1,0,0:0:0:0:
448,192,41110,1,0,0:0:0:0:
320,192,41110,1,0,0:0:0:0:
64,192,41235,1,0,0:0:0:0:
320,192,41235,1,0,0:0:0:0:
448,192,41235,1,0,0:0:0:0:
192,192,41360,1,0,0:0:0:0:
64,192,41360,1,0,0:0:0:0:
448,192,41485,1,0,0:0:0:0:
192,192,41485,1,0,0:0:0:0:
64,192,41485,1,0,0:0:0:0:
320,192,41610,1,0,0:0:0:0:
448,192,41610,1,0,0:0:0:0:
448,192,41735,1,0,0:0:0:0:
320,192,41735,1,0,0:0:0:0:
192,192,41735,1,0,0:0:0:0:
64,192,41860,1,0,0:0:0:0:
192,192,41860,1,0,0:0:0:0:
64,192,41985,1,0,0:0:0:0:
192,192,41985,1,0,0:0:0:0:
320,192,41985,1,0,0:0:0:0:
448,192,42110,1,0,0:0:0:0:
320,192,42110,1,0,0:0:0:0:
320,192,42235,1,0,0:0:0:0:
64,192,42235,1,0,0:0:0:0:
448,192,42235,1,0,0:0:0:0:
192,192,42360,1,0,0:0:0:0:
64,192,42360,1,0,0:0:0:0:
448,192,42485,1,0,0:0:0:0:
192,192,42485,1,0,0:0:0:0:
64,192,42485,1,0,0:0:0:0:
320,192,42610,1,0,0:0:0:0:
448,192,42610,1,0,0:0:0:0:
448,192,42735,1,0,0:0:0:0:
320,192,42735,1,0,0:0:0:0:
192,192,42735,1,0,0:0:0:0:
64,192,42860,1,0,0:0:0:0:
192,192,42860,1,0,0:0:0:0:
64,192,42985,1,0,0:0:0:0:
192,192,42985,1,0,0:0:0:0:
320,192,42985,1,0,0:0:0:0:
448,192,43110,1,0,0:0:0:0:
320,192,43110,1,0,0:0:0:0:
320,192,43235,1,0,0:0:0:0:
64,192,43235,1,0,0:0:0:0:
448,192,43235,1,0,0:0:0:0:
192,192,43360,1,0,0:0:0:0:
64,192,43360,1,0,0:0:0:0:
448,192,43485,1,0,0:0:0:0:
192,192,43485,1,0,0:0:0:0:
64,192,43485,1,0,0:0:0:0:
192,192,43610,1,0,0:0:0:0:
320,192,43610,1,0,0:0:0:0:
448,192,43672,1,0,0:0:0:0:
64,192,43672,1,0,0:0:0:0:
192,192,43735,1,0,0:0:0:0:
320,192,43735,1,0,0:0:0:0:
448,192,43860,1,0,0:0:0:0:
64,192,43860,1,0,0:0:0:0:
320,192,43860,1,0,0:0:0:0:
64,192,43985,1,0,0:0:0:0:
320,192,43985,1,0,0:0:0:0:
448,192,43985,1,0,0:0:0:0:
320,192,44110,1,0,0:0:0:0:
192,192,44110,1,0,0:0:0:0:
320,192,44235,1,0,0:0:0:0:
448,192,44235,1,0,0:0:0:0:
192,192,44360,1,0,0:0:0:0:
448,192,44360,1,0,0:0:0:0:
64,192,44360,1,0,0:0:0:0:
320,192,44485,1,0,0:0:0:0:
64,192,44485,1,0,0:0:0:0:
192,192,44485,1,0,0:0:0:0:
192,192,44610,1,0,0:0:0:0:
448,192,44610,1,0,0:0:0:0:
320,192,44735,1,0,0:0:0:0:
64,192,44735,1,0,0:0:0:0:
448,192,44735,1,0,0:0:0:0:
192,192,44860,1,0,0:0:0:0:
320,192,44860,1,0,0:0:0:0:
448,192,44985,1,0,0:0:0:0:
64,192,44985,1,0,0:0:0:0:
192,192,44985,1,0,0:0:0:0:
320,192,45110,1,0,0:0:0:0:
64,192,45110,1,0,0:0:0:0:
448,192,45235,1,0,0:0:0:0:
320,192,45276,1,0,0:0:0:0:
192,192,45318,1,0,0:0:0:0:
64,192,45360,1,0,0:0:0:0:
64,192,45485,1,0,0:0:0:0:
320,192,45485,1,0,0:0:0:0:
448,192,45485,1,0,0:0:0:0:
192,192,45610,1,0,0:0:0:0:
320,192,45610,1,0,0:0:0:0:
192,192,45735,1,0,0:0:0:0:
64,192,45735,1,0,0:0:0:0:
448,192,45735,1,0,0:0:0:0:
320,192,45860,1,0,0:0:0:0:
64,192,45860,1,0,0:0:0:0:
192,192,45985,1,0,0:0:0:0:
320,192,45985,1,0,0:0:0:0:
448,192,45985,1,0,0:0:0:0:
192,192,46110,1,0,0:0:0:0:
448,192,46110,1,0,0:0:0:0:
64,192,46235,1,0,0:0:0:0:
192,192,46276,1,0,0:0:0:0:
320,192,46318,1,0,0:0:0:0:
448,192,46360,1,0,0:0:0:0:
64,192,46401,1,0,0:0:0:0:
192,192,46443,1,0,0:0:0:0:
320,192,46485,1,0,0:0:0:0:
448,192,46485,1,0,0:0:0:0:
192,192,46610,1,0,0:0:0:0:
64,192,46610,1,0,0:0:0:0:
192,192,46735,1,0,0:0:0:0:
448,192,46735,1,0,0:0:0:0:
320,192,46860,128,0,46985:0:0:0:0:
64,192,46860,128,0,46985:0:0:0:0:
192,192,46985,1,0,0:0:0:0:
448,192,46985,1,0,0:0:0:0:
192,192,47235,128,0,47360:0:0:0:0:
320,192,47235,128,0,47360:0:0:0:0:
64,192,47360,5,0,0:0:0:0:
448,192,47360,1,0,0:0:0:0:
320,192,47485,128,0,47735:0:0:0:0:
64,192,47485,128,0,47735:0:0:0:0:
448,192,47735,1,0,0:0:0:0:
192,192,47735,1,0,0:0:0:0:
448,192,47860,128,0,47985:0:0:0:0:
192,192,47860,128,0,47985:0:0:0:0:
320,192,47985,1,0,0:0:0:0:
64,192,47985,1,0,0:0:0:0:
192,192,48235,128,0,48485:0:0:0:0:
448,192,48235,128,0,48485:0:0:0:0:
64,192,48485,128,0,52485:0:0:0:0:
320,192,48485,128,0,52485:0:0:0:0:
192,192,52485,128,0,54485:0:0:0:0:
448,192,52485,128,0,54485:0:0:0:0:
320,192,54485,128,0,56485:0:0:0:0:
448,192,56485,128,0,60485:0:0:0:0:
64,192,56485,128,0,60485:0:0:0:0:
192,192,60485,128,0,62485:0:0:0:0:
320,192,60485,128,0,62485:0:0:0:0:
448,192,62485,128,0,64485:0:0:0:0:
320,192,64485,5,0,0:0:0:0:
192,192,64485,1,0,0:0:0:0:
64,192,64610,1,0,0:0:0:0:
192,192,64735,1,0,0:0:0:0:
320,192,64860,1,0,0:0:0:0:
192,192,65110,1,0,0:0:0:0:
320,192,65235,1,0,0:0:0:0:
448,192,65360,1,0,0:0:0:0:
64,192,65610,1,0,0:0:0:0:
320,192,65735,1,0,0:0:0:0:
192,192,65860,1,0,0:0:0:0:
448,192,65985,1,0,0:0:0:0:
64,192,66047,1,0,0:0:0:0:
320,192,66110,1,0,0:0:0:0:
192,192,66235,1,0,0:0:0:0:
448,192,66360,1,0,0:0:0:0:
192,192,66485,1,0,0:0:0:0:
64,192,66610,1,0,0:0:0:0:
192,192,66735,1,0,0:0:0:0:
320,192,66860,1,0,0:0:0:0:
64,192,67110,1,0,0:0:0:0:
192,192,67235,1,0,0:0:0:0:
448,192,67360,1,0,0:0:0:0:
192,192,67610,1,0,0:0:0:0:
320,192,67735,1,0,0:0:0:0:
192,192,67860,1,0,0:0:0:0:
64,192,67985,1,0,0:0:0:0:
448,192,68047,1,0,0:0:0:0:
192,192,68110,1,0,0:0:0:0:
320,192,68235,1,0,0:0:0:0:
448,192,68360,1,0,0:0:0:0:
192,192,68485,1,0,0:0:0:0:
64,192,68610,1,0,0:0:0:0:
320,192,68735,1,0,0:0:0:0:
448,192,68860,1,0,0:0:0:0:
192,192,69110,1,0,0:0:0:0:
320,192,69235,1,0,0:0:0:0:
448,192,69360,1,0,0:0:0:0:
64,192,69610,1,0,0:0:0:0:
320,192,69735,1,0,0:0:0:0:
192,192,69860,1,0,0:0:0:0:
448,192,69985,1,0,0:0:0:0:
64,192,70047,1,0,0:0:0:0:
320,192,70110,1,0,0:0:0:0:
192,192,70235,1,0,0:0:0:0:
64,192,70360,1,0,0:0:0:0:
448,192,70485,1,0,0:0:0:0:
64,192,70610,1,0,0:0:0:0:
192,192,70735,1,0,0:0:0:0:
320,192,70860,1,0,0:0:0:0:
192,192,71110,1,0,0:0:0:0:
320,192,71235,1,0,0:0:0:0:
448,192,71360,1,0,0:0:0:0:
64,192,71610,1,0,0:0:0:0:
320,192,71735,1,0,0:0:0:0:
192,192,71860,1,0,0:0:0:0:
320,192,71985,1,0,0:0:0:0:
64,192,72047,1,0,0:0:0:0:
448,192,72110,1,0,0:0:0:0:
192,192,72172,1,0,0:0:0:0:
320,192,72235,1,0,0:0:0:0:
192,192,72360,1,0,0:0:0:0:
448,192,72485,1,0,0:0:0:0:
192,192,72485,1,0,0:0:0:0:
64,192,72485,1,0,0:0:0:0:
64,192,72610,1,0,0:0:0:0:
192,192,72735,1,0,0:0:0:0:
320,192,72860,1,0,0:0:0:0:
192,192,73110,1,0,0:0:0:0:
320,192,73235,1,0,0:0:0:0:
448,192,73360,1,0,0:0:0:0:
320,192,73485,1,0,0:0:0:0:
64,192,73610,1,0,0:0:0:0:
448,192,73735,1,0,0:0:0:0:
192,192,73860,1,0,0:0:0:0:
448,192,73985,1,0,0:0:0:0:
64,192,74047,1,0,0:0:0:0:
320,192,74110,1,0,0:0:0:0:
192,192,74235,1,0,0:0:0:0:
448,192,74360,1,0,0:0:0:0:
192,192,74485,1,0,0:0:0:0:
64,192,74610,1,0,0:0:0:0:
192,192,74735,1,0,0:0:0:0:
320,192,74860,1,0,0:0:0:0:
64,192,75110,1,0,0:0:0:0:
192,192,75235,1,0,0:0:0:0:
320,192,75360,1,0,0:0:0:0:
192,192,75610,1,0,0:0:0:0:
320,192,75735,1,0,0:0:0:0:
64,192,75860,1,0,0:0:0:0:
448,192,75985,1,0,0:0:0:0:
192,192,76047,1,0,0:0:0:0:
320,192,76110,1,0,0:0:0:0:
192,192,76235,1,0,0:0:0:0:
448,192,76235,1,0,0:0:0:0:
320,192,76235,1,0,0:0:0:0:
192,192,76360,1,0,0:0:0:0:
320,192,76485,1,0,0:0:0:0:
64,192,76485,1,0,0:0:0:0:
192,192,76485,1,0,0:0:0:0:
64,192,76610,1,0,0:0:0:0:
192,192,76735,1,0,0:0:0:0:
320,192,76860,1,0,0:0:0:0:
448,192,77110,1,0,0:0:0:0:
320,192,77235,1,0,0:0:0:0:
192,192,77360,1,0,0:0:0:0:
64,192,77610,1,0,0:0:0:0:
320,192,77735,1,0,0:0:0:0:
192,192,77860,1,0,0:0:0:0:
448,192,77985,1,0,0:0:0:0:
64,192,78047,1,0,0:0:0:0:
320,192,78110,1,0,0:0:0:0:
192,192,78235,1,0,0:0:0:0:
320,192,78360,1,0,0:0:0:0:
64,192,78485,1,0,0:0:0:0:
448,192,78610,1,0,0:0:0:0:
192,192,78735,1,0,0:0:0:0:
320,192,78860,1,0,0:0:0:0:
64,192,79110,1,0,0:0:0:0:
192,192,79235,1,0,0:0:0:0:
320,192,79360,1,0,0:0:0:0:
192,192,79485,128,0,79672:0:0:0:0:
448,192,79485,128,0,79672:0:0:0:0:
320,192,79735,128,0,79922:0:0:0:0:
192,192,79735,128,0,79922:0:0:0:0:
64,192,79985,128,0,80172:0:0:0:0:
320,192,79985,128,0,80172:0:0:0:0:
192,192,80235,128,0,80422:0:0:0:0:
64,192,80235,128,0,80422:0:0:0:0:
448,192,80485,1,0,0:0:0:0:
320,192,80485,1,0,0:0:0:0:
64,192,80485,1,0,0:0:0:0:
448,192,80985,128,0,81172:0:0:0:0:
192,192,80985,128,0,81172:0:0:0:0:
320,192,81235,128,0,81422:0:0:0:0:
192,192,81235,128,0,81422:0:0:0:0:
64,192,81235,1,0,0:0:0:0:
192,192,81485,128,0,81672:0:0:0:0:
320,192,81485,128,0,81672:0:0:0:0:
448,192,81485,1,0,0:0:0:0:
192,192,81985,128,0,82172:0:0:0:0:
448,192,81985,128,0,82172:0:0:0:0:
320,192,82235,128,0,82422:0:0:0:0:
192,192,82235,128,0,82422:0:0:0:0:
64,192,82235,1,0,0:0:0:0:
192,192,82485,128,0,82672:0:0:0:0:
320,192,82485,128,0,82672:0:0:0:0:
448,192,82485,1,0,0:0:0:0:
448,192,82985,128,0,83172:0:0:0:0:
192,192,82985,128,0,83172:0:0:0:0:
320,192,83235,128,0,83422:0:0:0:0:
192,192,83235,128,0,83422:0:0:0:0:
64,192,83235,1,0,0:0:0:0:
192,192,83485,128,0,83672:0:0:0:0:
320,192,83485,128,0,83672:0:0:0:0:
448,192,83485,1,0,0:0:0:0:
192,192,83985,128,0,84172:0:0:0:0:
448,192,83985,128,0,84172:0:0:0:0:
64,192,84235,1,0,0:0:0:0:
192,192,84235,128,0,84422:0:0:0:0:
320,192,84235,128,0,84422:0:0:0:0:
448,192,84485,1,0,0:0:0:0:
320,192,84485,128,0,84672:0:0:0:0:
192,192,84485,128,0,84672:0:0:0:0:
64,192,84860,1,0,0:0:0:0:
448,192,84860,1,0,0:0:0:0:
320,192,84985,1,0,0:0:0:0:
192,192,84985,1,0,0:0:0:0:
192,192,85110,1,0,0:0:0:0:
320,192,85235,1,0,0:0:0:0:
448,192,85360,1,0,0:0:0:0:
64,192,85360,1,0,0:0:0:0:
192,192,85485,1,0,0:0:0:0:
320,192,85485,1,0,0:0:0:0:
320,192,85610,1,0,0:0:0:0:
192,192,85735,1,0,0:0:0:0:
64,192,85860,1,0,0:0:0:0:
448,192,85860,1,0,0:0:0:0:
320,192,85985,1,0,0:0:0:0:
192,192,85985,1,0,0:0:0:0:
192,192,86110,1,0,0:0:0:0:
448,192,86235,1,0,0:0:0:0:
64,192,86235,1,0,0:0:0:0:
192,192,86360,1,0,0:0:0:0:
320,192,86360,1,0,0:0:0:0:
64,192,86485,1,0,0:0:0:0:
448,192,86485,1,0,0:0:0:0:
192,192,86547,1,0,0:0:0:0:
320,192,86610,1,0,0:0:0:0:
192,192,86672,1,0,0:0:0:0:
448,192,86735,1,0,0:0:0:0:
64,192,86735,1,0,0:0:0:0:
320,192,86797,1,0,0:0:0:0:
192,192,86860,1,0,0:0:0:0:
320,192,86922,1,0,0:0:0:0:
448,192,86985,1,0,0:0:0:0:
64,192,86985,1,0,0:0:0:0:
192,192,87047,1,0,0:0:0:0:
320,192,87110,1,0,0:0:0:0:
192,192,87172,1,0,0:0:0:0:
64,192,87235,1,0,0:0:0:0:
448,192,87235,1,0,0:0:0:0:
320,192,87297,1,0,0:0:0:0:
192,192,87360,1,0,0:0:0:0:
320,192,87422,1,0,0:0:0:0:
448,192,87485,1,0,0:0:0:0:
64,192,87485,1,0,0:0:0:0:
192,192,87547,1,0,0:0:0:0:
320,192,87610,1,0,0:0:0:0:
192,192,87672,1,0,0:0:0:0:
320,192,87735,1,0,0:0:0:0:
192,192,87797,1,0,0:0:0:0:
320,192,87860,1,0,0:0:0:0:
192,192,87922,1,0,0:0:0:0:
448,192,87985,1,0,0:0:0:0:
320,192,87985,1,0,0:0:0:0:
192,192,88047,1,0,0:0:0:0:
64,192,88047,1,0,0:0:0:0:
320,192,88110,1,0,0:0:0:0:
448,192,88110,1,0,0:0:0:0:
192,192,88172,1,0,0:0:0:0:
64,192,88172,1,0,0:0:0:0:
320,192,88235,1,0,0:0:0:0:
448,192,88235,1,0,0:0:0:0:
192,192,88297,1,0,0:0:0:0:
64,192,88297,1,0,0:0:0:0:
320,192,88360,1,0,0:0:0:0:
448,192,88360,1,0,0:0:0:0:
192,192,88422,1,0,0:0:0:0:
64,192,88422,1,0,0:0:0:0:
320,192,88485,1,0,0:0:0:0:
448,192,88485,1,0,0:0:0:0:
64,192,88485,1,0,0:0:0:0:
192,192,88610,1,0,0:0:0:0:
448,192,88610,1,0,0:0:0:0:
320,192,88735,1,0,0:0:0:0:
192,192,88735,1,0,0:0:0:0:
64,192,88735,1,0,0:0:0:0:
64,192,88860,1,0,0:0:0:0:
320,192,88860,1,0,0:0:0:0:
192,192,88985,1,0,0:0:0:0:
320,192,88985,1,0,0:0:0:0:
448,192,88985,1,0,0:0:0:0:
320,192,89110,1,0,0:0:0:0:
192,192,89110,1,0,0:0:0:0:
192,192,89235,1,0,0:0:0:0:
64,192,89235,1,0,0:0:0:0:
448,192,89235,1,0,0:0:0:0:
320,192,89360,1,0,0:0:0:0:
192,192,89360,1,0,0:0:0:0:
448,192,89485,1,0,0:0:0:0:
320,192,89485,1,0,0:0:0:0:
64,192,89485,1,0,0:0:0:0:
192,192,89610,1,0,0:0:0:0:
448,192,89610,1,0,0:0:0:0:
320,192,89735,1,0,0:0:0:0:
192,192,89735,1,0,0:0:0:0:
64,192,89735,1,0,0:0:0:0:
64,192,89860,1,0,0:0:0:0:
320,192,89860,1,0,0:0:0:0:
192,192,89985,1,0,0:0:0:0:
448,192,89985,1,0,0:0:0:0:
320,192,89985,1,0,0:0:0:0:
64,192,90110,1,0,0:0:0:0:
448,192,90110,1,0,0:0:0:0:
320,192,90172,1,0,0:0:0:0:
192,192,90172,1,0,0:0:0:0:
448,192,90235,1,0,0:0:0:0:
64,192,90235,1,0,0:0:0:0:
320,192,90360,1,0,0:0:0:0:
192,192,90360,1,0,0:0:0:0:
448,192,90485,1,0,0:0:0:0:
320,192,90485,1,0,0:0:0:0:
64,192,90485,1,0,0:0:0:0:
192,192,90610,1,0,0:0:0:0:
64,192,90610,1,0,0:0:0:0:
64,192,90735,1,0,0:0:0:0:
192,192,90735,1,0,0:0:0:0:
448,192,90735,1,0,0:0:0:0:
448,192,90860,1,0,0:0:0:0:
320,192,90860,1,0,0:0:0:0:
448,192,90985,1,0,0:0:0:0:
320,192,90985,1,0,0:0:0:0:
64,192,90985,1,0,0:0:0:0:
192,192,91110,1,0,0:0:0:0:
64,192,91110,1,0,0:0:0:0:
64,192,91235,1,0,0:0:0:0:
192,192,91235,1,0,0:0:0:0:
320,192,91235,1,0,0:0:0:0:
448,192,91360,1,0,0:0:0:0:
320,192,91360,1,0,0:0:0:0:
448,192,91485,1,0,0:0:0:0:
320,192,91485,1,0,0:0:0:0:
192,192,91485,1,0,0:0:0:0:
192,192,91610,1,0,0:0:0:0:
64,192,91610,1,0,0:0:0:0:
64,192,91735,1,0,0:0:0:0:
192,192,91735,1,0,0:0:0:0:
448,192,91735,1,0,0:0:0:0:
448,192,91860,1,0,0:0:0:0:
320,192,91860,1,0,0:0:0:0:
448,192,91985,1,0,0:0:0:0:
320,192,91985,1,0,0:0:0:0:
64,192,91985,1,0,0:0:0:0:
64,192,92110,1,0,0:0:0:0:
192,192,92110,1,0,0:0:0:0:
320,192,92172,1,0,0:0:0:0:
448,192,92172,1,0,0:0:0:0:
192,192,92235,1,0,0:0:0:0:
64,192,92235,1,0,0:0:0:0:
448,192,92360,1,0,0:0:0:0:
320,192,92360,1,0,0:0:0:0:
448,192,92485,1,0,0:0:0:0:
320,192,92485,1,0,0:0:0:0:
192,192,92485,1,0,0:0:0:0:
192,192,92610,1,0,0:0:0:0:
448,192,92610,1,0,0:0:0:0:
320,192,92735,1,0,0:0:0:0:
192,192,92735,1,0,0:0:0:0:
64,192,92735,1,0,0:0:0:0:
64,192,92860,1,0,0:0:0:0:
320,192,92860,1,0,0:0:0:0:
192,192,92985,1,0,0:0:0:0:
320,192,92985,1,0,0:0:0:0:
448,192,92985,1,0,0:0:0:0:
320,192,93110,1,0,0:0:0:0:
64,192,93110,1,0,0:0:0:0:
192,192,93235,1,0,0:0:0:0:
64,192,93235,1,0,0:0:0:0:
448,192,93235,1,0,0:0:0:0:
320,192,93360,1,0,0:0:0:0:
192,192,93360,1,0,0:0:0:0:
448,192,93485,1,0,0:0:0:0:
320,192,93485,1,0,0:0:0:0:
64,192,93485,1,0,0:0:0:0:
192,192,93610,1,0,0:0:0:0:
448,192,93610,1,0,0:0:0:0:
320,192,93735,1,0,0:0:0:0:
192,192,93735,1,0,0:0:0:0:
64,192,93735,1,0,0:0:0:0:
320,192,93860,1,0,0:0:0:0:
64,192,93860,1,0,0:0:0:0:
192,192,93985,1,0,0:0:0:0:
320,192,93985,1,0,0:0:0:0:
448,192,93985,1,0,0:0:0:0:
64,192,94110,1,0,0:0:0:0:
448,192,94110,1,0,0:0:0:0:
320,192,94172,1,0,0:0:0:0:
192,192,94172,1,0,0:0:0:0:
64,192,94235,1,0,0:0:0:0:
448,192,94235,1,0,0:0:0:0:
320,192,94360,1,0,0:0:0:0:
192,192,94360,1,0,0:0:0:0:
448,192,94485,1,0,0:0:0:0:
320,192,94485,1,0,0:0:0:0:
64,192,94485,1,0,0:0:0:0:
192,192,94610,1,0,0:0:0:0:
64,192,94610,1,0,0:0:0:0:
64,192,94735,1,0,0:0:0:0:
192,192,94735,1,0,0:0:0:0:
448,192,94735,1,0,0:0:0:0:
448,192,94860,1,0,0:0:0:0:
320,192,94860,1,0,0:0:0:0:
448,192,94985,1,0,0:0:0:0:
320,192,94985,1,0,0:0:0:0:
64,192,94985,1,0,0:0:0:0:
192,192,95110,1,0,0:0:0:0:
64,192,95110,1,0,0:0:0:0:
64,192,95235,1,0,0:0:0:0:
192,192,95235,1,0,0:0:0:0:
320,192,95235,1,0,0:0:0:0:
448,192,95360,1,0,0:0:0:0:
320,192,95360,1,0,0:0:0:0:
448,192,95485,1,0,0:0:0:0:
320,192,95485,1,0,0:0:0:0:
192,192,95485,1,0,0:0:0:0:
192,192,95610,1,0,0:0:0:0:
64,192,95610,1,0,0:0:0:0:
64,192,95735,1,0,0:0:0:0:
192,192,95735,1,0,0:0:0:0:
448,192,95735,1,0,0:0:0:0:
448,192,95860,1,0,0:0:0:0:
320,192,95860,1,0,0:0:0:0:
192,192,95922,1,0,0:0:0:0:
64,192,95922,1,0,0:0:0:0:
448,192,95985,1,0,0:0:0:0:
320,192,95985,1,0,0:0:0:0:
64,192,96110,1,0,0:0:0:0:
192,192,96172,1,0,0:0:0:0:
64,192,96235,1,0,0:0:0:0:
448,192,96235,1,0,0:0:0:0:
320,192,96235,1,0,0:0:0:0:
448,192,96360,1,0,0:0:0:0:
320,192,96422,1,0,0:0:0:0:
448,192,96485,1,0,0:0:0:0:
64,192,96485,1,0,0:0:0:0:
192,192,96485,1,0,0:0:0:0:
320,192,96610,1,0,0:0:0:0:
64,192,96610,1,0,0:0:0:0:
192,192,96735,1,0,0:0:0:0:
320,192,96735,1,0,0:0:0:0:
448,192,96735,1,0,0:0:0:0:
448,192,96860,1,0,0:0:0:0:
192,192,96860,1,0,0:0:0:0:
320,192,96985,1,0,0:0:0:0:
192,192,96985,1,0,0:0:0:0:
64,192,96985,1,0,0:0:0:0:
320,192,97110,1,0,0:0:0:0:
192,192,97110,1,0,0:0:0:0:
64,192,97235,1,0,0:0:0:0:
192,192,97235,1,0,0:0:0:0:
448,192,97235,1,0,0:0:0:0:
320,192,97360,1,0,0:0:0:0:
192,192,97360,1,0,0:0:0:0:
448,192,97485,1,0,0:0:0:0:
320,192,97485,1,0,0:0:0:0:
64,192,97485,1,0,0:0:0:0:
192,192,97610,1,0,0:0:0:0:
448,192,97610,1,0,0:0:0:0:
320,192,97735,1,0,0:0:0:0:
192,192,97735,1,0,0:0:0:0:
64,192,97735,1,0,0:0:0:0:
64,192,97860,1,0,0:0:0:0:
320,192,97860,1,0,0:0:0:0:
448,192,97985,1,0,0:0:0:0:
320,192,97985,1,0,0:0:0:0:
192,192,97985,1,0,0:0:0:0:
64,192,98110,1,0,0:0:0:0:
448,192,98110,1,0,0:0:0:0:
320,192,98172,1,0,0:0:0:0:
192,192,98172,1,0,0:0:0:0:
64,192,98235,1,0,0:0:0:0:
448,192,98235,1,0,0:0:0:0:
320,192,98360,1,0,0:0:0:0:
192,192,98360,1,0,0:0:0:0:
448,192,98485,1,0,0:0:0:0:
320,192,98485,1,0,0:0:0:0:
64,192,98485,1,0,0:0:0:0:
192,192,98610,1,0,0:0:0:0:
64,192,98610,1,0,0:0:0:0:
64,192,98735,1,0,0:0:0:0:
192,192,98735,1,0,0:0:0:0:
448,192,98735,1,0,0:0:0:0:
448,192,98860,1,0,0:0:0:0:
320,192,98860,1,0,0:0:0:0:
448,192,98985,1,0,0:0:0:0:
320,192,98985,1,0,0:0:0:0:
64,192,98985,1,0,0:0:0:0:
192,192,99110,1,0,0:0:0:0:
64,192,99110,1,0,0:0:0:0:
64,192,99235,1,0,0:0:0:0:
320,192,99235,1,0,0:0:0:0:
192,192,99235,1,0,0:0:0:0:
448,192,99360,1,0,0:0:0:0:
320,192,99360,1,0,0:0:0:0:
448,192,99485,1,0,0:0:0:0:
320,192,99485,1,0,0:0:0:0:
192,192,99485,1,0,0:0:0:0:
64,192,99610,1,0,0:0:0:0:
192,192,99610,1,0,0:0:0:0:
64,192,99735,1,0,0:0:0:0:
192,192,99735,1,0,0:0:0:0:
448,192,99735,1,0,0:0:0:0:
448,192,99860,1,0,0:0:0:0:
320,192,99860,1,0,0:0:0:0:
64,192,99985,1,0,0:0:0:0:
192,192,99985,1,0,0:0:0:0:
320,192,100047,1,0,0:0:0:0:
448,192,100047,1,0,0:0:0:0:
192,192,100110,1,0,0:0:0:0:
64,192,100110,1,0,0:0:0:0:
448,192,100235,1,0,0:0:0:0:
320,192,100235,1,0,0:0:0:0:
64,192,100235,1,0,0:0:0:0:
192,192,100360,1,0,0:0:0:0:
64,192,100360,1,0,0:0:0:0:
192,192,100485,1,0,0:0:0:0:
64,192,100485,1,0,0:0:0:0:
320,192,100485,1,0,0:0:0:0:
64,192,100610,1,0,0:0:0:0:
320,192,100610,1,0,0:0:0:0:
192,192,100735,1,0,0:0:0:0:
320,192,100735,1,0,0:0:0:0:
448,192,100735,1,0,0:0:0:0:
320,192,100860,1,0,0:0:0:0:
192,192,100860,1,0,0:0:0:0:
192,192,100985,1,0,0:0:0:0:
64,192,100985,1,0,0:0:0:0:
448,192,100985,1,0,0:0:0:0:
320,192,101110,1,0,0:0:0:0:
192,192,101110,1,0,0:0:0:0:
448,192,101235,1,0,0:0:0:0:
320,192,101235,1,0,0:0:0:0:
64,192,101235,1,0,0:0:0:0:
192,192,101360,1,0,0:0:0:0:
448,192,101360,1,0,0:0:0:0:
320,192,101485,1,0,0:0:0:0:
64,192,101485,1,0,0:0:0:0:
192,192,101485,1,0,0:0:0:0:
64,192,101610,1,0,0:0:0:0:
320,192,101610,1,0,0:0:0:0:
448,192,101735,1,0,0:0:0:0:
320,192,101735,1,0,0:0:0:0:
192,192,101735,1,0,0:0:0:0:
320,192,101860,1,0,0:0:0:0:
192,192,101860,1,0,0:0:0:0:
448,192,101985,1,0,0:0:0:0:
64,192,101985,1,0,0:0:0:0:
192,192,102047,1,0,0:0:0:0:
320,192,102047,1,0,0:0:0:0:
448,192,102110,1,0,0:0:0:0:
64,192,102110,1,0,0:0:0:0:
320,192,102235,1,0,0:0:0:0:
192,192,102235,1,0,0:0:0:0:
448,192,102235,1,0,0:0:0:0:
64,192,102360,1,0,0:0:0:0:
448,192,102360,1,0,0:0:0:0:
64,192,102485,1,0,0:0:0:0:
192,192,102485,1,0,0:0:0:0:
320,192,102485,1,0,0:0:0:0:
320,192,102610,1,0,0:0:0:0:
448,192,102610,1,0,0:0:0:0:
192,192,102735,1,0,0:0:0:0:
64,192,102735,1,0,0:0:0:0:
448,192,102797,1,0,0:0:0:0:
320,192,102860,1,0,0:0:0:0:
192,192,102860,1,0,0:0:0:0:
64,192,102922,1,0,0:0:0:0:
192,192,102985,1,0,0:0:0:0:
448,192,102985,1,0,0:0:0:0:
320,192,103110,1,0,0:0:0:0:
64,192,103110,1,0,0:0:0:0:
192,192,103235,1,0,0:0:0:0:
320,192,103235,1,0,0:0:0:0:
64,192,103360,1,0,0:0:0:0:
448,192,103360,1,0,0:0:0:0:
320,192,103485,1,0,0:0:0:0:
64,192,103547,1,0,0:0:0:0:
192,192,103610,1,0,0:0:0:0:
64,192,103735,1,0,0:0:0:0:
448,192,103735,1,0,0:0:0:0:
320,192,103735,1,0,0:0:0:0:
192,192,103860,1,0,0:0:0:0:
448,192,103985,1,0,0:0:0:0:
64,192,103985,1,0,0:0:0:0:
320,192,103985,1,0,0:0:0:0:
192,192,104047,1,0,0:0:0:0:
448,192,104110,1,0,0:0:0:0:
320,192,104172,1,0,0:0:0:0:
192,192,104235,1,0,0:0:0:0:
64,192,104235,1,0,0:0:0:0:
320,192,104360,1,0,0:0:0:0:
64,192,104360,1,0,0:0:0:0:
192,192,104485,1,0,0:0:0:0:
448,192,104485,1,0,0:0:0:0:
64,192,104485,1,0,0:0:0:0:
320,192,104610,1,0,0:0:0:0:
192,192,104610,1,0,0:0:0:0:
64,192,104735,1,0,0:0:0:0:
192,192,104735,1,0,0:0:0:0:
448,192,104735,1,0,0:0:0:0:
448,192,104860,1,0,0:0:0:0:
320,192,104860,1,0,0:0:0:0:
448,192,104985,1,0,0:0:0:0:
320,192,104985,1,0,0:0:0:0:
192,192,104985,1,0,0:0:0:0:
192,192,105110,1,0,0:0:0:0:
64,192,105110,1,0,0:0:0:0:
64,192,105235,1,0,0:0:0:0:
192,192,105235,1,0,0:0:0:0:
320,192,105235,1,0,0:0:0:0:
448,192,105360,1,0,0:0:0:0:
320,192,105360,1,0,0:0:0:0:
448,192,105485,1,0,0:0:0:0:
320,192,105485,1,0,0:0:0:0:
64,192,105485,1,0,0:0:0:0:
64,192,105610,1,0,0:0:0:0:
192,192,105610,1,0,0:0:0:0:
64,192,105735,1,0,0:0:0:0:
192,192,105735,1,0,0:0:0:0:
448,192,105735,1,0,0:0:0:0:
320,192,105860,1,0,0:0:0:0:
448,192,105860,1,0,0:0:0:0:
192,192,105985,1,0,0:0:0:0:
64,192,105985,1,0,0:0:0:0:
320,192,106047,1,0,0:0:0:0:
448,192,106047,1,0,0:0:0:0:
64,192,106110,1,0,0:0:0:0:
192,192,106110,1,0,0:0:0:0:
192,192,106235,1,0,0:0:0:0:
320,192,106235,1,0,0:0:0:0:
448,192,106235,1,0,0:0:0:0:
192,192,106360,1,0,0:0:0:0:
64,192,106360,1,0,0:0:0:0:
64,192,106485,1,0,0:0:0:0:
448,192,106485,1,0,0:0:0:0:
320,192,106485,1,0,0:0:0:0:
320,192,106610,1,0,0:0:0:0:
192,192,106610,1,0,0:0:0:0:
448,192,106735,1,0,0:0:0:0:
64,192,106735,1,0,0:0:0:0:
192,192,106735,1,0,0:0:0:0:
64,192,106860,1,0,0:0:0:0:
320,192,106860,1,0,0:0:0:0:
192,192,106985,1,0,0:0:0:0:
64,192,106985,1,0,0:0:0:0:
448,192,106985,1,0,0:0:0:0:
320,192,107110,1,0,0:0:0:0:
192,192,107110,1,0,0:0:0:0:
320,192,107235,1,0,0:0:0:0:
448,192,107235,1,0,0:0:0:0:
64,192,107235,1,0,0:0:0:0:
320,192,107360,1,0,0:0:0:0:
192,192,107360,1,0,0:0:0:0:
192,192,107485,1,0,0:0:0:0:
448,192,107485,1,0,0:0:0:0:
64,192,107485,1,0,0:0:0:0:
320,192,107610,1,0,0:0:0:0:
64,192,107610,1,0,0:0:0:0:
320,192,107735,1,0,0:0:0:0:
448,192,107735,1,0,0:0:0:0:
192,192,107735,1,0,0:0:0:0:
320,192,107860,1,0,0:0:0:0:
64,192,107860,1,0,0:0:0:0:
64,192,107985,1,0,0:0:0:0:
192,192,107985,1,0,0:0:0:0:
448,192,108047,1,0,0:0:0:0:
320,192,108047,1,0,0:0:0:0:
64,192,108110,1,0,0:0:0:0:
192,192,108110,1,0,0:0:0:0:
448,192,108235,1,0,0:0:0:0:
64,192,108235,1,0,0:0:0:0:
320,192,108235,1,0,0:0:0:0:
320,192,108360,1,0,0:0:0:0:
192,192,108360,1,0,0:0:0:0:
448,192,108360,1,0,0:0:0:0:
64,192,108485,1,0,0:0:0:0:
192,192,108485,1,0,0:0:0:0:
448,192,108485,1,0,0:0:0:0:
320,192,108610,1,0,0:0:0:0:
448,192,108610,1,0,0:0:0:0:
448,192,108735,1,0,0:0:0:0:
320,192,108735,1,0,0:0:0:0:
64,192,108735,1,0,0:0:0:0:
64,192,108860,1,0,0:0:0:0:
192,192,108860,1,0,0:0:0:0:
192,192,108985,1,0,0:0:0:0:
64,192,108985,1,0,0:0:0:0:
448,192,108985,1,0,0:0:0:0:
448,192,109110,1,0,0:0:0:0:
320,192,109110,1,0,0:0:0:0:
448,192,109235,1,0,0:0:0:0:
320,192,109235,1,0,0:0:0:0:
192,192,109235,1,0,0:0:0:0:
64,192,109360,1,0,0:0:0:0:
192,192,109360,1,0,0:0:0:0:
64,192,109485,1,0,0:0:0:0:
192,192,109485,1,0,0:0:0:0:
320,192,109485,1,0,0:0:0:0:
448,192,109610,1,0,0:0:0:0:
320,192,109610,1,0,0:0:0:0:
448,192,109735,1,0,0:0:0:0:
320,192,109735,1,0,0:0:0:0:
64,192,109735,1,0,0:0:0:0:
64,192,109860,1,0,0:0:0:0:
192,192,109860,1,0,0:0:0:0:
448,192,109985,1,0,0:0:0:0:
320,192,109985,1,0,0:0:0:0:
192,192,110047,1,0,0:0:0:0:
64,192,110047,1,0,0:0:0:0:
448,192,110110,1,0,0:0:0:0:
320,192,110110,1,0,0:0:0:0:
320,192,110235,1,0,0:0:0:0:
192,192,110235,1,0,0:0:0:0:
64,192,110235,1,0,0:0:0:0:
320,192,110360,1,0,0:0:0:0:
448,192,110360,1,0,0:0:0:0:
192,192,110485,1,0,0:0:0:0:
320,192,110485,1,0,0:0:0:0:
448,192,110485,1,0,0:0:0:0:
64,192,110610,1,0,0:0:0:0:
320,192,110610,1,0,0:0:0:0:
64,192,110735,1,0,0:0:0:0:
192,192,110735,1,0,0:0:0:0:
448,192,110735,1,0,0:0:0:0:
448,192,110860,1,0,0:0:0:0:
192,192,110860,1,0,0:0:0:0:
448,192,110985,1,0,0:0:0:0:
320,192,110985,1,0,0:0:0:0:
64,192,110985,1,0,0:0:0:0:
192,192,111110,1,0,0:0:0:0:
64,192,111110,1,0,0:0:0:0:
64,192,111235,1,0,0:0:0:0:
192,192,111235,1,0,0:0:0:0:
320,192,111235,1,0,0:0:0:0:
448,192,111360,1,0,0:0:0:0:
320,192,111360,1,0,0:0:0:0:
448,192,111485,128,0,111985:0:0:0:0:
64,192,111485,1,0,0:0:0:0:
192,192,111485,1,0,0:0:0:0:
192,192,111610,1,0,0:0:0:0:
64,192,111735,1,0,0:0:0:0:
192,192,111735,1,0,0:0:0:0:
64,192,111860,1,0,0:0:0:0:
320,192,111985,128,0,112485:0:0:0:0:
192,192,111985,1,0,0:0:0:0:
64,192,111985,1,0,0:0:0:0:
192,192,112110,1,0,0:0:0:0:
192,192,112235,1,0,0:0:0:0:
64,192,112235,1,0,0:0:0:0:
64,192,112360,1,0,0:0:0:0:
64,192,112485,1,0,0:0:0:0:
192,192,112485,1,0,0:0:0:0:
448,192,112485,1,0,0:0:0:0:
448,192,112735,128,0,112860:0:0:0:0:
64,192,112735,128,0,112860:0:0:0:0:
320,192,112860,1,0,0:0:0:0:
192,192,112860,1,0,0:0:0:0:
320,192,112985,1,0,0:0:0:0:
192,192,112985,1,0,0:0:0:0:
448,192,112985,1,0,0:0:0:0:
320,192,113110,1,0,0:0:0:0:
64,192,113235,1,0,0:0:0:0:
448,192,113235,1,0,0:0:0:0:
192,192,113235,1,0,0:0:0:0:
320,192,113360,1,0,0:0:0:0:
192,192,113360,1,0,0:0:0:0:
448,192,113360,1,0,0:0:0:0:
192,192,113485,1,0,0:0:0:0:
320,192,113485,1,0,0:0:0:0:
64,192,113485,1,0,0:0:0:0:
320,192,113610,1,0,0:0:0:0:
192,192,113735,1,0,0:0:0:0:
448,192,113860,1,0,0:0:0:0:
64,192,113860,1,0,0:0:0:0:
320,192,113860,1,0,0:0:0:0:
192,192,113985,1,0,0:0:0:0:
320,192,113985,1,0,0:0:0:0:
64,192,113985,1,0,0:0:0:0:
448,192,114110,1,0,0:0:0:0:
64,192,114110,1,0,0:0:0:0:
192,192,114110,1,0,0:0:0:0:
320,192,114235,1,0,0:0:0:0:
64,192,114360,1,0,0:0:0:0:
448,192,114360,1,0,0:0:0:0:
192,192,114360,1,0,0:0:0:0:
192,192,114485,1,0,0:0:0:0:
320,192,114485,1,0,0:0:0:0:
448,192,114485,1,0,0:0:0:0:
320,192,114610,1,0,0:0:0:0:
192,192,114735,1,0,0:0:0:0:
448,192,114860,1,0,0:0:0:0:
64,192,114860,1,0,0:0:0:0:
320,192,114860,1,0,0:0:0:0:
192,192,114985,1,0,0:0:0:0:
320,192,114985,1,0,0:0:0:0:
64,192,114985,1,0,0:0:0:0:
448,192,115110,1,0,0:0:0:0:
320,192,115235,1,0,0:0:0:0:
448,192,115360,1,0,0:0:0:0:
64,192,115360,1,0,0:0:0:0:
192,192,115360,1,0,0:0:0:0:
320,192,115485,5,0,0:0:0:0:
192,192,115485,1,0,0:0:0:0:
448,192,115485,1,0,0:0:0:0:
64,192,115610,1,0,0:0:0:0:
192,192,115735,1,0,0:0:0:0:
448,192,115860,1,0,0:0:0:0:
64,192,115860,1,0,0:0:0:0:
320,192,115860,1,0,0:0:0:0:
320,192,115985,1,0,0:0:0:0:
192,192,115985,1,0,0:0:0:0:
64,192,115985,1,0,0:0:0:0:
448,192,116110,1,0,0:0:0:0:
192,192,116235,1,0,0:0:0:0:
64,192,116360,1,0,0:0:0:0:
448,192,116360,1,0,0:0:0:0:
320,192,116360,1,0,0:0:0:0:
320,192,116485,1,0,0:0:0:0:
192,192,116485,1,0,0:0:0:0:
448,192,116485,1,0,0:0:0:0:
64,192,116610,5,0,0:0:0:0:
192,192,116651,1,0,0:0:0:0:
320,192,116693,1,0,0:0:0:0:
448,192,116735,1,0,0:0:0:0:
64,192,116735,1,0,0:0:0:0:
448,192,116860,1,0,0:0:0:0:
320,192,116901,1,0,0:0:0:0:
192,192,116943,1,0,0:0:0:0:
64,192,116985,1,0,0:0:0:0:
448,192,116985,1,0,0:0:0:0:
64,192,117110,1,0,0:0:0:0:
192,192,117151,1,0,0:0:0:0:
320,192,117193,1,0,0:0:0:0:
448,192,117235,1,0,0:0:0:0:
64,192,117235,1,0,0:0:0:0:
448,192,117360,1,0,0:0:0:0:
320,192,117401,1,0,0:0:0:0:
192,192,117443,1,0,0:0:0:0:
64,192,117485,1,0,0:0:0:0:
448,192,117485,1,0,0:0:0:0:
64,192,117610,1,0,0:0:0:0:
192,192,117651,1,0,0:0:0:0:
320,192,117693,1,0,0:0:0:0:
448,192,117735,1,0,0:0:0:0:
64,192,117735,1,0,0:0:0:0:
448,192,117860,1,0,0:0:0:0:
320,192,117901,1,0,0:0:0:0:
192,192,117943,1,0,0:0:0:0:
64,192,117985,1,0,0:0:0:0:
448,192,117985,1,0,0:0:0:0:
64,192,118110,1,0,0:0:0:0:
192,192,118151,1,0,0:0:0:0:
320,192,118193,1,0,0:0:0:0:
448,192,118235,1,0,0:0:0:0:
64,192,118235,1,0,0:0:0:0:
448,192,118360,1,0,0:0:0:0:
320,192,118401,1,0,0:0:0:0:
192,192,118443,1,0,0:0:0:0:
64,192,118485,1,0,0:0:0:0:
448,192,118485,1,0,0:0:0:0:
64,192,118610,1,0,0:0:0:0:
192,192,118651,1,0,0:0:0:0:
320,192,118693,1,0,0:0:0:0:
448,192,118735,1,0,0:0:0:0:
64,192,118776,1,0,0:0:0:0:
192,192,118818,1,0,0:0:0:0:
320,192,118860,1,0,0:0:0:0:
448,192,118901,1,0,0:0:0:0:
64,192,118943,1,0,0:0:0:0:
192,192,118985,1,0,0:0:0:0:
320,192,118985,1,0,0:0:0:0:
64,192,119110,1,0,0:0:0:0:
192,192,119151,1,0,0:0:0:0:
320,192,119193,1,0,0:0:0:0:
448,192,119235,1,0,0:0:0:0:
64,192,119276,1,0,0:0:0:0:
192,192,119318,1,0,0:0:0:0:
320,192,119360,1,0,0:0:0:0:
448,192,119401,1,0,0:0:0:0:
64,192,119443,1,0,0:0:0:0:
320,192,119485,1,0,0:0:0:0:
192,192,119485,1,0,0:0:0:0:
64,192,119610,1,0,0:0:0:0:
192,192,119651,1,0,0:0:0:0:
320,192,119693,1,0,0:0:0:0:
448,192,119735,1,0,0:0:0:0:
64,192,119776,1,0,0:0:0:0:
192,192,119818,1,0,0:0:0:0:
320,192,119860,1,0,0:0:0:0:
448,192,119901,1,0,0:0:0:0:
64,192,119943,1,0,0:0:0:0:
192,192,119985,1,0,0:0:0:0:
320,192,120026,1,0,0:0:0:0:
448,192,120068,1,0,0:0:0:0:
64,192,120110,1,0,0:0:0:0:
192,192,120151,1,0,0:0:0:0:
320,192,120193,1,0,0:0:0:0:
448,192,120235,1,0,0:0:0:0:
64,192,120276,1,0,0:0:0:0:
192,192,120318,1,0,0:0:0:0:
448,192,120360,1,0,0:0:0:0:
320,192,120401,1,0,0:0:0:0:
192,192,120443,1,0,0:0:0:0:
64,192,120485,1,0,0:0:0:0:
320,192,120485,1,0,0:0:0:0:
448,192,120485,1,0,0:0:0:0:
448,192,120610,1,0,0:0:0:0:
448,192,120735,1,0,0:0:0:0:
320,192,120735,1,0,0:0:0:0:
192,192,120735,1,0,0:0:0:0:
64,192,120860,1,0,0:0:0:0:
64,192,120985,1,0,0:0:0:0:
192,192,120985,1,0,0:0:0:0:
320,192,120985,1,0,0:0:0:0:
448,192,121110,1,0,0:0:0:0:
448,192,121235,1,0,0:0:0:0:
320,192,121235,1,0,0:0:0:0:
64,192,121235,1,0,0:0:0:0:
192,192,121360,1,0,0:0:0:0:
192,192,121485,1,0,0:0:0:0:
64,192,121485,1,0,0:0:0:0:
448,192,121485,1,0,0:0:0:0:
320,192,121610,1,0,0:0:0:0:
448,192,121735,1,0,0:0:0:0:
320,192,121735,1,0,0:0:0:0:
192,192,121735,1,0,0:0:0:0:
192,192,121860,1,0,0:0:0:0:
320,192,121985,1,0,0:0:0:0:
192,192,121985,1,0,0:0:0:0:
64,192,121985,1,0,0:0:0:0:
448,192,122110,1,0,0:0:0:0:
320,192,122235,1,0,0:0:0:0:
192,192,122235,1,0,0:0:0:0:
448,192,122235,1,0,0:0:0:0:
64,192,122360,1,0,0:0:0:0:
64,192,122485,1,0,0:0:0:0:
192,192,122485,1,0,0:0:0:0:
320,192,122485,1,0,0:0:0:0:
448,192,122610,1,0,0:0:0:0:
448,192,122735,1,0,0:0:0:0:
320,192,122735,1,0,0:0:0:0:
64,192,122735,1,0,0:0:0:0:
192,192,122860,1,0,0:0:0:0:
192,192,122985,1,0,0:0:0:0:
64,192,122985,1,0,0:0:0:0:
448,192,122985,1,0,0:0:0:0:
320,192,123110,1,0,0:0:0:0:
448,192,123235,1,0,0:0:0:0:
320,192,123235,1,0,0:0:0:0:
64,192,123235,1,0,0:0:0:0:
192,192,123360,1,0,0:0:0:0:
320,192,123485,1,0,0:0:0:0:
192,192,123485,1,0,0:0:0:0:
64,192,123485,1,0,0:0:0:0:
320,192,123610,1,0,0:0:0:0:
64,192,123672,1,0,0:0:0:0:
448,192,123735,1,0,0:0:0:0:
320,192,123735,1,0,0:0:0:0:
192,192,123735,1,0,0:0:0:0:
64,192,123860,1,0,0:0:0:0:
64,192,123985,1,0,0:0:0:0:
192,192,123985,1,0,0:0:0:0:
320,192,123985,1,0,0:0:0:0:
448,192,124110,1,0,0:0:0:0:
448,192,124235,1,0,0:0:0:0:
320,192,124235,1,0,0:0:0:0:
192,192,124235,1,0,0:0:0:0:
64,192,124360,1,0,0:0:0:0:
64,192,124485,1,0,0:0:0:0:
192,192,124485,1,0,0:0:0:0:
448,192,124485,1,0,0:0:0:0:
320,192,124610,1,0,0:0:0:0:
448,192,124735,1,0,0:0:0:0:
320,192,124735,1,0,0:0:0:0:
64,192,124735,1,0,0:0:0:0:
192,192,124860,1,0,0:0:0:0:
64,192,124985,1,0,0:0:0:0:
192,192,124985,1,0,0:0:0:0:
448,192,124985,1,0,0:0:0:0:
320,192,125110,1,0,0:0:0:0:
448,192,125235,1,0,0:0:0:0:
320,192,125235,1,0,0:0:0:0:
192,192,125235,1,0,0:0:0:0:
192,192,125360,1,0,0:0:0:0:
64,192,125485,1,0,0:0:0:0:
192,192,125485,1,0,0:0:0:0:
320,192,125485,1,0,0:0:0:0:
448,192,125610,1,0,0:0:0:0:
448,192,125735,1,0,0:0:0:0:
320,192,125735,1,0,0:0:0:0:
192,192,125735,1,0,0:0:0:0:
64,192,125860,1,0,0:0:0:0:
64,192,125985,1,0,0:0:0:0:
192,192,125985,1,0,0:0:0:0:
320,192,125985,1,0,0:0:0:0:
448,192,126110,1,0,0:0:0:0:
448,192,126235,1,0,0:0:0:0:
320,192,126235,1,0,0:0:0:0:
64,192,126235,1,0,0:0:0:0:
192,192,126360,1,0,0:0:0:0:
192,192,126485,1,0,0:0:0:0:
64,192,126485,1,0,0:0:0:0:
448,192,126485,1,0,0:0:0:0:
320,192,126610,1,0,0:0:0:0:
448,192,126735,1,0,0:0:0:0:
320,192,126735,1,0,0:0:0:0:
64,192,126735,1,0,0:0:0:0:
192,192,126860,1,0,0:0:0:0:
192,192,126985,1,0,0:0:0:0:
320,192,126985,1,0,0:0:0:0:
64,192,126985,1,0,0:0:0:0:
320,192,127110,1,0,0:0:0:0:
448,192,127235,1,0,0:0:0:0:
320,192,127235,1,0,0:0:0:0:
192,192,127235,1,0,0:0:0:0:
64,192,127485,1,0,0:0:0:0:
192,192,127485,1,0,0:0:0:0:
320,192,127485,1,0,0:0:0:0:
448,192,127735,1,0,0:0:0:0:
320,192,127735,1,0,0:0:0:0:
192,192,127735,1,0,0:0:0:0:
64,192,127985,1,0,0:0:0:0:
192,192,127985,1,0,0:0:0:0:
320,192,127985,1,0,0:0:0:0:
64,192,128110,1,0,0:0:0:0:
192,192,128151,1,0,0:0:0:0:
320,192,128193,1,0,0:0:0:0:
448,192,128234,1,0,0:0:0:0:
64,192,128359,1,0,0:0:0:0:
192,192,128401,1,0,0:0:0:0:
320,192,128443,1,0,0:0:0:0:
448,192,128484,1,0,0:0:0:0:
64,192,128484,1,0,0:0:0:0:
192,192,128609,1,0,0:0:0:0:
64,192,128735,1,0,0:0:0:0:
192,192,128735,1,0,0:0:0:0:
320,192,128735,1,0,0:0:0:0:
448,192,128860,1,0,0:0:0:0:
448,192,128985,1,0,0:0:0:0:
320,192,128985,1,0,0:0:0:0:
192,192,128985,1,0,0:0:0:0:
64,192,129110,1,0,0:0:0:0:
64,192,129235,1,0,0:0:0:0:
192,192,129235,1,0,0:0:0:0:
448,192,129235,1,0,0:0:0:0:
320,192,129360,1,0,0:0:0:0:
448,192,129485,1,0,0:0:0:0:
320,192,129485,1,0,0:0:0:0:
64,192,129485,1,0,0:0:0:0:
192,192,129610,1,0,0:0:0:0:
192,192,129735,1,0,0:0:0:0:
64,192,129735,1,0,0:0:0:0:
448,192,129735,1,0,0:0:0:0:
320,192,129860,1,0,0:0:0:0:
448,192,129985,1,0,0:0:0:0:
320,192,129985,1,0,0:0:0:0:
192,192,129985,1,0,0:0:0:0:
192,192,130110,1,0,0:0:0:0:
320,192,130235,1,0,0:0:0:0:
192,192,130235,1,0,0:0:0:0:
64,192,130235,1,0,0:0:0:0:
448,192,130360,1,0,0:0:0:0:
448,192,130485,1,0,0:0:0:0:
320,192,130485,1,0,0:0:0:0:
192,192,130485,1,0,0:0:0:0:
64,192,130610,1,0,0:0:0:0:
64,192,130735,1,0,0:0:0:0:
192,192,130735,1,0,0:0:0:0:
320,192,130735,1,0,0:0:0:0:
448,192,130860,1,0,0:0:0:0:
448,192,130985,1,0,0:0:0:0:
320,192,130985,1,0,0:0:0:0:
64,192,130985,1,0,0:0:0:0:
192,192,131110,1,0,0:0:0:0:
192,192,131235,1,0,0:0:0:0:
64,192,131235,1,0,0:0:0:0:
448,192,131235,1,0,0:0:0:0:
320,192,131360,1,0,0:0:0:0:
448,192,131485,1,0,0:0:0:0:
320,192,131485,1,0,0:0:0:0:
64,192,131485,1,0,0:0:0:0:
192,192,131610,1,0,0:0:0:0:
448,192,131672,1,0,0:0:0:0:
320,192,131735,1,0,0:0:0:0:
192,192,131735,1,0,0:0:0:0:
64,192,131735,1,0,0:0:0:0:
320,192,131860,1,0,0:0:0:0:
448,192,131985,1,0,0:0:0:0:
320,192,131985,1,0,0:0:0:0:
192,192,131985,1,0,0:0:0:0:
64,192,132110,1,0,0:0:0:0:
64,192,132235,1,0,0:0:0:0:
192,192,132235,1,0,0:0:0:0:
320,192,132235,1,0,0:0:0:0:
448,192,132360,1,0,0:0:0:0:
448,192,132485,1,0,0:0:0:0:
320,192,132485,1,0,0:0:0:0:
192,192,132485,1,0,0:0:0:0:
64,192,132610,1,0,0:0:0:0:
64,192,132735,1,0,0:0:0:0:
192,192,132735,1,0,0:0:0:0:
448,192,132735,1,0,0:0:0:0:
320,192,132860,1,0,0:0:0:0:
448,192,132985,1,0,0:0:0:0:
320,192,132985,1,0,0:0:0:0:
64,192,132985,1,0,0:0:0:0:
192,192,133110,1,0,0:0:0:0:
64,192,133235,1,0,0:0:0:0:
448,192,133235,1,0,0:0:0:0:
320,192,133297,1,0,0:0:0:0:
192,192,133360,1,0,0:0:0:0:
320,192,133422,1,0,0:0:0:0:
64,192,133485,1,0,0:0:0:0:
448,192,133485,1,0,0:0:0:0:
192,192,133610,1,0,0:0:0:0:
192,192,133735,1,0,0:0:0:0:
64,192,133735,1,0,0:0:0:0:
448,192,133735,1,0,0:0:0:0:
320,192,133860,1,0,0:0:0:0:
448,192,133985,1,0,0:0:0:0:
320,192,133985,1,0,0:0:0:0:
64,192,133985,1,0,0:0:0:0:
192,192,134110,1,0,0:0:0:0:
64,192,134235,1,0,0:0:0:0:
448,192,134235,1,0,0:0:0:0:
320,192,134297,1,0,0:0:0:0:
192,192,134360,1,0,0:0:0:0:
320,192,134422,1,0,0:0:0:0:
448,192,134485,1,0,0:0:0:0:
64,192,134485,1,0,0:0:0:0:
320,192,134735,128,0,134860:0:0:0:0:
448,192,134735,128,0,134860:0:0:0:0:
192,192,134860,128,0,134985:0:0:0:0:
64,192,134860,128,0,134985:0:0:0:0:
320,192,134985,1,0,0:0:0:0:
448,192,134985,1,0,0:0:0:0:
448,192,135235,1,0,0:0:0:0:
64,192,135235,1,0,0:0:0:0:
320,192,135360,1,0,0:0:0:0:
192,192,135360,1,0,0:0:0:0:
448,192,135485,128,0,135610:0:0:0:0:
320,192,135485,128,0,135610:0:0:0:0:
64,192,135610,128,0,135735:0:0:0:0:
192,192,135610,128,0,135735:0:0:0:0:
448,192,135735,128,0,135860:0:0:0:0:
320,192,135735,128,0,135860:0:0:0:0:
64,192,135860,128,0,135985:0:0:0:0:
192,192,135860,128,0,135985:0:0:0:0:
320,192,135985,1,0,0:0:0:0:
448,192,135985,1,0,0:0:0:0:
320,192,136235,128,0,136485:0:0:0:0:
448,192,136235,128,0,136485:0:0:0:0:
64,192,136485,5,0,0:0:0:0:
192,192,136485,1,0,0:0:0:0:
448,192,136985,1,0,0:0:0:0:
320,192,136985,1,0,0:0:0:0:
192,192,136985,1,0,0:0:0:0:
64,192,136985,1,0,0:0:0:0:
320,192,137110,1,0,0:0:0:0:
320,192,137235,1,0,0:0:0:0:
192,192,137235,1,0,0:0:0:0:
64,192,137235,1,0,0:0:0:0:
448,192,137235,1,0,0:0:0:0:
192,192,137360,1,0,0:0:0:0:
448,192,137485,128,0,141485:0:0:0:0:
320,192,137485,1,0,0:0:0:0:
192,192,137485,1,0,0:0:0:0:
64,192,137485,1,0,0:0:0:0:
192,192,141485,128,0,143485:0:0:0:0:
320,192,143485,128,0,145485:0:0:0:0:
64,192,145485,1,0,0:0:0:0:
448,192,145485,128,0,149485:0:0:0:0:
64,192,149485,1,0,0:0:0:0:
320,192,149547,1,0,0:0:0:0:
192,192,149610,1,0,0:0:0:0:
448,192,149672,1,0,0:0:0:0:
64,192,149735,1,0,0:0:0:0:
320,192,149797,1,0,0:0:0:0:
192,192,149860,1,0,0:0:0:0:
448,192,149922,1,0,0:0:0:0:
64,192,149985,1,0,0:0:0:0:
320,192,150047,1,0,0:0:0:0:
192,192,150110,1,0,0:0:0:0:
448,192,150172,1,0,0:0:0:0:
64,192,150235,1,0,0:0:0:0:
320,192,150297,1,0,0:0:0:0:
192,192,150360,1,0,0:0:0:0:
448,192,150422,1,0,0:0:0:0:
64,192,150485,1,0,0:0:0:0:
320,192,150547,1,0,0:0:0:0:
192,192,150610,1,0,0:0:0:0:
320,192,150672,1,0,0:0:0:0:
192,192,150735,1,0,0:0:0:0:
320,192,150797,1,0,0:0:0:0:
192,192,150860,1,0,0:0:0:0:
320,192,150922,1,0,0:0:0:0:
192,192,150985,1,0,0:0:0:0:
320,192,151047,1,0,0:0:0:0:
192,192,151110,1,0,0:0:0:0:
320,192,151172,1,0,0:0:0:0:
192,192,151235,1,0,0:0:0:0:
320,192,151297,1,0,0:0:0:0:
192,192,151360,1,0,0:0:0:0:
320,192,151422,1,0,0:0:0:0:
64,192,151485,1,0,0:0:0:0:
192,192,151547,1,0,0:0:0:0:
320,192,151610,1,0,0:0:0:0:
448,192,151672,1,0,0:0:0:0:
320,192,151735,1,0,0:0:0:0:
192,192,151797,1,0,0:0:0:0:
64,192,151860,1,0,0:0:0:0:
192,192,151922,1,0,0:0:0:0:
320,192,151985,1,0,0:0:0:0:
448,192,152047,1,0,0:0:0:0:
320,192,152110,1,0,0:0:0:0:
192,192,152172,1,0,0:0:0:0:
64,192,152235,1,0,0:0:0:0:
192,192,152297,1,0,0:0:0:0:
320,192,152360,1,0,0:0:0:0:
448,192,152422,1,0,0:0:0:0:
192,192,152485,1,0,0:0:0:0:
64,192,152547,1,0,0:0:0:0:
448,192,152610,1,0,0:0:0:0:
320,192,152672,1,0,0:0:0:0:
64,192,152735,1,0,0:0:0:0:
192,192,152735,1,0,0:0:0:0:
320,192,152797,1,0,0:0:0:0:
448,192,152860,1,0,0:0:0:0:
192,192,152860,1,0,0:0:0:0:
320,192,152922,1,0,0:0:0:0:
192,192,152985,1,0,0:0:0:0:
64,192,153047,1,0,0:0:0:0:
320,192,153110,1,0,0:0:0:0:
448,192,153172,1,0,0:0:0:0:
192,192,153235,1,0,0:0:0:0:
320,192,153297,1,0,0:0:0:0:
64,192,153360,1,0,0:0:0:0:
448,192,153422,1,0,0:0:0:0:
192,192,153485,1,0,0:0:0:0:
320,192,153485,1,0,0:0:0:0:
64,192,153485,1,0,0:0:0:0:
64,192,153610,1,0,0:0:0:0:
192,192,153610,1,0,0:0:0:0:
64,192,153735,1,0,0:0:0:0:
320,192,153735,1,0,0:0:0:0:
64,192,153860,1,0,0:0:0:0:
448,192,153860,1,0,0:0:0:0:
448,192,154110,1,0,0:0:0:0:
320,192,154110,1,0,0:0:0:0:
448,192,154235,1,0,0:0:0:0:
192,192,154235,1,0,0:0:0:0:
448,192,154360,1,0,0:0:0:0:
64,192,154360,1,0,0:0:0:0:
320,192,154610,1,0,0:0:0:0:
192,192,154610,1,0,0:0:0:0:
64,192,154735,1,0,0:0:0:0:
320,192,154735,1,0,0:0:0:0:
448,192,154860,1,0,0:0:0:0:
64,192,154860,1,0,0:0:0:0:
448,192,154985,1,0,0:0:0:0:
192,192,154985,1,0,0:0:0:0:
192,192,155110,1,0,0:0:0:0:
64,192,155110,1,0,0:0:0:0:
64,192,155235,1,0,0:0:0:0:
448,192,155235,1,0,0:0:0:0:
64,192,155360,1,0,0:0:0:0:
320,192,155360,1,0,0:0:0:0:
192,192,155485,1,0,0:0:0:0:
64,192,155485,1,0,0:0:0:0:
448,192,155610,1,0,0:0:0:0:
320,192,155610,1,0,0:0:0:0:
448,192,155735,1,0,0:0:0:0:
192,192,155735,1,0,0:0:0:0:
448,192,155860,1,0,0:0:0:0:
64,192,155860,1,0,0:0:0:0:
64,192,156110,1,0,0:0:0:0:
192,192,156110,1,0,0:0:0:0:
64,192,156235,1,0,0:0:0:0:
320,192,156235,1,0,0:0:0:0:
64,192,156360,1,0,0:0:0:0:
448,192,156360,1,0,0:0:0:0:
320,192,156610,1,0,0:0:0:0:
192,192,156610,1,0,0:0:0:0:
64,192,156735,1,0,0:0:0:0:
448,192,156735,1,0,0:0:0:0:
320,192,156860,1,0,0:0:0:0:
192,192,156860,1,0,0:0:0:0:
64,192,156985,1,0,0:0:0:0:
448,192,156985,1,0,0:0:0:0:
320,192,157110,1,0,0:0:0:0:
192,192,157172,1,0,0:0:0:0:
320,192,157235,1,0,0:0:0:0:
448,192,157235,1,0,0:0:0:0:
192,192,157360,1,0,0:0:0:0:
64,192,157360,1,0,0:0:0:0:
448,192,157485,1,0,0:0:0:0:
64,192,157610,1,0,0:0:0:0:
320,192,157735,1,0,0:0:0:0:
192,192,157860,1,0,0:0:0:0:
448,192,157922,1,0,0:0:0:0:
64,192,157985,1,0,0:0:0:0:
320,192,158110,1,0,0:0:0:0:
64,192,158235,1,0,0:0:0:0:
448,192,158360,1,0,0:0:0:0:
192,192,158485,1,0,0:0:0:0:
192,192,158610,1,0,0:0:0:0:
448,192,158735,1,0,0:0:0:0:
64,192,158860,1,0,0:0:0:0:
320,192,158985,1,0,0:0:0:0:
448,192,159047,1,0,0:0:0:0:
192,192,159110,1,0,0:0:0:0:
320,192,159235,1,0,0:0:0:0:
320,192,159360,1,0,0:0:0:0:
64,192,159485,1,0,0:0:0:0:
192,192,159547,1,0,0:0:0:0:
64,192,159610,1,0,0:0:0:0:
192,192,159672,1,0,0:0:0:0:
448,192,159735,1,0,0:0:0:0:
192,192,159860,1,0,0:0:0:0:
320,192,159985,1,0,0:0:0:0:
64,192,160110,1,0,0:0:0:0:
320,192,160172,1,0,0:0:0:0:
192,192,160235,1,0,0:0:0:0:
448,192,160360,1,0,0:0:0:0:
64,192,160485,1,0,0:0:0:0:
320,192,160610,1,0,0:0:0:0:
320,192,160735,1,0,0:0:0:0:
320,192,160860,1,0,0:0:0:0:
320,192,160985,1,0,0:0:0:0:
192,192,161047,1,0,0:0:0:0:
320,192,161110,1,0,0:0:0:0:
192,192,161172,1,0,0:0:0:0:
320,192,161235,1,0,0:0:0:0:
64,192,161360,1,0,0:0:0:0:
320,192,161485,1,0,0:0:0:0:
448,192,161485,1,0,0:0:0:0:
192,192,161610,1,0,0:0:0:0:
64,192,161610,1,0,0:0:0:0:
64,192,161735,1,0,0:0:0:0:
320,192,161735,1,0,0:0:0:0:
192,192,161860,1,0,0:0:0:0:
448,192,161860,1,0,0:0:0:0:
448,192,162110,1,0,0:0:0:0:
320,192,162110,1,0,0:0:0:0:
448,192,162235,1,0,0:0:0:0:
192,192,162235,1,0,0:0:0:0:
320,192,162360,1,0,0:0:0:0:
64,192,162360,1,0,0:0:0:0:
320,192,162610,1,0,0:0:0:0:
192,192,162610,1,0,0:0:0:0:
64,192,162735,1,0,0:0:0:0:
448,192,162735,1,0,0:0:0:0:
320,192,162860,1,0,0:0:0:0:
192,192,162860,1,0,0:0:0:0:
448,192,162985,1,0,0:0:0:0:
64,192,162985,1,0,0:0:0:0:
192,192,163047,1,0,0:0:0:0:
320,192,163047,1,0,0:0:0:0:
448,192,163110,1,0,0:0:0:0:
64,192,163110,1,0,0:0:0:0:
192,192,163235,1,0,0:0:0:0:
448,192,163235,1,0,0:0:0:0:
320,192,163360,1,0,0:0:0:0:
64,192,163360,1,0,0:0:0:0:
320,192,163485,1,0,0:0:0:0:
448,192,163485,1,0,0:0:0:0:
192,192,163610,1,0,0:0:0:0:
64,192,163610,1,0,0:0:0:0:
192,192,163735,1,0,0:0:0:0:
448,192,163735,1,0,0:0:0:0:
320,192,163860,1,0,0:0:0:0:
64,192,163860,1,0,0:0:0:0:
320,192,164110,1,0,0:0:0:0:
192,192,164110,1,0,0:0:0:0:
192,192,164235,1,0,0:0:0:0:
448,192,164235,1,0,0:0:0:0:
320,192,164360,1,0,0:0:0:0:
64,192,164360,1,0,0:0:0:0:
320,192,164610,1,0,0:0:0:0:
192,192,164610,1,0,0:0:0:0:
64,192,164735,1,0,0:0:0:0:
320,192,164735,1,0,0:0:0:0:
64,192,164860,1,0,0:0:0:0:
448,192,164860,1,0,0:0:0:0:
320,192,164985,1,0,0:0:0:0:
192,192,164985,1,0,0:0:0:0:
64,192,165047,1,0,0:0:0:0:
448,192,165047,1,0,0:0:0:0:
320,192,165110,1,0,0:0:0:0:
192,192,165110,1,0,0:0:0:0:
64,192,165235,1,0,0:0:0:0:
320,192,165235,1,0,0:0:0:0:
192,192,165360,1,0,0:0:0:0:
448,192,165360,1,0,0:0:0:0:
320,192,165485,1,0,0:0:0:0:
448,192,165485,1,0,0:0:0:0:
192,192,165610,1,0,0:0:0:0:
64,192,165610,1,0,0:0:0:0:
64,192,165735,1,0,0:0:0:0:
320,192,165735,1,0,0:0:0:0:
192,192,165860,1,0,0:0:0:0:
448,192,165860,1,0,0:0:0:0:
448,192,166110,1,0,0:0:0:0:
320,192,166110,1,0,0:0:0:0:
448,192,166235,1,0,0:0:0:0:
192,192,166235,1,0,0:0:0:0:
320,192,166360,1,0,0:0:0:0:
64,192,166360,1,0,0:0:0:0:
320,192,166610,1,0,0:0:0:0:
192,192,166610,1,0,0:0:0:0:
64,192,166735,1,0,0:0:0:0:
448,192,166735,1,0,0:0:0:0:
320,192,166860,1,0,0:0:0:0:
192,192,166860,1,0,0:0:0:0:
448,192,166985,1,0,0:0:0:0:
192,192,166985,1,0,0:0:0:0:
320,192,167047,1,0,0:0:0:0:
64,192,167047,1,0,0:0:0:0:
192,192,167110,1,0,0:0:0:0:
448,192,167110,1,0,0:0:0:0:
320,192,167235,1,0,0:0:0:0:
448,192,167235,1,0,0:0:0:0:
192,192,167360,1,0,0:0:0:0:
64,192,167360,1,0,0:0:0:0:
448,192,167485,1,0,0:0:0:0:
320,192,167485,1,0,0:0:0:0:
448,192,167610,1,0,0:0:0:0:
192,192,167610,1,0,0:0:0:0:
320,192,167735,1,0,0:0:0:0:
192,192,167735,1,0,0:0:0:0:
320,192,167860,1,0,0:0:0:0:
64,192,167860,1,0,0:0:0:0:
192,192,168110,1,0,0:0:0:0:
64,192,168110,1,0,0:0:0:0:
64,192,168235,1,0,0:0:0:0:
320,192,168235,1,0,0:0:0:0:
192,192,168360,1,0,0:0:0:0:
448,192,168360,1,0,0:0:0:0:
448,192,168610,1,0,0:0:0:0:
64,192,168610,1,0,0:0:0:0:
192,192,168735,1,0,0:0:0:0:
320,192,168735,1,0,0:0:0:0:
448,192,168860,1,0,0:0:0:0:
64,192,168860,1,0,0:0:0:0:
320,192,168985,1,0,0:0:0:0:
448,192,169047,1,0,0:0:0:0:
192,192,169110,1,0,0:0:0:0:
320,192,169172,1,0,0:0:0:0:
64,192,169235,1,0,0:0:0:0:
192,192,169360,1,0,0:0:0:0:
448,192,169485,1,0,0:0:0:0:
320,192,169485,1,0,0:0:0:0:
192,192,169485,1,0,0:0:0:0:
64,192,169485,1,0,0:0:0:0:
64,192,169610,1,0,0:0:0:0:
192,192,169735,1,0,0:0:0:0:
320,192,169860,1,0,0:0:0:0:
448,192,170110,1,0,0:0:0:0:
320,192,170235,1,0,0:0:0:0:
192,192,170360,1,0,0:0:0:0:
64,192,170485,128,0,170672:0:0:0:0:
448,192,170485,128,0,170672:0:0:0:0:
64,192,170735,128,0,170797:0:0:0:0:
320,192,170735,128,0,170797:0:0:0:0:
448,192,170860,128,0,170922:0:0:0:0:
192,192,170860,128,0,170922:0:0:0:0:
192,192,170985,128,0,171172:0:0:0:0:
320,192,170985,128,0,171172:0:0:0:0:
448,192,171235,128,0,171297:0:0:0:0:
64,192,171235,128,0,171297:0:0:0:0:
320,192,171360,128,0,171422:0:0:0:0:
192,192,171360,128,0,171422:0:0:0:0:
64,192,171485,128,0,171797:0:0:0:0:
320,192,171485,128,0,171797:0:0:0:0:
64,192,172110,1,0,0:0:0:0:
192,192,172235,1,0,0:0:0:0:
320,192,172360,1,0,0:0:0:0:
64,192,172485,128,0,172547:0:0:0:0:
192,192,172485,128,0,172547:0:0:0:0:
64,192,172610,128,0,172672:0:0:0:0:
448,192,172610,128,0,172672:0:0:0:0:
320,192,172735,128,0,172797:0:0:0:0:
192,192,172735,128,0,172797:0:0:0:0:
320,192,172860,128,0,172922:0:0:0:0:
64,192,172860,128,0,172922:0:0:0:0:
192,192,172985,128,0,173172:0:0:0:0:
64,192,172985,128,0,173172:0:0:0:0:
64,192,173235,128,0,173297:0:0:0:0:
320,192,173235,128,0,173297:0:0:0:0:
192,192,173360,128,0,173422:0:0:0:0:
448,192,173360,128,0,173422:0:0:0:0:
64,192,173485,1,0,0:0:0:0:
192,192,173485,1,0,0:0:0:0:
320,192,173485,1,0,0:0:0:0:
448,192,173485,1,0,0:0:0:0:
64,192,173610,1,0,0:0:0:0:
192,192,173735,1,0,0:0:0:0:
320,192,173860,1,0,0:0:0:0:
448,192,174110,1,0,0:0:0:0:
320,192,174235,1,0,0:0:0:0:
192,192,174360,1,0,0:0:0:0:
64,192,174485,128,0,174547:0:0:0:0:
320,192,174485,128,0,174547:0:0:0:0:
64,192,174610,128,0,174672:0:0:0:0:
192,192,174610,128,0,174672:0:0:0:0:
192,192,174735,128,0,174797:0:0:0:0:
448,192,174735,128,0,174797:0:0:0:0:
320,192,174860,128,0,175047:0:0:0:0:
192,192,174860,128,0,175047:0:0:0:0:
192,192,175110,128,0,175172:0:0:0:0:
64,192,175110,128,0,175172:0:0:0:0:
320,192,175235,128,0,175297:0:0:0:0:
448,192,175235,128,0,175297:0:0:0:0:
192,192,175360,128,0,175422:0:0:0:0:
64,192,175360,128,0,175422:0:0:0:0:
64,192,175485,1,0,0:0:0:0:
192,192,175485,1,0,0:0:0:0:
320,192,175485,1,0,0:0:0:0:
448,192,175485,1,0,0:0:0:0:
192,192,175610,1,0,0:0:0:0:
320,192,175735,1,0,0:0:0:0:
448,192,175860,1,0,0:0:0:0:
320,192,176110,1,0,0:0:0:0:
192,192,176235,1,0,0:0:0:0:
64,192,176360,1,0,0:0:0:0:
192,192,176485,128,0,176547:0:0:0:0:
448,192,176485,128,0,176547:0:0:0:0:
320,192,176610,128,0,176672:0:0:0:0:
448,192,176610,128,0,176672:0:0:0:0:
320,192,176735,128,0,176797:0:0:0:0:
64,192,176735,128,0,176797:0:0:0:0:
192,192,176860,128,0,176922:0:0:0:0:
320,192,176860,128,0,176922:0:0:0:0:
192,192,176985,128,0,177047:0:0:0:0:
64,192,176985,128,0,177047:0:0:0:0:
64,192,177110,128,0,177172:0:0:0:0:
320,192,177110,128,0,177172:0:0:0:0:
192,192,177235,128,0,177297:0:0:0:0:
448,192,177235,128,0,177297:0:0:0:0:
320,192,177360,128,0,177422:0:0:0:0:
448,192,177360,128,0,177422:0:0:0:0:
64,192,177485,1,0,0:0:0:0:
192,192,177485,1,0,0:0:0:0:
320,192,177485,1,0,0:0:0:0:
448,192,177485,1,0,0:0:0:0:
64,192,177735,1,0,0:0:0:0:
320,192,177735,1,0,0:0:0:0:
448,192,177735,1,0,0:0:0:0:
192,192,177985,1,0,0:0:0:0:
448,192,177985,1,0,0:0:0:0:
64,192,177985,1,0,0:0:0:0:
192,192,178235,1,0,0:0:0:0:
64,192,178235,1,0,0:0:0:0:
320,192,178235,1,0,0:0:0:0:
320,192,178485,1,0,0:0:0:0:
448,192,178485,1,0,0:0:0:0:
192,192,178485,1,0,0:0:0:0:
64,192,178735,1,0,0:0:0:0:
320,192,178735,1,0,0:0:0:0:
448,192,178735,1,0,0:0:0:0:
192,192,178985,1,0,0:0:0:0:
448,192,178985,1,0,0:0:0:0:
64,192,178985,1,0,0:0:0:0:
320,192,179485,1,0,0:0:0:0:
448,192,179485,1,0,0:0:0:0:
192,192,179485,1,0,0:0:0:0:
64,192,179735,1,0,0:0:0:0:
192,192,179735,1,0,0:0:0:0:
320,192,179735,1,0,0:0:0:0:
448,192,179985,1,0,0:0:0:0:
192,192,179985,1,0,0:0:0:0:
64,192,179985,1,0,0:0:0:0:
320,192,180235,1,0,0:0:0:0:
64,192,180235,1,0,0:0:0:0:
448,192,180235,1,0,0:0:0:0:
320,192,180485,1,0,0:0:0:0:
448,192,180485,1,0,0:0:0:0:
192,192,180485,1,0,0:0:0:0:
192,192,180735,1,0,0:0:0:0:
64,192,180735,1,0,0:0:0:0:
320,192,180735,1,0,0:0:0:0:
448,192,180985,1,0,0:0:0:0:
192,192,180985,1,0,0:0:0:0:
64,192,180985,1,0,0:0:0:0:
448,192,181485,1,0,0:0:0:0:
320,192,181485,1,0,0:0:0:0:
192,192,181485,1,0,0:0:0:0:
192,192,181735,1,0,0:0:0:0:
64,192,181735,1,0,0:0:0:0:
320,192,181735,1,0,0:0:0:0:
192,192,181985,1,0,0:0:0:0:
448,192,181985,1,0,0:0:0:0:
64,192,181985,1,0,0:0:0:0:
320,192,182235,1,0,0:0:0:0:
64,192,182235,1,0,0:0:0:0:
448,192,182235,1,0,0:0:0:0:
320,192,182485,1,0,0:0:0:0:
192,192,182547,1,0,0:0:0:0:
448,192,182610,1,0,0:0:0:0:
64,192,182672,1,0,0:0:0:0:
320,192,182735,1,0,0:0:0:0:
192,192,182797,1,0,0:0:0:0:
448,192,182860,1,0,0:0:0:0:
64,192,182922,1,0,0:0:0:0:
320,192,182985,1,0,0:0:0:0:
192,192,183047,1,0,0:0:0:0:
448,192,183110,1,0,0:0:0:0:
64,192,183172,1,0,0:0:0:0:
320,192,183235,1,0,0:0:0:0:
192,192,183297,1,0,0:0:0:0:
448,192,183360,1,0,0:0:0:0:
64,192,183422,1,0,0:0:0:0:
320,192,183485,1,0,0:0:0:0:
192,192,183547,1,0,0:0:0:0:
320,192,183610,1,0,0:0:0:0:
192,192,183672,1,0,0:0:0:0:
320,192,183735,1,0,0:0:0:0:
192,192,183797,1,0,0:0:0:0:
320,192,183860,1,0,0:0:0:0:
192,192,183922,1,0,0:0:0:0:
320,192,183985,1,0,0:0:0:0:
192,192,184047,1,0,0:0:0:0:
320,192,184110,1,0,0:0:0:0:
192,192,184172,1,0,0:0:0:0:
320,192,184235,1,0,0:0:0:0:
192,192,184297,5,0,0:0:0:0:
320,192,184360,1,0,0:0:0:0:
192,192,184422,1,0,0:0:0:0:
448,192,184485,1,0,0:0:0:0:
64,192,184485,1,0,0:0:0:0:
320,192,184547,1,0,0:0:0:0:
192,192,184610,1,0,0:0:0:0:
64,192,184672,1,0,0:0:0:0:
192,192,184735,1,0,0:0:0:0:
320,192,184797,1,0,0:0:0:0:
448,192,184860,1,0,0:0:0:0:
320,192,184922,1,0,0:0:0:0:
64,192,184985,1,0,0:0:0:0:
192,192,185047,1,0,0:0:0:0:
320,192,185110,1,0,0:0:0:0:
448,192,185172,1,0,0:0:0:0:
64,192,185235,1,0,0:0:0:0:
192,192,185297,1,0,0:0:0:0:
320,192,185360,1,0,0:0:0:0:
448,192,185422,1,0,0:0:0:0:
64,192,185485,5,0,0:0:0:0:
192,192,185485,1,0,0:0:0:0:
64,192,185610,1,0,0:0:0:0:
192,192,185735,1,0,0:0:0:0:
320,192,185860,1,0,0:0:0:0:
448,192,186110,1,0,0:0:0:0:
320,192,186235,1,0,0:0:0:0:
192,192,186360,1,0,0:0:0:0:
64,192,186610,1,0,0:0:0:0:
448,192,186735,1,0,0:0:0:0:
192,192,186860,1,0,0:0:0:0:
448,192,186985,1,0,0:0:0:0:
64,192,187047,1,0,0:0:0:0:
320,192,187110,1,0,0:0:0:0:
64,192,187235,1,0,0:0:0:0:
448,192,187360,1,0,0:0:0:0:
192,192,187485,1,0,0:0:0:0:
64,192,187610,1,0,0:0:0:0:
192,192,187735,1,0,0:0:0:0:
320,192,187860,1,0,0:0:0:0:
448,192,188110,1,0,0:0:0:0:
320,192,188235,1,0,0:0:0:0:
192,192,188360,1,0,0:0:0:0:
64,192,188610,1,0,0:0:0:0:
448,192,188735,1,0,0:0:0:0:
192,192,188860,1,0,0:0:0:0:
448,192,188985,1,0,0:0:0:0:
64,192,189047,1,0,0:0:0:0:
320,192,189110,1,0,0:0:0:0:
64,192,189235,1,0,0:0:0:0:
448,192,189360,1,0,0:0:0:0:
192,192,189485,1,0,0:0:0:0:
64,192,189610,1,0,0:0:0:0:
192,192,189735,1,0,0:0:0:0:
320,192,189860,1,0,0:0:0:0:
448,192,190110,1,0,0:0:0:0:
320,192,190235,1,0,0:0:0:0:
192,192,190360,1,0,0:0:0:0:
64,192,190610,1,0,0:0:0:0:
448,192,190735,1,0,0:0:0:0:
192,192,190860,1,0,0:0:0:0:
448,192,190985,1,0,0:0:0:0:
64,192,191047,1,0,0:0:0:0:
320,192,191110,1,0,0:0:0:0:
192,192,191235,1,0,0:0:0:0:
64,192,191360,1,0,0:0:0:0:
448,192,191485,1,0,0:0:0:0:
320,192,191610,1,0,0:0:0:0:
192,192,191735,1,0,0:0:0:0:
64,192,192110,1,0,0:0:0:0:
192,192,192235,1,0,0:0:0:0:
320,192,192360,1,0,0:0:0:0:
448,192,192610,1,0,0:0:0:0:
64,192,192735,1,0,0:0:0:0:
320,192,192860,1,0,0:0:0:0:
192,192,192985,1,0,0:0:0:0:
64,192,193047,1,0,0:0:0:0:
192,192,193110,1,0,0:0:0:0:
320,192,193235,1,0,0:0:0:0:
448,192,193360,1,0,0:0:0:0:
448,192,193485,1,0,0:0:0:0:
320,192,193485,1,0,0:0:0:0:
192,192,193485,1,0,0:0:0:0:
448,192,193610,1,0,0:0:0:0:
320,192,193735,1,0,0:0:0:0:
192,192,193860,1,0,0:0:0:0:
64,192,194110,1,0,0:0:0:0:
192,192,194235,1,0,0:0:0:0:
320,192,194360,1,0,0:0:0:0:
448,192,194610,1,0,0:0:0:0:
64,192,194735,1,0,0:0:0:0:
320,192,194860,1,0,0:0:0:0:
64,192,194985,1,0,0:0:0:0:
448,192,195047,1,0,0:0:0:0:
192,192,195110,1,0,0:0:0:0:
320,192,195235,1,0,0:0:0:0:
448,192,195360,1,0,0:0:0:0:
192,192,195485,1,0,0:0:0:0:
64,192,195610,1,0,0:0:0:0:
192,192,195735,1,0,0:0:0:0:
320,192,195860,1,0,0:0:0:0:
448,192,196110,1,0,0:0:0:0:
320,192,196235,1,0,0:0:0:0:
192,192,196360,1,0,0:0:0:0:
64,192,196610,1,0,0:0:0:0:
448,192,196735,1,0,0:0:0:0:
192,192,196860,1,0,0:0:0:0:
448,192,196985,1,0,0:0:0:0:
64,192,197047,1,0,0:0:0:0:
320,192,197110,1,0,0:0:0:0:
192,192,197235,1,0,0:0:0:0:
64,192,197360,1,0,0:0:0:0:
320,192,197485,1,0,0:0:0:0:
448,192,197610,1,0,0:0:0:0:
320,192,197735,1,0,0:0:0:0:
192,192,197860,1,0,0:0:0:0:
64,192,198110,1,0,0:0:0:0:
192,192,198235,1,0,0:0:0:0:
320,192,198360,1,0,0:0:0:0:
448,192,198610,1,0,0:0:0:0:
64,192,198735,1,0,0:0:0:0:
320,192,198860,1,0,0:0:0:0:
192,192,198985,1,0,0:0:0:0:
64,192,199047,1,0,0:0:0:0:
448,192,199110,1,0,0:0:0:0:
320,192,199235,1,0,0:0:0:0:
192,192,199360,1,0,0:0:0:0:
64,192,199485,1,0,0:0:0:0:
448,192,199547,1,0,0:0:0:0:
64,192,199610,1,0,0:0:0:0:
448,192,199672,1,0,0:0:0:0:
64,192,199735,1,0,0:0:0:0:
448,192,199797,1,0,0:0:0:0:
64,192,199860,1,0,0:0:0:0:
448,192,199922,1,0,0:0:0:0:
192,192,199985,1,0,0:0:0:0:
320,192,200047,1,0,0:0:0:0:
192,192,200110,1,0,0:0:0:0:
320,192,200172,1,0,0:0:0:0:
192,192,200235,1,0,0:0:0:0:
320,192,200297,1,0,0:0:0:0:
192,192,200360,1,0,0:0:0:0:
320,192,200422,1,0,0:0:0:0:
192,192,200485,128,0,200672:0:0:0:0:
64,192,200485,128,0,200672:0:0:0:0:
64,192,200735,128,0,200922:0:0:0:0:
192,192,200735,128,0,200922:0:0:0:0:
448,192,200985,1,0,0:0:0:0:
320,192,201026,1,0,0:0:0:0:
192,192,201068,1,0,0:0:0:0:
64,192,201110,1,0,0:0:0:0:
448,192,201151,1,0,0:0:0:0:
320,192,201193,1,0,0:0:0:0:
192,192,201235,1,0,0:0:0:0:
64,192,201276,1,0,0:0:0:0:
448,192,201318,1,0,0:0:0:0:
320,192,201360,1,0,0:0:0:0:
192,192,201401,1,0,0:0:0:0:
64,192,201443,1,0,0:0:0:0:
448,192,201485,1,0,0:0:0:0:
320,192,201485,1,0,0:0:0:0:
192,192,201547,1,0,0:0:0:0:
320,192,201610,1,0,0:0:0:0:
448,192,201672,1,0,0:0:0:0:
192,192,201735,1,0,0:0:0:0:
64,192,201735,1,0,0:0:0:0:
320,192,201797,1,0,0:0:0:0:
192,192,201860,1,0,0:0:0:0:
64,192,201922,1,0,0:0:0:0:
192,192,201985,1,0,0:0:0:0:
448,192,201985,1,0,0:0:0:0:
320,192,202047,1,0,0:0:0:0:
192,192,202110,1,0,0:0:0:0:
320,192,202172,1,0,0:0:0:0:
448,192,202235,1,0,0:0:0:0:
64,192,202235,1,0,0:0:0:0:
192,192,202297,1,0,0:0:0:0:
320,192,202360,1,0,0:0:0:0:
448,192,202422,1,0,0:0:0:0:
192,192,202485,1,0,0:0:0:0:
64,192,202485,1,0,0:0:0:0:
320,192,202547,1,0,0:0:0:0:
192,192,202610,1,0,0:0:0:0:
64,192,202672,1,0,0:0:0:0:
320,192,202735,1,0,0:0:0:0:
448,192,202735,1,0,0:0:0:0:
192,192,202797,1,0,0:0:0:0:
320,192,202860,1,0,0:0:0:0:
192,192,202922,1,0,0:0:0:0:
448,192,202985,1,0,0:0:0:0:
64,192,202985,1,0,0:0:0:0:
320,192,203047,1,0,0:0:0:0:
192,192,203110,1,0,0:0:0:0:
64,192,203172,1,0,0:0:0:0:
192,192,203235,1,0,0:0:0:0:
448,192,203235,1,0,0:0:0:0:
320,192,203297,1,0,0:0:0:0:
192,192,203360,1,0,0:0:0:0:
320,192,203422,1,0,0:0:0:0:
448,192,203485,1,0,0:0:0:0:
64,192,203485,1,0,0:0:0:0:
192,192,203547,1,0,0:0:0:0:
320,192,203610,1,0,0:0:0:0:
448,192,203672,1,0,0:0:0:0:
64,192,203735,1,0,0:0:0:0:
192,192,203735,1,0,0:0:0:0:
320,192,203797,1,0,0:0:0:0:
192,192,203860,1,0,0:0:0:0:
64,192,203922,1,0,0:0:0:0:
320,192,203985,1,0,0:0:0:0:
448,192,203985,1,0,0:0:0:0:
192,192,204047,1,0,0:0:0:0:
320,192,204110,1,0,0:0:0:0:
448,192,204172,1,0,0:0:0:0:
320,192,204235,1,0,0:0:0:0:
64,192,204235,1,0,0:0:0:0:
192,192,204297,1,0,0:0:0:0:
320,192,204360,1,0,0:0:0:0:
448,192,204422,1,0,0:0:0:0:
320,192,204485,1,0,0:0:0:0:
64,192,204485,1,0,0:0:0:0:
192,192,204547,1,0,0:0:0:0:
320,192,204610,1,0,0:0:0:0:
448,192,204672,1,0,0:0:0:0:
192,192,204735,1,0,0:0:0:0:
64,192,204735,1,0,0:0:0:0:
320,192,204797,1,0,0:0:0:0:
192,192,204860,1,0,0:0:0:0:
64,192,204922,1,0,0:0:0:0:
192,192,204985,1,0,0:0:0:0:
448,192,204985,1,0,0:0:0:0:
320,192,205047,1,0,0:0:0:0:
192,192,205110,1,0,0:0:0:0:
64,192,205172,1,0,0:0:0:0:
192,192,205235,1,0,0:0:0:0:
448,192,205235,1,0,0:0:0:0:
320,192,205297,1,0,0:0:0:0:
192,192,205360,1,0,0:0:0:0:
64,192,205422,1,0,0:0:0:0:
320,192,205485,1,0,0:0:0:0:
448,192,205485,1,0,0:0:0:0:
192,192,205547,1,0,0:0:0:0:
320,192,205610,1,0,0:0:0:0:
192,192,205672,1,0,0:0:0:0:
64,192,205735,1,0,0:0:0:0:
448,192,205735,1,0,0:0:0:0:
320,192,205797,1,0,0:0:0:0:
192,192,205860,1,0,0:0:0:0:
320,192,205922,1,0,0:0:0:0:
64,192,205985,1,0,0:0:0:0:
192,192,205985,1,0,0:0:0:0:
320,192,206047,1,0,0:0:0:0:
192,192,206110,1,0,0:0:0:0:
320,192,206172,1,0,0:0:0:0:
64,192,206235,1,0,0:0:0:0:
448,192,206235,1,0,0:0:0:0:
192,192,206297,1,0,0:0:0:0:
320,192,206360,1,0,0:0:0:0:
192,192,206422,1,0,0:0:0:0:
320,192,206485,1,0,0:0:0:0:
448,192,206485,1,0,0:0:0:0:
192,192,206547,1,0,0:0:0:0:
320,192,206610,1,0,0:0:0:0:
192,192,206672,1,0,0:0:0:0:
64,192,206735,1,0,0:0:0:0:
448,192,206735,1,0,0:0:0:0:
320,192,206797,1,0,0:0:0:0:
192,192,206860,1,0,0:0:0:0:
64,192,206922,1,0,0:0:0:0:
448,192,206985,1,0,0:0:0:0:
320,192,206985,1,0,0:0:0:0:
192,192,207047,1,0,0:0:0:0:
320,192,207110,1,0,0:0:0:0:
448,192,207172,1,0,0:0:0:0:
192,192,207235,1,0,0:0:0:0:
64,192,207235,1,0,0:0:0:0:
320,192,207297,1,0,0:0:0:0:
192,192,207360,1,0,0:0:0:0:
64,192,207422,1,0,0:0:0:0:
320,192,207485,1,0,0:0:0:0:
448,192,207485,1,0,0:0:0:0:
192,192,207547,1,0,0:0:0:0:
320,192,207610,1,0,0:0:0:0:
448,192,207672,1,0,0:0:0:0:
192,192,207735,1,0,0:0:0:0:
64,192,207735,1,0,0:0:0:0:
320,192,207797,1,0,0:0:0:0:
192,192,207860,1,0,0:0:0:0:
320,192,207922,1,0,0:0:0:0:
448,192,207985,1,0,0:0:0:0:
64,192,207985,1,0,0:0:0:0:
192,192,208047,1,0,0:0:0:0:
320,192,208110,1,0,0:0:0:0:
192,192,208172,1,0,0:0:0:0:
448,192,208235,1,0,0:0:0:0:
64,192,208235,1,0,0:0:0:0:
320,192,208297,1,0,0:0:0:0:
192,192,208360,1,0,0:0:0:0:
64,192,208422,1,0,0:0:0:0:
448,192,208485,1,0,0:0:0:0:
320,192,208485,1,0,0:0:0:0:
192,192,208547,1,0,0:0:0:0:
320,192,208610,1,0,0:0:0:0:
448,192,208672,1,0,0:0:0:0:
192,192,208735,1,0,0:0:0:0:
64,192,208735,1,0,0:0:0:0:
320,192,208797,1,0,0:0:0:0:
192,192,208860,1,0,0:0:0:0:
64,192,208922,1,0,0:0:0:0:
320,192,208985,1,0,0:0:0:0:
448,192,208985,1,0,0:0:0:0:
448,192,209235,1,0,0:0:0:0:
320,192,209235,1,0,0:0:0:0:
192,192,209235,1,0,0:0:0:0:
448,192,209485,1,0,0:0:0:0:
320,192,209485,1,0,0:0:0:0:
64,192,209485,1,0,0:0:0:0:
192,192,209485,1,0,0:0:0:0:
192,192,209610,1,0,0:0:0:0:
64,192,209610,1,0,0:0:0:0:
64,192,209735,1,0,0:0:0:0:
192,192,209735,1,0,0:0:0:0:
448,192,209735,1,0,0:0:0:0:
448,192,209860,1,0,0:0:0:0:
320,192,209860,1,0,0:0:0:0:
448,192,209985,1,0,0:0:0:0:
320,192,209985,1,0,0:0:0:0:
64,192,209985,1,0,0:0:0:0:
64,192,210110,1,0,0:0:0:0:
192,192,210110,1,0,0:0:0:0:
64,192,210235,1,0,0:0:0:0:
192,192,210235,1,0,0:0:0:0:
320,192,210235,1,0,0:0:0:0:
448,192,210360,1,0,0:0:0:0:
320,192,210360,1,0,0:0:0:0:
448,192,210485,1,0,0:0:0:0:
320,192,210485,1,0,0:0:0:0:
192,192,210485,1,0,0:0:0:0:
64,192,210610,1,0,0:0:0:0:
192,192,210610,1,0,0:0:0:0:
64,192,210735,1,0,0:0:0:0:
192,192,210735,1,0,0:0:0:0:
448,192,210735,1,0,0:0:0:0:
448,192,210860,1,0,0:0:0:0:
320,192,210860,1,0,0:0:0:0:
192,192,210922,1,0,0:0:0:0:
448,192,210985,1,0,0:0:0:0:
320,192,210985,1,0,0:0:0:0:
64,192,210985,1,0,0:0:0:0:
192,192,211110,1,0,0:0:0:0:
320,192,211110,1,0,0:0:0:0:
64,192,211235,1,0,0:0:0:0:
192,192,211235,1,0,0:0:0:0:
448,192,211235,1,0,0:0:0:0:
320,192,211360,1,0,0:0:0:0:
192,192,211360,1,0,0:0:0:0:
64,192,211485,1,0,0:0:0:0:
192,192,211485,1,0,0:0:0:0:
320,192,211485,1,0,0:0:0:0:
64,192,211610,1,0,0:0:0:0:
320,192,211610,1,0,0:0:0:0:
320,192,211735,1,0,0:0:0:0:
192,192,211735,1,0,0:0:0:0:
448,192,211735,1,0,0:0:0:0:
448,192,211860,1,0,0:0:0:0:
192,192,211860,1,0,0:0:0:0:
192,192,211985,1,0,0:0:0:0:
320,192,211985,1,0,0:0:0:0:
64,192,211985,1,0,0:0:0:0:
320,192,212110,1,0,0:0:0:0:
448,192,212110,1,0,0:0:0:0:
448,192,212235,1,0,0:0:0:0:
192,192,212235,1,0,0:0:0:0:
64,192,212235,1,0,0:0:0:0:
320,192,212360,1,0,0:0:0:0:
192,192,212360,1,0,0:0:0:0:
64,192,212485,1,0,0:0:0:0:
320,192,212485,1,0,0:0:0:0:
448,192,212485,1,0,0:0:0:0:
192,192,212610,1,0,0:0:0:0:
448,192,212610,1,0,0:0:0:0:
320,192,212735,1,0,0:0:0:0:
64,192,212735,1,0,0:0:0:0:
192,192,212735,1,0,0:0:0:0:
64,192,212860,1,0,0:0:0:0:
320,192,212860,1,0,0:0:0:0:
192,192,212985,1,0,0:0:0:0:
320,192,212985,1,0,0:0:0:0:
448,192,212985,1,0,0:0:0:0:
64,192,213110,1,0,0:0:0:0:
320,192,213110,1,0,0:0:0:0:
192,192,213172,1,0,0:0:0:0:
64,192,213235,1,0,0:0:0:0:
320,192,213235,1,0,0:0:0:0:
448,192,213235,1,0,0:0:0:0:
192,192,213360,1,0,0:0:0:0:
64,192,213360,1,0,0:0:0:0:
448,192,213360,1,0,0:0:0:0:
192,192,213485,1,0,0:0:0:0:
64,192,213485,1,0,0:0:0:0:
320,192,213485,1,0,0:0:0:0:
448,192,213610,1,0,0:0:0:0:
320,192,213610,1,0,0:0:0:0:
448,192,213735,1,0,0:0:0:0:
320,192,213735,1,0,0:0:0:0:
192,192,213735,1,0,0:0:0:0:
64,192,213860,1,0,0:0:0:0:
192,192,213860,1,0,0:0:0:0:
64,192,213985,1,0,0:0:0:0:
192,192,213985,1,0,0:0:0:0:
320,192,213985,1,0,0:0:0:0:
448,192,214110,1,0,0:0:0:0:
320,192,214110,1,0,0:0:0:0:
448,192,214235,1,0,0:0:0:0:
320,192,214235,1,0,0:0:0:0:
64,192,214235,1,0,0:0:0:0:
64,192,214360,1,0,0:0:0:0:
192,192,214360,1,0,0:0:0:0:
64,192,214485,1,0,0:0:0:0:
192,192,214485,1,0,0:0:0:0:
448,192,214485,1,0,0:0:0:0:
320,192,214610,1,0,0:0:0:0:
448,192,214610,1,0,0:0:0:0:
448,192,214735,1,0,0:0:0:0:
320,192,214735,1,0,0:0:0:0:
192,192,214735,1,0,0:0:0:0:
64,192,214860,1,0,0:0:0:0:
192,192,214860,1,0,0:0:0:0:
64,192,214985,1,0,0:0:0:0:
192,192,214985,1,0,0:0:0:0:
320,192,214985,1,0,0:0:0:0:
448,192,215110,1,0,0:0:0:0:
64,192,215110,1,0,0:0:0:0:
192,192,215172,1,0,0:0:0:0:
320,192,215172,1,0,0:0:0:0:
448,192,215235,1,0,0:0:0:0:
64,192,215235,1,0,0:0:0:0:
320,192,215360,1,0,0:0:0:0:
192,192,215360,1,0,0:0:0:0:
64,192,215485,128,0,215547:0:0:0:0:
192,192,215485,128,0,215547:0:0:0:0:
448,192,215610,128,0,215672:0:0:0:0:
320,192,215610,128,0,215672:0:0:0:0:
64,192,215735,128,0,215797:0:0:0:0:
320,192,215735,128,0,215797:0:0:0:0:
192,192,215860,128,0,215922:0:0:0:0:
448,192,215860,128,0,215922:0:0:0:0:
64,192,215985,128,0,216110:0:0:0:0:
448,192,215985,128,0,216110:0:0:0:0:
192,192,216110,128,0,216235:0:0:0:0:
320,192,216110,128,0,216235:0:0:0:0:
64,192,216235,128,0,216360:0:0:0:0:
448,192,216235,128,0,216360:0:0:0:0:
320,192,216360,128,0,216485:0:0:0:0:
192,192,216360,128,0,216485:0:0:0:0:
448,192,216485,128,0,216547:0:0:0:0:
64,192,216485,128,0,216547:0:0:0:0:
64,192,216610,128,0,216672:0:0:0:0:
320,192,216610,128,0,216672:0:0:0:0:
192,192,216735,128,0,216797:0:0:0:0:
64,192,216735,128,0,216797:0:0:0:0:
320,192,216860,128,0,216922:0:0:0:0:
64,192,216860,128,0,216922:0:0:0:0:
448,192,216985,1,0,0:0:0:0:
320,192,216985,1,0,0:0:0:0:
64,192,217047,1,0,0:0:0:0:
192,192,217047,1,0,0:0:0:0:
448,192,217110,1,0,0:0:0:0:
320,192,217110,1,0,0:0:0:0:
448,192,217235,1,0,0:0:0:0:
192,192,217235,1,0,0:0:0:0:
320,192,217360,1,0,0:0:0:0:
64,192,217360,1,0,0:0:0:0:
448,192,217485,1,0,0:0:0:0:
192,192,217485,1,0,0:0:0:0:
64,192,217485,1,0,0:0:0:0:
320,192,217547,1,0,0:0:0:0:
192,192,217610,1,0,0:0:0:0:
64,192,217672,1,0,0:0:0:0:
320,192,217735,1,0,0:0:0:0:
448,192,217735,1,0,0:0:0:0:
192,192,217797,1,0,0:0:0:0:
320,192,217860,1,0,0:0:0:0:
448,192,217922,1,0,0:0:0:0:
192,192,217985,1,0,0:0:0:0:
64,192,217985,1,0,0:0:0:0:
320,192,218047,1,0,0:0:0:0:
192,192,218110,1,0,0:0:0:0:
320,192,218172,1,0,0:0:0:0:
448,192,218235,1,0,0:0:0:0:
64,192,218235,1,0,0:0:0:0:
192,192,218297,1,0,0:0:0:0:
320,192,218360,1,0,0:0:0:0:
448,192,218422,1,0,0:0:0:0:
320,192,218485,1,0,0:0:0:0:
64,192,218485,1,0,0:0:0:0:
192,192,218547,1,0,0:0:0:0:
320,192,218610,1,0,0:0:0:0:
448,192,218672,1,0,0:0:0:0:
64,192,218735,1,0,0:0:0:0:
192,192,218735,1,0,0:0:0:0:
320,192,218797,1,0,0:0:0:0:
192,192,218860,1,0,0:0:0:0:
64,192,218922,1,0,0:0:0:0:
192,192,218985,1,0,0:0:0:0:
448,192,218985,1,0,0:0:0:0:
320,192,219047,1,0,0:0:0:0:
192,192,219110,1,0,0:0:0:0:
64,192,219172,1,0,0:0:0:0:
320,192,219235,1,0,0:0:0:0:
448,192,219235,1,0,0:0:0:0:
192,192,219297,1,0,0:0:0:0:
320,192,219360,1,0,0:0:0:0:
448,192,219422,1,0,0:0:0:0:
192,192,219485,1,0,0:0:0:0:
64,192,219485,1,0,0:0:0:0:
320,192,219547,1,0,0:0:0:0:
192,192,219610,1,0,0:0:0:0:
320,192,219672,1,0,0:0:0:0:
448,192,219735,1,0,0:0:0:0:
64,192,219735,1,0,0:0:0:0:
192,192,219797,1,0,0:0:0:0:
320,192,219860,1,0,0:0:0:0:
192,192,219922,1,0,0:0:0:0:
448,192,219985,1,0,0:0:0:0:
64,192,219985,1,0,0:0:0:0:
320,192,220047,1,0,0:0:0:0:
192,192,220110,1,0,0:0:0:0:
64,192,220172,1,0,0:0:0:0:
320,192,220235,1,0,0:0:0:0:
448,192,220235,1,0,0:0:0:0:
192,192,220297,1,0,0:0:0:0:
320,192,220360,1,0,0:0:0:0:
448,192,220422,1,0,0:0:0:0:
192,192,220485,1,0,0:0:0:0:
64,192,220485,1,0,0:0:0:0:
320,192,220547,1,0,0:0:0:0:
192,192,220610,1,0,0:0:0:0:
64,192,220672,1,0,0:0:0:0:
192,192,220735,1,0,0:0:0:0:
448,192,220735,1,0,0:0:0:0:
320,192,220797,1,0,0:0:0:0:
192,192,220860,1,0,0:0:0:0:
64,192,220922,1,0,0:0:0:0:
192,192,220985,1,0,0:0:0:0:
448,192,220985,1,0,0:0:0:0:
320,192,221047,1,0,0:0:0:0:
192,192,221110,1,0,0:0:0:0:
320,192,221172,1,0,0:0:0:0:
448,192,221235,1,0,0:0:0:0:
64,192,221235,1,0,0:0:0:0:
192,192,221297,1,0,0:0:0:0:
320,192,221360,1,0,0:0:0:0:
448,192,221422,1,0,0:0:0:0:
320,192,221485,1,0,0:0:0:0:
64,192,221485,1,0,0:0:0:0:
192,192,221547,1,0,0:0:0:0:
320,192,221610,1,0,0:0:0:0:
448,192,221672,1,0,0:0:0:0:
320,192,221735,1,0,0:0:0:0:
64,192,221735,1,0,0:0:0:0:
192,192,221797,1,0,0:0:0:0:
320,192,221860,1,0,0:0:0:0:
448,192,221922,1,0,0:0:0:0:
192,192,221985,1,0,0:0:0:0:
64,192,221985,1,0,0:0:0:0:
320,192,222047,1,0,0:0:0:0:
192,192,222110,1,0,0:0:0:0:
64,192,222172,1,0,0:0:0:0:
448,192,222235,1,0,0:0:0:0:
192,192,222235,1,0,0:0:0:0:
320,192,222297,1,0,0:0:0:0:
192,192,222360,1,0,0:0:0:0:
64,192,222422,1,0,0:0:0:0:
448,192,222485,1,0,0:0:0:0:
192,192,222485,1,0,0:0:0:0:
320,192,222547,1,0,0:0:0:0:
192,192,222610,1,0,0:0:0:0:
320,192,222672,1,0,0:0:0:0:
64,192,222735,1,0,0:0:0:0:
448,192,222735,1,0,0:0:0:0:
192,192,222797,1,0,0:0:0:0:
320,192,222860,1,0,0:0:0:0:
448,192,222922,1,0,0:0:0:0:
192,192,222985,1,0,0:0:0:0:
64,192,222985,1,0,0:0:0:0:
320,192,223047,1,0,0:0:0:0:
192,192,223110,1,0,0:0:0:0:
320,192,223172,1,0,0:0:0:0:
448,192,223235,1,0,0:0:0:0:
64,192,223235,1,0,0:0:0:0:
192,192,223297,1,0,0:0:0:0:
320,192,223360,1,0,0:0:0:0:
192,192,223422,1,0,0:0:0:0:
64,192,223485,1,0,0:0:0:0:
448,192,223485,1,0,0:0:0:0:
320,192,223547,1,0,0:0:0:0:
192,192,223610,1,0,0:0:0:0:
64,192,223672,1,0,0:0:0:0:
320,192,223735,1,0,0:0:0:0:
448,192,223735,1,0,0:0:0:0:
192,192,223797,1,0,0:0:0:0:
320,192,223860,1,0,0:0:0:0:
448,192,223922,1,0,0:0:0:0:
192,192,223985,1,0,0:0:0:0:
64,192,223985,1,0,0:0:0:0:
320,192,224047,1,0,0:0:0:0:
192,192,224110,1,0,0:0:0:0:
64,192,224172,1,0,0:0:0:0:
320,192,224235,1,0,0:0:0:0:
448,192,224235,1,0,0:0:0:0:
192,192,224297,1,0,0:0:0:0:
320,192,224360,1,0,0:0:0:0:
448,192,224422,1,0,0:0:0:0:
64,192,224485,1,0,0:0:0:0:
320,192,224485,1,0,0:0:0:0:
192,192,224547,1,0,0:0:0:0:
320,192,224610,1,0,0:0:0:0:
448,192,224672,1,0,0:0:0:0:
320,192,224735,1,0,0:0:0:0:
64,192,224735,1,0,0:0:0:0:
192,192,224797,1,0,0:0:0:0:
320,192,224860,1,0,0:0:0:0:
192,192,224922,1,0,0:0:0:0:
448,192,224985,1,0,0:0:0:0:
64,192,224985,1,0,0:0:0:0:
320,192,225047,1,0,0:0:0:0:
192,192,225110,1,0,0:0:0:0:
64,192,225172,1,0,0:0:0:0:
448,192,225235,1,0,0:0:0:0:
192,192,225235,1,0,0:0:0:0:
320,192,225297,1,0,0:0:0:0:
192,192,225360,1,0,0:0:0:0:
64,192,225422,1,0,0:0:0:0:
448,192,225485,1,0,0:0:0:0:
320,192,225485,1,0,0:0:0:0:
192,192,225485,1,0,0:0:0:0:
192,192,225735,1,0,0:0:0:0:
64,192,225735,1,0,0:0:0:0:
448,192,225860,1,0,0:0:0:0:
320,192,225860,1,0,0:0:0:0:
64,192,225985,1,0,0:0:0:0:
320,192,225985,1,0,0:0:0:0:
192,192,225985,1,0,0:0:0:0:
64,192,226360,1,0,0:0:0:0:
192,192,226360,1,0,0:0:0:0:
192,192,226485,1,0,0:0:0:0:
320,192,226485,1,0,0:0:0:0:
448,192,226485,1,0,0:0:0:0:
448,192,226860,1,0,0:0:0:0:
320,192,226860,1,0,0:0:0:0:
64,192,226985,1,0,0:0:0:0:
192,192,226985,1,0,0:0:0:0:
320,192,226985,1,0,0:0:0:0:
448,192,227235,1,0,0:0:0:0:
192,192,227235,1,0,0:0:0:0:
192,192,227360,1,0,0:0:0:0:
64,192,227360,1,0,0:0:0:0:
192,192,227485,1,0,0:0:0:0:
320,192,227485,1,0,0:0:0:0:
448,192,227485,1,0,0:0:0:0:
448,192,227860,1,0,0:0:0:0:
320,192,227860,1,0,0:0:0:0:
192,192,227985,1,0,0:0:0:0:
64,192,227985,1,0,0:0:0:0:
320,192,227985,1,0,0:0:0:0:
192,192,228360,1,0,0:0:0:0:
64,192,228360,1,0,0:0:0:0:
192,192,228485,1,0,0:0:0:0:
320,192,228485,1,0,0:0:0:0:
448,192,228485,1,0,0:0:0:0:
448,192,228860,1,0,0:0:0:0:
320,192,228860,1,0,0:0:0:0:
320,192,228985,1,0,0:0:0:0:
192,192,228985,1,0,0:0:0:0:
64,192,228985,1,0,0:0:0:0:
192,192,229235,1,0,0:0:0:0:
448,192,229235,1,0,0:0:0:0:
64,192,229360,1,0,0:0:0:0:
192,192,229360,1,0,0:0:0:0:
448,192,229485,1,0,0:0:0:0:
320,192,229485,1,0,0:0:0:0:
192,192,229485,1,0,0:0:0:0:
64,192,229610,1,0,0:0:0:0:
192,192,229651,1,0,0:0:0:0:
320,192,229693,1,0,0:0:0:0:
448,192,229735,1,0,0:0:0:0:
64,192,229735,1,0,0:0:0:0:
448,192,229860,1,0,0:0:0:0:
320,192,229901,1,0,0:0:0:0:
192,192,229943,1,0,0:0:0:0:
64,192,229985,1,0,0:0:0:0:
448,192,229985,1,0,0:0:0:0:
64,192,230110,1,0,0:0:0:0:
192,192,230151,1,0,0:0:0:0:
320,192,230193,1,0,0:0:0:0:
448,192,230235,1,0,0:0:0:0:
64,192,230235,1,0,0:0:0:0:
448,192,230360,1,0,0:0:0:0:
320,192,230401,1,0,0:0:0:0:
192,192,230443,1,0,0:0:0:0:
64,192,230485,1,0,0:0:0:0:
448,192,230485,1,0,0:0:0:0:
64,192,230610,1,0,0:0:0:0:
192,192,230651,1,0,0:0:0:0:
320,192,230693,1,0,0:0:0:0:
448,192,230735,1,0,0:0:0:0:
64,192,230735,1,0,0:0:0:0:
448,192,230860,1,0,0:0:0:0:
320,192,230901,1,0,0:0:0:0:
192,192,230943,1,0,0:0:0:0:
64,192,230985,1,0,0:0:0:0:
448,192,230985,1,0,0:0:0:0:
64,192,231110,1,0,0:0:0:0:
192,192,231151,1,0,0:0:0:0:
320,192,231193,1,0,0:0:0:0:
448,192,231235,1,0,0:0:0:0:
64,192,231235,1,0,0:0:0:0:
448,192,231360,1,0,0:0:0:0:
320,192,231401,1,0,0:0:0:0:
192,192,231443,1,0,0:0:0:0:
64,192,231485,1,0,0:0:0:0:
448,192,231485,1,0,0:0:0:0:
448,192,231610,1,0,0:0:0:0:
320,192,231651,1,0,0:0:0:0:
64,192,231693,1,0,0:0:0:0:
192,192,231735,1,0,0:0:0:0:
448,192,231776,1,0,0:0:0:0:
320,192,231818,1,0,0:0:0:0:
64,192,231860,1,0,0:0:0:0:
192,192,231901,1,0,0:0:0:0:
448,192,231943,1,0,0:0:0:0:
320,192,231985,1,0,0:0:0:0:
64,192,231985,1,0,0:0:0:0:
192,192,232110,1,0,0:0:0:0:
448,192,232151,1,0,0:0:0:0:
64,192,232193,1,0,0:0:0:0:
320,192,232235,1,0,0:0:0:0:
192,192,232276,1,0,0:0:0:0:
448,192,232318,1,0,0:0:0:0:
64,192,232360,1,0,0:0:0:0:
320,192,232401,1,0,0:0:0:0:
192,192,232443,1,0,0:0:0:0:
448,192,232485,1,0,0:0:0:0:
64,192,232485,1,0,0:0:0:0:
448,192,232610,1,0,0:0:0:0:
320,192,232651,1,0,0:0:0:0:
192,192,232693,1,0,0:0:0:0:
64,192,232735,1,0,0:0:0:0:
448,192,232776,1,0,0:0:0:0:
320,192,232818,1,0,0:0:0:0:
192,192,232860,1,0,0:0:0:0:
64,192,232901,1,0,0:0:0:0:
448,192,232943,1,0,0:0:0:0:
320,192,232985,1,0,0:0:0:0:
192,192,233026,1,0,0:0:0:0:
64,192,233068,1,0,0:0:0:0:
448,192,233110,1,0,0:0:0:0:
320,192,233151,1,0,0:0:0:0:
192,192,233193,1,0,0:0:0:0:
64,192,233235,1,0,0:0:0:0:
448,192,233276,1,0,0:0:0:0:
320,192,233318,1,0,0:0:0:0:
192,192,233360,1,0,0:0:0:0:
64,192,233401,1,0,0:0:0:0:
448,192,233443,1,0,0:0:0:0:
320,192,233485,1,0,0:0:0:0:
64,192,233485,1,0,0:0:0:0:
192,192,233610,1,0,0:0:0:0:
448,192,233735,1,0,0:0:0:0:
192,192,233735,1,0,0:0:0:0:
320,192,233860,1,0,0:0:0:0:
64,192,233985,1,0,0:0:0:0:
320,192,233985,1,0,0:0:0:0:
320,192,234110,1,0,0:0:0:0:
320,192,234235,1,0,0:0:0:0:
192,192,234235,1,0,0:0:0:0:
192,192,234360,1,0,0:0:0:0:
192,192,234485,1,0,0:0:0:0:
448,192,234485,1,0,0:0:0:0:
320,192,234610,1,0,0:0:0:0:
320,192,234735,1,0,0:0:0:0:
448,192,234735,1,0,0:0:0:0:
192,192,234860,1,0,0:0:0:0:
192,192,234985,1,0,0:0:0:0:
64,192,234985,1,0,0:0:0:0:
320,192,235110,1,0,0:0:0:0:
320,192,235235,1,0,0:0:0:0:
64,192,235235,1,0,0:0:0:0:
192,192,235360,1,0,0:0:0:0:
192,192,235485,1,0,0:0:0:0:
448,192,235485,1,0,0:0:0:0:
320,192,235610,1,0,0:0:0:0:
320,192,235735,1,0,0:0:0:0:
448,192,235735,1,0,0:0:0:0:
192,192,235860,1,0,0:0:0:0:
192,192,235985,1,0,0:0:0:0:
64,192,235985,1,0,0:0:0:0:
320,192,236110,1,0,0:0:0:0:
320,192,236235,1,0,0:0:0:0:
64,192,236235,1,0,0:0:0:0:
192,192,236360,1,0,0:0:0:0:
448,192,236485,1,0,0:0:0:0:
64,192,236485,1,0,0:0:0:0:
320,192,236547,1,0,0:0:0:0:
192,192,236610,1,0,0:0:0:0:
320,192,236672,1,0,0:0:0:0:
448,192,236735,1,0,0:0:0:0:
64,192,236735,1,0,0:0:0:0:
320,192,236860,1,0,0:0:0:0:
320,192,236985,1,0,0:0:0:0:
448,192,236985,1,0,0:0:0:0:
192,192,237110,1,0,0:0:0:0:
192,192,237235,1,0,0:0:0:0:
64,192,237235,1,0,0:0:0:0:
192,192,237360,1,0,0:0:0:0:
448,192,237360,1,0,0:0:0:0:
64,192,237485,1,0,0:0:0:0:
320,192,237485,1,0,0:0:0:0:
192,192,237610,1,0,0:0:0:0:
192,192,237735,1,0,0:0:0:0:
64,192,237735,1,0,0:0:0:0:
320,192,237860,1,0,0:0:0:0:
320,192,237985,1,0,0:0:0:0:
448,192,237985,1,0,0:0:0:0:
192,192,238110,1,0,0:0:0:0:
192,192,238235,1,0,0:0:0:0:
448,192,238235,1,0,0:0:0:0:
320,192,238360,1,0,0:0:0:0:
320,192,238485,1,0,0:0:0:0:
64,192,238485,1,0,0:0:0:0:
192,192,238610,1,0,0:0:0:0:
192,192,238735,1,0,0:0:0:0:
64,192,238735,1,0,0:0:0:0:
320,192,238860,1,0,0:0:0:0:
320,192,238985,1,0,0:0:0:0:
448,192,238985,1,0,0:0:0:0:
192,192,239110,1,0,0:0:0:0:
64,192,239110,1,0,0:0:0:0:
192,192,239360,1,0,0:0:0:0:
64,192,239360,1,0,0:0:0:0:
448,192,239485,1,0,0:0:0:0:
320,192,239485,1,0,0:0:0:0:
320,192,239610,1,0,0:0:0:0:
320,192,239735,1,0,0:0:0:0:
64,192,239735,1,0,0:0:0:0:
192,192,239860,1,0,0:0:0:0:
192,192,239985,1,0,0:0:0:0:
448,192,239985,1,0,0:0:0:0:
320,192,240110,1,0,0:0:0:0:
320,192,240235,1,0,0:0:0:0:
448,192,240235,1,0,0:0:0:0:
192,192,240360,1,0,0:0:0:0:
192,192,240485,1,0,0:0:0:0:
64,192,240485,1,0,0:0:0:0:
448,192,240485,1,0,0:0:0:0:
448,192,240735,1,0,0:0:0:0:
320,192,240735,1,0,0:0:0:0:
192,192,240735,1,0,0:0:0:0:
192,192,240985,1,0,0:0:0:0:
64,192,241047,1,0,0:0:0:0:
320,192,241110,1,0,0:0:0:0:
192,192,241172,1,0,0:0:0:0:
448,192,241235,1,0,0:0:0:0:
448,192,241360,1,0,0:0:0:0:
320,192,241360,1,0,0:0:0:0:
192,192,241485,1,0,0:0:0:0:
64,192,241485,1,0,0:0:0:0:
320,192,241485,1,0,0:0:0:0:
320,192,241610,1,0,0:0:0:0:
320,192,241735,1,0,0:0:0:0:
64,192,241735,1,0,0:0:0:0:
192,192,241860,1,0,0:0:0:0:
192,192,241985,1,0,0:0:0:0:
448,192,241985,1,0,0:0:0:0:
320,192,242110,1,0,0:0:0:0:
320,192,242235,1,0,0:0:0:0:
448,192,242235,1,0,0:0:0:0:
192,192,242360,1,0,0:0:0:0:
192,192,242485,1,0,0:0:0:0:
64,192,242485,1,0,0:0:0:0:
320,192,242610,1,0,0:0:0:0:
320,192,242735,1,0,0:0:0:0:
64,192,242735,1,0,0:0:0:0:
192,192,242860,1,0,0:0:0:0:
192,192,242985,1,0,0:0:0:0:
448,192,242985,1,0,0:0:0:0:
320,192,243110,1,0,0:0:0:0:
64,192,243110,1,0,0:0:0:0:
320,192,243235,1,0,0:0:0:0:
448,192,243235,1,0,0:0:0:0:
192,192,243360,1,0,0:0:0:0:
192,192,243485,1,0,0:0:0:0:
64,192,243485,1,0,0:0:0:0:
320,192,243610,1,0,0:0:0:0:
320,192,243735,1,0,0:0:0:0:
64,192,243735,1,0,0:0:0:0:
192,192,243860,1,0,0:0:0:0:
192,192,243985,1,0,0:0:0:0:
448,192,243985,1,0,0:0:0:0:
320,192,244110,1,0,0:0:0:0:
320,192,244235,1,0,0:0:0:0:
448,192,244235,1,0,0:0:0:0:
192,192,244360,1,0,0:0:0:0:
64,192,244485,1,0,0:0:0:0:
448,192,244485,1,0,0:0:0:0:
192,192,244547,1,0,0:0:0:0:
320,192,244610,1,0,0:0:0:0:
192,192,244672,1,0,0:0:0:0:
64,192,244735,1,0,0:0:0:0:
448,192,244735,1,0,0:0:0:0:
320,192,244860,1,0,0:0:0:0:
64,192,244985,1,0,0:0:0:0:
448,192,244985,1,0,0:0:0:0:
192,192,245110,1,0,0:0:0:0:
320,192,245235,1,0,0:0:0:0:
192,192,245235,1,0,0:0:0:0:
64,192,245360,1,0,0:0:0:0:
448,192,245360,1,0,0:0:0:0:
320,192,245485,1,0,0:0:0:0:
192,192,245485,1,0,0:0:0:0:
320,192,245610,1,0,0:0:0:0:
320,192,245735,1,0,0:0:0:0:
448,192,245735,1,0,0:0:0:0:
192,192,245860,1,0,0:0:0:0:
192,192,245985,1,0,0:0:0:0:
64,192,245985,1,0,0:0:0:0:
320,192,246110,1,0,0:0:0:0:
64,192,246235,1,0,0:0:0:0:
448,192,246235,1,0,0:0:0:0:
192,192,246297,1,0,0:0:0:0:
320,192,246360,1,0,0:0:0:0:
192,192,246422,1,0,0:0:0:0:
64,192,246485,1,0,0:0:0:0:
448,192,246485,1,0,0:0:0:0:
320,192,246610,1,0,0:0:0:0:
64,192,246735,1,0,0:0:0:0:
448,192,246735,1,0,0:0:0:0:
192,192,246860,1,0,0:0:0:0:
64,192,246985,1,0,0:0:0:0:
448,192,246985,1,0,0:0:0:0:
320,192,247110,1,0,0:0:0:0:
448,192,247235,1,0,0:0:0:0:
64,192,247235,1,0,0:0:0:0:
192,192,247297,1,0,0:0:0:0:
320,192,247360,1,0,0:0:0:0:
192,192,247422,1,0,0:0:0:0:
64,192,247485,1,0,0:0:0:0:
448,192,247485,1,0,0:0:0:0:
320,192,247610,1,0,0:0:0:0:
448,192,247735,128,0,247797:0:0:0:0:
192,192,247735,128,0,247797:0:0:0:0:
320,192,247860,128,0,247922:0:0:0:0:
64,192,247860,128,0,247922:0:0:0:0:
192,192,247985,1,0,0:0:0:0:
64,192,247985,1,0,0:0:0:0:
448,192,248235,1,0,0:0:0:0:
192,192,248235,1,0,0:0:0:0:
192,192,248360,1,0,0:0:0:0:
64,192,248360,1,0,0:0:0:0:
448,192,248485,128,0,248547:0:0:0:0:
320,192,248485,128,0,248547:0:0:0:0:
448,192,248610,128,0,248672:0:0:0:0:
192,192,248610,128,0,248672:0:0:0:0:
192,192,248735,1,0,0:0:0:0:
64,192,248735,1,0,0:0:0:0:
320,192,248860,128,0,248922:0:0:0:0:
448,192,248860,128,0,248922:0:0:0:0:
192,192,248985,1,0,0:0:0:0:
64,192,248985,1,0,0:0:0:0:
64,192,249110,128,0,249172:0:0:0:0:
320,192,249110,128,0,249172:0:0:0:0:
320,192,249235,128,0,249422:0:0:0:0:
448,192,249235,128,0,249422:0:0:0:0:
64,192,249485,1,0,0:0:0:0:
192,192,249485,1,0,0:0:0:0:
320,192,249485,1,0,0:0:0:0:
448,192,249485,1,0,0:0:0:0:
448,192,249985,1,0,0:0:0:0:
320,192,249985,1,0,0:0:0:0:
192,192,250110,1,0,0:0:0:0:
64,192,250110,1,0,0:0:0:0:
320,192,250235,1,0,0:0:0:0:
448,192,250235,1,0,0:0:0:0:
64,192,250360,1,0,0:0:0:0:
320,192,250360,1,0,0:0:0:0:
64,192,250485,1,0,0:0:0:0:
448,192,250485,1,0,0:0:0:0:
192,192,250485,128,0,250735:0:0:0:0:
320,192,250485,128,0,250735:0:0:0:0:
