osu file format v14

[General]
AudioFilename: Sacrifice for Justice.mp3
AudioLeadIn: 0
PreviewTime: 17010
Countdown: 0
SampleSet: Normal
StackLeniency: 0.7
Mode: 3
LetterboxInBreaks: 0
SpecialStyle: 0
WidescreenStoryboard: 0

[Editor]
Bookmarks: 38168,58378,68484,81115,101326,106378
DistanceSpacing: 1.2
BeatDivisor: 6
GridSize: 8
TimelineZoom: 1.5

[Metadata]
Title:Charts for X Girlz
TitleUnicode:Charts for X Girlz
Artist:Various Artists
ArtistUnicode:Various Artists
Creator:Chronocide
Version:RoughSketch - Sacrifice for Justice
Source:
Tags:Dense
BeatmapID:1113229
BeatmapSetID:524483

[Difficulty]
HPDrainRate:9
CircleSize:4
OverallDifficulty:8.5
ApproachRate:5
SliderMultiplier:1.4
SliderTickRate:1

[Events]
//Background and Video events
0,0,"Sacrifice for Justice.jpg",0,0
//Break Periods
//Storyboard Layer 0 (Background)
//Storyboard Layer 1 (Fail)
//Storyboard Layer 2 (Pass)
//Storyboard Layer 3 (Foreground)
//Storyboard Sound Samples

[TimingPoints]
2800,315.789473684211,4,1,0,30,1,0
17957,-100,4,1,0,30,0,1
37378,-100,4,1,0,30,0,0
81115,-100,4,1,0,30,0,1
101326,-100,4,1,0,30,0,0

[HitObjects]
64,192,2800,5,0,0:0:0:0:
448,192,2800,1,0,0:0:0:0:
320,192,3431,1,0,0:0:0:0:
64,192,3431,1,0,0:0:0:0:
192,192,4063,1,0,0:0:0:0:
448,192,4063,1,0,0:0:0:0:
320,192,4378,1,0,0:0:0:0:
192,192,4378,1,0,0:0:0:0:
64,192,4694,1,0,0:0:0:0:
320,192,4694,1,0,0:0:0:0:
448,192,5010,1,0,0:0:0:0:
320,192,5010,1,0,0:0:0:0:
192,192,5326,1,0,0:0:0:0:
64,192,5326,1,0,0:0:0:0:
192,192,5957,1,0,0:0:0:0:
448,192,5957,1,0,0:0:0:0:
64,192,6589,1,0,0:0:0:0:
320,192,6589,1,0,0:0:0:0:
192,192,6905,1,0,0:0:0:0:
320,192,6905,1,0,0:0:0:0:
64,192,7221,1,0,0:0:0:0:
448,192,7221,1,0,0:0:0:0:
320,192,7536,1,0,0:0:0:0:
192,192,7536,1,0,0:0:0:0:
448,192,7852,1,0,0:0:0:0:
64,192,7852,1,0,0:0:0:0:
192,192,7852,1,0,0:0:0:0:
64,192,8168,1,0,0:0:0:0:
192,192,8286,1,0,0:0:0:0:
320,192,8365,1,0,0:0:0:0:
64,192,8484,1,0,0:0:0:0:
448,192,8484,1,0,0:0:0:0:
320,192,8800,1,0,0:0:0:0:
64,192,8800,1,0,0:0:0:0:
448,192,8997,1,0,0:0:0:0:
192,192,9115,1,0,0:0:0:0:
64,192,9115,1,0,0:0:0:0:
448,192,9431,1,0,0:0:0:0:
320,192,9431,1,0,0:0:0:0:
64,192,9628,1,0,0:0:0:0:
192,192,9747,1,0,0:0:0:0:
448,192,9747,1,0,0:0:0:0:
320,192,9944,1,0,0:0:0:0:
64,192,10063,1,0,0:0:0:0:
192,192,10181,1,0,0:0:0:0:
448,192,10378,1,0,0:0:0:0:
320,192,10378,1,0,0:0:0:0:
64,192,10378,1,0,0:0:0:0:
192,192,10694,1,0,0:0:0:0:
448,192,10813,1,0,0:0:0:0:
64,192,10892,1,0,0:0:0:0:
320,192,11010,1,0,0:0:0:0:
448,192,11010,1,0,0:0:0:0:
320,192,11326,1,0,0:0:0:0:
192,192,11326,1,0,0:0:0:0:
64,192,11523,1,0,0:0:0:0:
448,192,11642,1,0,0:0:0:0:
192,192,11642,1,0,0:0:0:0:
320,192,11839,1,0,0:0:0:0:
64,192,11957,1,0,0:0:0:0:
192,192,12155,1,0,0:0:0:0:
448,192,12273,128,0,12747:0:0:0:0:
64,192,12905,1,0,0:0:0:0:
192,192,12905,1,0,0:0:0:0:
320,192,12905,1,0,0:0:0:0:
448,192,12905,1,0,0:0:0:0:
320,192,13063,1,0,0:0:0:0:
192,192,13221,1,0,0:0:0:0:
64,192,13221,1,0,0:0:0:0:
320,192,13378,1,0,0:0:0:0:
192,192,13536,1,0,0:0:0:0:
64,192,13536,1,0,0:0:0:0:
448,192,13536,1,0,0:0:0:0:
320,192,13694,1,0,0:0:0:0:
192,192,13852,1,0,0:0:0:0:
64,192,13852,1,0,0:0:0:0:
320,192,14010,1,0,0:0:0:0:
192,192,14168,1,0,0:0:0:0:
64,192,14168,1,0,0:0:0:0:
448,192,14326,1,0,0:0:0:0:
64,192,14484,1,0,0:0:0:0:
192,192,14484,1,0,0:0:0:0:
448,192,14642,1,0,0:0:0:0:
192,192,14800,1,0,0:0:0:0:
64,192,14800,1,0,0:0:0:0:
320,192,14800,1,0,0:0:0:0:
448,192,14957,1,0,0:0:0:0:
192,192,15115,1,0,0:0:0:0:
64,192,15115,1,0,0:0:0:0:
320,192,15115,1,0,0:0:0:0:
448,192,15273,1,0,0:0:0:0:
320,192,15431,1,0,0:0:0:0:
192,192,15431,1,0,0:0:0:0:
64,192,15589,1,0,0:0:0:0:
320,192,15589,1,0,0:0:0:0:
192,192,15747,1,0,0:0:0:0:
448,192,15747,1,0,0:0:0:0:
64,192,15905,1,0,0:0:0:0:
448,192,15905,1,0,0:0:0:0:
192,192,16063,1,0,0:0:0:0:
320,192,16063,1,0,0:0:0:0:
448,192,16221,5,0,0:0:0:0:
64,192,16221,1,0,0:0:0:0:
320,192,16378,1,0,0:0:0:0:
64,192,16378,1,0,0:0:0:0:
192,192,16536,1,0,0:0:0:0:
448,192,16536,1,0,0:0:0:0:
320,192,16694,1,0,0:0:0:0:
64,192,16773,1,0,0:0:0:0:
320,192,16852,128,0,17168:0:0:0:0:
448,192,16852,128,0,17168:0:0:0:0:
192,192,16931,1,0,0:0:0:0:
64,192,17010,1,0,0:0:0:0:
192,192,17089,1,0,0:0:0:0:
64,192,17168,1,0,0:0:0:0:
448,192,17326,5,0,0:0:0:0:
192,192,17326,1,0,0:0:0:0:
320,192,17484,1,0,0:0:0:0:
64,192,17642,128,0,17878:0:0:0:0:
192,192,17642,128,0,17878:0:0:0:0:
448,192,17642,128,0,17878:0:0:0:0:
448,192,17957,1,0,0:0:0:0:
320,192,17957,1,0,0:0:0:0:
192,192,17957,1,0,0:0:0:0:
64,192,18036,1,0,0:0:0:0:
192,192,18115,1,0,0:0:0:0:
64,192,18194,1,0,0:0:0:0:
320,192,18273,1,0,0:0:0:0:
192,192,18273,1,0,0:0:0:0:
448,192,18352,1,0,0:0:0:0:
320,192,18431,1,0,0:0:0:0:
448,192,18510,1,0,0:0:0:0:
192,192,18589,1,0,0:0:0:0:
64,192,18589,1,0,0:0:0:0:
448,192,18747,1,0,0:0:0:0:
320,192,18747,1,0,0:0:0:0:
320,192,18905,1,0,0:0:0:0:
192,192,18905,1,0,0:0:0:0:
64,192,18905,1,0,0:0:0:0:
448,192,18984,1,0,0:0:0:0:
320,192,19063,1,0,0:0:0:0:
448,192,19142,1,0,0:0:0:0:
320,192,19221,1,0,0:0:0:0:
192,192,19221,1,0,0:0:0:0:
64,192,19300,1,0,0:0:0:0:
192,192,19378,1,0,0:0:0:0:
64,192,19457,1,0,0:0:0:0:
448,192,19536,1,0,0:0:0:0:
320,192,19536,1,0,0:0:0:0:
192,192,19694,1,0,0:0:0:0:
64,192,19694,1,0,0:0:0:0:
448,192,19852,1,0,0:0:0:0:
64,192,19852,1,0,0:0:0:0:
320,192,19852,1,0,0:0:0:0:
64,192,20010,1,0,0:0:0:0:
192,192,20010,1,0,0:0:0:0:
448,192,20168,1,0,0:0:0:0:
320,192,20168,1,0,0:0:0:0:
64,192,20247,1,0,0:0:0:0:
448,192,20326,1,0,0:0:0:0:
320,192,20365,1,0,0:0:0:0:
192,192,20405,1,0,0:0:0:0:
64,192,20444,1,0,0:0:0:0:
320,192,20484,1,0,0:0:0:0:
448,192,20484,1,0,0:0:0:0:
192,192,20563,1,0,0:0:0:0:
320,192,20642,1,0,0:0:0:0:
448,192,20721,1,0,0:0:0:0:
192,192,20800,1,0,0:0:0:0:
64,192,20800,1,0,0:0:0:0:
320,192,20878,1,0,0:0:0:0:
192,192,20957,1,0,0:0:0:0:
320,192,21036,1,0,0:0:0:0:
448,192,21036,1,0,0:0:0:0:
64,192,21036,1,0,0:0:0:0:
64,192,21115,1,0,0:0:0:0:
192,192,21115,1,0,0:0:0:0:
448,192,21115,1,0,0:0:0:0:
448,192,21273,1,0,0:0:0:0:
320,192,21273,1,0,0:0:0:0:
192,192,21273,1,0,0:0:0:0:
64,192,21431,1,0,0:0:0:0:
192,192,21431,1,0,0:0:0:0:
320,192,21431,1,0,0:0:0:0:
448,192,21589,1,0,0:0:0:0:
64,192,21589,1,0,0:0:0:0:
320,192,21589,1,0,0:0:0:0:
192,192,21747,1,0,0:0:0:0:
320,192,21747,1,0,0:0:0:0:
448,192,21747,1,0,0:0:0:0:
64,192,21747,1,0,0:0:0:0:
448,192,21905,1,0,0:0:0:0:
64,192,21905,1,0,0:0:0:0:
192,192,22063,1,0,0:0:0:0:
320,192,22063,1,0,0:0:0:0:
64,192,22142,1,0,0:0:0:0:
448,192,22221,1,0,0:0:0:0:
320,192,22260,1,0,0:0:0:0:
192,192,22300,1,0,0:0:0:0:
64,192,22339,1,0,0:0:0:0:
320,192,22378,1,0,0:0:0:0:
448,192,22378,1,0,0:0:0:0:
64,192,22536,1,0,0:0:0:0:
192,192,22536,1,0,0:0:0:0:
320,192,22536,1,0,0:0:0:0:
192,192,22694,1,0,0:0:0:0:
320,192,22694,1,0,0:0:0:0:
448,192,22694,1,0,0:0:0:0:
64,192,22773,1,0,0:0:0:0:
192,192,22852,1,0,0:0:0:0:
64,192,22931,1,0,0:0:0:0:
320,192,23010,1,0,0:0:0:0:
192,192,23010,1,0,0:0:0:0:
448,192,23089,1,0,0:0:0:0:
320,192,23168,1,0,0:0:0:0:
448,192,23247,1,0,0:0:0:0:
192,192,23326,1,0,0:0:0:0:
320,192,23326,1,0,0:0:0:0:
64,192,23405,1,0,0:0:0:0:
192,192,23484,1,0,0:0:0:0:
64,192,23563,1,0,0:0:0:0:
192,192,23642,1,0,0:0:0:0:
320,192,23642,1,0,0:0:0:0:
320,192,23800,1,0,0:0:0:0:
448,192,23800,1,0,0:0:0:0:
192,192,23957,1,0,0:0:0:0:
448,192,23957,1,0,0:0:0:0:
320,192,23957,1,0,0:0:0:0:
448,192,24115,1,0,0:0:0:0:
64,192,24115,1,0,0:0:0:0:
320,192,24115,1,0,0:0:0:0:
192,192,24273,1,0,0:0:0:0:
320,192,24273,1,0,0:0:0:0:
64,192,24273,1,0,0:0:0:0:
448,192,24352,1,0,0:0:0:0:
320,192,24431,1,0,0:0:0:0:
448,192,24510,1,0,0:0:0:0:
320,192,24589,1,0,0:0:0:0:
192,192,24589,1,0,0:0:0:0:
64,192,24668,1,0,0:0:0:0:
192,192,24747,1,0,0:0:0:0:
64,192,24826,1,0,0:0:0:0:
192,192,24905,1,0,0:0:0:0:
320,192,24905,1,0,0:0:0:0:
448,192,24984,1,0,0:0:0:0:
320,192,25063,1,0,0:0:0:0:
448,192,25142,1,0,0:0:0:0:
320,192,25221,1,0,0:0:0:0:
192,192,25221,1,0,0:0:0:0:
64,192,25300,1,0,0:0:0:0:
448,192,25378,1,0,0:0:0:0:
320,192,25418,1,0,0:0:0:0:
192,192,25457,1,0,0:0:0:0:
64,192,25497,1,0,0:0:0:0:
320,192,25536,1,0,0:0:0:0:
448,192,25536,1,0,0:0:0:0:
192,192,25655,1,0,0:0:0:0:
64,192,25694,1,0,0:0:0:0:
320,192,25734,1,0,0:0:0:0:
448,192,25773,1,0,0:0:0:0:
192,192,25852,1,0,0:0:0:0:
64,192,25852,1,0,0:0:0:0:
320,192,25852,1,0,0:0:0:0:
320,192,25971,1,0,0:0:0:0:
448,192,26010,1,0,0:0:0:0:
192,192,26050,1,0,0:0:0:0:
64,192,26089,1,0,0:0:0:0:
448,192,26168,1,0,0:0:0:0:
320,192,26168,1,0,0:0:0:0:
192,192,26168,1,0,0:0:0:0:
192,192,26326,1,0,0:0:0:0:
64,192,26326,1,0,0:0:0:0:
448,192,26326,1,0,0:0:0:0:
448,192,26484,1,0,0:0:0:0:
320,192,26484,1,0,0:0:0:0:
192,192,26484,1,0,0:0:0:0:
320,192,26642,1,0,0:0:0:0:
192,192,26642,1,0,0:0:0:0:
64,192,26642,1,0,0:0:0:0:
448,192,26800,1,0,0:0:0:0:
320,192,26839,1,0,0:0:0:0:
192,192,26878,1,0,0:0:0:0:
64,192,26918,1,0,0:0:0:0:
448,192,26957,1,0,0:0:0:0:
320,192,26957,1,0,0:0:0:0:
192,192,27036,1,0,0:0:0:0:
320,192,27115,1,0,0:0:0:0:
192,192,27194,1,0,0:0:0:0:
320,192,27273,1,0,0:0:0:0:
448,192,27273,1,0,0:0:0:0:
64,192,27273,1,0,0:0:0:0:
192,192,27431,1,0,0:0:0:0:
64,192,27431,1,0,0:0:0:0:
448,192,27431,1,0,0:0:0:0:
64,192,27747,1,0,0:0:0:0:
192,192,27786,1,0,0:0:0:0:
320,192,27826,1,0,0:0:0:0:
448,192,27865,1,0,0:0:0:0:
64,192,27905,1,0,0:0:0:0:
192,192,27944,1,0,0:0:0:0:
448,192,27984,1,0,0:0:0:0:
320,192,28023,1,0,0:0:0:0:
192,192,28063,1,0,0:0:0:0:
64,192,28063,1,0,0:0:0:0:
448,192,28221,1,0,0:0:0:0:
192,192,28221,1,0,0:0:0:0:
320,192,28221,1,0,0:0:0:0:
192,192,28378,1,0,0:0:0:0:
64,192,28378,1,0,0:0:0:0:
320,192,28378,1,0,0:0:0:0:
448,192,28457,1,0,0:0:0:0:
320,192,28536,1,0,0:0:0:0:
448,192,28615,1,0,0:0:0:0:
320,192,28694,1,0,0:0:0:0:
192,192,28694,1,0,0:0:0:0:
64,192,28773,1,0,0:0:0:0:
192,192,28852,1,0,0:0:0:0:
64,192,28931,1,0,0:0:0:0:
192,192,29010,1,0,0:0:0:0:
320,192,29010,1,0,0:0:0:0:
448,192,29168,1,0,0:0:0:0:
64,192,29168,1,0,0:0:0:0:
320,192,29326,1,0,0:0:0:0:
192,192,29326,1,0,0:0:0:0:
448,192,29326,1,0,0:0:0:0:
448,192,29484,1,0,0:0:0:0:
192,192,29484,1,0,0:0:0:0:
192,192,29642,1,0,0:0:0:0:
320,192,29642,1,0,0:0:0:0:
64,192,29642,1,0,0:0:0:0:
448,192,29721,1,0,0:0:0:0:
320,192,29800,1,0,0:0:0:0:
448,192,29878,1,0,0:0:0:0:
320,192,29957,1,0,0:0:0:0:
192,192,29957,1,0,0:0:0:0:
64,192,30036,1,0,0:0:0:0:
192,192,30115,1,0,0:0:0:0:
64,192,30194,1,0,0:0:0:0:
320,192,30273,1,0,0:0:0:0:
192,192,30273,1,0,0:0:0:0:
448,192,30352,1,0,0:0:0:0:
64,192,30431,1,0,0:0:0:0:
192,192,30471,1,0,0:0:0:0:
320,192,30510,1,0,0:0:0:0:
448,192,30550,1,0,0:0:0:0:
192,192,30589,1,0,0:0:0:0:
64,192,30589,1,0,0:0:0:0:
320,192,30668,1,0,0:0:0:0:
192,192,30747,1,0,0:0:0:0:
320,192,30826,1,0,0:0:0:0:
192,192,30905,1,0,0:0:0:0:
64,192,30905,1,0,0:0:0:0:
448,192,30984,1,0,0:0:0:0:
320,192,31063,1,0,0:0:0:0:
448,192,31142,1,0,0:0:0:0:
320,192,31221,1,0,0:0:0:0:
192,192,31221,1,0,0:0:0:0:
192,192,31378,1,0,0:0:0:0:
448,192,31378,1,0,0:0:0:0:
192,192,31536,1,0,0:0:0:0:
320,192,31536,1,0,0:0:0:0:
64,192,31536,1,0,0:0:0:0:
448,192,31615,1,0,0:0:0:0:
320,192,31694,1,0,0:0:0:0:
448,192,31773,1,0,0:0:0:0:
320,192,31852,1,0,0:0:0:0:
192,192,31852,1,0,0:0:0:0:
64,192,31931,1,0,0:0:0:0:
448,192,32010,1,0,0:0:0:0:
320,192,32050,1,0,0:0:0:0:
192,192,32089,1,0,0:0:0:0:
64,192,32128,1,0,0:0:0:0:
320,192,32168,1,0,0:0:0:0:
448,192,32168,1,0,0:0:0:0:
192,192,32247,1,0,0:0:0:0:
64,192,32326,1,0,0:0:0:0:
192,192,32365,1,0,0:0:0:0:
320,192,32405,1,0,0:0:0:0:
448,192,32444,1,0,0:0:0:0:
192,192,32484,1,0,0:0:0:0:
64,192,32484,1,0,0:0:0:0:
320,192,32563,1,0,0:0:0:0:
448,192,32642,1,0,0:0:0:0:
320,192,32721,1,0,0:0:0:0:
64,192,32800,1,0,0:0:0:0:
192,192,32839,1,0,0:0:0:0:
448,192,32878,1,0,0:0:0:0:
320,192,32918,1,0,0:0:0:0:
192,192,32957,1,0,0:0:0:0:
64,192,32997,1,0,0:0:0:0:
320,192,33036,1,0,0:0:0:0:
448,192,33076,1,0,0:0:0:0:
192,192,33115,1,0,0:0:0:0:
64,192,33115,1,0,0:0:0:0:
448,192,33273,1,0,0:0:0:0:
320,192,33273,1,0,0:0:0:0:
192,192,33273,1,0,0:0:0:0:
320,192,33431,1,0,0:0:0:0:
192,192,33431,1,0,0:0:0:0:
64,192,33431,1,0,0:0:0:0:
448,192,33589,1,0,0:0:0:0:
64,192,33589,1,0,0:0:0:0:
192,192,33589,1,0,0:0:0:0:
64,192,33747,1,0,0:0:0:0:
448,192,33747,1,0,0:0:0:0:
320,192,33747,1,0,0:0:0:0:
64,192,33905,1,0,0:0:0:0:
192,192,33944,1,0,0:0:0:0:
320,192,33984,1,0,0:0:0:0:
448,192,34023,1,0,0:0:0:0:
64,192,34063,1,0,0:0:0:0:
192,192,34102,1,0,0:0:0:0:
320,192,34142,1,0,0:0:0:0:
448,192,34181,1,0,0:0:0:0:
192,192,34221,1,0,0:0:0:0:
64,192,34221,1,0,0:0:0:0:
320,192,34300,1,0,0:0:0:0:
192,192,34378,1,0,0:0:0:0:
64,192,34457,1,0,0:0:0:0:
320,192,34536,1,0,0:0:0:0:
448,192,34536,1,0,0:0:0:0:
192,192,34536,1,0,0:0:0:0:
320,192,34694,1,0,0:0:0:0:
64,192,34694,1,0,0:0:0:0:
192,192,34694,1,0,0:0:0:0:
448,192,34852,1,0,0:0:0:0:
320,192,34892,1,0,0:0:0:0:
192,192,34931,1,0,0:0:0:0:
64,192,34971,1,0,0:0:0:0:
448,192,35010,1,0,0:0:0:0:
320,192,35010,1,0,0:0:0:0:
448,192,35168,1,0,0:0:0:0:
64,192,35168,1,0,0:0:0:0:
192,192,35247,1,0,0:0:0:0:
320,192,35247,1,0,0:0:0:0:
64,192,35326,1,0,0:0:0:0:
448,192,35326,1,0,0:0:0:0:
64,192,35484,1,0,0:0:0:0:
192,192,35523,1,0,0:0:0:0:
320,192,35563,1,0,0:0:0:0:
448,192,35602,1,0,0:0:0:0:
192,192,35642,1,0,0:0:0:0:
64,192,35642,1,0,0:0:0:0:
320,192,35721,1,0,0:0:0:0:
192,192,35800,1,0,0:0:0:0:
64,192,35878,1,0,0:0:0:0:
320,192,35957,1,0,0:0:0:0:
448,192,35957,1,0,0:0:0:0:
64,192,36036,1,0,0:0:0:0:
192,192,36036,1,0,0:0:0:0:
320,192,36115,1,0,0:0:0:0:
448,192,36115,1,0,0:0:0:0:
192,192,36194,1,0,0:0:0:0:
64,192,36194,1,0,0:0:0:0:
320,192,36273,1,0,0:0:0:0:
448,192,36273,1,0,0:0:0:0:
64,192,36352,1,0,0:0:0:0:
192,192,36431,1,0,0:0:0:0:
320,192,36431,1,0,0:0:0:0:
448,192,36431,1,0,0:0:0:0:
64,192,36589,1,0,0:0:0:0:
192,192,36628,1,0,0:0:0:0:
320,192,36668,1,0,0:0:0:0:
448,192,36707,1,0,0:0:0:0:
192,192,36747,1,0,0:0:0:0:
64,192,36747,1,0,0:0:0:0:
320,192,36826,1,0,0:0:0:0:
192,192,36905,1,0,0:0:0:0:
64,192,36984,1,0,0:0:0:0:
192,192,37063,1,0,0:0:0:0:
320,192,37063,1,0,0:0:0:0:
448,192,37063,1,0,0:0:0:0:
64,192,37142,1,0,0:0:0:0:
192,192,37221,1,0,0:0:0:0:
320,192,37300,1,0,0:0:0:0:
448,192,37378,1,0,0:0:0:0:
64,192,37378,1,0,0:0:0:0:
192,192,37694,1,0,0:0:0:0:
448,192,37773,1,0,0:0:0:0:
64,192,37852,1,0,0:0:0:0:
320,192,37931,1,0,0:0:0:0:
192,192,38010,1,0,0:0:0:0:
448,192,38089,1,0,0:0:0:0:
192,192,38168,1,0,0:0:0:0:
64,192,38168,1,0,0:0:0:0:
320,192,38326,1,0,0:0:0:0:
448,192,38326,1,0,0:0:0:0:
448,192,38484,1,0,0:0:0:0:
64,192,38484,1,0,0:0:0:0:
448,192,38642,1,0,0:0:0:0:
320,192,38642,1,0,0:0:0:0:
192,192,38800,1,0,0:0:0:0:
64,192,38800,1,0,0:0:0:0:
448,192,38957,1,0,0:0:0:0:
64,192,38957,1,0,0:0:0:0:
192,192,39273,1,0,0:0:0:0:
64,192,39273,1,0,0:0:0:0:
320,192,39431,1,0,0:0:0:0:
448,192,39431,1,0,0:0:0:0:
192,192,39589,1,0,0:0:0:0:
64,192,39589,1,0,0:0:0:0:
448,192,39747,1,0,0:0:0:0:
64,192,39747,1,0,0:0:0:0:
192,192,39905,1,0,0:0:0:0:
64,192,39905,1,0,0:0:0:0:
320,192,40063,1,0,0:0:0:0:
448,192,40063,1,0,0:0:0:0:
448,192,40221,1,0,0:0:0:0:
64,192,40221,1,0,0:0:0:0:
448,192,40378,1,0,0:0:0:0:
320,192,40378,1,0,0:0:0:0:
192,192,40536,1,0,0:0:0:0:
320,192,40536,1,0,0:0:0:0:
64,192,40615,1,0,0:0:0:0:
448,192,40615,1,0,0:0:0:0:
320,192,40694,1,0,0:0:0:0:
192,192,40694,1,0,0:0:0:0:
320,192,40852,1,0,0:0:0:0:
448,192,40852,1,0,0:0:0:0:
448,192,41010,1,0,0:0:0:0:
64,192,41010,1,0,0:0:0:0:
320,192,41168,1,0,0:0:0:0:
448,192,41168,1,0,0:0:0:0:
192,192,41326,1,0,0:0:0:0:
64,192,41326,1,0,0:0:0:0:
448,192,41484,1,0,0:0:0:0:
64,192,41484,1,0,0:0:0:0:
320,192,41800,1,0,0:0:0:0:
448,192,41800,1,0,0:0:0:0:
192,192,41957,1,0,0:0:0:0:
64,192,41957,1,0,0:0:0:0:
320,192,42115,1,0,0:0:0:0:
448,192,42115,1,0,0:0:0:0:
448,192,42273,1,0,0:0:0:0:
64,192,42273,1,0,0:0:0:0:
320,192,42431,1,0,0:0:0:0:
448,192,42431,1,0,0:0:0:0:
192,192,42589,1,0,0:0:0:0:
64,192,42589,1,0,0:0:0:0:
448,192,42747,1,0,0:0:0:0:
64,192,42747,1,0,0:0:0:0:
320,192,42905,1,0,0:0:0:0:
192,192,42905,1,0,0:0:0:0:
64,192,42984,1,0,0:0:0:0:
448,192,42984,1,0,0:0:0:0:
320,192,43063,1,0,0:0:0:0:
192,192,43063,1,0,0:0:0:0:
64,192,43142,1,0,0:0:0:0:
448,192,43142,1,0,0:0:0:0:
320,192,43221,1,0,0:0:0:0:
192,192,43221,1,0,0:0:0:0:
192,192,43378,1,0,0:0:0:0:
64,192,43378,1,0,0:0:0:0:
448,192,43536,1,0,0:0:0:0:
64,192,43536,1,0,0:0:0:0:
192,192,43694,1,0,0:0:0:0:
64,192,43694,1,0,0:0:0:0:
320,192,43852,1,0,0:0:0:0:
448,192,43852,1,0,0:0:0:0:
448,192,44010,1,0,0:0:0:0:
64,192,44010,1,0,0:0:0:0:
192,192,44326,1,0,0:0:0:0:
64,192,44326,1,0,0:0:0:0:
320,192,44484,1,0,0:0:0:0:
448,192,44484,1,0,0:0:0:0:
192,192,44642,1,0,0:0:0:0:
64,192,44642,1,0,0:0:0:0:
64,192,44800,1,0,0:0:0:0:
448,192,44800,1,0,0:0:0:0:
192,192,44957,1,0,0:0:0:0:
64,192,44957,1,0,0:0:0:0:
320,192,45115,1,0,0:0:0:0:
448,192,45115,1,0,0:0:0:0:
448,192,45273,1,0,0:0:0:0:
64,192,45273,1,0,0:0:0:0:
320,192,45431,1,0,0:0:0:0:
448,192,45431,1,0,0:0:0:0:
192,192,45589,1,0,0:0:0:0:
320,192,45589,1,0,0:0:0:0:
64,192,45668,1,0,0:0:0:0:
448,192,45668,1,0,0:0:0:0:
320,192,45747,1,0,0:0:0:0:
192,192,45747,1,0,0:0:0:0:
192,192,45905,1,0,0:0:0:0:
64,192,45905,1,0,0:0:0:0:
448,192,46063,1,0,0:0:0:0:
64,192,46063,1,0,0:0:0:0:
64,192,46221,1,0,0:0:0:0:
192,192,46221,1,0,0:0:0:0:
320,192,46378,1,0,0:0:0:0:
448,192,46378,1,0,0:0:0:0:
448,192,46536,1,0,0:0:0:0:
64,192,46536,1,0,0:0:0:0:
192,192,46852,1,0,0:0:0:0:
64,192,46852,1,0,0:0:0:0:
448,192,47010,1,0,0:0:0:0:
320,192,47010,1,0,0:0:0:0:
192,192,47168,1,0,0:0:0:0:
64,192,47168,1,0,0:0:0:0:
192,192,47326,1,0,0:0:0:0:
320,192,47326,1,0,0:0:0:0:
64,192,47405,1,0,0:0:0:0:
448,192,47405,1,0,0:0:0:0:
192,192,47484,1,0,0:0:0:0:
320,192,47484,1,0,0:0:0:0:
448,192,47642,1,0,0:0:0:0:
64,192,47642,1,0,0:0:0:0:
192,192,47800,1,0,0:0:0:0:
320,192,47800,1,0,0:0:0:0:
64,192,47800,1,0,0:0:0:0:
448,192,47800,1,0,0:0:0:0:
64,192,48115,1,0,0:0:0:0:
320,192,48194,1,0,0:0:0:0:
448,192,48273,1,0,0:0:0:0:
192,192,48273,1,0,0:0:0:0:
320,192,48431,1,0,0:0:0:0:
64,192,48431,1,0,0:0:0:0:
448,192,48589,1,0,0:0:0:0:
64,192,48589,1,0,0:0:0:0:
320,192,48747,1,0,0:0:0:0:
64,192,48747,1,0,0:0:0:0:
192,192,48905,1,0,0:0:0:0:
448,192,48905,1,0,0:0:0:0:
448,192,49063,1,0,0:0:0:0:
64,192,49063,1,0,0:0:0:0:
320,192,49378,1,0,0:0:0:0:
64,192,49378,1,0,0:0:0:0:
192,192,49536,1,0,0:0:0:0:
448,192,49536,1,0,0:0:0:0:
320,192,49694,1,0,0:0:0:0:
64,192,49694,1,0,0:0:0:0:
64,192,49852,1,0,0:0:0:0:
448,192,49852,1,0,0:0:0:0:
320,192,50010,1,0,0:0:0:0:
64,192,50010,1,0,0:0:0:0:
192,192,50168,1,0,0:0:0:0:
448,192,50168,1,0,0:0:0:0:
448,192,50326,1,0,0:0:0:0:
64,192,50326,1,0,0:0:0:0:
192,192,50484,1,0,0:0:0:0:
448,192,50484,1,0,0:0:0:0:
64,192,50642,1,0,0:0:0:0:
320,192,50642,1,0,0:0:0:0:
192,192,50721,1,0,0:0:0:0:
448,192,50721,1,0,0:0:0:0:
320,192,50800,1,0,0:0:0:0:
64,192,50800,1,0,0:0:0:0:
192,192,50957,1,0,0:0:0:0:
448,192,50957,1,0,0:0:0:0:
448,192,51115,1,0,0:0:0:0:
64,192,51115,1,0,0:0:0:0:
192,192,51273,1,0,0:0:0:0:
448,192,51273,1,0,0:0:0:0:
320,192,51431,1,0,0:0:0:0:
64,192,51431,1,0,0:0:0:0:
64,192,51589,1,0,0:0:0:0:
448,192,51589,1,0,0:0:0:0:
192,192,51905,1,0,0:0:0:0:
448,192,51905,1,0,0:0:0:0:
320,192,52063,1,0,0:0:0:0:
64,192,52063,1,0,0:0:0:0:
192,192,52221,1,0,0:0:0:0:
448,192,52221,1,0,0:0:0:0:
448,192,52378,1,0,0:0:0:0:
64,192,52378,1,0,0:0:0:0:
320,192,52536,1,0,0:0:0:0:
64,192,52536,1,0,0:0:0:0:
192,192,52694,1,0,0:0:0:0:
448,192,52694,1,0,0:0:0:0:
448,192,52852,1,0,0:0:0:0:
64,192,52852,1,0,0:0:0:0:
448,192,53010,1,0,0:0:0:0:
192,192,53010,1,0,0:0:0:0:
320,192,53089,1,0,0:0:0:0:
64,192,53089,1,0,0:0:0:0:
192,192,53168,1,0,0:0:0:0:
448,192,53168,1,0,0:0:0:0:
320,192,53247,1,0,0:0:0:0:
64,192,53247,1,0,0:0:0:0:
192,192,53326,1,0,0:0:0:0:
448,192,53326,1,0,0:0:0:0:
320,192,53484,1,0,0:0:0:0:
64,192,53484,1,0,0:0:0:0:
64,192,53642,1,0,0:0:0:0:
448,192,53642,1,0,0:0:0:0:
64,192,53800,1,0,0:0:0:0:
320,192,53800,1,0,0:0:0:0:
192,192,53957,1,0,0:0:0:0:
448,192,53957,1,0,0:0:0:0:
448,192,54115,1,0,0:0:0:0:
64,192,54115,1,0,0:0:0:0:
64,192,54431,1,0,0:0:0:0:
320,192,54431,1,0,0:0:0:0:
192,192,54589,1,0,0:0:0:0:
320,192,54589,1,0,0:0:0:0:
320,192,54747,1,0,0:0:0:0:
64,192,54747,1,0,0:0:0:0:
64,192,54905,1,0,0:0:0:0:
448,192,54905,1,0,0:0:0:0:
64,192,55063,1,0,0:0:0:0:
320,192,55063,1,0,0:0:0:0:
192,192,55221,1,0,0:0:0:0:
448,192,55221,1,0,0:0:0:0:
64,192,55378,1,0,0:0:0:0:
448,192,55378,1,0,0:0:0:0:
192,192,55536,1,0,0:0:0:0:
448,192,55536,1,0,0:0:0:0:
320,192,55694,1,0,0:0:0:0:
64,192,55694,1,0,0:0:0:0:
192,192,55773,1,0,0:0:0:0:
448,192,55773,1,0,0:0:0:0:
320,192,55852,1,0,0:0:0:0:
64,192,55852,1,0,0:0:0:0:
192,192,56010,1,0,0:0:0:0:
448,192,56010,1,0,0:0:0:0:
448,192,56168,1,0,0:0:0:0:
64,192,56168,1,0,0:0:0:0:
448,192,56326,1,0,0:0:0:0:
192,192,56326,1,0,0:0:0:0:
320,192,56484,1,0,0:0:0:0:
64,192,56484,1,0,0:0:0:0:
192,192,56642,1,0,0:0:0:0:
448,192,56642,1,0,0:0:0:0:
320,192,56721,1,0,0:0:0:0:
64,192,56721,1,0,0:0:0:0:
192,192,56800,1,0,0:0:0:0:
448,192,56800,1,0,0:0:0:0:
320,192,56878,1,0,0:0:0:0:
64,192,56878,1,0,0:0:0:0:
192,192,56957,1,0,0:0:0:0:
448,192,56957,1,0,0:0:0:0:
320,192,57036,1,0,0:0:0:0:
64,192,57036,1,0,0:0:0:0:
192,192,57115,1,0,0:0:0:0:
448,192,57115,1,0,0:0:0:0:
320,192,57155,1,0,0:0:0:0:
64,192,57234,5,0,0:0:0:0:
192,192,57273,1,0,0:0:0:0:
448,192,57313,1,0,0:0:0:0:
320,192,57392,1,0,0:0:0:0:
64,192,57431,1,0,0:0:0:0:
192,192,57471,1,0,0:0:0:0:
448,192,57550,1,0,0:0:0:0:
320,192,57589,1,0,0:0:0:0:
64,192,57628,1,0,0:0:0:0:
192,192,57707,1,0,0:0:0:0:
448,192,57747,1,0,0:0:0:0:
320,192,57786,1,0,0:0:0:0:
64,192,57865,1,0,0:0:0:0:
192,192,57905,1,0,0:0:0:0:
448,192,57944,1,0,0:0:0:0:
320,192,58023,1,0,0:0:0:0:
64,192,58063,1,0,0:0:0:0:
192,192,58102,1,0,0:0:0:0:
448,192,58181,1,0,0:0:0:0:
320,192,58221,1,0,0:0:0:0:
64,192,58260,1,0,0:0:0:0:
192,192,58339,1,0,0:0:0:0:
448,192,58378,128,0,59326:0:0:0:0:
320,192,59484,128,0,59642:0:0:0:0:
64,192,59642,128,0,60668:0:0:0:0:
448,192,60668,128,0,60747:0:0:0:0:
320,192,60747,128,0,60826:0:0:0:0:
64,192,60826,128,0,60905:0:0:0:0:
192,192,60905,128,0,62957:0:0:0:0:
448,192,62957,128,0,63352:0:0:0:0:
64,192,63431,1,0,0:0:0:0:
192,192,63431,128,0,64221:0:0:0:0:
448,192,64221,128,0,64536:0:0:0:0:
64,192,64536,128,0,65563:0:0:0:0:
320,192,65642,128,0,65878:0:0:0:0:
320,192,65957,128,0,67221:0:0:0:0:
64,192,65957,1,0,0:0:0:0:
64,192,67221,128,0,67536:0:0:0:0:
448,192,67536,5,0,0:0:0:0:
320,192,67576,1,0,0:0:0:0:
192,192,67615,1,0,0:0:0:0:
64,192,67655,1,0,0:0:0:0:
448,192,67694,1,0,0:0:0:0:
320,192,67734,1,0,0:0:0:0:
192,192,67773,1,0,0:0:0:0:
64,192,67813,1,0,0:0:0:0:
448,192,67852,1,0,0:0:0:0:
320,192,67892,1,0,0:0:0:0:
192,192,67931,1,0,0:0:0:0:
64,192,67971,1,0,0:0:0:0:
448,192,68010,1,0,0:0:0:0:
320,192,68050,1,0,0:0:0:0:
192,192,68089,1,0,0:0:0:0:
64,192,68128,1,0,0:0:0:0:
448,192,68168,1,0,0:0:0:0:
320,192,68207,1,0,0:0:0:0:
192,192,68247,1,0,0:0:0:0:
64,192,68286,1,0,0:0:0:0:
448,192,68326,1,0,0:0:0:0:
320,192,68365,1,0,0:0:0:0:
192,192,68405,1,0,0:0:0:0:
64,192,68444,1,0,0:0:0:0:
320,192,68484,1,0,0:0:0:0:
448,192,68484,1,0,0:0:0:0:
64,192,68681,1,0,0:0:0:0:
192,192,68800,1,0,0:0:0:0:
448,192,68800,1,0,0:0:0:0:
320,192,68918,1,0,0:0:0:0:
64,192,68997,1,0,0:0:0:0:
448,192,69115,1,0,0:0:0:0:
320,192,69115,1,0,0:0:0:0:
64,192,69313,1,0,0:0:0:0:
192,192,69431,1,0,0:0:0:0:
448,192,69431,1,0,0:0:0:0:
320,192,69628,1,0,0:0:0:0:
64,192,69747,1,0,0:0:0:0:
192,192,69747,1,0,0:0:0:0:
192,192,69944,1,0,0:0:0:0:
320,192,70063,1,0,0:0:0:0:
448,192,70063,1,0,0:0:0:0:
320,192,70260,1,0,0:0:0:0:
192,192,70378,1,0,0:0:0:0:
64,192,70378,1,0,0:0:0:0:
64,192,70576,1,0,0:0:0:0:
320,192,70694,1,0,0:0:0:0:
448,192,70694,1,0,0:0:0:0:
192,192,70813,1,0,0:0:0:0:
448,192,71010,1,0,0:0:0:0:
64,192,71010,1,0,0:0:0:0:
320,192,71010,1,0,0:0:0:0:
192,192,71207,1,0,0:0:0:0:
448,192,71326,1,0,0:0:0:0:
64,192,71326,1,0,0:0:0:0:
320,192,71444,1,0,0:0:0:0:
192,192,71523,1,0,0:0:0:0:
320,192,71642,1,0,0:0:0:0:
64,192,71642,1,0,0:0:0:0:
448,192,71839,1,0,0:0:0:0:
192,192,71957,1,0,0:0:0:0:
64,192,71957,1,0,0:0:0:0:
64,192,72155,1,0,0:0:0:0:
320,192,72273,1,0,0:0:0:0:
448,192,72273,1,0,0:0:0:0:
320,192,72471,1,0,0:0:0:0:
192,192,72589,1,0,0:0:0:0:
64,192,72589,1,0,0:0:0:0:
192,192,72786,1,0,0:0:0:0:
320,192,72905,1,0,0:0:0:0:
448,192,72905,1,0,0:0:0:0:
64,192,73023,1,0,0:0:0:0:
192,192,73102,1,0,0:0:0:0:
448,192,73221,1,0,0:0:0:0:
320,192,73221,1,0,0:0:0:0:
64,192,73339,1,0,0:0:0:0:
448,192,73536,1,0,0:0:0:0:
320,192,73536,1,0,0:0:0:0:
192,192,73536,1,0,0:0:0:0:
64,192,73734,1,0,0:0:0:0:
448,192,73852,1,0,0:0:0:0:
192,192,73852,1,0,0:0:0:0:
320,192,73971,1,0,0:0:0:0:
192,192,74050,1,0,0:0:0:0:
64,192,74168,1,0,0:0:0:0:
320,192,74168,1,0,0:0:0:0:
320,192,74365,1,0,0:0:0:0:
448,192,74484,1,0,0:0:0:0:
192,192,74484,1,0,0:0:0:0:
320,192,74681,1,0,0:0:0:0:
64,192,74800,1,0,0:0:0:0:
448,192,74800,1,0,0:0:0:0:
192,192,74997,1,0,0:0:0:0:
320,192,75115,1,0,0:0:0:0:
64,192,75115,1,0,0:0:0:0:
320,192,75313,1,0,0:0:0:0:
192,192,75431,1,0,0:0:0:0:
448,192,75431,1,0,0:0:0:0:
448,192,75628,1,0,0:0:0:0:
192,192,75747,1,0,0:0:0:0:
64,192,75747,1,0,0:0:0:0:
320,192,75865,1,0,0:0:0:0:
192,192,76063,1,0,0:0:0:0:
320,192,76063,1,0,0:0:0:0:
448,192,76063,1,0,0:0:0:0:
64,192,76142,1,0,0:0:0:0:
192,192,76221,1,0,0:0:0:0:
320,192,76300,1,0,0:0:0:0:
448,192,76378,1,0,0:0:0:0:
320,192,76457,1,0,0:0:0:0:
192,192,76536,1,0,0:0:0:0:
64,192,76615,1,0,0:0:0:0:
192,192,76694,1,0,0:0:0:0:
320,192,76773,1,0,0:0:0:0:
448,192,76852,1,0,0:0:0:0:
320,192,76931,1,0,0:0:0:0:
192,192,77010,1,0,0:0:0:0:
64,192,77089,1,0,0:0:0:0:
192,192,77168,1,0,0:0:0:0:
320,192,77247,1,0,0:0:0:0:
448,192,77326,1,0,0:0:0:0:
320,192,77405,1,0,0:0:0:0:
192,192,77484,1,0,0:0:0:0:
64,192,77563,1,0,0:0:0:0:
448,192,77642,1,0,0:0:0:0:
320,192,77721,1,0,0:0:0:0:
192,192,77800,1,0,0:0:0:0:
64,192,77878,1,0,0:0:0:0:
448,192,77957,1,0,0:0:0:0:
320,192,78036,1,0,0:0:0:0:
192,192,78115,1,0,0:0:0:0:
64,192,78194,1,0,0:0:0:0:
448,192,78273,1,0,0:0:0:0:
320,192,78352,1,0,0:0:0:0:
192,192,78431,1,0,0:0:0:0:
64,192,78431,1,0,0:0:0:0:
448,192,78589,1,0,0:0:0:0:
320,192,78905,1,0,0:0:0:0:
448,192,79023,1,0,0:0:0:0:
320,192,79102,1,0,0:0:0:0:
64,192,79221,1,0,0:0:0:0:
192,192,79536,1,0,0:0:0:0:
448,192,79734,1,0,0:0:0:0:
192,192,79852,1,0,0:0:0:0:
192,192,80484,128,0,81036:0:0:0:0:
64,192,80484,128,0,81036:0:0:0:0:
320,192,80484,128,0,81036:0:0:0:0:
448,192,80484,128,0,81036:0:0:0:0:
64,192,81115,128,0,81326:0:0:0:0:
192,192,81115,128,0,81326:0:0:0:0:
448,192,81115,128,0,81326:0:0:0:0:
320,192,81313,1,0,0:0:0:0:
192,192,81431,1,0,0:0:0:0:
64,192,81431,1,0,0:0:0:0:
448,192,81431,1,0,0:0:0:0:
320,192,81550,1,0,0:0:0:0:
192,192,81628,1,0,0:0:0:0:
448,192,81747,128,0,81957:0:0:0:0:
320,192,81747,128,0,81957:0:0:0:0:
64,192,81747,128,0,81957:0:0:0:0:
192,192,81944,1,0,0:0:0:0:
448,192,82063,1,0,0:0:0:0:
320,192,82063,1,0,0:0:0:0:
64,192,82063,1,0,0:0:0:0:
320,192,82260,1,0,0:0:0:0:
64,192,82260,1,0,0:0:0:0:
448,192,82378,128,0,82589:0:0:0:0:
192,192,82378,128,0,82589:0:0:0:0:
64,192,82378,128,0,82589:0:0:0:0:
320,192,82576,1,0,0:0:0:0:
64,192,82694,128,0,82905:0:0:0:0:
320,192,82694,128,0,82905:0:0:0:0:
448,192,82694,128,0,82905:0:0:0:0:
192,192,82892,1,0,0:0:0:0:
64,192,83010,128,0,83115:0:0:0:0:
192,192,83010,128,0,83115:0:0:0:0:
320,192,83010,128,0,83115:0:0:0:0:
448,192,83128,1,0,0:0:0:0:
320,192,83207,1,0,0:0:0:0:
64,192,83207,1,0,0:0:0:0:
64,192,83326,1,0,0:0:0:0:
192,192,83326,1,0,0:0:0:0:
448,192,83326,1,0,0:0:0:0:
320,192,83444,1,0,0:0:0:0:
192,192,83523,1,0,0:0:0:0:
64,192,83523,1,0,0:0:0:0:
448,192,83523,1,0,0:0:0:0:
64,192,83642,128,0,83852:0:0:0:0:
320,192,83642,128,0,83852:0:0:0:0:
448,192,83642,128,0,83852:0:0:0:0:
192,192,83839,1,0,0:0:0:0:
448,192,83957,1,0,0:0:0:0:
320,192,83957,1,0,0:0:0:0:
64,192,83957,1,0,0:0:0:0:
192,192,84076,1,0,0:0:0:0:
320,192,84155,1,0,0:0:0:0:
448,192,84273,128,0,84484:0:0:0:0:
192,192,84273,128,0,84484:0:0:0:0:
64,192,84273,128,0,84484:0:0:0:0:
320,192,84471,1,0,0:0:0:0:
448,192,84589,128,0,84800:0:0:0:0:
320,192,84589,128,0,84800:0:0:0:0:
192,192,84589,128,0,84800:0:0:0:0:
64,192,84786,1,0,0:0:0:0:
64,192,84905,128,0,85115:0:0:0:0:
192,192,84905,128,0,85115:0:0:0:0:
320,192,84905,128,0,85115:0:0:0:0:
448,192,85102,1,0,0:0:0:0:
448,192,85221,128,0,85431:0:0:0:0:
320,192,85221,128,0,85431:0:0:0:0:
192,192,85221,128,0,85431:0:0:0:0:
64,192,85418,1,0,0:0:0:0:
64,192,85536,1,0,0:0:0:0:
192,192,85536,1,0,0:0:0:0:
320,192,85536,1,0,0:0:0:0:
448,192,85655,1,0,0:0:0:0:
320,192,85734,1,0,0:0:0:0:
192,192,85734,1,0,0:0:0:0:
64,192,85734,1,0,0:0:0:0:
448,192,85852,1,0,0:0:0:0:
64,192,85931,1,0,0:0:0:0:
192,192,85971,1,0,0:0:0:0:
448,192,86010,1,0,0:0:0:0:
320,192,86050,1,0,0:0:0:0:
64,192,86089,1,0,0:0:0:0:
192,192,86128,1,0,0:0:0:0:
448,192,86168,128,0,86378:0:0:0:0:
320,192,86168,128,0,86378:0:0:0:0:
64,192,86365,1,0,0:0:0:0:
448,192,86484,1,0,0:0:0:0:
64,192,86484,1,0,0:0:0:0:
192,192,86484,1,0,0:0:0:0:
320,192,86602,1,0,0:0:0:0:
192,192,86681,1,0,0:0:0:0:
448,192,86800,128,0,87010:0:0:0:0:
320,192,86800,128,0,87010:0:0:0:0:
64,192,86800,128,0,87010:0:0:0:0:
192,192,86997,1,0,0:0:0:0:
448,192,87115,1,0,0:0:0:0:
320,192,87155,1,0,0:0:0:0:
64,192,87194,1,0,0:0:0:0:
192,192,87234,1,0,0:0:0:0:
448,192,87273,1,0,0:0:0:0:
320,192,87313,1,0,0:0:0:0:
192,192,87352,1,0,0:0:0:0:
64,192,87392,1,0,0:0:0:0:
448,192,87431,128,0,87642:0:0:0:0:
320,192,87431,128,0,87642:0:0:0:0:
64,192,87628,1,0,0:0:0:0:
64,192,87747,128,0,87957:0:0:0:0:
192,192,87747,128,0,87957:0:0:0:0:
320,192,87747,128,0,87957:0:0:0:0:
448,192,87944,1,0,0:0:0:0:
448,192,88063,1,0,0:0:0:0:
320,192,88063,1,0,0:0:0:0:
192,192,88063,1,0,0:0:0:0:
64,192,88181,1,0,0:0:0:0:
320,192,88260,1,0,0:0:0:0:
448,192,88260,1,0,0:0:0:0:
192,192,88260,1,0,0:0:0:0:
64,192,88378,1,0,0:0:0:0:
448,192,88497,128,0,88602:0:0:0:0:
320,192,88497,128,0,88602:0:0:0:0:
192,192,88497,128,0,88602:0:0:0:0:
64,192,88576,1,0,0:0:0:0:
64,192,88694,128,0,88905:0:0:0:0:
192,192,88694,128,0,88905:0:0:0:0:
320,192,88694,128,0,88905:0:0:0:0:
448,192,89010,1,0,0:0:0:0:
320,192,89010,1,0,0:0:0:0:
64,192,89010,1,0,0:0:0:0:
192,192,89128,1,0,0:0:0:0:
320,192,89207,1,0,0:0:0:0:
448,192,89326,128,0,89536:0:0:0:0:
192,192,89326,128,0,89536:0:0:0:0:
64,192,89326,128,0,89536:0:0:0:0:
320,192,89523,1,0,0:0:0:0:
448,192,89642,128,0,89852:0:0:0:0:
320,192,89642,128,0,89852:0:0:0:0:
64,192,89642,128,0,89852:0:0:0:0:
192,192,89839,1,0,0:0:0:0:
64,192,89957,128,0,90168:0:0:0:0:
192,192,89957,128,0,90168:0:0:0:0:
320,192,89957,128,0,90168:0:0:0:0:
448,192,90155,1,0,0:0:0:0:
448,192,90273,1,0,0:0:0:0:
320,192,90313,1,0,0:0:0:0:
192,192,90352,1,0,0:0:0:0:
64,192,90392,1,0,0:0:0:0:
320,192,90431,1,0,0:0:0:0:
448,192,90471,1,0,0:0:0:0:
192,192,90510,1,0,0:0:0:0:
64,192,90550,1,0,0:0:0:0:
448,192,90589,1,0,0:0:0:0:
320,192,90628,1,0,0:0:0:0:
64,192,90668,1,0,0:0:0:0:
192,192,90707,1,0,0:0:0:0:
448,192,90747,1,0,0:0:0:0:
320,192,90786,1,0,0:0:0:0:
192,192,90826,1,0,0:0:0:0:
64,192,90865,1,0,0:0:0:0:
320,192,90905,1,0,0:0:0:0:
448,192,90944,1,0,0:0:0:0:
64,192,90984,1,0,0:0:0:0:
192,192,91023,1,0,0:0:0:0:
320,192,91063,1,0,0:0:0:0:
448,192,91102,1,0,0:0:0:0:
64,192,91142,1,0,0:0:0:0:
192,192,91181,1,0,0:0:0:0:
448,192,91221,128,0,91431:0:0:0:0:
320,192,91221,128,0,91431:0:0:0:0:
192,192,91418,1,0,0:0:0:0:
64,192,91536,1,0,0:0:0:0:
320,192,91536,1,0,0:0:0:0:
448,192,91536,1,0,0:0:0:0:
192,192,91655,1,0,0:0:0:0:
320,192,91734,1,0,0:0:0:0:
448,192,91852,128,0,92063:0:0:0:0:
192,192,91852,128,0,92063:0:0:0:0:
64,192,91852,128,0,92063:0:0:0:0:
320,192,92050,1,0,0:0:0:0:
448,192,92168,1,0,0:0:0:0:
192,192,92168,1,0,0:0:0:0:
64,192,92168,1,0,0:0:0:0:
320,192,92286,1,0,0:0:0:0:
64,192,92484,1,0,0:0:0:0:
448,192,92484,1,0,0:0:0:0:
320,192,92484,1,0,0:0:0:0:
192,192,92602,1,0,0:0:0:0:
64,192,92800,1,0,0:0:0:0:
192,192,92800,1,0,0:0:0:0:
448,192,92800,1,0,0:0:0:0:
320,192,92918,1,0,0:0:0:0:
448,192,93115,1,0,0:0:0:0:
320,192,93115,1,0,0:0:0:0:
192,192,93115,1,0,0:0:0:0:
64,192,93313,1,0,0:0:0:0:
320,192,93313,1,0,0:0:0:0:
192,192,93313,1,0,0:0:0:0:
448,192,93510,1,0,0:0:0:0:
320,192,93550,1,0,0:0:0:0:
192,192,93589,1,0,0:0:0:0:
64,192,93628,1,0,0:0:0:0:
448,192,93668,1,0,0:0:0:0:
320,192,93707,1,0,0:0:0:0:
192,192,93747,1,0,0:0:0:0:
64,192,93747,1,0,0:0:0:0:
64,192,94063,1,0,0:0:0:0:
192,192,94063,1,0,0:0:0:0:
448,192,94063,1,0,0:0:0:0:
320,192,94181,1,0,0:0:0:0:
192,192,94260,1,0,0:0:0:0:
64,192,94378,1,0,0:0:0:0:
320,192,94378,1,0,0:0:0:0:
448,192,94378,1,0,0:0:0:0:
64,192,94576,1,0,0:0:0:0:
192,192,94576,1,0,0:0:0:0:
320,192,94576,1,0,0:0:0:0:
64,192,94773,1,0,0:0:0:0:
448,192,94773,1,0,0:0:0:0:
192,192,94813,1,0,0:0:0:0:
320,192,94852,1,0,0:0:0:0:
448,192,94892,1,0,0:0:0:0:
64,192,94931,1,0,0:0:0:0:
192,192,94971,1,0,0:0:0:0:
320,192,95010,1,0,0:0:0:0:
448,192,95010,1,0,0:0:0:0:
64,192,95207,1,0,0:0:0:0:
448,192,95326,1,0,0:0:0:0:
320,192,95365,1,0,0:0:0:0:
192,192,95405,1,0,0:0:0:0:
64,192,95444,1,0,0:0:0:0:
320,192,95484,1,0,0:0:0:0:
448,192,95523,1,0,0:0:0:0:
64,192,95563,1,0,0:0:0:0:
192,192,95602,1,0,0:0:0:0:
320,192,95642,1,0,0:0:0:0:
448,192,95642,1,0,0:0:0:0:
64,192,95760,1,0,0:0:0:0:
448,192,95839,1,0,0:0:0:0:
320,192,95839,1,0,0:0:0:0:
192,192,95839,1,0,0:0:0:0:
64,192,95957,1,0,0:0:0:0:
448,192,96036,1,0,0:0:0:0:
320,192,96076,1,0,0:0:0:0:
192,192,96115,1,0,0:0:0:0:
64,192,96155,1,0,0:0:0:0:
320,192,96194,1,0,0:0:0:0:
448,192,96234,1,0,0:0:0:0:
64,192,96273,1,0,0:0:0:0:
192,192,96273,1,0,0:0:0:0:
64,192,96589,1,0,0:0:0:0:
192,192,96589,1,0,0:0:0:0:
448,192,96589,1,0,0:0:0:0:
320,192,96707,1,0,0:0:0:0:
192,192,96786,1,0,0:0:0:0:
64,192,96905,1,0,0:0:0:0:
192,192,96944,1,0,0:0:0:0:
448,192,96984,1,0,0:0:0:0:
320,192,97023,1,0,0:0:0:0:
192,192,97063,1,0,0:0:0:0:
64,192,97102,1,0,0:0:0:0:
448,192,97142,1,0,0:0:0:0:
320,192,97181,1,0,0:0:0:0:
64,192,97221,1,0,0:0:0:0:
192,192,97260,1,0,0:0:0:0:
320,192,97300,1,0,0:0:0:0:
448,192,97339,1,0,0:0:0:0:
64,192,97378,1,0,0:0:0:0:
192,192,97418,1,0,0:0:0:0:
320,192,97457,1,0,0:0:0:0:
448,192,97497,1,0,0:0:0:0:
192,192,97536,1,0,0:0:0:0:
64,192,97536,1,0,0:0:0:0:
448,192,97734,1,0,0:0:0:0:
320,192,97852,1,0,0:0:0:0:
64,192,97852,1,0,0:0:0:0:
192,192,97852,1,0,0:0:0:0:
448,192,98050,1,0,0:0:0:0:
64,192,98168,1,0,0:0:0:0:
192,192,98207,1,0,0:0:0:0:
320,192,98247,1,0,0:0:0:0:
448,192,98286,1,0,0:0:0:0:
64,192,98326,1,0,0:0:0:0:
192,192,98365,1,0,0:0:0:0:
448,192,98405,1,0,0:0:0:0:
320,192,98444,1,0,0:0:0:0:
192,192,98484,1,0,0:0:0:0:
64,192,98523,1,0,0:0:0:0:
320,192,98563,1,0,0:0:0:0:
448,192,98602,1,0,0:0:0:0:
64,192,98642,1,0,0:0:0:0:
192,192,98681,1,0,0:0:0:0:
320,192,98721,1,0,0:0:0:0:
448,192,98760,1,0,0:0:0:0:
192,192,98800,1,0,0:0:0:0:
64,192,98800,1,0,0:0:0:0:
320,192,98997,1,0,0:0:0:0:
192,192,98997,1,0,0:0:0:0:
64,192,99115,1,0,0:0:0:0:
448,192,99115,1,0,0:0:0:0:
320,192,99155,1,0,0:0:0:0:
192,192,99194,1,0,0:0:0:0:
64,192,99234,1,0,0:0:0:0:
320,192,99273,1,0,0:0:0:0:
448,192,99313,1,0,0:0:0:0:
64,192,99352,1,0,0:0:0:0:
192,192,99392,1,0,0:0:0:0:
320,192,99431,1,0,0:0:0:0:
448,192,99431,1,0,0:0:0:0:
320,192,99628,1,0,0:0:0:0:
192,192,99628,1,0,0:0:0:0:
64,192,99747,1,0,0:0:0:0:
448,192,99747,1,0,0:0:0:0:
320,192,99786,1,0,0:0:0:0:
192,192,99826,1,0,0:0:0:0:
64,192,99865,1,0,0:0:0:0:
320,192,99905,1,0,0:0:0:0:
448,192,99944,1,0,0:0:0:0:
192,192,99984,1,0,0:0:0:0:
64,192,100023,1,0,0:0:0:0:
320,192,100063,1,0,0:0:0:0:
448,192,100063,1,0,0:0:0:0:
192,192,100181,1,0,0:0:0:0:
64,192,100260,1,0,0:0:0:0:
448,192,100378,128,0,100694:0:0:0:0:
64,192,100694,1,0,0:0:0:0:
192,192,100734,1,0,0:0:0:0:
448,192,100773,1,0,0:0:0:0:
320,192,100813,1,0,0:0:0:0:
64,192,100852,1,0,0:0:0:0:
192,192,100892,1,0,0:0:0:0:
320,192,100931,1,0,0:0:0:0:
448,192,100971,1,0,0:0:0:0:
64,192,101010,1,0,0:0:0:0:
192,192,101050,1,0,0:0:0:0:
448,192,101089,1,0,0:0:0:0:
320,192,101128,1,0,0:0:0:0:
192,192,101168,1,0,0:0:0:0:
64,192,101207,1,0,0:0:0:0:
448,192,101247,1,0,0:0:0:0:
320,192,101286,1,0,0:0:0:0:
192,192,101326,1,0,0:0:0:0:
64,192,101326,1,0,0:0:0:0:
192,192,101642,1,0,0:0:0:0:
64,192,101642,1,0,0:0:0:0:
192,192,101957,1,0,0:0:0:0:
64,192,101957,1,0,0:0:0:0:
192,192,102273,1,0,0:0:0:0:
64,192,102273,1,0,0:0:0:0:
192,192,102471,1,0,0:0:0:0:
64,192,102471,1,0,0:0:0:0:
320,192,102589,1,0,0:0:0:0:
448,192,102589,1,0,0:0:0:0:
192,192,102707,1,0,0:0:0:0:
64,192,102707,1,0,0:0:0:0:
320,192,102786,1,0,0:0:0:0:
448,192,102786,1,0,0:0:0:0:
64,192,102905,1,0,0:0:0:0:
192,192,102905,1,0,0:0:0:0:
448,192,103023,1,0,0:0:0:0:
64,192,103102,1,0,0:0:0:0:
320,192,103221,1,0,0:0:0:0:
448,192,103221,1,0,0:0:0:0:
64,192,103260,1,0,0:0:0:0:
192,192,103339,1,0,0:0:0:0:
320,192,103378,1,0,0:0:0:0:
192,192,103418,1,0,0:0:0:0:
64,192,103418,1,0,0:0:0:0:
448,192,103536,1,0,0:0:0:0:
192,192,103655,1,0,0:0:0:0:
64,192,103655,1,0,0:0:0:0:
448,192,103734,1,0,0:0:0:0:
192,192,103852,1,0,0:0:0:0:
64,192,103852,1,0,0:0:0:0:
448,192,103971,1,0,0:0:0:0:
192,192,104050,1,0,0:0:0:0:
64,192,104050,1,0,0:0:0:0:
320,192,104168,1,0,0:0:0:0:
448,192,104168,1,0,0:0:0:0:
64,192,104207,1,0,0:0:0:0:
448,192,104286,1,0,0:0:0:0:
192,192,104326,1,0,0:0:0:0:
320,192,104365,1,0,0:0:0:0:
64,192,104444,1,0,0:0:0:0:
448,192,104484,1,0,0:0:0:0:
192,192,104523,1,0,0:0:0:0:
320,192,104602,1,0,0:0:0:0:
64,192,104642,1,0,0:0:0:0:
448,192,104681,1,0,0:0:0:0:
192,192,104760,1,0,0:0:0:0:
320,192,104800,1,0,0:0:0:0:
64,192,104839,1,0,0:0:0:0:
448,192,104918,1,0,0:0:0:0:
192,192,104957,1,0,0:0:0:0:
320,192,104997,1,0,0:0:0:0:
64,192,105076,1,0,0:0:0:0:
448,192,105115,1,0,0:0:0:0:
320,192,105155,1,0,0:0:0:0:
192,192,105194,1,0,0:0:0:0:
64,192,105234,1,0,0:0:0:0:
448,192,105273,1,0,0:0:0:0:
320,192,105313,1,0,0:0:0:0:
192,192,105352,1,0,0:0:0:0:
64,192,105392,1,0,0:0:0:0:
448,192,105431,1,0,0:0:0:0:
320,192,105471,1,0,0:0:0:0:
192,192,105510,1,0,0:0:0:0:
64,192,105550,1,0,0:0:0:0:
448,192,105589,1,0,0:0:0:0:
320,192,105628,1,0,0:0:0:0:
192,192,105668,1,0,0:0:0:0:
64,192,105707,1,0,0:0:0:0:
448,192,106063,128,0,106300:0:0:0:0:
320,192,106063,128,0,106300:0:0:0:0:
192,192,106063,128,0,106300:0:0:0:0:
64,192,106063,128,0,106300:0:0:0:0:
64,192,106378,1,0,0:0:0:0:
192,192,106378,1,0,0:0:0:0:
448,192,106497,1,0,0:0:0:0:
320,192,106497,1,0,0:0:0:0:
64,192,106576,1,0,0:0:0:0:
192,192,106576,1,0,0:0:0:0:
320,192,106694,1,0,0:0:0:0:
448,192,106694,1,0,0:0:0:0:
64,192,106813,1,0,0:0:0:0:
64,192,106892,1,0,0:0:0:0:
320,192,107010,1,0,0:0:0:0:
192,192,107010,1,0,0:0:0:0:
448,192,107050,1,0,0:0:0:0:
320,192,107128,1,0,0:0:0:0:
64,192,107168,1,0,0:0:0:0:
192,192,107207,1,0,0:0:0:0:
320,192,107286,1,0,0:0:0:0:
192,192,107326,1,0,0:0:0:0:
64,192,107326,1,0,0:0:0:0:
448,192,107444,1,0,0:0:0:0:
448,192,107523,1,0,0:0:0:0:
320,192,107642,1,0,0:0:0:0:
192,192,107642,1,0,0:0:0:0:
64,192,107760,1,0,0:0:0:0:
448,192,107839,1,0,0:0:0:0:
320,192,107839,1,0,0:0:0:0:
192,192,107957,1,0,0:0:0:0:
64,192,107957,1,0,0:0:0:0:
320,192,108076,1,0,0:0:0:0:
448,192,108155,1,0,0:0:0:0:
320,192,108273,1,0,0:0:0:0:
192,192,108273,1,0,0:0:0:0:
64,192,108273,1,0,0:0:0:0:
448,192,108392,1,0,0:0:0:0:
320,192,108471,1,0,0:0:0:0:
64,192,108589,1,0,0:0:0:0:
192,192,108628,1,0,0:0:0:0:
448,192,108668,1,0,0:0:0:0:
320,192,108707,1,0,0:0:0:0:
192,192,108747,1,0,0:0:0:0:
64,192,108786,1,0,0:0:0:0:
448,192,108786,1,0,0:0:0:0:
320,192,108905,1,0,0:0:0:0:
192,192,108905,1,0,0:0:0:0:
448,192,108944,1,0,0:0:0:0:
320,192,109023,1,0,0:0:0:0:
192,192,109063,1,0,0:0:0:0:
320,192,109102,1,0,0:0:0:0:
448,192,109102,1,0,0:0:0:0:
192,192,109221,1,0,0:0:0:0:
64,192,109221,1,0,0:0:0:0:
320,192,109326,1,0,0:0:0:0:
320,192,109405,1,0,0:0:0:0:
192,192,109536,1,0,0:0:0:0:
64,192,109536,1,0,0:0:0:0:
448,192,109576,1,0,0:0:0:0:
320,192,109655,1,0,0:0:0:0:
64,192,109694,1,0,0:0:0:0:
192,192,109734,1,0,0:0:0:0:
320,192,109813,1,0,0:0:0:0:
192,192,109852,1,0,0:0:0:0:
64,192,109852,1,0,0:0:0:0:
448,192,109971,1,0,0:0:0:0:
192,192,110050,1,0,0:0:0:0:
64,192,110050,1,0,0:0:0:0:
320,192,110168,1,0,0:0:0:0:
448,192,110168,1,0,0:0:0:0:
192,192,110286,1,0,0:0:0:0:
64,192,110286,1,0,0:0:0:0:
320,192,110365,1,0,0:0:0:0:
448,192,110365,1,0,0:0:0:0:
192,192,110484,1,0,0:0:0:0:
64,192,110484,1,0,0:0:0:0:
448,192,110602,1,0,0:0:0:0:
320,192,110602,1,0,0:0:0:0:
192,192,110681,1,0,0:0:0:0:
64,192,110681,1,0,0:0:0:0:
320,192,110800,1,0,0:0:0:0:
448,192,110800,1,0,0:0:0:0:
192,192,110918,1,0,0:0:0:0:
64,192,110918,1,0,0:0:0:0:
320,192,110997,1,0,0:0:0:0:
448,192,110997,1,0,0:0:0:0:
64,192,111115,1,0,0:0:0:0:
192,192,111155,1,0,0:0:0:0:
448,192,111194,1,0,0:0:0:0:
320,192,111234,1,0,0:0:0:0:
192,192,111273,1,0,0:0:0:0:
64,192,111313,1,0,0:0:0:0:
448,192,111352,1,0,0:0:0:0:
320,192,111392,1,0,0:0:0:0:
192,192,111431,1,0,0:0:0:0:
64,192,111431,1,0,0:0:0:0:
448,192,111550,1,0,0:0:0:0:
448,192,111628,1,0,0:0:0:0:
192,192,111747,1,0,0:0:0:0:
64,192,111747,1,0,0:0:0:0:
320,192,111852,1,0,0:0:0:0:
320,192,111931,1,0,0:0:0:0:
192,192,112063,1,0,0:0:0:0:
64,192,112063,1,0,0:0:0:0:
448,192,112102,1,0,0:0:0:0:
320,192,112181,1,0,0:0:0:0:
192,192,112221,1,0,0:0:0:0:
320,192,112260,1,0,0:0:0:0:
448,192,112260,1,0,0:0:0:0:
64,192,112378,1,0,0:0:0:0:
192,192,112418,1,0,0:0:0:0:
448,192,112457,1,0,0:0:0:0:
320,192,112497,1,0,0:0:0:0:
192,192,112536,1,0,0:0:0:0:
64,192,112576,1,0,0:0:0:0:
320,192,112615,1,0,0:0:0:0:
448,192,112655,1,0,0:0:0:0:
192,192,112694,1,0,0:0:0:0:
64,192,112694,1,0,0:0:0:0:
448,192,112734,1,0,0:0:0:0:
320,192,112734,1,0,0:0:0:0:
192,192,112813,1,0,0:0:0:0:
64,192,112813,1,0,0:0:0:0:
320,192,112892,1,0,0:0:0:0:
448,192,112892,1,0,0:0:0:0:
192,192,113010,1,0,0:0:0:0:
64,192,113010,1,0,0:0:0:0:
320,192,113128,1,0,0:0:0:0:
448,192,113207,1,0,0:0:0:0:
192,192,113326,1,0,0:0:0:0:
64,192,113365,1,0,0:0:0:0:
320,192,113405,1,0,0:0:0:0:
448,192,113444,1,0,0:0:0:0:
64,192,113484,1,0,0:0:0:0:
192,192,113523,1,0,0:0:0:0:
448,192,113563,1,0,0:0:0:0:
320,192,113602,1,0,0:0:0:0:
192,192,113642,1,0,0:0:0:0:
64,192,113681,1,0,0:0:0:0:
320,192,113721,1,0,0:0:0:0:
448,192,113760,1,0,0:0:0:0:
64,192,113800,1,0,0:0:0:0:
192,192,113839,1,0,0:0:0:0:
320,192,113878,1,0,0:0:0:0:
448,192,113918,1,0,0:0:0:0:
192,192,113957,1,0,0:0:0:0:
64,192,113957,1,0,0:0:0:0:
320,192,113997,1,0,0:0:0:0:
448,192,113997,1,0,0:0:0:0:
192,192,114076,1,0,0:0:0:0:
64,192,114076,1,0,0:0:0:0:
320,192,114155,1,0,0:0:0:0:
448,192,114155,1,0,0:0:0:0:
64,192,114273,1,0,0:0:0:0:
192,192,114313,1,0,0:0:0:0:
320,192,114352,1,0,0:0:0:0:
448,192,114392,1,0,0:0:0:0:
64,192,114431,1,0,0:0:0:0:
192,192,114471,1,0,0:0:0:0:
320,192,114510,1,0,0:0:0:0:
448,192,114550,1,0,0:0:0:0:
192,192,114589,1,0,0:0:0:0:
64,192,114589,1,0,0:0:0:0:
320,192,114628,1,0,0:0:0:0:
448,192,114628,1,0,0:0:0:0:
192,192,114707,1,0,0:0:0:0:
64,192,114707,1,0,0:0:0:0:
320,192,114786,1,0,0:0:0:0:
448,192,114786,1,0,0:0:0:0:
64,192,114905,1,0,0:0:0:0:
192,192,114944,1,0,0:0:0:0:
320,192,114984,5,0,0:0:0:0:
448,192,115023,1,0,0:0:0:0:
64,192,115063,1,0,0:0:0:0:
192,192,115102,1,0,0:0:0:0:
448,192,115142,1,0,0:0:0:0:
320,192,115181,1,0,0:0:0:0:
192,192,115221,1,0,0:0:0:0:
64,192,115221,1,0,0:0:0:0:
320,192,115260,1,0,0:0:0:0:
448,192,115260,1,0,0:0:0:0:
192,192,115339,1,0,0:0:0:0:
64,192,115339,1,0,0:0:0:0:
448,192,115418,1,0,0:0:0:0:
192,192,115457,1,0,0:0:0:0:
64,192,115497,1,0,0:0:0:0:
320,192,115536,1,0,0:0:0:0:
448,192,115536,1,0,0:0:0:0:
192,192,115576,1,0,0:0:0:0:
64,192,115576,1,0,0:0:0:0:
320,192,115655,1,0,0:0:0:0:
448,192,115655,1,0,0:0:0:0:
64,192,115734,1,0,0:0:0:0:
320,192,115773,1,0,0:0:0:0:
448,192,115813,1,0,0:0:0:0:
192,192,115852,1,0,0:0:0:0:
64,192,115852,1,0,0:0:0:0:
320,192,115892,1,0,0:0:0:0:
448,192,115892,1,0,0:0:0:0:
192,192,115971,1,0,0:0:0:0:
64,192,115971,1,0,0:0:0:0:
448,192,116050,1,0,0:0:0:0:
192,192,116089,1,0,0:0:0:0:
64,192,116128,1,0,0:0:0:0:
320,192,116168,1,0,0:0:0:0:
448,192,116168,1,0,0:0:0:0:
192,192,116207,1,0,0:0:0:0:
64,192,116207,1,0,0:0:0:0:
320,192,116286,1,0,0:0:0:0:
448,192,116286,1,0,0:0:0:0:
192,192,116326,1,0,0:0:0:0:
64,192,116326,1,0,0:0:0:0:
320,192,116365,1,0,0:0:0:0:
448,192,116365,1,0,0:0:0:0:
192,192,116444,1,0,0:0:0:0:
64,192,116444,1,0,0:0:0:0:
448,192,116484,128,0,117747:0:0:0:0:
320,192,116484,128,0,117747:0:0:0:0:
