osu file format v14

[General]
AudioFilename: flameflower.mp3
AudioLeadIn: 0
PreviewTime: 23134
Countdown: 0
SampleSet: Normal
StackLeniency: 0.7
Mode: 3
LetterboxInBreaks: 0
SpecialStyle: 0
WidescreenStoryboard: 1

[Editor]
DistanceSpacing: 1
BeatDivisor: 4
GridSize: 16
TimelineZoom: 3.299999

[Metadata]
Title:CUNUJOY MEGAPACK
TitleUnicode:CUNUJOY MEGAPACK
Artist:Various Artists
ArtistUnicode:Various Artists
Creator:Elementaires
Version:flameflower
Source:BMS
Tags:
BeatmapID:2362516
BeatmapSetID:945425

[Difficulty]
HPDrainRate:8
CircleSize:7
OverallDifficulty:8
ApproachRate:5
SliderMultiplier:1.4
SliderTickRate:1

[Events]
//Background and Video events
0,0,"flameflower.jpg",0,0
//Break Periods
//Storyboard Layer 0 (Background)
//Storyboard Layer 1 (Fail)
//Storyboard Layer 2 (Pass)
//Storyboard Layer 3 (Foreground)
//Storyboard Layer 4 (Overlay)
//Storyboard Sound Samples

[TimingPoints]
849,428.571428571429,4,1,0,0,1,0

[HitObjects]
329,192,1706,5,0,0:0:0:0:
402,192,1706,1,0,0:0:0:0:
64,192,1920,1,0,0:0:0:0:
109,192,2027,1,0,0:0:0:0:
182,192,2134,1,0,0:0:0:0:
448,192,2349,1,0,0:0:0:0:
320,192,2563,1,0,0:0:0:0:
192,192,2777,1,0,0:0:0:0:
64,192,2991,1,0,0:0:0:0:
320,192,2991,1,0,0:0:0:0:
256,192,3206,1,0,0:0:0:0:
475,192,3420,1,0,0:0:0:0:
192,192,3634,1,0,0:0:0:0:
448,192,3741,1,0,0:0:0:0:
64,192,3849,1,0,0:0:0:0:
320,192,3956,1,0,0:0:0:0:
192,192,4063,1,0,0:0:0:0:
448,192,4170,1,0,0:0:0:0:
64,192,4277,1,0,0:0:0:0:
192,192,4277,1,0,0:0:0:0:
109,192,4491,1,0,0:0:0:0:
256,192,4599,1,0,0:0:0:0:
402,192,4706,1,0,0:0:0:0:
448,192,4920,1,0,0:0:0:0:
320,192,5134,1,0,0:0:0:0:
192,192,5349,1,0,0:0:0:0:
448,192,5563,1,0,0:0:0:0:
64,192,5563,1,0,0:0:0:0:
402,192,5777,1,0,0:0:0:0:
329,192,5991,1,0,0:0:0:0:
256,192,6206,1,0,0:0:0:0:
182,192,6420,1,0,0:0:0:0:
109,192,6634,1,0,0:0:0:0:
448,192,6741,1,0,0:0:0:0:
192,192,6849,1,0,0:0:0:0:
64,192,6849,1,0,0:0:0:0:
109,192,7063,1,0,0:0:0:0:
256,192,7170,1,0,0:0:0:0:
402,192,7277,1,0,0:0:0:0:
448,192,7491,1,0,0:0:0:0:
320,192,7706,1,0,0:0:0:0:
192,192,7920,1,0,0:0:0:0:
64,192,8134,1,0,0:0:0:0:
109,192,8134,1,0,0:0:0:0:
256,192,8349,1,0,0:0:0:0:
402,192,8563,1,0,0:0:0:0:
109,192,8777,1,0,0:0:0:0:
402,192,8884,1,0,0:0:0:0:
256,192,8991,1,0,0:0:0:0:
182,192,9099,1,0,0:0:0:0:
109,192,9206,1,0,0:0:0:0:
402,192,9313,1,0,0:0:0:0:
109,192,9420,1,0,0:0:0:0:
64,192,9420,1,0,0:0:0:0:
256,192,9420,1,0,0:0:0:0:
475,192,9420,1,0,0:0:0:0:
64,192,9634,1,0,0:0:0:0:
109,192,9634,1,0,0:0:0:0:
192,192,9634,1,0,0:0:0:0:
402,192,9634,1,0,0:0:0:0:
329,192,9741,1,0,0:0:0:0:
64,192,9849,1,0,0:0:0:0:
109,192,9849,1,0,0:0:0:0:
402,192,9849,1,0,0:0:0:0:
256,192,9849,1,0,0:0:0:0:
64,192,10063,1,0,0:0:0:0:
109,192,10063,1,0,0:0:0:0:
448,192,10063,1,0,0:0:0:0:
182,192,10063,1,0,0:0:0:0:
64,192,10277,1,0,0:0:0:0:
109,192,10277,1,0,0:0:0:0:
402,192,10277,1,0,0:0:0:0:
329,192,10277,1,0,0:0:0:0:
64,192,10491,1,0,0:0:0:0:
320,192,10491,1,0,0:0:0:0:
109,192,10491,1,0,0:0:0:0:
256,192,10491,1,0,0:0:0:0:
192,192,10706,1,0,0:0:0:0:
448,192,10706,1,0,0:0:0:0:
402,192,10706,1,0,0:0:0:0:
109,192,10706,1,0,0:0:0:0:
402,192,10920,1,0,0:0:0:0:
448,192,10920,1,0,0:0:0:0:
36,192,10920,1,0,0:0:0:0:
182,192,10920,1,0,0:0:0:0:
256,192,11027,1,0,0:0:0:0:
448,192,11134,1,0,0:0:0:0:
402,192,11134,1,0,0:0:0:0:
109,192,11134,1,0,0:0:0:0:
329,192,11134,1,0,0:0:0:0:
448,192,11349,1,0,0:0:0:0:
402,192,11349,1,0,0:0:0:0:
329,192,11349,1,0,0:0:0:0:
182,192,11349,1,0,0:0:0:0:
256,192,11456,1,0,0:0:0:0:
448,192,11563,1,0,0:0:0:0:
402,192,11563,1,0,0:0:0:0:
182,192,11563,1,0,0:0:0:0:
36,192,11563,1,0,0:0:0:0:
109,192,11670,1,0,0:0:0:0:
402,192,11777,1,0,0:0:0:0:
448,192,11777,1,0,0:0:0:0:
36,192,11777,1,0,0:0:0:0:
329,192,11777,1,0,0:0:0:0:
256,192,11884,1,0,0:0:0:0:
402,192,11991,1,0,0:0:0:0:
64,192,11991,1,0,0:0:0:0:
448,192,11991,1,0,0:0:0:0:
182,192,11991,1,0,0:0:0:0:
64,192,12206,1,0,0:0:0:0:
109,192,12206,1,0,0:0:0:0:
329,192,12206,1,0,0:0:0:0:
475,192,12206,1,0,0:0:0:0:
256,192,12313,1,0,0:0:0:0:
64,192,12420,1,0,0:0:0:0:
402,192,12420,1,0,0:0:0:0:
109,192,12420,1,0,0:0:0:0:
329,192,12420,1,0,0:0:0:0:
64,192,12634,1,0,0:0:0:0:
320,192,12634,1,0,0:0:0:0:
475,192,12634,1,0,0:0:0:0:
182,192,12634,1,0,0:0:0:0:
64,192,12849,1,0,0:0:0:0:
192,192,12849,1,0,0:0:0:0:
256,192,12849,1,0,0:0:0:0:
402,192,12849,1,0,0:0:0:0:
64,192,13063,1,0,0:0:0:0:
448,192,13063,1,0,0:0:0:0:
109,192,13063,1,0,0:0:0:0:
329,192,13063,1,0,0:0:0:0:
475,192,13277,1,0,0:0:0:0:
192,192,13277,1,0,0:0:0:0:
256,192,13277,1,0,0:0:0:0:
402,192,13277,1,0,0:0:0:0:
475,192,13491,1,0,0:0:0:0:
64,192,13491,1,0,0:0:0:0:
109,192,13491,1,0,0:0:0:0:
329,192,13491,1,0,0:0:0:0:
320,192,13706,1,0,0:0:0:0:
448,192,13706,1,0,0:0:0:0:
256,192,13706,1,0,0:0:0:0:
182,192,13706,1,0,0:0:0:0:
475,192,13920,1,0,0:0:0:0:
64,192,13920,1,0,0:0:0:0:
402,192,13920,1,0,0:0:0:0:
109,192,13920,1,0,0:0:0:0:
192,192,14027,1,0,0:0:0:0:
320,192,14134,1,0,0:0:0:0:
448,192,14134,1,0,0:0:0:0:
109,192,14134,1,0,0:0:0:0:
64,192,14241,1,0,0:0:0:0:
320,192,14349,1,0,0:0:0:0:
448,192,14349,1,0,0:0:0:0:
402,192,14349,1,0,0:0:0:0:
256,192,14349,1,0,0:0:0:0:
64,192,14456,1,0,0:0:0:0:
192,192,14563,1,0,0:0:0:0:
448,192,14563,1,0,0:0:0:0:
109,192,14563,1,0,0:0:0:0:
329,192,14563,1,0,0:0:0:0:
192,192,14777,1,0,0:0:0:0:
64,192,14777,1,0,0:0:0:0:
402,192,14777,1,0,0:0:0:0:
256,192,14777,1,0,0:0:0:0:
320,192,14884,1,0,0:0:0:0:
192,192,14991,1,0,0:0:0:0:
448,192,14991,1,0,0:0:0:0:
109,192,14991,1,0,0:0:0:0:
36,192,14991,1,0,0:0:0:0:
320,192,15206,1,0,0:0:0:0:
448,192,15206,1,0,0:0:0:0:
402,192,15206,1,0,0:0:0:0:
256,192,15206,1,0,0:0:0:0:
320,192,15420,1,0,0:0:0:0:
64,192,15420,1,0,0:0:0:0:
109,192,15420,1,0,0:0:0:0:
475,192,15420,1,0,0:0:0:0:
320,192,15634,1,0,0:0:0:0:
192,192,15634,1,0,0:0:0:0:
256,192,15634,1,0,0:0:0:0:
402,192,15634,1,0,0:0:0:0:
448,192,15849,1,0,0:0:0:0:
64,192,15849,1,0,0:0:0:0:
109,192,15902,1,0,0:0:0:0:
182,192,15956,1,0,0:0:0:0:
256,192,16009,1,0,0:0:0:0:
402,192,16063,1,0,0:0:0:0:
475,192,16063,1,0,0:0:0:0:
182,192,16116,1,0,0:0:0:0:
109,192,16170,1,0,0:0:0:0:
64,192,16224,1,0,0:0:0:0:
448,192,16277,1,0,0:0:0:0:
402,192,16277,1,0,0:0:0:0:
256,192,16331,1,0,0:0:0:0:
64,192,16384,1,0,0:0:0:0:
109,192,16438,1,0,0:0:0:0:
402,192,16491,1,0,0:0:0:0:
256,192,16491,1,0,0:0:0:0:
329,192,16545,1,0,0:0:0:0:
192,192,16599,1,0,0:0:0:0:
109,192,16652,1,0,0:0:0:0:
448,192,16706,1,0,0:0:0:0:
64,192,16706,1,0,0:0:0:0:
402,192,16759,1,0,0:0:0:0:
329,192,16813,1,0,0:0:0:0:
256,192,16866,1,0,0:0:0:0:
36,192,16920,1,0,0:0:0:0:
182,192,16920,1,0,0:0:0:0:
329,192,16974,1,0,0:0:0:0:
402,192,17027,1,0,0:0:0:0:
475,192,17081,1,0,0:0:0:0:
109,192,17134,1,0,0:0:0:0:
192,192,17134,1,0,0:0:0:0:
192,192,17349,1,0,0:0:0:0:
320,192,17349,1,0,0:0:0:0:
402,192,17349,1,0,0:0:0:0:
475,192,17349,1,0,0:0:0:0:
64,192,17456,1,0,0:0:0:0:
192,192,17563,1,0,0:0:0:0:
448,192,17563,1,0,0:0:0:0:
256,192,17563,1,0,0:0:0:0:
402,192,17563,1,0,0:0:0:0:
192,192,17777,1,0,0:0:0:0:
64,192,17777,1,0,0:0:0:0:
109,192,17777,1,0,0:0:0:0:
402,192,17777,1,0,0:0:0:0:
192,192,17991,1,0,0:0:0:0:
320,192,17991,1,0,0:0:0:0:
475,192,17991,1,0,0:0:0:0:
109,192,17991,1,0,0:0:0:0:
402,192,18099,1,0,0:0:0:0:
192,192,18206,1,0,0:0:0:0:
448,192,18206,1,0,0:0:0:0:
109,192,18206,1,0,0:0:0:0:
36,192,18206,1,0,0:0:0:0:
256,192,18313,1,0,0:0:0:0:
64,192,18420,1,0,0:0:0:0:
192,192,18420,1,0,0:0:0:0:
402,192,18420,1,0,0:0:0:0:
475,192,18420,1,0,0:0:0:0:
109,192,18527,1,0,0:0:0:0:
64,192,18634,1,0,0:0:0:0:
320,192,18634,1,0,0:0:0:0:
402,192,18634,1,0,0:0:0:0:
475,192,18634,1,0,0:0:0:0:
192,192,18741,1,0,0:0:0:0:
64,192,18849,1,0,0:0:0:0:
448,192,18849,1,0,0:0:0:0:
256,192,18849,1,0,0:0:0:0:
109,192,18849,1,0,0:0:0:0:
402,192,18956,1,0,0:0:0:0:
64,192,19063,1,0,0:0:0:0:
320,192,19063,1,0,0:0:0:0:
448,192,19063,1,0,0:0:0:0:
109,192,19063,1,0,0:0:0:0:
64,192,19277,1,0,0:0:0:0:
320,192,19277,1,0,0:0:0:0:
402,192,19277,1,0,0:0:0:0:
256,192,19277,1,0,0:0:0:0:
109,192,19384,1,0,0:0:0:0:
64,192,19491,1,0,0:0:0:0:
192,192,19491,1,0,0:0:0:0:
320,192,19491,1,0,0:0:0:0:
256,192,19491,1,0,0:0:0:0:
448,192,19599,1,0,0:0:0:0:
320,192,19706,1,0,0:0:0:0:
64,192,19706,1,0,0:0:0:0:
192,192,19706,1,0,0:0:0:0:
402,192,19706,1,0,0:0:0:0:
256,192,19813,1,0,0:0:0:0:
320,192,19920,1,0,0:0:0:0:
402,192,19920,1,0,0:0:0:0:
475,192,19920,1,0,0:0:0:0:
109,192,19920,1,0,0:0:0:0:
64,192,20027,1,0,0:0:0:0:
320,192,20134,1,0,0:0:0:0:
448,192,20134,1,0,0:0:0:0:
192,192,20134,1,0,0:0:0:0:
256,192,20134,1,0,0:0:0:0:
402,192,20241,1,0,0:0:0:0:
448,192,20349,1,0,0:0:0:0:
64,192,20349,1,0,0:0:0:0:
192,192,20349,1,0,0:0:0:0:
109,192,20349,1,0,0:0:0:0:
320,192,20456,1,0,0:0:0:0:
448,192,20563,1,0,0:0:0:0:
192,192,20563,1,0,0:0:0:0:
402,192,20563,1,0,0:0:0:0:
256,192,20563,1,0,0:0:0:0:
109,192,20670,1,0,0:0:0:0:
448,192,20777,1,0,0:0:0:0:
36,192,20777,1,0,0:0:0:0:
402,192,20777,1,0,0:0:0:0:
329,192,20777,1,0,0:0:0:0:
109,192,20884,1,0,0:0:0:0:
36,192,20991,1,0,0:0:0:0:
448,192,20991,1,0,0:0:0:0:
402,192,21045,1,0,0:0:0:0:
329,192,21099,1,0,0:0:0:0:
256,192,21152,1,0,0:0:0:0:
182,192,21206,1,0,0:0:0:0:
36,192,21206,1,0,0:0:0:0:
475,192,21259,1,0,0:0:0:0:
402,192,21313,1,0,0:0:0:0:
329,192,21366,1,0,0:0:0:0:
192,192,21420,1,0,0:0:0:0:
64,192,21420,1,0,0:0:0:0:
256,192,21474,1,0,0:0:0:0:
329,192,21527,1,0,0:0:0:0:
402,192,21581,1,0,0:0:0:0:
64,192,21634,1,0,0:0:0:0:
109,192,21706,1,0,0:0:0:0:
256,192,21777,1,0,0:0:0:0:
320,192,21849,1,0,0:0:0:0:
182,192,21920,1,0,0:0:0:0:
109,192,21991,1,0,0:0:0:0:
402,192,22063,1,0,0:0:0:0:
256,192,22134,1,0,0:0:0:0:
64,192,22206,1,0,0:0:0:0:
109,192,22206,1,0,0:0:0:0:
402,192,22277,1,0,0:0:0:0:
448,192,22277,1,0,0:0:0:0:
329,192,22277,1,0,0:0:0:0:
402,192,22384,1,0,0:0:0:0:
448,192,22384,1,0,0:0:0:0:
329,192,22384,1,0,0:0:0:0:
402,192,22491,1,0,0:0:0:0:
448,192,22491,1,0,0:0:0:0:
329,192,22491,1,0,0:0:0:0:
320,192,22599,1,0,0:0:0:0:
448,192,22599,1,0,0:0:0:0:
402,192,22599,1,0,0:0:0:0:
320,192,22706,1,0,0:0:0:0:
448,192,22706,1,0,0:0:0:0:
402,192,22706,1,0,0:0:0:0:
320,192,22813,1,0,0:0:0:0:
448,192,22813,1,0,0:0:0:0:
402,192,22813,1,0,0:0:0:0:
320,192,22920,1,0,0:0:0:0:
448,192,22920,1,0,0:0:0:0:
402,192,22920,1,0,0:0:0:0:
320,192,23027,1,0,0:0:0:0:
448,192,23027,1,0,0:0:0:0:
402,192,23027,1,0,0:0:0:0:
320,192,23134,1,0,0:0:0:0:
448,192,23134,1,0,0:0:0:0:
402,192,23134,1,0,0:0:0:0:
320,192,23241,1,0,0:0:0:0:
448,192,23241,1,0,0:0:0:0:
402,192,23241,1,0,0:0:0:0:
320,192,23349,1,0,0:0:0:0:
448,192,23349,1,0,0:0:0:0:
402,192,23349,1,0,0:0:0:0:
320,192,23456,1,0,0:0:0:0:
448,192,23456,1,0,0:0:0:0:
402,192,23456,1,0,0:0:0:0:
64,192,23563,1,0,0:0:0:0:
109,192,23563,1,0,0:0:0:0:
329,192,23563,1,0,0:0:0:0:
64,192,23670,1,0,0:0:0:0:
109,192,23670,1,0,0:0:0:0:
329,192,23670,1,0,0:0:0:0:
64,192,23777,1,0,0:0:0:0:
109,192,23777,1,0,0:0:0:0:
329,192,23777,1,0,0:0:0:0:
64,192,23884,1,0,0:0:0:0:
109,192,23884,1,0,0:0:0:0:
329,192,23884,1,0,0:0:0:0:
64,192,23991,1,0,0:0:0:0:
109,192,23991,1,0,0:0:0:0:
329,192,23991,1,0,0:0:0:0:
64,192,24099,1,0,0:0:0:0:
109,192,24099,1,0,0:0:0:0:
329,192,24099,1,0,0:0:0:0:
192,192,24206,1,0,0:0:0:0:
448,192,24206,1,0,0:0:0:0:
109,192,24206,1,0,0:0:0:0:
192,192,24313,1,0,0:0:0:0:
448,192,24313,1,0,0:0:0:0:
109,192,24313,1,0,0:0:0:0:
192,192,24420,1,0,0:0:0:0:
448,192,24420,1,0,0:0:0:0:
109,192,24420,1,0,0:0:0:0:
192,192,24527,1,0,0:0:0:0:
448,192,24527,1,0,0:0:0:0:
109,192,24527,1,0,0:0:0:0:
192,192,24634,1,0,0:0:0:0:
448,192,24634,1,0,0:0:0:0:
109,192,24634,1,0,0:0:0:0:
192,192,24741,1,0,0:0:0:0:
448,192,24741,1,0,0:0:0:0:
109,192,24741,1,0,0:0:0:0:
192,192,24849,1,0,0:0:0:0:
64,192,24849,1,0,0:0:0:0:
256,192,24849,1,0,0:0:0:0:
64,192,24956,1,0,0:0:0:0:
192,192,24956,1,0,0:0:0:0:
256,192,24956,1,0,0:0:0:0:
64,192,25063,1,0,0:0:0:0:
192,192,25063,1,0,0:0:0:0:
256,192,25063,1,0,0:0:0:0:
64,192,25170,1,0,0:0:0:0:
192,192,25170,1,0,0:0:0:0:
256,192,25170,1,0,0:0:0:0:
64,192,25277,1,0,0:0:0:0:
192,192,25277,1,0,0:0:0:0:
256,192,25277,1,0,0:0:0:0:
192,192,25384,1,0,0:0:0:0:
64,192,25384,1,0,0:0:0:0:
256,192,25384,1,0,0:0:0:0:
64,192,25491,1,0,0:0:0:0:
192,192,25491,1,0,0:0:0:0:
256,192,25491,1,0,0:0:0:0:
192,192,25599,1,0,0:0:0:0:
64,192,25599,1,0,0:0:0:0:
256,192,25599,1,0,0:0:0:0:
64,192,25706,1,0,0:0:0:0:
192,192,25706,1,0,0:0:0:0:
256,192,25706,1,0,0:0:0:0:
192,192,25813,1,0,0:0:0:0:
64,192,25813,1,0,0:0:0:0:
256,192,25813,1,0,0:0:0:0:
64,192,25920,1,0,0:0:0:0:
192,192,25920,1,0,0:0:0:0:
256,192,25920,1,0,0:0:0:0:
192,192,26027,1,0,0:0:0:0:
64,192,26027,1,0,0:0:0:0:
256,192,26027,1,0,0:0:0:0:
320,192,26134,1,0,0:0:0:0:
448,192,26134,1,0,0:0:0:0:
256,192,26134,1,0,0:0:0:0:
320,192,26241,1,0,0:0:0:0:
448,192,26241,1,0,0:0:0:0:
256,192,26241,1,0,0:0:0:0:
320,192,26349,1,0,0:0:0:0:
448,192,26349,1,0,0:0:0:0:
256,192,26349,1,0,0:0:0:0:
320,192,26456,1,0,0:0:0:0:
448,192,26456,1,0,0:0:0:0:
256,192,26456,1,0,0:0:0:0:
320,192,26563,1,0,0:0:0:0:
448,192,26563,1,0,0:0:0:0:
256,192,26563,1,0,0:0:0:0:
320,192,26670,1,0,0:0:0:0:
448,192,26670,1,0,0:0:0:0:
256,192,26670,1,0,0:0:0:0:
64,192,26777,1,0,0:0:0:0:
448,192,26777,1,0,0:0:0:0:
402,192,26777,1,0,0:0:0:0:
64,192,26884,1,0,0:0:0:0:
448,192,26884,1,0,0:0:0:0:
402,192,26884,1,0,0:0:0:0:
64,192,26991,1,0,0:0:0:0:
448,192,26991,1,0,0:0:0:0:
402,192,26991,1,0,0:0:0:0:
64,192,27099,1,0,0:0:0:0:
448,192,27099,1,0,0:0:0:0:
402,192,27099,1,0,0:0:0:0:
64,192,27206,1,0,0:0:0:0:
448,192,27206,1,0,0:0:0:0:
402,192,27206,1,0,0:0:0:0:
448,192,27313,1,0,0:0:0:0:
64,192,27313,1,0,0:0:0:0:
402,192,27313,1,0,0:0:0:0:
402,192,27420,1,0,0:0:0:0:
109,192,27420,1,0,0:0:0:0:
182,192,27420,1,0,0:0:0:0:
182,192,27527,1,0,0:0:0:0:
109,192,27527,1,0,0:0:0:0:
402,192,27527,1,0,0:0:0:0:
109,192,27634,1,0,0:0:0:0:
182,192,27634,1,0,0:0:0:0:
402,192,27634,1,0,0:0:0:0:
109,192,27741,1,0,0:0:0:0:
182,192,27741,1,0,0:0:0:0:
402,192,27741,1,0,0:0:0:0:
109,192,27849,1,0,0:0:0:0:
182,192,27849,1,0,0:0:0:0:
402,192,27849,1,0,0:0:0:0:
182,192,27956,1,0,0:0:0:0:
109,192,27956,1,0,0:0:0:0:
402,192,27956,1,0,0:0:0:0:
109,192,28063,1,0,0:0:0:0:
182,192,28063,1,0,0:0:0:0:
402,192,28063,1,0,0:0:0:0:
402,192,28170,1,0,0:0:0:0:
109,192,28170,1,0,0:0:0:0:
182,192,28170,1,0,0:0:0:0:
402,192,28277,1,0,0:0:0:0:
109,192,28277,1,0,0:0:0:0:
182,192,28277,1,0,0:0:0:0:
402,192,28384,1,0,0:0:0:0:
109,192,28384,1,0,0:0:0:0:
182,192,28384,1,0,0:0:0:0:
402,192,28491,1,0,0:0:0:0:
109,192,28491,1,0,0:0:0:0:
182,192,28491,1,0,0:0:0:0:
402,192,28599,1,0,0:0:0:0:
109,192,28599,1,0,0:0:0:0:
182,192,28599,1,0,0:0:0:0:
192,192,28706,1,0,0:0:0:0:
64,192,28706,1,0,0:0:0:0:
329,192,28706,1,0,0:0:0:0:
64,192,28813,1,0,0:0:0:0:
192,192,28813,1,0,0:0:0:0:
329,192,28813,1,0,0:0:0:0:
64,192,28920,1,0,0:0:0:0:
192,192,28920,1,0,0:0:0:0:
329,192,28920,1,0,0:0:0:0:
64,192,29027,1,0,0:0:0:0:
192,192,29027,1,0,0:0:0:0:
329,192,29027,1,0,0:0:0:0:
64,192,29134,1,0,0:0:0:0:
192,192,29134,1,0,0:0:0:0:
329,192,29134,1,0,0:0:0:0:
192,192,29241,1,0,0:0:0:0:
64,192,29241,1,0,0:0:0:0:
329,192,29241,1,0,0:0:0:0:
329,192,29349,1,0,0:0:0:0:
448,192,29349,1,0,0:0:0:0:
109,192,29349,1,0,0:0:0:0:
329,192,29456,1,0,0:0:0:0:
448,192,29456,1,0,0:0:0:0:
109,192,29456,1,0,0:0:0:0:
329,192,29563,1,0,0:0:0:0:
448,192,29563,1,0,0:0:0:0:
109,192,29563,1,0,0:0:0:0:
329,192,29670,1,0,0:0:0:0:
448,192,29670,1,0,0:0:0:0:
109,192,29670,1,0,0:0:0:0:
329,192,29777,1,0,0:0:0:0:
448,192,29777,1,0,0:0:0:0:
109,192,29777,1,0,0:0:0:0:
329,192,29884,1,0,0:0:0:0:
448,192,29884,1,0,0:0:0:0:
109,192,29884,1,0,0:0:0:0:
192,192,29991,1,0,0:0:0:0:
475,192,29991,1,0,0:0:0:0:
402,192,29991,1,0,0:0:0:0:
192,192,30099,1,0,0:0:0:0:
475,192,30099,1,0,0:0:0:0:
402,192,30099,1,0,0:0:0:0:
192,192,30206,1,0,0:0:0:0:
475,192,30206,1,0,0:0:0:0:
402,192,30206,1,0,0:0:0:0:
192,192,30313,1,0,0:0:0:0:
475,192,30313,1,0,0:0:0:0:
402,192,30313,1,0,0:0:0:0:
192,192,30420,1,0,0:0:0:0:
475,192,30420,1,0,0:0:0:0:
402,192,30420,1,0,0:0:0:0:
192,192,30527,1,0,0:0:0:0:
475,192,30527,1,0,0:0:0:0:
402,192,30527,1,0,0:0:0:0:
192,192,30634,1,0,0:0:0:0:
475,192,30634,1,0,0:0:0:0:
402,192,30634,1,0,0:0:0:0:
192,192,30741,1,0,0:0:0:0:
475,192,30741,1,0,0:0:0:0:
402,192,30741,1,0,0:0:0:0:
192,192,30849,1,0,0:0:0:0:
475,192,30849,1,0,0:0:0:0:
402,192,30849,1,0,0:0:0:0:
192,192,30956,1,0,0:0:0:0:
475,192,30956,1,0,0:0:0:0:
402,192,30956,1,0,0:0:0:0:
192,192,31063,1,0,0:0:0:0:
475,192,31063,1,0,0:0:0:0:
402,192,31063,1,0,0:0:0:0:
192,192,31170,1,0,0:0:0:0:
475,192,31170,1,0,0:0:0:0:
402,192,31170,1,0,0:0:0:0:
64,192,31277,1,0,0:0:0:0:
109,192,31277,1,0,0:0:0:0:
182,192,31277,1,0,0:0:0:0:
64,192,31384,1,0,0:0:0:0:
109,192,31384,1,0,0:0:0:0:
182,192,31384,1,0,0:0:0:0:
64,192,31491,1,0,0:0:0:0:
109,192,31491,1,0,0:0:0:0:
182,192,31491,1,0,0:0:0:0:
64,192,31599,1,0,0:0:0:0:
109,192,31599,1,0,0:0:0:0:
182,192,31599,1,0,0:0:0:0:
64,192,31706,1,0,0:0:0:0:
109,192,31706,1,0,0:0:0:0:
182,192,31706,1,0,0:0:0:0:
64,192,31813,1,0,0:0:0:0:
109,192,31813,1,0,0:0:0:0:
182,192,31813,1,0,0:0:0:0:
448,192,31920,1,0,0:0:0:0:
256,192,31920,1,0,0:0:0:0:
36,192,31920,1,0,0:0:0:0:
448,192,32027,1,0,0:0:0:0:
256,192,32027,1,0,0:0:0:0:
36,192,32027,1,0,0:0:0:0:
256,192,32134,1,0,0:0:0:0:
448,192,32134,1,0,0:0:0:0:
36,192,32134,1,0,0:0:0:0:
256,192,32241,1,0,0:0:0:0:
448,192,32241,1,0,0:0:0:0:
36,192,32241,1,0,0:0:0:0:
256,192,32349,1,0,0:0:0:0:
448,192,32349,1,0,0:0:0:0:
36,192,32349,1,0,0:0:0:0:
448,192,32456,1,0,0:0:0:0:
256,192,32456,1,0,0:0:0:0:
36,192,32456,1,0,0:0:0:0:
109,192,32563,1,0,0:0:0:0:
182,192,32563,1,0,0:0:0:0:
329,192,32563,1,0,0:0:0:0:
402,192,32563,1,0,0:0:0:0:
182,192,32777,1,0,0:0:0:0:
256,192,32777,1,0,0:0:0:0:
329,192,32777,1,0,0:0:0:0:
402,192,32777,1,0,0:0:0:0:
36,192,32884,1,0,0:0:0:0:
182,192,32991,1,0,0:0:0:0:
256,192,32991,1,0,0:0:0:0:
109,192,32991,1,0,0:0:0:0:
329,192,32991,1,0,0:0:0:0:
256,192,33206,1,0,0:0:0:0:
329,192,33206,1,0,0:0:0:0:
402,192,33206,1,0,0:0:0:0:
475,192,33206,1,0,0:0:0:0:
182,192,33206,1,0,0:0:0:0:
329,192,33420,1,0,0:0:0:0:
256,192,33420,1,0,0:0:0:0:
182,192,33420,1,0,0:0:0:0:
109,192,33420,1,0,0:0:0:0:
402,192,33420,1,0,0:0:0:0:
36,192,33634,1,0,0:0:0:0:
109,192,33634,1,0,0:0:0:0:
182,192,33634,1,0,0:0:0:0:
256,192,33634,1,0,0:0:0:0:
329,192,33634,1,0,0:0:0:0:
109,192,33849,1,0,0:0:0:0:
36,192,33849,1,0,0:0:0:0:
329,192,33849,1,0,0:0:0:0:
402,192,33849,1,0,0:0:0:0:
256,192,33849,1,0,0:0:0:0:
182,192,34063,1,0,0:0:0:0:
256,192,34063,1,0,0:0:0:0:
475,192,34063,1,0,0:0:0:0:
402,192,34063,1,0,0:0:0:0:
109,192,34063,1,0,0:0:0:0:
402,192,34277,1,0,0:0:0:0:
329,192,34277,1,0,0:0:0:0:
475,192,34277,1,0,0:0:0:0:
109,192,34277,1,0,0:0:0:0:
36,192,34277,1,0,0:0:0:0:
182,192,34491,1,0,0:0:0:0:
256,192,34491,1,0,0:0:0:0:
402,192,34491,1,0,0:0:0:0:
36,192,34491,1,0,0:0:0:0:
329,192,34599,1,0,0:0:0:0:
109,192,34599,1,0,0:0:0:0:
256,192,34706,1,0,0:0:0:0:
402,192,34706,1,0,0:0:0:0:
36,192,34706,1,0,0:0:0:0:
475,192,34706,1,0,0:0:0:0:
182,192,34813,1,0,0:0:0:0:
329,192,34920,1,0,0:0:0:0:
402,192,34920,1,0,0:0:0:0:
475,192,34920,1,0,0:0:0:0:
109,192,34920,1,0,0:0:0:0:
256,192,35027,1,0,0:0:0:0:
402,192,35134,1,0,0:0:0:0:
475,192,35134,1,0,0:0:0:0:
109,192,35134,1,0,0:0:0:0:
36,192,35134,1,0,0:0:0:0:
256,192,35349,1,0,0:0:0:0:
329,192,35349,1,0,0:0:0:0:
402,192,35349,1,0,0:0:0:0:
182,192,35349,1,0,0:0:0:0:
475,192,35456,1,0,0:0:0:0:
182,192,35563,1,0,0:0:0:0:
109,192,35563,1,0,0:0:0:0:
36,192,35563,1,0,0:0:0:0:
256,192,35563,1,0,0:0:0:0:
182,192,35777,1,0,0:0:0:0:
256,192,35777,1,0,0:0:0:0:
329,192,35777,1,0,0:0:0:0:
109,192,35777,1,0,0:0:0:0:
475,192,35777,1,0,0:0:0:0:
402,192,35991,1,0,0:0:0:0:
329,192,35991,1,0,0:0:0:0:
182,192,35991,1,0,0:0:0:0:
109,192,35991,1,0,0:0:0:0:
36,192,35991,1,0,0:0:0:0:
182,192,36206,1,0,0:0:0:0:
256,192,36206,1,0,0:0:0:0:
329,192,36206,1,0,0:0:0:0:
475,192,36206,1,0,0:0:0:0:
402,192,36206,1,0,0:0:0:0:
36,192,36420,1,0,0:0:0:0:
109,192,36420,1,0,0:0:0:0:
402,192,36420,1,0,0:0:0:0:
475,192,36420,1,0,0:0:0:0:
329,192,36420,1,0,0:0:0:0:
256,192,36527,1,0,0:0:0:0:
182,192,36634,1,0,0:0:0:0:
402,192,36634,1,0,0:0:0:0:
475,192,36634,1,0,0:0:0:0:
109,192,36634,1,0,0:0:0:0:
329,192,36741,1,0,0:0:0:0:
182,192,36849,1,0,0:0:0:0:
36,192,36849,1,0,0:0:0:0:
402,192,36849,1,0,0:0:0:0:
475,192,36849,1,0,0:0:0:0:
109,192,36956,1,0,0:0:0:0:
256,192,37063,1,0,0:0:0:0:
329,192,37063,1,0,0:0:0:0:
402,192,37063,1,0,0:0:0:0:
475,192,37063,1,0,0:0:0:0:
182,192,37170,1,0,0:0:0:0:
402,192,37277,1,0,0:0:0:0:
36,192,37277,1,0,0:0:0:0:
329,192,37277,1,0,0:0:0:0:
109,192,37277,1,0,0:0:0:0:
475,192,37384,1,0,0:0:0:0:
182,192,37491,1,0,0:0:0:0:
256,192,37491,1,0,0:0:0:0:
109,192,37491,1,0,0:0:0:0:
36,192,37491,1,0,0:0:0:0:
329,192,37599,1,0,0:0:0:0:
109,192,37706,1,0,0:0:0:0:
182,192,37706,1,0,0:0:0:0:
402,192,37706,1,0,0:0:0:0:
475,192,37706,1,0,0:0:0:0:
109,192,37920,1,0,0:0:0:0:
182,192,37920,1,0,0:0:0:0:
329,192,37920,1,0,0:0:0:0:
402,192,37920,1,0,0:0:0:0:
256,192,38027,1,0,0:0:0:0:
109,192,38134,1,0,0:0:0:0:
36,192,38134,1,0,0:0:0:0:
475,192,38134,1,0,0:0:0:0:
402,192,38134,1,0,0:0:0:0:
256,192,38349,1,0,0:0:0:0:
329,192,38349,1,0,0:0:0:0:
402,192,38349,1,0,0:0:0:0:
475,192,38349,1,0,0:0:0:0:
109,192,38349,1,0,0:0:0:0:
182,192,38563,1,0,0:0:0:0:
256,192,38563,1,0,0:0:0:0:
329,192,38563,1,0,0:0:0:0:
402,192,38563,1,0,0:0:0:0:
36,192,38563,1,0,0:0:0:0:
109,192,38777,1,0,0:0:0:0:
182,192,38777,1,0,0:0:0:0:
256,192,38777,1,0,0:0:0:0:
329,192,38777,1,0,0:0:0:0:
402,192,38777,1,0,0:0:0:0:
329,192,38991,1,0,0:0:0:0:
402,192,38991,1,0,0:0:0:0:
182,192,38991,1,0,0:0:0:0:
36,192,38991,1,0,0:0:0:0:
475,192,38991,1,0,0:0:0:0:
402,192,39206,1,0,0:0:0:0:
329,192,39206,1,0,0:0:0:0:
182,192,39206,1,0,0:0:0:0:
109,192,39206,1,0,0:0:0:0:
475,192,39206,1,0,0:0:0:0:
256,192,39420,1,0,0:0:0:0:
182,192,39420,1,0,0:0:0:0:
109,192,39420,1,0,0:0:0:0:
36,192,39420,1,0,0:0:0:0:
402,192,39420,1,0,0:0:0:0:
329,192,39634,1,0,0:0:0:0:
256,192,39634,1,0,0:0:0:0:
109,192,39634,1,0,0:0:0:0:
475,192,39634,1,0,0:0:0:0:
182,192,39741,1,0,0:0:0:0:
402,192,39741,1,0,0:0:0:0:
256,192,39849,1,0,0:0:0:0:
109,192,39849,1,0,0:0:0:0:
475,192,39849,1,0,0:0:0:0:
36,192,39849,1,0,0:0:0:0:
329,192,39956,1,0,0:0:0:0:
182,192,40063,1,0,0:0:0:0:
109,192,40063,1,0,0:0:0:0:
36,192,40063,1,0,0:0:0:0:
402,192,40063,1,0,0:0:0:0:
256,192,40170,1,0,0:0:0:0:
36,192,40277,1,0,0:0:0:0:
329,192,40277,1,0,0:0:0:0:
402,192,40277,1,0,0:0:0:0:
475,192,40277,1,0,0:0:0:0:
182,192,40491,1,0,0:0:0:0:
256,192,40491,1,0,0:0:0:0:
329,192,40491,1,0,0:0:0:0:
402,192,40491,1,0,0:0:0:0:
36,192,40599,1,0,0:0:0:0:
109,192,40706,1,0,0:0:0:0:
256,192,40706,1,0,0:0:0:0:
329,192,40706,1,0,0:0:0:0:
402,192,40706,1,0,0:0:0:0:
182,192,40920,1,0,0:0:0:0:
256,192,40920,1,0,0:0:0:0:
329,192,40920,1,0,0:0:0:0:
402,192,40920,1,0,0:0:0:0:
475,192,40920,1,0,0:0:0:0:
256,192,41134,1,0,0:0:0:0:
182,192,41134,1,0,0:0:0:0:
109,192,41134,1,0,0:0:0:0:
402,192,41134,1,0,0:0:0:0:
329,192,41134,1,0,0:0:0:0:
329,192,41349,1,0,0:0:0:0:
256,192,41349,1,0,0:0:0:0:
182,192,41349,1,0,0:0:0:0:
109,192,41349,1,0,0:0:0:0:
36,192,41349,1,0,0:0:0:0:
475,192,41563,1,0,0:0:0:0:
402,192,41563,1,0,0:0:0:0:
109,192,41563,1,0,0:0:0:0:
36,192,41563,1,0,0:0:0:0:
182,192,41563,1,0,0:0:0:0:
256,192,41670,1,0,0:0:0:0:
329,192,41777,1,0,0:0:0:0:
109,192,41777,1,0,0:0:0:0:
36,192,41777,1,0,0:0:0:0:
402,192,41777,1,0,0:0:0:0:
182,192,41884,1,0,0:0:0:0:
329,192,41991,1,0,0:0:0:0:
475,192,41991,1,0,0:0:0:0:
109,192,41991,1,0,0:0:0:0:
36,192,41991,1,0,0:0:0:0:
402,192,42099,1,0,0:0:0:0:
256,192,42206,1,0,0:0:0:0:
182,192,42206,1,0,0:0:0:0:
109,192,42206,1,0,0:0:0:0:
36,192,42206,1,0,0:0:0:0:
329,192,42313,1,0,0:0:0:0:
109,192,42420,1,0,0:0:0:0:
475,192,42420,1,0,0:0:0:0:
182,192,42420,1,0,0:0:0:0:
402,192,42420,1,0,0:0:0:0:
36,192,42527,1,0,0:0:0:0:
329,192,42634,1,0,0:0:0:0:
256,192,42634,1,0,0:0:0:0:
402,192,42634,1,0,0:0:0:0:
475,192,42634,1,0,0:0:0:0:
182,192,42741,1,0,0:0:0:0:
329,192,42849,5,0,0:0:0:0:
109,192,42849,1,0,0:0:0:0:
36,192,42849,1,0,0:0:0:0:
402,192,42849,1,0,0:0:0:0:
475,192,42849,1,0,0:0:0:0:
256,192,42849,1,0,0:0:0:0:
64,192,43063,1,0,0:0:0:0:
109,192,43170,1,0,0:0:0:0:
182,192,43277,1,0,0:0:0:0:
448,192,43491,1,0,0:0:0:0:
320,192,43706,1,0,0:0:0:0:
192,192,43920,1,0,0:0:0:0:
64,192,44134,1,0,0:0:0:0:
320,192,44134,1,0,0:0:0:0:
256,192,44349,1,0,0:0:0:0:
475,192,44563,1,0,0:0:0:0:
192,192,44777,1,0,0:0:0:0:
448,192,44884,1,0,0:0:0:0:
64,192,44991,1,0,0:0:0:0:
320,192,45099,1,0,0:0:0:0:
192,192,45206,1,0,0:0:0:0:
448,192,45313,1,0,0:0:0:0:
64,192,45420,1,0,0:0:0:0:
192,192,45420,1,0,0:0:0:0:
109,192,45634,1,0,0:0:0:0:
256,192,45741,1,0,0:0:0:0:
402,192,45849,1,0,0:0:0:0:
448,192,46063,1,0,0:0:0:0:
320,192,46277,1,0,0:0:0:0:
192,192,46491,1,0,0:0:0:0:
448,192,46706,1,0,0:0:0:0:
64,192,46706,1,0,0:0:0:0:
402,192,46920,1,0,0:0:0:0:
329,192,47134,1,0,0:0:0:0:
256,192,47349,1,0,0:0:0:0:
182,192,47563,1,0,0:0:0:0:
109,192,47777,1,0,0:0:0:0:
448,192,47884,1,0,0:0:0:0:
192,192,47991,1,0,0:0:0:0:
64,192,47991,1,0,0:0:0:0:
109,192,48206,1,0,0:0:0:0:
256,192,48313,1,0,0:0:0:0:
402,192,48420,1,0,0:0:0:0:
448,192,48634,1,0,0:0:0:0:
320,192,48849,1,0,0:0:0:0:
192,192,49063,1,0,0:0:0:0:
64,192,49277,1,0,0:0:0:0:
109,192,49277,1,0,0:0:0:0:
256,192,49491,1,0,0:0:0:0:
402,192,49706,1,0,0:0:0:0:
109,192,49920,1,0,0:0:0:0:
402,192,50027,1,0,0:0:0:0:
256,192,50134,1,0,0:0:0:0:
182,192,50241,1,0,0:0:0:0:
109,192,50349,1,0,0:0:0:0:
402,192,50456,1,0,0:0:0:0:
109,192,50563,1,0,0:0:0:0:
64,192,50563,1,0,0:0:0:0:
256,192,50563,1,0,0:0:0:0:
475,192,50563,1,0,0:0:0:0:
64,192,50777,1,0,0:0:0:0:
109,192,50777,1,0,0:0:0:0:
192,192,50777,1,0,0:0:0:0:
402,192,50777,1,0,0:0:0:0:
329,192,50884,1,0,0:0:0:0:
64,192,50991,1,0,0:0:0:0:
109,192,50991,1,0,0:0:0:0:
402,192,50991,1,0,0:0:0:0:
256,192,50991,1,0,0:0:0:0:
64,192,51206,1,0,0:0:0:0:
109,192,51206,1,0,0:0:0:0:
448,192,51206,1,0,0:0:0:0:
182,192,51206,1,0,0:0:0:0:
64,192,51420,1,0,0:0:0:0:
109,192,51420,1,0,0:0:0:0:
402,192,51420,1,0,0:0:0:0:
329,192,51420,1,0,0:0:0:0:
64,192,51634,1,0,0:0:0:0:
320,192,51634,1,0,0:0:0:0:
109,192,51634,1,0,0:0:0:0:
256,192,51634,1,0,0:0:0:0:
192,192,51849,1,0,0:0:0:0:
448,192,51849,1,0,0:0:0:0:
402,192,51849,1,0,0:0:0:0:
109,192,51849,1,0,0:0:0:0:
402,192,52063,1,0,0:0:0:0:
448,192,52063,1,0,0:0:0:0:
36,192,52063,1,0,0:0:0:0:
182,192,52063,1,0,0:0:0:0:
256,192,52170,1,0,0:0:0:0:
448,192,52277,1,0,0:0:0:0:
402,192,52277,1,0,0:0:0:0:
109,192,52277,1,0,0:0:0:0:
329,192,52277,1,0,0:0:0:0:
448,192,52491,1,0,0:0:0:0:
402,192,52491,1,0,0:0:0:0:
329,192,52491,1,0,0:0:0:0:
182,192,52491,1,0,0:0:0:0:
256,192,52599,1,0,0:0:0:0:
448,192,52706,1,0,0:0:0:0:
402,192,52706,1,0,0:0:0:0:
182,192,52706,1,0,0:0:0:0:
36,192,52706,1,0,0:0:0:0:
109,192,52813,1,0,0:0:0:0:
402,192,52920,1,0,0:0:0:0:
448,192,52920,1,0,0:0:0:0:
36,192,52920,1,0,0:0:0:0:
329,192,52920,1,0,0:0:0:0:
256,192,53027,1,0,0:0:0:0:
402,192,53134,1,0,0:0:0:0:
64,192,53134,1,0,0:0:0:0:
448,192,53134,1,0,0:0:0:0:
182,192,53134,1,0,0:0:0:0:
64,192,53349,1,0,0:0:0:0:
109,192,53349,1,0,0:0:0:0:
329,192,53349,1,0,0:0:0:0:
475,192,53349,1,0,0:0:0:0:
256,192,53456,1,0,0:0:0:0:
64,192,53563,1,0,0:0:0:0:
402,192,53563,1,0,0:0:0:0:
109,192,53563,1,0,0:0:0:0:
329,192,53563,1,0,0:0:0:0:
64,192,53777,1,0,0:0:0:0:
320,192,53777,1,0,0:0:0:0:
475,192,53777,1,0,0:0:0:0:
182,192,53777,1,0,0:0:0:0:
64,192,53991,1,0,0:0:0:0:
192,192,53991,1,0,0:0:0:0:
256,192,53991,1,0,0:0:0:0:
402,192,53991,1,0,0:0:0:0:
64,192,54206,1,0,0:0:0:0:
448,192,54206,1,0,0:0:0:0:
109,192,54206,1,0,0:0:0:0:
329,192,54206,1,0,0:0:0:0:
475,192,54420,1,0,0:0:0:0:
192,192,54420,1,0,0:0:0:0:
256,192,54420,1,0,0:0:0:0:
402,192,54420,1,0,0:0:0:0:
475,192,54634,1,0,0:0:0:0:
64,192,54634,1,0,0:0:0:0:
109,192,54634,1,0,0:0:0:0:
329,192,54634,1,0,0:0:0:0:
320,192,54849,1,0,0:0:0:0:
448,192,54849,1,0,0:0:0:0:
256,192,54849,1,0,0:0:0:0:
182,192,54849,1,0,0:0:0:0:
475,192,55063,1,0,0:0:0:0:
64,192,55063,1,0,0:0:0:0:
402,192,55063,1,0,0:0:0:0:
109,192,55063,1,0,0:0:0:0:
192,192,55170,1,0,0:0:0:0:
320,192,55277,1,0,0:0:0:0:
448,192,55277,1,0,0:0:0:0:
109,192,55277,1,0,0:0:0:0:
64,192,55384,1,0,0:0:0:0:
320,192,55491,1,0,0:0:0:0:
448,192,55491,1,0,0:0:0:0:
402,192,55491,1,0,0:0:0:0:
256,192,55491,1,0,0:0:0:0:
64,192,55599,1,0,0:0:0:0:
192,192,55706,1,0,0:0:0:0:
448,192,55706,1,0,0:0:0:0:
109,192,55706,1,0,0:0:0:0:
329,192,55706,1,0,0:0:0:0:
192,192,55920,1,0,0:0:0:0:
64,192,55920,1,0,0:0:0:0:
402,192,55920,1,0,0:0:0:0:
256,192,55920,1,0,0:0:0:0:
320,192,56027,1,0,0:0:0:0:
192,192,56134,1,0,0:0:0:0:
448,192,56134,1,0,0:0:0:0:
109,192,56134,1,0,0:0:0:0:
36,192,56134,1,0,0:0:0:0:
320,192,56349,1,0,0:0:0:0:
448,192,56349,1,0,0:0:0:0:
402,192,56349,1,0,0:0:0:0:
256,192,56349,1,0,0:0:0:0:
320,192,56563,1,0,0:0:0:0:
64,192,56563,1,0,0:0:0:0:
109,192,56563,1,0,0:0:0:0:
475,192,56563,1,0,0:0:0:0:
320,192,56777,1,0,0:0:0:0:
192,192,56777,1,0,0:0:0:0:
256,192,56777,1,0,0:0:0:0:
402,192,56777,1,0,0:0:0:0:
448,192,56991,1,0,0:0:0:0:
64,192,56991,1,0,0:0:0:0:
182,192,57099,1,0,0:0:0:0:
402,192,57206,1,0,0:0:0:0:
475,192,57206,1,0,0:0:0:0:
109,192,57313,1,0,0:0:0:0:
448,192,57420,1,0,0:0:0:0:
402,192,57420,1,0,0:0:0:0:
64,192,57527,1,0,0:0:0:0:
402,192,57634,1,0,0:0:0:0:
256,192,57634,1,0,0:0:0:0:
192,192,57741,1,0,0:0:0:0:
448,192,57849,1,0,0:0:0:0:
64,192,57849,1,0,0:0:0:0:
329,192,57956,1,0,0:0:0:0:
36,192,58063,1,0,0:0:0:0:
182,192,58063,1,0,0:0:0:0:
402,192,58170,1,0,0:0:0:0:
109,192,58277,1,0,0:0:0:0:
192,192,58277,1,0,0:0:0:0:
192,192,58491,1,0,0:0:0:0:
320,192,58491,1,0,0:0:0:0:
402,192,58491,1,0,0:0:0:0:
475,192,58491,1,0,0:0:0:0:
64,192,58599,1,0,0:0:0:0:
192,192,58706,1,0,0:0:0:0:
448,192,58706,1,0,0:0:0:0:
256,192,58706,1,0,0:0:0:0:
402,192,58706,1,0,0:0:0:0:
192,192,58920,1,0,0:0:0:0:
64,192,58920,1,0,0:0:0:0:
109,192,58920,1,0,0:0:0:0:
402,192,58920,1,0,0:0:0:0:
192,192,59134,1,0,0:0:0:0:
320,192,59134,1,0,0:0:0:0:
475,192,59134,1,0,0:0:0:0:
109,192,59134,1,0,0:0:0:0:
402,192,59241,1,0,0:0:0:0:
192,192,59349,1,0,0:0:0:0:
448,192,59349,1,0,0:0:0:0:
109,192,59349,1,0,0:0:0:0:
36,192,59349,1,0,0:0:0:0:
256,192,59456,1,0,0:0:0:0:
64,192,59563,1,0,0:0:0:0:
192,192,59563,1,0,0:0:0:0:
402,192,59563,1,0,0:0:0:0:
475,192,59563,1,0,0:0:0:0:
109,192,59670,1,0,0:0:0:0:
64,192,59777,1,0,0:0:0:0:
320,192,59777,1,0,0:0:0:0:
402,192,59777,1,0,0:0:0:0:
475,192,59777,1,0,0:0:0:0:
192,192,59884,1,0,0:0:0:0:
64,192,59991,1,0,0:0:0:0:
448,192,59991,1,0,0:0:0:0:
256,192,59991,1,0,0:0:0:0:
109,192,59991,1,0,0:0:0:0:
402,192,60099,1,0,0:0:0:0:
64,192,60206,1,0,0:0:0:0:
320,192,60206,1,0,0:0:0:0:
448,192,60206,1,0,0:0:0:0:
109,192,60206,1,0,0:0:0:0:
64,192,60420,1,0,0:0:0:0:
320,192,60420,1,0,0:0:0:0:
402,192,60420,1,0,0:0:0:0:
256,192,60420,1,0,0:0:0:0:
109,192,60527,1,0,0:0:0:0:
64,192,60634,1,0,0:0:0:0:
192,192,60634,1,0,0:0:0:0:
320,192,60634,1,0,0:0:0:0:
256,192,60634,1,0,0:0:0:0:
448,192,60741,1,0,0:0:0:0:
320,192,60849,1,0,0:0:0:0:
64,192,60849,1,0,0:0:0:0:
192,192,60849,1,0,0:0:0:0:
402,192,60849,1,0,0:0:0:0:
256,192,60956,1,0,0:0:0:0:
320,192,61063,1,0,0:0:0:0:
402,192,61063,1,0,0:0:0:0:
475,192,61063,1,0,0:0:0:0:
109,192,61063,1,0,0:0:0:0:
64,192,61170,1,0,0:0:0:0:
320,192,61277,1,0,0:0:0:0:
448,192,61277,1,0,0:0:0:0:
192,192,61277,1,0,0:0:0:0:
256,192,61277,1,0,0:0:0:0:
402,192,61384,1,0,0:0:0:0:
448,192,61491,1,0,0:0:0:0:
64,192,61491,1,0,0:0:0:0:
192,192,61491,1,0,0:0:0:0:
109,192,61491,1,0,0:0:0:0:
320,192,61599,1,0,0:0:0:0:
448,192,61706,1,0,0:0:0:0:
192,192,61706,1,0,0:0:0:0:
402,192,61706,1,0,0:0:0:0:
256,192,61706,1,0,0:0:0:0:
109,192,61813,1,0,0:0:0:0:
448,192,61920,1,0,0:0:0:0:
36,192,61920,1,0,0:0:0:0:
402,192,61920,1,0,0:0:0:0:
329,192,61920,1,0,0:0:0:0:
109,192,62027,1,0,0:0:0:0:
36,192,62134,1,0,0:0:0:0:
448,192,62134,1,0,0:0:0:0:
402,192,62188,1,0,0:0:0:0:
329,192,62241,1,0,0:0:0:0:
256,192,62295,1,0,0:0:0:0:
182,192,62349,1,0,0:0:0:0:
36,192,62349,1,0,0:0:0:0:
475,192,62402,1,0,0:0:0:0:
402,192,62456,1,0,0:0:0:0:
329,192,62509,1,0,0:0:0:0:
192,192,62563,1,0,0:0:0:0:
64,192,62563,1,0,0:0:0:0:
256,192,62616,1,0,0:0:0:0:
329,192,62670,1,0,0:0:0:0:
402,192,62724,1,0,0:0:0:0:
64,192,62777,1,0,0:0:0:0:
109,192,62849,1,0,0:0:0:0:
256,192,62920,1,0,0:0:0:0:
320,192,62991,1,0,0:0:0:0:
182,192,63063,1,0,0:0:0:0:
109,192,63134,1,0,0:0:0:0:
402,192,63206,1,0,0:0:0:0:
256,192,63277,1,0,0:0:0:0:
64,192,63349,1,0,0:0:0:0:
109,192,63349,1,0,0:0:0:0:
402,192,63420,1,0,0:0:0:0:
448,192,63420,1,0,0:0:0:0:
329,192,63420,1,0,0:0:0:0:
402,192,63527,1,0,0:0:0:0:
448,192,63527,1,0,0:0:0:0:
329,192,63527,1,0,0:0:0:0:
402,192,63634,1,0,0:0:0:0:
448,192,63634,1,0,0:0:0:0:
329,192,63634,1,0,0:0:0:0:
320,192,63741,1,0,0:0:0:0:
448,192,63741,1,0,0:0:0:0:
402,192,63741,1,0,0:0:0:0:
320,192,63849,1,0,0:0:0:0:
448,192,63849,1,0,0:0:0:0:
402,192,63849,1,0,0:0:0:0:
320,192,63956,1,0,0:0:0:0:
448,192,63956,1,0,0:0:0:0:
402,192,63956,1,0,0:0:0:0:
320,192,64063,1,0,0:0:0:0:
448,192,64063,1,0,0:0:0:0:
402,192,64063,1,0,0:0:0:0:
320,192,64170,1,0,0:0:0:0:
448,192,64170,1,0,0:0:0:0:
402,192,64170,1,0,0:0:0:0:
320,192,64277,1,0,0:0:0:0:
448,192,64277,1,0,0:0:0:0:
402,192,64277,1,0,0:0:0:0:
320,192,64384,1,0,0:0:0:0:
448,192,64384,1,0,0:0:0:0:
402,192,64384,1,0,0:0:0:0:
320,192,64491,1,0,0:0:0:0:
448,192,64491,1,0,0:0:0:0:
402,192,64491,1,0,0:0:0:0:
320,192,64599,1,0,0:0:0:0:
448,192,64599,1,0,0:0:0:0:
402,192,64599,1,0,0:0:0:0:
64,192,64706,1,0,0:0:0:0:
109,192,64706,1,0,0:0:0:0:
329,192,64706,1,0,0:0:0:0:
64,192,64813,1,0,0:0:0:0:
109,192,64813,1,0,0:0:0:0:
329,192,64813,1,0,0:0:0:0:
64,192,64920,1,0,0:0:0:0:
109,192,64920,1,0,0:0:0:0:
329,192,64920,1,0,0:0:0:0:
64,192,65027,1,0,0:0:0:0:
109,192,65027,1,0,0:0:0:0:
329,192,65027,1,0,0:0:0:0:
64,192,65134,1,0,0:0:0:0:
109,192,65134,1,0,0:0:0:0:
329,192,65134,1,0,0:0:0:0:
64,192,65241,1,0,0:0:0:0:
109,192,65241,1,0,0:0:0:0:
329,192,65241,1,0,0:0:0:0:
192,192,65349,1,0,0:0:0:0:
448,192,65349,1,0,0:0:0:0:
109,192,65349,1,0,0:0:0:0:
192,192,65456,1,0,0:0:0:0:
448,192,65456,1,0,0:0:0:0:
109,192,65456,1,0,0:0:0:0:
192,192,65563,1,0,0:0:0:0:
448,192,65563,1,0,0:0:0:0:
109,192,65563,1,0,0:0:0:0:
192,192,65670,1,0,0:0:0:0:
448,192,65670,1,0,0:0:0:0:
109,192,65670,1,0,0:0:0:0:
192,192,65777,1,0,0:0:0:0:
448,192,65777,1,0,0:0:0:0:
109,192,65777,1,0,0:0:0:0:
192,192,65884,1,0,0:0:0:0:
448,192,65884,1,0,0:0:0:0:
109,192,65884,1,0,0:0:0:0:
192,192,65991,1,0,0:0:0:0:
64,192,65991,1,0,0:0:0:0:
256,192,65991,1,0,0:0:0:0:
64,192,66099,1,0,0:0:0:0:
192,192,66099,1,0,0:0:0:0:
256,192,66099,1,0,0:0:0:0:
64,192,66206,1,0,0:0:0:0:
192,192,66206,1,0,0:0:0:0:
256,192,66206,1,0,0:0:0:0:
64,192,66313,1,0,0:0:0:0:
192,192,66313,1,0,0:0:0:0:
256,192,66313,1,0,0:0:0:0:
64,192,66420,1,0,0:0:0:0:
192,192,66420,1,0,0:0:0:0:
256,192,66420,1,0,0:0:0:0:
192,192,66527,1,0,0:0:0:0:
64,192,66527,1,0,0:0:0:0:
256,192,66527,1,0,0:0:0:0:
64,192,66634,1,0,0:0:0:0:
192,192,66634,1,0,0:0:0:0:
256,192,66634,1,0,0:0:0:0:
192,192,66741,1,0,0:0:0:0:
64,192,66741,1,0,0:0:0:0:
256,192,66741,1,0,0:0:0:0:
64,192,66849,1,0,0:0:0:0:
192,192,66849,1,0,0:0:0:0:
256,192,66849,1,0,0:0:0:0:
192,192,66956,1,0,0:0:0:0:
64,192,66956,1,0,0:0:0:0:
256,192,66956,1,0,0:0:0:0:
64,192,67063,1,0,0:0:0:0:
192,192,67063,1,0,0:0:0:0:
256,192,67063,1,0,0:0:0:0:
192,192,67170,1,0,0:0:0:0:
64,192,67170,1,0,0:0:0:0:
256,192,67170,1,0,0:0:0:0:
320,192,67277,1,0,0:0:0:0:
448,192,67277,1,0,0:0:0:0:
256,192,67277,1,0,0:0:0:0:
320,192,67384,1,0,0:0:0:0:
448,192,67384,1,0,0:0:0:0:
256,192,67384,1,0,0:0:0:0:
320,192,67491,1,0,0:0:0:0:
448,192,67491,1,0,0:0:0:0:
256,192,67491,1,0,0:0:0:0:
320,192,67599,1,0,0:0:0:0:
448,192,67599,1,0,0:0:0:0:
256,192,67599,1,0,0:0:0:0:
320,192,67706,1,0,0:0:0:0:
448,192,67706,1,0,0:0:0:0:
256,192,67706,1,0,0:0:0:0:
320,192,67813,1,0,0:0:0:0:
448,192,67813,1,0,0:0:0:0:
256,192,67813,1,0,0:0:0:0:
64,192,67920,1,0,0:0:0:0:
448,192,67920,1,0,0:0:0:0:
402,192,67920,1,0,0:0:0:0:
64,192,68027,1,0,0:0:0:0:
448,192,68027,1,0,0:0:0:0:
402,192,68027,1,0,0:0:0:0:
64,192,68134,1,0,0:0:0:0:
448,192,68134,1,0,0:0:0:0:
402,192,68134,1,0,0:0:0:0:
64,192,68241,1,0,0:0:0:0:
448,192,68241,1,0,0:0:0:0:
402,192,68241,1,0,0:0:0:0:
64,192,68349,1,0,0:0:0:0:
448,192,68349,1,0,0:0:0:0:
402,192,68349,1,0,0:0:0:0:
448,192,68456,1,0,0:0:0:0:
64,192,68456,1,0,0:0:0:0:
402,192,68456,1,0,0:0:0:0:
402,192,68563,1,0,0:0:0:0:
109,192,68563,1,0,0:0:0:0:
182,192,68563,1,0,0:0:0:0:
182,192,68670,1,0,0:0:0:0:
109,192,68670,1,0,0:0:0:0:
402,192,68670,1,0,0:0:0:0:
109,192,68777,1,0,0:0:0:0:
182,192,68777,1,0,0:0:0:0:
402,192,68777,1,0,0:0:0:0:
109,192,68884,1,0,0:0:0:0:
182,192,68884,1,0,0:0:0:0:
402,192,68884,1,0,0:0:0:0:
109,192,68991,1,0,0:0:0:0:
182,192,68991,1,0,0:0:0:0:
402,192,68991,1,0,0:0:0:0:
182,192,69099,1,0,0:0:0:0:
109,192,69099,1,0,0:0:0:0:
402,192,69099,1,0,0:0:0:0:
109,192,69206,1,0,0:0:0:0:
182,192,69206,1,0,0:0:0:0:
402,192,69206,1,0,0:0:0:0:
402,192,69313,1,0,0:0:0:0:
109,192,69313,1,0,0:0:0:0:
182,192,69313,1,0,0:0:0:0:
402,192,69420,1,0,0:0:0:0:
109,192,69420,1,0,0:0:0:0:
182,192,69420,1,0,0:0:0:0:
402,192,69527,1,0,0:0:0:0:
109,192,69527,1,0,0:0:0:0:
182,192,69527,1,0,0:0:0:0:
402,192,69634,1,0,0:0:0:0:
109,192,69634,1,0,0:0:0:0:
182,192,69634,1,0,0:0:0:0:
402,192,69741,1,0,0:0:0:0:
109,192,69741,1,0,0:0:0:0:
182,192,69741,1,0,0:0:0:0:
192,192,69849,1,0,0:0:0:0:
64,192,69849,1,0,0:0:0:0:
329,192,69849,1,0,0:0:0:0:
64,192,69956,1,0,0:0:0:0:
192,192,69956,1,0,0:0:0:0:
329,192,69956,1,0,0:0:0:0:
64,192,70063,1,0,0:0:0:0:
192,192,70063,1,0,0:0:0:0:
329,192,70063,1,0,0:0:0:0:
64,192,70170,1,0,0:0:0:0:
192,192,70170,1,0,0:0:0:0:
329,192,70170,1,0,0:0:0:0:
64,192,70277,1,0,0:0:0:0:
192,192,70277,1,0,0:0:0:0:
329,192,70277,1,0,0:0:0:0:
192,192,70384,1,0,0:0:0:0:
64,192,70384,1,0,0:0:0:0:
329,192,70384,1,0,0:0:0:0:
329,192,70491,1,0,0:0:0:0:
448,192,70491,1,0,0:0:0:0:
109,192,70491,1,0,0:0:0:0:
329,192,70599,1,0,0:0:0:0:
448,192,70599,1,0,0:0:0:0:
109,192,70599,1,0,0:0:0:0:
329,192,70706,1,0,0:0:0:0:
448,192,70706,1,0,0:0:0:0:
109,192,70706,1,0,0:0:0:0:
329,192,70813,1,0,0:0:0:0:
448,192,70813,1,0,0:0:0:0:
109,192,70813,1,0,0:0:0:0:
329,192,70920,1,0,0:0:0:0:
448,192,70920,1,0,0:0:0:0:
109,192,70920,1,0,0:0:0:0:
329,192,71027,1,0,0:0:0:0:
448,192,71027,1,0,0:0:0:0:
109,192,71027,1,0,0:0:0:0:
192,192,71134,1,0,0:0:0:0:
475,192,71134,1,0,0:0:0:0:
402,192,71134,1,0,0:0:0:0:
192,192,71241,1,0,0:0:0:0:
475,192,71241,1,0,0:0:0:0:
402,192,71241,1,0,0:0:0:0:
192,192,71349,1,0,0:0:0:0:
475,192,71349,1,0,0:0:0:0:
402,192,71349,1,0,0:0:0:0:
192,192,71456,1,0,0:0:0:0:
475,192,71456,1,0,0:0:0:0:
402,192,71456,1,0,0:0:0:0:
192,192,71563,1,0,0:0:0:0:
475,192,71563,1,0,0:0:0:0:
402,192,71563,1,0,0:0:0:0:
192,192,71670,1,0,0:0:0:0:
475,192,71670,1,0,0:0:0:0:
402,192,71670,1,0,0:0:0:0:
192,192,71777,1,0,0:0:0:0:
475,192,71777,1,0,0:0:0:0:
402,192,71777,1,0,0:0:0:0:
192,192,71884,1,0,0:0:0:0:
475,192,71884,1,0,0:0:0:0:
402,192,71884,1,0,0:0:0:0:
192,192,71991,1,0,0:0:0:0:
475,192,71991,1,0,0:0:0:0:
402,192,71991,1,0,0:0:0:0:
192,192,72099,1,0,0:0:0:0:
475,192,72099,1,0,0:0:0:0:
402,192,72099,1,0,0:0:0:0:
192,192,72206,1,0,0:0:0:0:
475,192,72206,1,0,0:0:0:0:
402,192,72206,1,0,0:0:0:0:
192,192,72313,1,0,0:0:0:0:
475,192,72313,1,0,0:0:0:0:
402,192,72313,1,0,0:0:0:0:
64,192,72420,1,0,0:0:0:0:
109,192,72420,1,0,0:0:0:0:
182,192,72420,1,0,0:0:0:0:
64,192,72527,1,0,0:0:0:0:
109,192,72527,1,0,0:0:0:0:
182,192,72527,1,0,0:0:0:0:
64,192,72634,1,0,0:0:0:0:
109,192,72634,1,0,0:0:0:0:
182,192,72634,1,0,0:0:0:0:
64,192,72741,1,0,0:0:0:0:
109,192,72741,1,0,0:0:0:0:
182,192,72741,1,0,0:0:0:0:
64,192,72849,1,0,0:0:0:0:
109,192,72849,1,0,0:0:0:0:
182,192,72849,1,0,0:0:0:0:
64,192,72956,1,0,0:0:0:0:
109,192,72956,1,0,0:0:0:0:
182,192,72956,1,0,0:0:0:0:
448,192,73063,1,0,0:0:0:0:
256,192,73063,1,0,0:0:0:0:
36,192,73063,1,0,0:0:0:0:
448,192,73170,1,0,0:0:0:0:
256,192,73170,1,0,0:0:0:0:
36,192,73170,1,0,0:0:0:0:
256,192,73277,1,0,0:0:0:0:
448,192,73277,1,0,0:0:0:0:
36,192,73277,1,0,0:0:0:0:
256,192,73384,1,0,0:0:0:0:
448,192,73384,1,0,0:0:0:0:
36,192,73384,1,0,0:0:0:0:
256,192,73491,1,0,0:0:0:0:
448,192,73491,1,0,0:0:0:0:
36,192,73491,1,0,0:0:0:0:
448,192,73599,1,0,0:0:0:0:
256,192,73599,1,0,0:0:0:0:
36,192,73599,1,0,0:0:0:0:
109,192,73706,1,0,0:0:0:0:
182,192,73706,1,0,0:0:0:0:
329,192,73706,1,0,0:0:0:0:
402,192,73706,1,0,0:0:0:0:
182,192,73920,1,0,0:0:0:0:
256,192,73920,1,0,0:0:0:0:
329,192,73920,1,0,0:0:0:0:
402,192,73920,1,0,0:0:0:0:
36,192,74027,1,0,0:0:0:0:
182,192,74134,1,0,0:0:0:0:
256,192,74134,1,0,0:0:0:0:
109,192,74134,1,0,0:0:0:0:
329,192,74134,1,0,0:0:0:0:
256,192,74349,1,0,0:0:0:0:
329,192,74349,1,0,0:0:0:0:
402,192,74349,1,0,0:0:0:0:
475,192,74349,1,0,0:0:0:0:
182,192,74349,1,0,0:0:0:0:
329,192,74563,1,0,0:0:0:0:
256,192,74563,1,0,0:0:0:0:
182,192,74563,1,0,0:0:0:0:
109,192,74563,1,0,0:0:0:0:
402,192,74563,1,0,0:0:0:0:
36,192,74777,1,0,0:0:0:0:
109,192,74777,1,0,0:0:0:0:
182,192,74777,1,0,0:0:0:0:
256,192,74777,1,0,0:0:0:0:
329,192,74777,1,0,0:0:0:0:
109,192,74991,1,0,0:0:0:0:
36,192,74991,1,0,0:0:0:0:
329,192,74991,1,0,0:0:0:0:
402,192,74991,1,0,0:0:0:0:
256,192,74991,1,0,0:0:0:0:
182,192,75206,1,0,0:0:0:0:
256,192,75206,1,0,0:0:0:0:
475,192,75206,1,0,0:0:0:0:
402,192,75206,1,0,0:0:0:0:
109,192,75206,1,0,0:0:0:0:
402,192,75420,1,0,0:0:0:0:
329,192,75420,1,0,0:0:0:0:
475,192,75420,1,0,0:0:0:0:
109,192,75420,1,0,0:0:0:0:
36,192,75420,1,0,0:0:0:0:
182,192,75634,1,0,0:0:0:0:
256,192,75634,1,0,0:0:0:0:
402,192,75634,1,0,0:0:0:0:
36,192,75634,1,0,0:0:0:0:
329,192,75741,1,0,0:0:0:0:
109,192,75741,1,0,0:0:0:0:
256,192,75849,1,0,0:0:0:0:
402,192,75849,1,0,0:0:0:0:
36,192,75849,1,0,0:0:0:0:
475,192,75849,1,0,0:0:0:0:
182,192,75956,1,0,0:0:0:0:
329,192,76063,1,0,0:0:0:0:
402,192,76063,1,0,0:0:0:0:
475,192,76063,1,0,0:0:0:0:
109,192,76063,1,0,0:0:0:0:
256,192,76170,1,0,0:0:0:0:
402,192,76277,1,0,0:0:0:0:
475,192,76277,1,0,0:0:0:0:
109,192,76277,1,0,0:0:0:0:
36,192,76277,1,0,0:0:0:0:
256,192,76491,1,0,0:0:0:0:
329,192,76491,1,0,0:0:0:0:
402,192,76491,1,0,0:0:0:0:
182,192,76491,1,0,0:0:0:0:
475,192,76599,1,0,0:0:0:0:
182,192,76706,1,0,0:0:0:0:
109,192,76706,1,0,0:0:0:0:
36,192,76706,1,0,0:0:0:0:
256,192,76706,1,0,0:0:0:0:
182,192,76920,1,0,0:0:0:0:
256,192,76920,1,0,0:0:0:0:
329,192,76920,1,0,0:0:0:0:
109,192,76920,1,0,0:0:0:0:
475,192,76920,1,0,0:0:0:0:
402,192,77134,1,0,0:0:0:0:
329,192,77134,1,0,0:0:0:0:
182,192,77134,1,0,0:0:0:0:
109,192,77134,1,0,0:0:0:0:
36,192,77134,1,0,0:0:0:0:
182,192,77349,1,0,0:0:0:0:
256,192,77349,1,0,0:0:0:0:
329,192,77349,1,0,0:0:0:0:
475,192,77349,1,0,0:0:0:0:
402,192,77349,1,0,0:0:0:0:
36,192,77563,1,0,0:0:0:0:
109,192,77563,1,0,0:0:0:0:
402,192,77563,1,0,0:0:0:0:
475,192,77563,1,0,0:0:0:0:
329,192,77563,1,0,0:0:0:0:
256,192,77670,1,0,0:0:0:0:
182,192,77777,1,0,0:0:0:0:
402,192,77777,1,0,0:0:0:0:
475,192,77777,1,0,0:0:0:0:
109,192,77777,1,0,0:0:0:0:
329,192,77884,1,0,0:0:0:0:
182,192,77991,1,0,0:0:0:0:
36,192,77991,1,0,0:0:0:0:
402,192,77991,1,0,0:0:0:0:
475,192,77991,1,0,0:0:0:0:
109,192,78099,1,0,0:0:0:0:
256,192,78206,1,0,0:0:0:0:
329,192,78206,1,0,0:0:0:0:
402,192,78206,1,0,0:0:0:0:
475,192,78206,1,0,0:0:0:0:
182,192,78313,1,0,0:0:0:0:
402,192,78420,1,0,0:0:0:0:
36,192,78420,1,0,0:0:0:0:
329,192,78420,1,0,0:0:0:0:
109,192,78420,1,0,0:0:0:0:
475,192,78527,1,0,0:0:0:0:
182,192,78634,1,0,0:0:0:0:
256,192,78634,1,0,0:0:0:0:
109,192,78634,1,0,0:0:0:0:
36,192,78634,1,0,0:0:0:0:
329,192,78741,1,0,0:0:0:0:
109,192,78849,1,0,0:0:0:0:
182,192,78849,1,0,0:0:0:0:
402,192,78849,1,0,0:0:0:0:
475,192,78849,1,0,0:0:0:0:
109,192,79063,1,0,0:0:0:0:
182,192,79063,1,0,0:0:0:0:
329,192,79063,1,0,0:0:0:0:
402,192,79063,1,0,0:0:0:0:
256,192,79170,1,0,0:0:0:0:
109,192,79277,1,0,0:0:0:0:
36,192,79277,1,0,0:0:0:0:
475,192,79277,1,0,0:0:0:0:
402,192,79277,1,0,0:0:0:0:
256,192,79491,1,0,0:0:0:0:
329,192,79491,1,0,0:0:0:0:
402,192,79491,1,0,0:0:0:0:
475,192,79491,1,0,0:0:0:0:
109,192,79491,1,0,0:0:0:0:
182,192,79706,1,0,0:0:0:0:
256,192,79706,1,0,0:0:0:0:
329,192,79706,1,0,0:0:0:0:
402,192,79706,1,0,0:0:0:0:
36,192,79706,1,0,0:0:0:0:
109,192,79920,1,0,0:0:0:0:
182,192,79920,1,0,0:0:0:0:
256,192,79920,1,0,0:0:0:0:
329,192,79920,1,0,0:0:0:0:
402,192,79920,1,0,0:0:0:0:
329,192,80134,1,0,0:0:0:0:
402,192,80134,1,0,0:0:0:0:
182,192,80134,1,0,0:0:0:0:
36,192,80134,1,0,0:0:0:0:
475,192,80134,1,0,0:0:0:0:
402,192,80349,1,0,0:0:0:0:
329,192,80349,1,0,0:0:0:0:
182,192,80349,1,0,0:0:0:0:
109,192,80349,1,0,0:0:0:0:
475,192,80349,1,0,0:0:0:0:
256,192,80563,1,0,0:0:0:0:
182,192,80563,1,0,0:0:0:0:
109,192,80563,1,0,0:0:0:0:
36,192,80563,1,0,0:0:0:0:
402,192,80563,1,0,0:0:0:0:
329,192,80777,1,0,0:0:0:0:
256,192,80777,1,0,0:0:0:0:
109,192,80777,1,0,0:0:0:0:
475,192,80777,1,0,0:0:0:0:
182,192,80884,1,0,0:0:0:0:
402,192,80884,1,0,0:0:0:0:
256,192,80991,1,0,0:0:0:0:
109,192,80991,1,0,0:0:0:0:
475,192,80991,1,0,0:0:0:0:
36,192,80991,1,0,0:0:0:0:
329,192,81099,1,0,0:0:0:0:
182,192,81206,1,0,0:0:0:0:
109,192,81206,1,0,0:0:0:0:
36,192,81206,1,0,0:0:0:0:
402,192,81206,1,0,0:0:0:0:
256,192,81313,1,0,0:0:0:0:
36,192,81420,1,0,0:0:0:0:
329,192,81420,1,0,0:0:0:0:
402,192,81420,1,0,0:0:0:0:
475,192,81420,1,0,0:0:0:0:
182,192,81634,1,0,0:0:0:0:
256,192,81634,1,0,0:0:0:0:
329,192,81634,1,0,0:0:0:0:
402,192,81634,1,0,0:0:0:0:
36,192,81741,1,0,0:0:0:0:
109,192,81849,1,0,0:0:0:0:
256,192,81849,1,0,0:0:0:0:
329,192,81849,1,0,0:0:0:0:
402,192,81849,1,0,0:0:0:0:
182,192,82063,1,0,0:0:0:0:
256,192,82063,1,0,0:0:0:0:
329,192,82063,1,0,0:0:0:0:
402,192,82063,1,0,0:0:0:0:
475,192,82063,1,0,0:0:0:0:
256,192,82277,1,0,0:0:0:0:
182,192,82277,1,0,0:0:0:0:
109,192,82277,1,0,0:0:0:0:
402,192,82277,1,0,0:0:0:0:
329,192,82277,1,0,0:0:0:0:
329,192,82491,1,0,0:0:0:0:
256,192,82491,1,0,0:0:0:0:
182,192,82491,1,0,0:0:0:0:
109,192,82491,1,0,0:0:0:0:
36,192,82491,1,0,0:0:0:0:
475,192,82706,1,0,0:0:0:0:
402,192,82706,1,0,0:0:0:0:
109,192,82706,1,0,0:0:0:0:
36,192,82706,1,0,0:0:0:0:
182,192,82706,1,0,0:0:0:0:
256,192,82813,1,0,0:0:0:0:
329,192,82920,1,0,0:0:0:0:
109,192,82920,1,0,0:0:0:0:
36,192,82920,1,0,0:0:0:0:
402,192,82920,1,0,0:0:0:0:
182,192,83027,1,0,0:0:0:0:
329,192,83134,1,0,0:0:0:0:
475,192,83134,1,0,0:0:0:0:
109,192,83134,1,0,0:0:0:0:
36,192,83134,1,0,0:0:0:0:
402,192,83241,1,0,0:0:0:0:
256,192,83349,1,0,0:0:0:0:
182,192,83349,1,0,0:0:0:0:
109,192,83349,1,0,0:0:0:0:
36,192,83349,1,0,0:0:0:0:
329,192,83456,1,0,0:0:0:0:
109,192,83563,1,0,0:0:0:0:
475,192,83563,1,0,0:0:0:0:
182,192,83563,1,0,0:0:0:0:
402,192,83563,1,0,0:0:0:0:
36,192,83670,1,0,0:0:0:0:
329,192,83777,1,0,0:0:0:0:
256,192,83777,1,0,0:0:0:0:
402,192,83777,1,0,0:0:0:0:
475,192,83777,1,0,0:0:0:0:
182,192,83884,1,0,0:0:0:0:
402,192,83991,1,0,0:0:0:0:
329,192,83991,1,0,0:0:0:0:
109,192,83991,1,0,0:0:0:0:
36,192,83991,1,0,0:0:0:0:
256,192,83991,1,0,0:0:0:0:
475,192,83991,1,0,0:0:0:0:
256,192,84099,1,0,0:0:0:0:
329,192,84099,1,0,0:0:0:0:
402,192,84099,1,0,0:0:0:0:
475,192,84099,1,0,0:0:0:0:
329,192,84206,1,0,0:0:0:0:
402,192,84206,1,0,0:0:0:0:
256,192,84206,1,0,0:0:0:0:
475,192,84206,1,0,0:0:0:0:
256,192,84313,1,0,0:0:0:0:
329,192,84313,1,0,0:0:0:0:
402,192,84313,1,0,0:0:0:0:
475,192,84313,1,0,0:0:0:0:
256,192,84420,1,0,0:0:0:0:
329,192,84420,1,0,0:0:0:0:
402,192,84420,1,0,0:0:0:0:
475,192,84420,1,0,0:0:0:0:
256,192,84527,1,0,0:0:0:0:
329,192,84527,1,0,0:0:0:0:
402,192,84527,1,0,0:0:0:0:
475,192,84527,1,0,0:0:0:0:
256,192,84634,1,0,0:0:0:0:
329,192,84634,1,0,0:0:0:0:
402,192,84634,1,0,0:0:0:0:
475,192,84634,1,0,0:0:0:0:
256,192,84741,1,0,0:0:0:0:
329,192,84741,1,0,0:0:0:0:
475,192,84741,1,0,0:0:0:0:
402,192,84741,1,0,0:0:0:0:
256,192,84849,1,0,0:0:0:0:
329,192,84849,1,0,0:0:0:0:
402,192,84849,1,0,0:0:0:0:
475,192,84849,1,0,0:0:0:0:
256,192,84956,1,0,0:0:0:0:
329,192,84956,1,0,0:0:0:0:
402,192,84956,1,0,0:0:0:0:
475,192,84956,1,0,0:0:0:0:
256,192,85063,1,0,0:0:0:0:
329,192,85063,1,0,0:0:0:0:
402,192,85063,1,0,0:0:0:0:
475,192,85063,1,0,0:0:0:0:
256,192,85170,1,0,0:0:0:0:
329,192,85170,1,0,0:0:0:0:
402,192,85170,1,0,0:0:0:0:
475,192,85170,1,0,0:0:0:0:
36,192,85277,1,0,0:0:0:0:
109,192,85277,1,0,0:0:0:0:
329,192,85277,1,0,0:0:0:0:
182,192,85277,1,0,0:0:0:0:
329,192,85384,1,0,0:0:0:0:
109,192,85384,1,0,0:0:0:0:
36,192,85384,1,0,0:0:0:0:
182,192,85384,1,0,0:0:0:0:
36,192,85491,1,0,0:0:0:0:
109,192,85491,1,0,0:0:0:0:
329,192,85491,1,0,0:0:0:0:
182,192,85491,1,0,0:0:0:0:
329,192,85599,1,0,0:0:0:0:
109,192,85599,1,0,0:0:0:0:
36,192,85599,1,0,0:0:0:0:
182,192,85599,1,0,0:0:0:0:
329,192,85706,1,0,0:0:0:0:
36,192,85706,1,0,0:0:0:0:
109,192,85706,1,0,0:0:0:0:
182,192,85706,1,0,0:0:0:0:
329,192,85813,1,0,0:0:0:0:
109,192,85813,1,0,0:0:0:0:
36,192,85813,1,0,0:0:0:0:
182,192,85813,1,0,0:0:0:0:
109,192,85920,1,0,0:0:0:0:
182,192,85920,1,0,0:0:0:0:
402,192,85920,1,0,0:0:0:0:
475,192,85920,1,0,0:0:0:0:
109,192,86027,1,0,0:0:0:0:
182,192,86027,1,0,0:0:0:0:
402,192,86027,1,0,0:0:0:0:
475,192,86027,1,0,0:0:0:0:
402,192,86134,1,0,0:0:0:0:
475,192,86134,1,0,0:0:0:0:
182,192,86134,1,0,0:0:0:0:
109,192,86134,1,0,0:0:0:0:
109,192,86241,1,0,0:0:0:0:
182,192,86241,1,0,0:0:0:0:
402,192,86241,1,0,0:0:0:0:
475,192,86241,1,0,0:0:0:0:
402,192,86349,1,0,0:0:0:0:
475,192,86349,1,0,0:0:0:0:
182,192,86349,1,0,0:0:0:0:
109,192,86349,1,0,0:0:0:0:
109,192,86456,1,0,0:0:0:0:
182,192,86456,1,0,0:0:0:0:
402,192,86456,1,0,0:0:0:0:
475,192,86456,1,0,0:0:0:0:
256,192,86563,1,0,0:0:0:0:
329,192,86563,1,0,0:0:0:0:
36,192,86563,1,0,0:0:0:0:
402,192,86563,1,0,0:0:0:0:
36,192,86670,1,0,0:0:0:0:
256,192,86670,1,0,0:0:0:0:
329,192,86670,1,0,0:0:0:0:
402,192,86670,1,0,0:0:0:0:
402,192,86777,1,0,0:0:0:0:
329,192,86777,1,0,0:0:0:0:
256,192,86777,1,0,0:0:0:0:
36,192,86777,1,0,0:0:0:0:
36,192,86884,1,0,0:0:0:0:
256,192,86884,1,0,0:0:0:0:
329,192,86884,1,0,0:0:0:0:
402,192,86884,1,0,0:0:0:0:
402,192,86991,1,0,0:0:0:0:
256,192,86991,1,0,0:0:0:0:
329,192,86991,1,0,0:0:0:0:
36,192,86991,1,0,0:0:0:0:
256,192,87099,1,0,0:0:0:0:
329,192,87099,1,0,0:0:0:0:
402,192,87099,1,0,0:0:0:0:
36,192,87099,1,0,0:0:0:0:
402,192,87206,1,0,0:0:0:0:
329,192,87206,1,0,0:0:0:0:
256,192,87206,1,0,0:0:0:0:
36,192,87206,1,0,0:0:0:0:
36,192,87313,1,0,0:0:0:0:
256,192,87313,1,0,0:0:0:0:
329,192,87313,1,0,0:0:0:0:
402,192,87313,1,0,0:0:0:0:
402,192,87420,1,0,0:0:0:0:
256,192,87420,1,0,0:0:0:0:
329,192,87420,1,0,0:0:0:0:
36,192,87420,1,0,0:0:0:0:
36,192,87527,1,0,0:0:0:0:
256,192,87527,1,0,0:0:0:0:
329,192,87527,1,0,0:0:0:0:
402,192,87527,1,0,0:0:0:0:
402,192,87634,1,0,0:0:0:0:
329,192,87634,1,0,0:0:0:0:
256,192,87634,1,0,0:0:0:0:
36,192,87634,1,0,0:0:0:0:
256,192,87741,1,0,0:0:0:0:
329,192,87741,1,0,0:0:0:0:
402,192,87741,1,0,0:0:0:0:
36,192,87741,1,0,0:0:0:0:
36,192,87849,1,0,0:0:0:0:
109,192,87849,1,0,0:0:0:0:
182,192,87849,1,0,0:0:0:0:
475,192,87849,1,0,0:0:0:0:
36,192,87956,1,0,0:0:0:0:
475,192,87956,1,0,0:0:0:0:
182,192,87956,1,0,0:0:0:0:
109,192,87956,1,0,0:0:0:0:
36,192,88063,1,0,0:0:0:0:
109,192,88063,1,0,0:0:0:0:
182,192,88063,1,0,0:0:0:0:
475,192,88063,1,0,0:0:0:0:
36,192,88170,1,0,0:0:0:0:
475,192,88170,1,0,0:0:0:0:
182,192,88170,1,0,0:0:0:0:
109,192,88170,1,0,0:0:0:0:
36,192,88277,1,0,0:0:0:0:
109,192,88277,1,0,0:0:0:0:
182,192,88277,1,0,0:0:0:0:
475,192,88277,1,0,0:0:0:0:
36,192,88384,1,0,0:0:0:0:
475,192,88384,1,0,0:0:0:0:
182,192,88384,1,0,0:0:0:0:
109,192,88384,1,0,0:0:0:0:
36,192,88491,1,0,0:0:0:0:
109,192,88491,1,0,0:0:0:0:
182,192,88491,1,0,0:0:0:0:
329,192,88491,1,0,0:0:0:0:
256,192,88491,1,0,0:0:0:0:
402,192,88491,1,0,0:0:0:0:
475,192,88491,1,0,0:0:0:0:
182,192,88599,1,0,0:0:0:0:
256,192,88599,1,0,0:0:0:0:
475,192,88599,1,0,0:0:0:0:
402,192,88599,1,0,0:0:0:0:
329,192,88599,1,0,0:0:0:0:
109,192,88599,1,0,0:0:0:0:
36,192,88599,1,0,0:0:0:0:
329,192,88706,1,0,0:0:0:0:
109,192,88706,1,0,0:0:0:0:
36,192,88706,1,0,0:0:0:0:
402,192,88706,1,0,0:0:0:0:
182,192,88706,1,0,0:0:0:0:
256,192,88706,1,0,0:0:0:0:
475,192,88706,1,0,0:0:0:0:
182,192,88813,1,0,0:0:0:0:
256,192,88813,1,0,0:0:0:0:
475,192,88813,1,0,0:0:0:0:
402,192,88813,1,0,0:0:0:0:
329,192,88813,1,0,0:0:0:0:
109,192,88813,1,0,0:0:0:0:
36,192,88813,1,0,0:0:0:0:
329,192,88920,1,0,0:0:0:0:
109,192,88920,1,0,0:0:0:0:
36,192,88920,1,0,0:0:0:0:
402,192,88920,1,0,0:0:0:0:
182,192,88920,1,0,0:0:0:0:
256,192,88920,1,0,0:0:0:0:
475,192,88920,1,0,0:0:0:0:
182,192,89027,1,0,0:0:0:0:
256,192,89027,1,0,0:0:0:0:
475,192,89027,1,0,0:0:0:0:
402,192,89027,1,0,0:0:0:0:
329,192,89027,1,0,0:0:0:0:
109,192,89027,1,0,0:0:0:0:
36,192,89027,1,0,0:0:0:0:
329,192,89134,1,0,0:0:0:0:
402,192,89134,1,0,0:0:0:0:
182,192,89134,1,0,0:0:0:0:
109,192,89134,1,0,0:0:0:0:
329,192,89241,1,0,0:0:0:0:
402,192,89241,1,0,0:0:0:0:
109,192,89241,1,0,0:0:0:0:
182,192,89241,1,0,0:0:0:0:
329,192,89349,1,0,0:0:0:0:
402,192,89349,1,0,0:0:0:0:
109,192,89349,1,0,0:0:0:0:
182,192,89349,1,0,0:0:0:0:
329,192,89456,1,0,0:0:0:0:
402,192,89456,1,0,0:0:0:0:
109,192,89456,1,0,0:0:0:0:
182,192,89456,1,0,0:0:0:0:
329,192,89563,1,0,0:0:0:0:
402,192,89563,1,0,0:0:0:0:
109,192,89563,1,0,0:0:0:0:
182,192,89563,1,0,0:0:0:0:
329,192,89670,1,0,0:0:0:0:
402,192,89670,1,0,0:0:0:0:
182,192,89670,1,0,0:0:0:0:
109,192,89670,1,0,0:0:0:0:
329,192,89777,1,0,0:0:0:0:
402,192,89777,1,0,0:0:0:0:
109,192,89777,1,0,0:0:0:0:
182,192,89777,1,0,0:0:0:0:
329,192,89884,1,0,0:0:0:0:
402,192,89884,1,0,0:0:0:0:
109,192,89884,1,0,0:0:0:0:
182,192,89884,1,0,0:0:0:0:
329,192,89991,1,0,0:0:0:0:
402,192,89991,1,0,0:0:0:0:
109,192,89991,1,0,0:0:0:0:
182,192,89991,1,0,0:0:0:0:
329,192,90099,1,0,0:0:0:0:
402,192,90099,1,0,0:0:0:0:
109,192,90099,1,0,0:0:0:0:
182,192,90099,1,0,0:0:0:0:
402,192,90206,1,0,0:0:0:0:
329,192,90206,1,0,0:0:0:0:
109,192,90206,1,0,0:0:0:0:
182,192,90206,1,0,0:0:0:0:
329,192,90313,1,0,0:0:0:0:
402,192,90313,1,0,0:0:0:0:
109,192,90313,1,0,0:0:0:0:
182,192,90313,1,0,0:0:0:0:
109,192,90420,1,0,0:0:0:0:
256,192,90420,1,0,0:0:0:0:
36,192,90420,1,0,0:0:0:0:
402,192,90420,1,0,0:0:0:0:
256,192,90527,1,0,0:0:0:0:
109,192,90527,1,0,0:0:0:0:
36,192,90527,1,0,0:0:0:0:
402,192,90527,1,0,0:0:0:0:
109,192,90634,1,0,0:0:0:0:
256,192,90634,1,0,0:0:0:0:
36,192,90634,1,0,0:0:0:0:
402,192,90634,1,0,0:0:0:0:
109,192,90741,1,0,0:0:0:0:
256,192,90741,1,0,0:0:0:0:
36,192,90741,1,0,0:0:0:0:
402,192,90741,1,0,0:0:0:0:
109,192,90849,1,0,0:0:0:0:
256,192,90849,1,0,0:0:0:0:
36,192,90849,1,0,0:0:0:0:
402,192,90849,1,0,0:0:0:0:
256,192,90956,1,0,0:0:0:0:
109,192,90956,1,0,0:0:0:0:
36,192,90956,1,0,0:0:0:0:
402,192,90956,1,0,0:0:0:0:
475,192,91063,1,0,0:0:0:0:
329,192,91063,1,0,0:0:0:0:
182,192,91063,1,0,0:0:0:0:
36,192,91063,1,0,0:0:0:0:
475,192,91170,1,0,0:0:0:0:
329,192,91170,1,0,0:0:0:0:
36,192,91170,1,0,0:0:0:0:
182,192,91170,1,0,0:0:0:0:
475,192,91277,1,0,0:0:0:0:
329,192,91277,1,0,0:0:0:0:
182,192,91277,1,0,0:0:0:0:
36,192,91277,1,0,0:0:0:0:
475,192,91384,1,0,0:0:0:0:
329,192,91384,1,0,0:0:0:0:
36,192,91384,1,0,0:0:0:0:
182,192,91384,1,0,0:0:0:0:
475,192,91491,1,0,0:0:0:0:
329,192,91491,1,0,0:0:0:0:
182,192,91491,1,0,0:0:0:0:
36,192,91491,1,0,0:0:0:0:
475,192,91599,1,0,0:0:0:0:
329,192,91599,1,0,0:0:0:0:
36,192,91599,1,0,0:0:0:0:
182,192,91599,1,0,0:0:0:0:
256,192,91706,1,0,0:0:0:0:
329,192,91706,1,0,0:0:0:0:
402,192,91706,1,0,0:0:0:0:
475,192,91706,1,0,0:0:0:0:
256,192,91813,1,0,0:0:0:0:
329,192,91813,1,0,0:0:0:0:
475,192,91813,1,0,0:0:0:0:
402,192,91813,1,0,0:0:0:0:
256,192,91920,1,0,0:0:0:0:
329,192,91920,1,0,0:0:0:0:
402,192,91920,1,0,0:0:0:0:
475,192,91920,1,0,0:0:0:0:
256,192,92027,1,0,0:0:0:0:
329,192,92027,1,0,0:0:0:0:
402,192,92027,1,0,0:0:0:0:
475,192,92027,1,0,0:0:0:0:
256,192,92134,1,0,0:0:0:0:
329,192,92134,1,0,0:0:0:0:
402,192,92134,1,0,0:0:0:0:
475,192,92134,1,0,0:0:0:0:
256,192,92241,1,0,0:0:0:0:
329,192,92241,1,0,0:0:0:0:
402,192,92241,1,0,0:0:0:0:
475,192,92241,1,0,0:0:0:0:
256,192,92349,1,0,0:0:0:0:
329,192,92349,1,0,0:0:0:0:
402,192,92349,1,0,0:0:0:0:
475,192,92349,1,0,0:0:0:0:
256,192,92456,1,0,0:0:0:0:
329,192,92456,1,0,0:0:0:0:
402,192,92456,1,0,0:0:0:0:
475,192,92456,1,0,0:0:0:0:
475,192,92563,1,0,0:0:0:0:
402,192,92563,1,0,0:0:0:0:
329,192,92563,1,0,0:0:0:0:
256,192,92563,1,0,0:0:0:0:
256,192,92670,1,0,0:0:0:0:
329,192,92670,1,0,0:0:0:0:
475,192,92670,1,0,0:0:0:0:
402,192,92670,1,0,0:0:0:0:
475,192,92777,1,0,0:0:0:0:
402,192,92777,1,0,0:0:0:0:
329,192,92777,1,0,0:0:0:0:
256,192,92777,1,0,0:0:0:0:
256,192,92884,1,0,0:0:0:0:
329,192,92884,1,0,0:0:0:0:
402,192,92884,1,0,0:0:0:0:
475,192,92884,1,0,0:0:0:0:
329,192,92991,1,0,0:0:0:0:
182,192,92991,1,0,0:0:0:0:
109,192,92991,1,0,0:0:0:0:
36,192,92991,1,0,0:0:0:0:
36,192,93099,1,0,0:0:0:0:
109,192,93099,1,0,0:0:0:0:
182,192,93099,1,0,0:0:0:0:
329,192,93099,1,0,0:0:0:0:
329,192,93206,1,0,0:0:0:0:
182,192,93206,1,0,0:0:0:0:
109,192,93206,1,0,0:0:0:0:
36,192,93206,1,0,0:0:0:0:
36,192,93313,1,0,0:0:0:0:
109,192,93313,1,0,0:0:0:0:
182,192,93313,1,0,0:0:0:0:
329,192,93313,1,0,0:0:0:0:
36,192,93420,1,0,0:0:0:0:
109,192,93420,1,0,0:0:0:0:
182,192,93420,1,0,0:0:0:0:
329,192,93420,1,0,0:0:0:0:
329,192,93527,1,0,0:0:0:0:
182,192,93527,1,0,0:0:0:0:
109,192,93527,1,0,0:0:0:0:
36,192,93527,1,0,0:0:0:0:
109,192,93634,1,0,0:0:0:0:
182,192,93634,1,0,0:0:0:0:
402,192,93634,1,0,0:0:0:0:
475,192,93634,1,0,0:0:0:0:
109,192,93741,1,0,0:0:0:0:
182,192,93741,1,0,0:0:0:0:
475,192,93741,1,0,0:0:0:0:
402,192,93741,1,0,0:0:0:0:
109,192,93849,1,0,0:0:0:0:
182,192,93849,1,0,0:0:0:0:
402,192,93849,1,0,0:0:0:0:
475,192,93849,1,0,0:0:0:0:
109,192,93956,1,0,0:0:0:0:
182,192,93956,1,0,0:0:0:0:
402,192,93956,1,0,0:0:0:0:
475,192,93956,1,0,0:0:0:0:
182,192,94063,1,0,0:0:0:0:
109,192,94063,1,0,0:0:0:0:
402,192,94063,1,0,0:0:0:0:
475,192,94063,1,0,0:0:0:0:
402,192,94170,1,0,0:0:0:0:
475,192,94170,1,0,0:0:0:0:
182,192,94170,1,0,0:0:0:0:
109,192,94170,1,0,0:0:0:0:
256,192,94277,1,0,0:0:0:0:
329,192,94277,1,0,0:0:0:0:
402,192,94277,1,0,0:0:0:0:
475,192,94277,1,0,0:0:0:0:
182,192,94277,1,0,0:0:0:0:
109,192,94277,1,0,0:0:0:0:
256,192,94384,1,0,0:0:0:0:
329,192,94384,1,0,0:0:0:0:
402,192,94384,1,0,0:0:0:0:
475,192,94384,1,0,0:0:0:0:
329,192,94491,1,0,0:0:0:0:
402,192,94491,1,0,0:0:0:0:
256,192,94491,1,0,0:0:0:0:
475,192,94491,1,0,0:0:0:0:
256,192,94599,1,0,0:0:0:0:
329,192,94599,1,0,0:0:0:0:
402,192,94599,1,0,0:0:0:0:
475,192,94599,1,0,0:0:0:0:
256,192,94706,1,0,0:0:0:0:
329,192,94706,1,0,0:0:0:0:
402,192,94706,1,0,0:0:0:0:
475,192,94706,1,0,0:0:0:0:
256,192,94813,1,0,0:0:0:0:
329,192,94813,1,0,0:0:0:0:
402,192,94813,1,0,0:0:0:0:
475,192,94813,1,0,0:0:0:0:
256,192,94920,1,0,0:0:0:0:
329,192,94920,1,0,0:0:0:0:
402,192,94920,1,0,0:0:0:0:
475,192,94920,1,0,0:0:0:0:
256,192,95027,1,0,0:0:0:0:
329,192,95027,1,0,0:0:0:0:
475,192,95027,1,0,0:0:0:0:
402,192,95027,1,0,0:0:0:0:
256,192,95134,1,0,0:0:0:0:
329,192,95134,1,0,0:0:0:0:
402,192,95134,1,0,0:0:0:0:
475,192,95134,1,0,0:0:0:0:
256,192,95241,1,0,0:0:0:0:
329,192,95241,1,0,0:0:0:0:
402,192,95241,1,0,0:0:0:0:
475,192,95241,1,0,0:0:0:0:
256,192,95349,1,0,0:0:0:0:
329,192,95349,1,0,0:0:0:0:
402,192,95349,1,0,0:0:0:0:
475,192,95349,1,0,0:0:0:0:
256,192,95456,1,0,0:0:0:0:
329,192,95456,1,0,0:0:0:0:
402,192,95456,1,0,0:0:0:0:
475,192,95456,1,0,0:0:0:0:
36,192,95563,1,0,0:0:0:0:
109,192,95563,1,0,0:0:0:0:
329,192,95563,1,0,0:0:0:0:
182,192,95563,1,0,0:0:0:0:
329,192,95670,1,0,0:0:0:0:
109,192,95670,1,0,0:0:0:0:
36,192,95670,1,0,0:0:0:0:
182,192,95670,1,0,0:0:0:0:
36,192,95777,1,0,0:0:0:0:
109,192,95777,1,0,0:0:0:0:
329,192,95777,1,0,0:0:0:0:
182,192,95777,1,0,0:0:0:0:
329,192,95884,1,0,0:0:0:0:
109,192,95884,1,0,0:0:0:0:
36,192,95884,1,0,0:0:0:0:
182,192,95884,1,0,0:0:0:0:
329,192,95991,1,0,0:0:0:0:
36,192,95991,1,0,0:0:0:0:
109,192,95991,1,0,0:0:0:0:
182,192,95991,1,0,0:0:0:0:
329,192,96099,1,0,0:0:0:0:
109,192,96099,1,0,0:0:0:0:
36,192,96099,1,0,0:0:0:0:
182,192,96099,1,0,0:0:0:0:
109,192,96206,1,0,0:0:0:0:
182,192,96206,1,0,0:0:0:0:
402,192,96206,1,0,0:0:0:0:
475,192,96206,1,0,0:0:0:0:
109,192,96313,1,0,0:0:0:0:
182,192,96313,1,0,0:0:0:0:
402,192,96313,1,0,0:0:0:0:
475,192,96313,1,0,0:0:0:0:
402,192,96420,1,0,0:0:0:0:
475,192,96420,1,0,0:0:0:0:
182,192,96420,1,0,0:0:0:0:
109,192,96420,1,0,0:0:0:0:
109,192,96527,1,0,0:0:0:0:
182,192,96527,1,0,0:0:0:0:
402,192,96527,1,0,0:0:0:0:
475,192,96527,1,0,0:0:0:0:
402,192,96634,1,0,0:0:0:0:
475,192,96634,1,0,0:0:0:0:
182,192,96634,1,0,0:0:0:0:
109,192,96634,1,0,0:0:0:0:
109,192,96741,1,0,0:0:0:0:
182,192,96741,1,0,0:0:0:0:
402,192,96741,1,0,0:0:0:0:
475,192,96741,1,0,0:0:0:0:
256,192,96849,1,0,0:0:0:0:
329,192,96849,1,0,0:0:0:0:
36,192,96849,1,0,0:0:0:0:
402,192,96849,1,0,0:0:0:0:
36,192,96956,1,0,0:0:0:0:
256,192,96956,1,0,0:0:0:0:
329,192,96956,1,0,0:0:0:0:
402,192,96956,1,0,0:0:0:0:
402,192,97063,1,0,0:0:0:0:
329,192,97063,1,0,0:0:0:0:
256,192,97063,1,0,0:0:0:0:
36,192,97063,1,0,0:0:0:0:
36,192,97170,1,0,0:0:0:0:
256,192,97170,1,0,0:0:0:0:
329,192,97170,1,0,0:0:0:0:
402,192,97170,1,0,0:0:0:0:
402,192,97277,1,0,0:0:0:0:
256,192,97277,1,0,0:0:0:0:
329,192,97277,1,0,0:0:0:0:
36,192,97277,1,0,0:0:0:0:
256,192,97384,1,0,0:0:0:0:
329,192,97384,1,0,0:0:0:0:
402,192,97384,1,0,0:0:0:0:
36,192,97384,1,0,0:0:0:0:
402,192,97491,1,0,0:0:0:0:
329,192,97491,1,0,0:0:0:0:
256,192,97491,1,0,0:0:0:0:
36,192,97491,1,0,0:0:0:0:
36,192,97599,1,0,0:0:0:0:
256,192,97599,1,0,0:0:0:0:
329,192,97599,1,0,0:0:0:0:
402,192,97599,1,0,0:0:0:0:
402,192,97706,1,0,0:0:0:0:
256,192,97706,1,0,0:0:0:0:
329,192,97706,1,0,0:0:0:0:
36,192,97706,1,0,0:0:0:0:
36,192,97813,1,0,0:0:0:0:
256,192,97813,1,0,0:0:0:0:
329,192,97813,1,0,0:0:0:0:
402,192,97813,1,0,0:0:0:0:
402,192,97920,1,0,0:0:0:0:
329,192,97920,1,0,0:0:0:0:
256,192,97920,1,0,0:0:0:0:
36,192,97920,1,0,0:0:0:0:
256,192,98027,1,0,0:0:0:0:
329,192,98027,1,0,0:0:0:0:
402,192,98027,1,0,0:0:0:0:
36,192,98027,1,0,0:0:0:0:
36,192,98134,1,0,0:0:0:0:
109,192,98134,1,0,0:0:0:0:
182,192,98134,1,0,0:0:0:0:
475,192,98134,1,0,0:0:0:0:
36,192,98241,1,0,0:0:0:0:
475,192,98241,1,0,0:0:0:0:
182,192,98241,1,0,0:0:0:0:
109,192,98241,1,0,0:0:0:0:
36,192,98349,1,0,0:0:0:0:
109,192,98349,1,0,0:0:0:0:
182,192,98349,1,0,0:0:0:0:
475,192,98349,1,0,0:0:0:0:
36,192,98456,1,0,0:0:0:0:
475,192,98456,1,0,0:0:0:0:
182,192,98456,1,0,0:0:0:0:
109,192,98456,1,0,0:0:0:0:
36,192,98563,1,0,0:0:0:0:
109,192,98563,1,0,0:0:0:0:
182,192,98563,1,0,0:0:0:0:
475,192,98563,1,0,0:0:0:0:
36,192,98670,1,0,0:0:0:0:
475,192,98670,1,0,0:0:0:0:
182,192,98670,1,0,0:0:0:0:
109,192,98670,1,0,0:0:0:0:
36,192,98777,1,0,0:0:0:0:
109,192,98777,1,0,0:0:0:0:
182,192,98777,1,0,0:0:0:0:
329,192,98777,1,0,0:0:0:0:
256,192,98777,1,0,0:0:0:0:
402,192,98777,1,0,0:0:0:0:
475,192,98777,1,0,0:0:0:0:
182,192,98884,1,0,0:0:0:0:
256,192,98884,1,0,0:0:0:0:
475,192,98884,1,0,0:0:0:0:
402,192,98884,1,0,0:0:0:0:
329,192,98884,1,0,0:0:0:0:
109,192,98884,1,0,0:0:0:0:
36,192,98884,1,0,0:0:0:0:
329,192,98991,1,0,0:0:0:0:
109,192,98991,1,0,0:0:0:0:
36,192,98991,1,0,0:0:0:0:
402,192,98991,1,0,0:0:0:0:
182,192,98991,1,0,0:0:0:0:
256,192,98991,1,0,0:0:0:0:
475,192,98991,1,0,0:0:0:0:
182,192,99099,1,0,0:0:0:0:
256,192,99099,1,0,0:0:0:0:
475,192,99099,1,0,0:0:0:0:
402,192,99099,1,0,0:0:0:0:
329,192,99099,1,0,0:0:0:0:
109,192,99099,1,0,0:0:0:0:
36,192,99099,1,0,0:0:0:0:
329,192,99206,1,0,0:0:0:0:
109,192,99206,1,0,0:0:0:0:
36,192,99206,1,0,0:0:0:0:
402,192,99206,1,0,0:0:0:0:
182,192,99206,1,0,0:0:0:0:
256,192,99206,1,0,0:0:0:0:
475,192,99206,1,0,0:0:0:0:
182,192,99313,1,0,0:0:0:0:
256,192,99313,1,0,0:0:0:0:
475,192,99313,1,0,0:0:0:0:
402,192,99313,1,0,0:0:0:0:
329,192,99313,1,0,0:0:0:0:
109,192,99313,1,0,0:0:0:0:
36,192,99313,1,0,0:0:0:0:
329,192,99420,1,0,0:0:0:0:
402,192,99420,1,0,0:0:0:0:
182,192,99420,1,0,0:0:0:0:
109,192,99420,1,0,0:0:0:0:
329,192,99527,1,0,0:0:0:0:
402,192,99527,1,0,0:0:0:0:
109,192,99527,1,0,0:0:0:0:
182,192,99527,1,0,0:0:0:0:
329,192,99634,1,0,0:0:0:0:
402,192,99634,1,0,0:0:0:0:
109,192,99634,1,0,0:0:0:0:
182,192,99634,1,0,0:0:0:0:
329,192,99741,1,0,0:0:0:0:
402,192,99741,1,0,0:0:0:0:
109,192,99741,1,0,0:0:0:0:
182,192,99741,1,0,0:0:0:0:
329,192,99849,1,0,0:0:0:0:
402,192,99849,1,0,0:0:0:0:
109,192,99849,1,0,0:0:0:0:
182,192,99849,1,0,0:0:0:0:
329,192,99956,1,0,0:0:0:0:
402,192,99956,1,0,0:0:0:0:
182,192,99956,1,0,0:0:0:0:
109,192,99956,1,0,0:0:0:0:
329,192,100063,1,0,0:0:0:0:
402,192,100063,1,0,0:0:0:0:
109,192,100063,1,0,0:0:0:0:
182,192,100063,1,0,0:0:0:0:
329,192,100170,1,0,0:0:0:0:
402,192,100170,1,0,0:0:0:0:
109,192,100170,1,0,0:0:0:0:
182,192,100170,1,0,0:0:0:0:
329,192,100277,1,0,0:0:0:0:
402,192,100277,1,0,0:0:0:0:
109,192,100277,1,0,0:0:0:0:
182,192,100277,1,0,0:0:0:0:
329,192,100384,1,0,0:0:0:0:
402,192,100384,1,0,0:0:0:0:
109,192,100384,1,0,0:0:0:0:
182,192,100384,1,0,0:0:0:0:
402,192,100491,1,0,0:0:0:0:
329,192,100491,1,0,0:0:0:0:
109,192,100491,1,0,0:0:0:0:
182,192,100491,1,0,0:0:0:0:
329,192,100599,1,0,0:0:0:0:
402,192,100599,1,0,0:0:0:0:
109,192,100599,1,0,0:0:0:0:
182,192,100599,1,0,0:0:0:0:
109,192,100706,1,0,0:0:0:0:
256,192,100706,1,0,0:0:0:0:
36,192,100706,1,0,0:0:0:0:
402,192,100706,1,0,0:0:0:0:
256,192,100813,1,0,0:0:0:0:
109,192,100813,1,0,0:0:0:0:
36,192,100813,1,0,0:0:0:0:
402,192,100813,1,0,0:0:0:0:
109,192,100920,1,0,0:0:0:0:
256,192,100920,1,0,0:0:0:0:
36,192,100920,1,0,0:0:0:0:
402,192,100920,1,0,0:0:0:0:
109,192,101027,1,0,0:0:0:0:
256,192,101027,1,0,0:0:0:0:
36,192,101027,1,0,0:0:0:0:
402,192,101027,1,0,0:0:0:0:
109,192,101134,1,0,0:0:0:0:
256,192,101134,1,0,0:0:0:0:
36,192,101134,1,0,0:0:0:0:
402,192,101134,1,0,0:0:0:0:
256,192,101241,1,0,0:0:0:0:
109,192,101241,1,0,0:0:0:0:
36,192,101241,1,0,0:0:0:0:
402,192,101241,1,0,0:0:0:0:
475,192,101349,1,0,0:0:0:0:
329,192,101349,1,0,0:0:0:0:
182,192,101349,1,0,0:0:0:0:
36,192,101349,1,0,0:0:0:0:
475,192,101456,1,0,0:0:0:0:
329,192,101456,1,0,0:0:0:0:
36,192,101456,1,0,0:0:0:0:
182,192,101456,1,0,0:0:0:0:
475,192,101563,1,0,0:0:0:0:
329,192,101563,1,0,0:0:0:0:
182,192,101563,1,0,0:0:0:0:
36,192,101563,1,0,0:0:0:0:
475,192,101670,1,0,0:0:0:0:
329,192,101670,1,0,0:0:0:0:
36,192,101670,1,0,0:0:0:0:
182,192,101670,1,0,0:0:0:0:
475,192,101777,1,0,0:0:0:0:
329,192,101777,1,0,0:0:0:0:
182,192,101777,1,0,0:0:0:0:
36,192,101777,1,0,0:0:0:0:
475,192,101884,1,0,0:0:0:0:
329,192,101884,1,0,0:0:0:0:
36,192,101884,1,0,0:0:0:0:
182,192,101884,1,0,0:0:0:0:
256,192,101991,1,0,0:0:0:0:
329,192,101991,1,0,0:0:0:0:
402,192,101991,1,0,0:0:0:0:
475,192,101991,1,0,0:0:0:0:
256,192,102099,1,0,0:0:0:0:
329,192,102099,1,0,0:0:0:0:
475,192,102099,1,0,0:0:0:0:
402,192,102099,1,0,0:0:0:0:
256,192,102206,1,0,0:0:0:0:
329,192,102206,1,0,0:0:0:0:
402,192,102206,1,0,0:0:0:0:
475,192,102206,1,0,0:0:0:0:
256,192,102313,1,0,0:0:0:0:
329,192,102313,1,0,0:0:0:0:
402,192,102313,1,0,0:0:0:0:
475,192,102313,1,0,0:0:0:0:
256,192,102420,1,0,0:0:0:0:
329,192,102420,1,0,0:0:0:0:
402,192,102420,1,0,0:0:0:0:
475,192,102420,1,0,0:0:0:0:
256,192,102527,1,0,0:0:0:0:
329,192,102527,1,0,0:0:0:0:
402,192,102527,1,0,0:0:0:0:
475,192,102527,1,0,0:0:0:0:
256,192,102634,1,0,0:0:0:0:
329,192,102634,1,0,0:0:0:0:
402,192,102634,1,0,0:0:0:0:
475,192,102634,1,0,0:0:0:0:
256,192,102741,1,0,0:0:0:0:
329,192,102741,1,0,0:0:0:0:
402,192,102741,1,0,0:0:0:0:
475,192,102741,1,0,0:0:0:0:
475,192,102849,1,0,0:0:0:0:
402,192,102849,1,0,0:0:0:0:
329,192,102849,1,0,0:0:0:0:
256,192,102849,1,0,0:0:0:0:
256,192,102956,1,0,0:0:0:0:
329,192,102956,1,0,0:0:0:0:
475,192,102956,1,0,0:0:0:0:
402,192,102956,1,0,0:0:0:0:
475,192,103063,1,0,0:0:0:0:
402,192,103063,1,0,0:0:0:0:
329,192,103063,1,0,0:0:0:0:
256,192,103063,1,0,0:0:0:0:
256,192,103170,1,0,0:0:0:0:
329,192,103170,1,0,0:0:0:0:
402,192,103170,1,0,0:0:0:0:
475,192,103170,1,0,0:0:0:0:
329,192,103277,1,0,0:0:0:0:
182,192,103277,1,0,0:0:0:0:
109,192,103277,1,0,0:0:0:0:
36,192,103277,1,0,0:0:0:0:
36,192,103384,1,0,0:0:0:0:
109,192,103384,1,0,0:0:0:0:
182,192,103384,1,0,0:0:0:0:
329,192,103384,1,0,0:0:0:0:
329,192,103491,1,0,0:0:0:0:
182,192,103491,1,0,0:0:0:0:
109,192,103491,1,0,0:0:0:0:
36,192,103491,1,0,0:0:0:0:
36,192,103599,1,0,0:0:0:0:
109,192,103599,1,0,0:0:0:0:
182,192,103599,1,0,0:0:0:0:
329,192,103599,1,0,0:0:0:0:
36,192,103706,1,0,0:0:0:0:
109,192,103706,1,0,0:0:0:0:
182,192,103706,1,0,0:0:0:0:
329,192,103706,1,0,0:0:0:0:
329,192,103813,1,0,0:0:0:0:
182,192,103813,1,0,0:0:0:0:
109,192,103813,1,0,0:0:0:0:
36,192,103813,1,0,0:0:0:0:
109,192,103920,1,0,0:0:0:0:
182,192,103920,1,0,0:0:0:0:
402,192,103920,1,0,0:0:0:0:
475,192,103920,1,0,0:0:0:0:
109,192,104027,1,0,0:0:0:0:
182,192,104027,1,0,0:0:0:0:
475,192,104027,1,0,0:0:0:0:
402,192,104027,1,0,0:0:0:0:
109,192,104134,1,0,0:0:0:0:
182,192,104134,1,0,0:0:0:0:
402,192,104134,1,0,0:0:0:0:
475,192,104134,1,0,0:0:0:0:
109,192,104241,1,0,0:0:0:0:
182,192,104241,1,0,0:0:0:0:
402,192,104241,1,0,0:0:0:0:
475,192,104241,1,0,0:0:0:0:
182,192,104349,1,0,0:0:0:0:
109,192,104349,1,0,0:0:0:0:
402,192,104349,1,0,0:0:0:0:
475,192,104349,1,0,0:0:0:0:
402,192,104456,1,0,0:0:0:0:
475,192,104456,1,0,0:0:0:0:
182,192,104456,1,0,0:0:0:0:
109,192,104456,1,0,0:0:0:0:
36,192,104563,1,0,0:0:0:0:
109,192,104563,1,0,0:0:0:0:
182,192,104563,1,0,0:0:0:0:
256,192,104563,1,0,0:0:0:0:
329,192,104563,1,0,0:0:0:0:
402,192,104563,1,0,0:0:0:0:
475,192,104563,1,0,0:0:0:0:
